osu file format v14

[General]
AudioFilename: 1-2-1-2.mp3
AudioLeadIn: 0
PreviewTime: 211508
Countdown: 1
SampleSet: Soft
StackLeniency: 0.7
Mode: 0
LetterboxInBreaks: 0
WidescreenStoryboard: 1

[Editor]
Bookmarks: 196189,200976,222707,238924,244113,269734
DistanceSpacing: 1
BeatDivisor: 4
GridSize: 4
TimelineZoom: 1.8

[Metadata]
Title:1-2 pp Jump Training
TitleUnicode:1-2 pp Jump Training
Artist:Various Artists
ArtistUnicode:Various Artists
Creator:Krisu
Version:1-2 Sidetracked Day [AR9.5]
Source:
Tags:black bride melodic death metal ettore rigotti stamina jumps 1-2 sotarks feat disarmonia mundi drum and bass dnb drumstep Mishima Yurara
BeatmapID:1782213
BeatmapSetID:852235

[Difficulty]
HPDrainRate:4
CircleSize:4
OverallDifficulty:9.5
ApproachRate:9.5
SliderMultiplier:1.9
SliderTickRate:1

[Events]
//Background and Video events
0,0,"66934796_p0.jpg",0,0
//Break Periods
2,181070,190558
//Storyboard Layer 0 (Background)
//Storyboard Layer 1 (Fail)
//Storyboard Layer 2 (Pass)
//Storyboard Layer 3 (Foreground)
//Storyboard Layer 4 (Overlay)
//Storyboard Sound Samples

[TimingPoints]
2146,638.297872340426,4,2,2,15,1,0
42998,319.148936170213,4,2,2,30,1,0
42998,-200,4,2,2,30,0,0
62306,-100,4,2,1,60,0,0
82572,-133.333333333333,4,2,1,30,0,0
84327,-133.333333333333,4,2,0,30,0,0
88476,-100,4,2,1,60,0,0
110338,-100,4,2,1,80,0,1
140019,-100,4,2,1,60,0,0
150232,-100,4,2,1,80,0,1
170657,-100,4,2,1,80,0,0
170737,-133.333333333333,4,2,1,30,0,0
191083,-133.333333333333,4,2,2,30,0,0
211508,-100,4,2,1,60,0,0
252200,-250,4,2,1,60,0,0
253317,-1000,4,2,1,5,0,0
253636,-100,4,2,1,80,0,1
293849,-66.6666666666667,4,2,1,80,0,1
294487,-100,4,2,1,60,0,0
314912,-100,4,2,1,50,0,0
335338,-66.6666666666667,4,2,2,30,0,0
335817,-133.333333333333,4,2,2,30,0,0
336295,-66.6666666666667,4,2,2,30,0,0

[Colours]
Combo1 : 19,34,94
Combo2 : 0,255,255
Combo3 : 18,124,255
Combo4 : 0,0,255

[HitObjects]
143,192,61827,5,2,0:0:0:0:
143,192,62146,2,0,L|147:136,1,47.5
260,51,62466,6,0,L|267:154,1,95,2|0,0:0|0:0,0:0:0:0:
276,292,62785,1,8,0:0:0:0:
359,133,62944,5,0,0:0:0:0:
401,279,63103,1,0,0:0:0:0:
406,43,63263,5,0,0:0:0:0:
310,217,63423,2,0,P|257:239|200:241,1,95
69,234,63742,5,0,0:0:0:0:
156,67,63901,1,0,0:0:0:0:
157,197,64061,6,0,P|180:247|214:289,1,95
271,41,64380,2,0,P|307:82|339:246,1,190
340,337,64859,5,0,0:0:0:0:
340,337,65019,2,0,P|282:323|248:290,1,95
142,164,65338,6,0,P|211:126|324:146,1,190
431,219,65817,1,0,0:0:0:0:
421,47,65976,6,0,P|377:76|354:117,1,95
361,312,66295,1,0,0:0:0:0:
248,107,66455,5,0,0:0:0:0:
233,261,66615,2,0,P|166:286|76:190,1,190
105,61,67093,5,0,0:0:0:0:
164,216,67253,2,0,L|283:240,1,95
436,173,67572,5,2,0:0:0:0:
322,334,67891,2,0,L|287:236,1,95,8|0,0:0|0:0,0:0:0:0:
230,59,68210,5,0,0:0:0:0:
151,261,68370,1,0,0:0:0:0:
111,116,68529,6,0,B|165:59|165:59|227:77|227:77|228:78|295:68,1,190
448,40,69008,1,0,0:0:0:0:
406,256,69168,6,0,L|335:165,1,95,8|0,0:0|0:0,0:0:0:0:
227,54,69487,2,0,B|182:110|182:110|195:240,1,190
320,337,69966,5,0,0:0:0:0:
320,337,70125,2,0,L|377:220,1,95,2|0,0:0|0:0,0:0:0:0:
423,70,70444,6,0,P|367:66|298:95,1,95
191,198,70763,1,0,0:0:0:0:
122,46,70923,5,0,0:0:0:0:
84,240,71083,2,0,P|87:293|124:329,1,95,2|0,0:0|0:0,0:0:0:0:
281,339,71402,5,0,0:0:0:0:
368,162,71561,1,0,0:0:0:0:
198,223,71721,6,0,L|188:118,1,95,8|0,0:0|0:0,0:0:0:0:
70,206,72040,2,0,L|60:311,1,95
335,207,72359,6,0,L|328:141,1,47.5
206,54,72519,2,0,L|199:119,1,47.5
399,166,72678,6,0,P|417:101|414:55,1,95
277,17,72998,2,0,L|270:82,1,47.5,8|0,0:0|0:0,0:0:0:0:
162,255,73157,6,0,L|155:189,1,47.5
67,86,73317,1,0,0:0:0:0:
79,281,73476,6,0,L|116:321,1,47.5,8|0,0:0|0:0,0:0:0:0:
287,331,73636,2,0,B|322:275|322:275|282:215|281:215|319:123,1,190
403,52,74115,5,0,0:0:0:0:
461,208,74274,2,0,L|354:214,1,95,8|0,0:0|0:0,0:0:0:0:
240,299,74593,6,0,P|182:254|168:123,1,190
239,29,75072,1,0,0:0:0:0:
369,137,75232,6,0,P|335:181|267:193,1,95,2|0,0:0|0:0,0:0:0:0:
95,193,75551,2,0,P|121:124|158:92,1,95
225,220,75870,5,0,0:0:0:0:
290,30,76029,1,0,0:0:0:0:
383,164,76189,6,0,P|371:232|243:313,1,190
137,342,76668,1,0,0:0:0:0:
247,206,76827,6,0,L|238:87,1,95,8|0,0:0|0:0,0:0:0:0:
85,22,77146,2,0,L|76:141,1,95
105,304,77466,6,0,L|199:311,1,95
390,236,77785,1,2,0:0:0:0:
280,329,77944,5,0,0:0:0:0:
244,158,78104,2,0,P|236:97|110:38,1,190
104,207,78583,5,0,0:0:0:0:
290,74,78742,2,0,P|340:77|388:111,1,95,2|0,0:0|0:0,0:0:0:0:
241,223,79061,6,0,P|171:197|132:161,1,95
77,45,79380,1,8,0:0:0:0:
239,127,79540,5,0,0:0:0:0:
167,269,79700,2,0,B|198:332|198:332|254:307|254:307|298:333|298:333|336:317,1,190
457,271,80178,5,0,0:0:0:0:
424,66,80338,2,0,P|407:106|364:178,1,95
281,272,80657,5,8,0:0:0:0:
211,67,80817,1,0,0:0:0:0:
130,207,80976,6,0,P|139:142|164:108,1,95
339,172,81295,2,0,P|356:109|265:24,1,190
220,160,81774,5,0,0:0:0:0:
220,160,81934,2,0,P|188:228|160:247,1,95
71,325,82253,5,0,0:0:0:0:
305,265,82412,1,0,0:0:0:0:
153,181,82572,6,0,P|189:109|262:65,2,142.500005435944
157,326,83529,1,0,0:0:0:0:
344,306,83849,5,2,0:0:0:0:
379,59,84008,1,0,0:0:0:0:
427,250,84168,5,0,0:0:0:0:
294,41,84327,1,2,0:0:0:0:
269,243,84486,5,0,0:0:0:0:
453,30,84646,1,0,0:0:0:0:
390,324,84806,5,2,0:0:0:0:
269,106,84965,1,0,0:0:0:0:
223,325,85125,5,0,0:0:0:0:
228,56,85285,1,2,0:0:0:0:
139,257,85444,5,0,0:0:0:0:
46,26,85604,1,0,0:0:0:0:
78,323,85764,5,2,0:0:0:0:
157,51,85923,1,0,0:0:0:0:
77,235,86083,5,0,0:0:0:0:
289,69,86242,1,2,0:0:0:0:
95,117,86402,5,2,0:0:0:0:
353,147,86561,1,0,0:0:0:0:
155,244,86721,5,0,0:0:0:0:
379,49,86880,1,2,0:0:0:0:
185,80,87039,5,0,0:0:0:0:
374,105,87199,1,0,0:0:0:0:
196,194,87359,5,2,0:0:0:0:
455,44,87518,1,0,0:0:0:0:
235,55,87678,5,0,0:0:0:0:
442,273,87838,1,2,0:0:0:0:
316,51,87997,5,0,0:0:0:0:
251,348,88157,1,0,0:0:0:0:
196,92,88317,5,0,0:0:0:0:
134,337,88476,2,0,L|196:292,1,47.5,2|0,0:0|0:0,0:0:0:0:
292,226,88636,5,8,0:0:0:0:
195,24,88795,1,0,0:0:0:0:
161,246,88955,5,0,0:0:0:0:
359,44,89115,1,0,0:0:0:0:
127,117,89274,5,8,0:0:0:0:
450,185,89434,1,0,0:0:0:0:
240,49,89593,5,0,0:0:0:0:
236,243,89753,2,0,P|247:273|258:289,1,47.5,2|0,0:0|0:0,0:0:0:0:
345,207,89912,6,0,P|311:159|250:138,1,95
124,132,90232,1,2,0:0:0:0:
182,307,90391,5,0,0:0:0:0:
153,41,90551,1,8,0:0:0:0:
232,227,90710,5,0,0:0:0:0:
68,88,90869,1,0,0:0:0:0:
296,140,91029,6,0,L|343:138,1,47.5,2|0,0:0|0:0,0:0:0:0:
431,233,91189,2,0,L|336:228,1,95,8|0,0:0|0:0,0:0:0:0:
83,216,91508,6,0,P|82:168|104:127,1,95,2|0,0:0|0:0,0:0:0:0:
192,50,91827,1,8,0:0:0:0:
213,246,91987,5,0,0:0:0:0:
314,77,92146,1,0,0:0:0:0:
303,241,92306,6,0,P|336:247|356:246,1,47.5,2|0,0:0|0:0,0:0:0:0:
477,189,92466,2,0,P|424:168|361:162,1,95
215,223,92785,6,0,L|190:280,1,47.5,2|0,0:0|0:0,0:0:0:0:
209,80,92944,2,0,L|179:30,1,47.5
239,263,93104,6,0,L|214:320,1,47.5,2|0,0:0|0:0,0:0:0:0:
233,120,93263,2,0,L|203:70,1,47.5
263,303,93423,6,0,L|238:360,1,47.5,2|0,0:0|0:0,0:0:0:0:
257,160,93582,2,0,L|227:110,1,47.5
298,211,93742,6,0,L|375:124,1,95,8|0,0:0|0:0,0:0:0:0:
242,87,94061,2,0,L|160:168,1,95
123,299,94380,5,8,0:0:0:0:
70,105,94540,1,0,0:0:0:0:
70,255,94699,5,0,0:0:0:0:
149,78,94859,2,0,L|145:25,1,47.5,2|0,0:0|0:0,0:0:0:0:
228,145,95019,6,0,B|276:146|304:132|329:105,1,95
431,50,95338,1,2,0:0:0:0:
441,273,95498,5,0,0:0:0:0:
359,35,95657,1,8,0:0:0:0:
364,231,95817,5,0,0:0:0:0:
219,38,95976,1,0,0:0:0:0:
283,203,96136,6,0,L|288:260,1,47.5,2|0,0:0|0:0,0:0:0:0:
229,111,96295,2,0,L|238:0,1,95,8|0,0:0|0:0,0:0:0:0:
159,263,96615,6,0,P|111:224|101:174,1,95
98,50,96934,1,8,0:0:0:0:
173,179,97093,5,0,0:0:0:0:
300,30,97252,1,0,0:0:0:0:
275,239,97412,5,2,0:0:0:0:
211,65,97572,2,0,P|148:85|113:120,1,95
91,271,97891,5,2,0:0:0:0:
293,147,98051,1,0,0:0:0:0:
206,308,98210,5,8,0:0:0:0:
292,70,98370,1,0,0:0:0:0:
196,201,98529,5,0,0:0:0:0:
424,193,98689,2,0,L|466:227,1,47.5,2|0,0:0|0:0,0:0:0:0:
379,285,98849,6,0,P|339:247|312:189,1,95
284,55,99168,2,0,P|214:74|179:120,1,95
131,269,99487,5,8,0:0:0:0:
315,130,99646,1,0,0:0:0:0:
308,310,99806,5,0,0:0:0:0:
214,66,99965,1,2,0:0:0:0:
154,255,100125,6,0,P|82:196|80:163,1,95
93,49,100444,2,0,P|146:65|179:104,1,95,2|0,0:0|0:0,0:0:0:0:
309,252,100763,6,0,L|385:274,1,47.5,8|0,0:0|0:0,0:0:0:0:
175,130,100923,2,0,L|99:108,1,47.5,8|0,0:0|0:0,0:0:0:0:
273,321,101083,6,0,L|349:343,1,47.5,8|0,0:0|0:0,0:0:0:0:
139,199,101243,2,0,L|63:177,1,47.5,8|0,0:0|0:0,0:0:0:0:
326,200,101402,6,0,P|341:147|341:103,1,95
224,19,101721,1,2,0:0:0:0:
176,261,101880,5,0,0:0:0:0:
284,87,102040,2,0,P|362:116|395:148,1,95
421,266,102359,5,0,0:0:0:0:
467,52,102518,1,2,0:0:0:0:
345,185,102678,6,0,P|286:188|243:172,1,95
133,53,102998,2,0,L|111:123,1,47.5
219,286,103157,6,0,L|244:224,1,47.5
235,52,103317,2,0,L|213:110,1,47.5
364,290,103476,6,0,L|376:240,1,47.5
362,44,103636,2,0,L|345:105,1,47.5
481,292,103795,6,0,L|507:231,1,47.5
471,54,103955,2,0,P|448:96|399:133,1,95
209,214,104274,6,0,P|215:160|245:121,1,95
345,34,104593,1,8,0:0:0:0:
147,107,104753,5,0,0:0:0:0:
353,214,104912,1,0,0:0:0:0:
227,40,105071,5,2,0:0:0:0:
216,278,105232,2,0,P|176:302|113:294,1,95
294,62,105551,6,0,L|409:47,1,95,2|0,0:0|0:0,0:0:0:0:
363,197,105870,2,0,L|305:189,1,47.5,8|0,0:0|0:0,0:0:0:0:
186,64,106029,6,0,L|243:56,1,47.5
132,222,106189,2,0,L|116:277,1,47.5
304,187,106349,6,0,L|367:125,1,47.5
66,89,106508,2,0,L|181:74,1,95,8|0,0:0|0:0,0:0:0:0:
305,239,106827,6,0,L|190:224,1,95,2|0,0:0|0:0,0:0:0:0:
80,161,107146,1,8,0:0:0:0:
256,38,107306,5,0,0:0:0:0:
391,225,107466,1,0,0:0:0:0:
367,49,107625,5,2,0:0:0:0:
261,279,107785,2,0,P|214:308|151:292,1,95,8|0,0:0|0:0,0:0:0:0:
84,155,108104,6,0,L|79:202,1,47.5,2|0,0:0|0:0,0:0:0:0:
310,184,108263,2,0,L|305:136,1,47.5
194,72,108423,6,0,L|189:119,1,47.5,8|0,0:0|0:0,0:0:0:0:
408,182,108583,1,0,0:0:0:0:
333,32,108742,5,0,0:0:0:0:
355,292,108902,1,2,0:0:0:0:
436,76,109061,6,0,P|356:95|307:86,1,95
88,81,109380,2,0,P|116:150|149:168,1,95
263,266,109700,5,8,0:0:0:0:
263,266,109859,2,0,L|273:168,1,95,2|0,0:0|0:0,0:0:0:0:
447,61,110178,5,8,0:0:0:0:
393,313,110338,1,6,0:0:0:0:
311,39,110497,5,8,0:0:0:0:
326,267,110657,1,0,0:0:0:0:
249,120,110817,5,0,0:0:0:0:
263,341,110976,1,0,0:0:0:0:
157,44,111136,5,0,0:0:0:0:
122,275,111295,1,0,0:0:0:0:
297,47,111455,5,0,0:0:0:0:
121,189,111615,1,0,0:0:0:0:
331,187,111774,5,0,0:0:0:0:
127,81,111934,1,0,0:0:0:0:
424,76,112093,5,0,0:0:0:0:
189,202,112253,1,8,0:0:0:0:
398,289,112412,5,0,0:0:0:0:
245,46,112571,1,0,0:0:0:0:
253,332,112732,5,0,0:0:0:0:
360,115,112891,1,0,0:0:0:0:
145,242,113051,5,0,0:0:0:0:
412,264,113210,1,0,0:0:0:0:
217,200,113370,5,0,0:0:0:0:
394,47,113529,1,0,0:0:0:0:
378,293,113689,5,0,0:0:0:0:
300,60,113849,1,0,0:0:0:0:
225,278,114008,5,0,0:0:0:0:
137,37,114168,1,0,0:0:0:0:
105,255,114327,5,0,0:0:0:0:
254,54,114487,1,0,0:0:0:0:
305,273,114646,5,0,0:0:0:0:
143,112,114806,1,8,0:0:0:0:
197,328,114966,5,0,0:0:0:0:
362,161,115125,1,0,0:0:0:0:
210,195,115285,5,2,0:0:0:0:
483,252,115444,1,0,0:0:0:0:
329,92,115604,5,0,0:0:0:0:
376,350,115763,1,0,0:0:0:0:
426,119,115923,5,0,0:0:0:0:
231,283,116083,1,8,0:0:0:0:
305,160,116242,5,0,0:0:0:0:
83,93,116401,1,0,0:0:0:0:
296,42,116561,5,0,0:0:0:0:
137,217,116721,1,0,0:0:0:0:
183,38,116880,5,0,0:0:0:0:
276,317,117040,1,0,0:0:0:0:
283,113,117200,5,0,0:0:0:0:
154,321,117359,1,0,0:0:0:0:
349,266,117519,5,0,0:0:0:0:
77,216,117678,1,0,0:0:0:0:
178,98,117838,5,0,0:0:0:0:
232,333,117998,1,0,0:0:0:0:
365,152,118157,5,0,0:0:0:0:
146,237,118317,1,0,0:0:0:0:
421,279,118476,5,0,0:0:0:0:
238,98,118636,1,8,0:0:0:0:
322,313,118795,5,0,0:0:0:0:
318,48,118954,1,0,0:0:0:0:
389,218,119115,5,0,0:0:0:0:
98,123,119274,1,0,0:0:0:0:
334,93,119434,5,0,0:0:0:0:
206,293,119593,2,0,P|154:278|126:241,1,95
121,73,119912,6,0,L|143:12,1,47.5,8|0,0:0|0:0,0:0:0:0:
228,250,120072,2,0,L|266:308,1,47.5
93,164,120232,6,0,L|51:188,1,47.5
292,84,120391,2,0,L|318:42,1,47.5
202,256,120551,6,0,L|198:319,1,47.5
181,66,120710,2,0,L|145:30,1,47.5
331,238,120870,6,0,P|391:222|424:165,1,95
440,71,121189,2,0,L|391:40,1,47.5
325,174,121349,6,0,L|329:252,1,47.5
216,64,121508,2,0,L|162:37,1,47.5
182,243,121668,6,0,L|140:291,1,47.5
119,114,121827,2,0,L|61:80,1,47.5
291,81,121987,5,0,0:0:0:0:
291,81,122146,2,0,P|304:157|288:195,1,95
227,310,122466,6,0,L|172:348,1,47.5,8|0,0:0|0:0,0:0:0:0:
431,238,122625,2,0,L|483:273,1,47.5
186,159,122785,6,0,L|112:202,1,47.5
394,97,122944,2,0,L|441:142,1,47.5,2|0,0:0|0:0,0:0:0:0:
249,249,123104,6,0,L|232:298,1,47.5,8|0,0:0|0:0,0:0:0:0:
246,91,123263,1,0,0:0:0:0:
365,182,123423,6,0,L|433:234,1,47.5,2|0,0:0|0:0,0:0:0:0:
150,194,123583,2,0,L|105:245,1,47.5
310,61,123742,6,0,L|336:12,1,47.5
268,258,123902,2,0,L|294:318,1,47.5
173,85,124061,6,0,L|99:72,1,47.5
349,162,124221,2,0,L|413:167,1,47.5
126,211,124380,6,0,L|71:258,1,47.5
224,69,124540,1,0,0:0:0:0:
224,69,124700,6,0,P|279:90|332:89,1,95
442,237,125019,2,0,L|458:287,1,47.5,8|0,0:0|0:0,0:0:0:0:
255,221,125178,6,0,L|217:267,1,47.5
401,89,125338,2,0,L|455:83,1,47.5
204,70,125498,6,0,L|157:41,1,47.5
129,252,125657,2,0,L|113:302,1,47.5
258,139,125817,5,0,0:0:0:0:
258,139,125976,2,0,P|306:190|316:234,1,95
230,349,126295,5,0,0:0:0:0:
90,214,126455,1,0,0:0:0:0:
283,238,126615,5,0,0:0:0:0:
115,98,126774,1,0,0:0:0:0:
356,164,126934,5,0,0:0:0:0:
134,298,127093,1,0,0:0:0:0:
284,124,127253,5,0,0:0:0:0:
250,330,127412,1,0,0:0:0:0:
353,42,127572,5,0,0:0:0:0:
380,277,127732,1,0,0:0:0:0:
266,116,127891,5,0,0:0:0:0:
196,298,128051,1,0,0:0:0:0:
201,57,128210,5,0,0:0:0:0:
284,266,128370,1,0,0:0:0:0:
93,238,128529,6,0,L|48:216,1,47.5,2|0,0:0|0:0,0:0:0:0:
98,83,128689,2,0,L|95:130,1,47.5
197,233,128849,6,0,L|194:185,1,47.5,8|0,0:0|0:0,0:0:0:0:
287,96,129009,2,0,L|284:143,1,47.5
266,247,129168,6,0,L|265:329,1,47.5
383,198,129327,2,0,L|380:150,1,47.5,2|0,0:0|0:0,0:0:0:0:
197,138,129487,6,0,L|194:185,1,47.5,8|0,0:0|0:0,0:0:0:0:
472,156,129646,2,0,L|469:108,1,47.5
277,237,129806,6,0,L|274:285,1,47.5,2|0,0:0|0:0,0:0:0:0:
383,198,129966,2,0,L|380:150,1,47.5
355,30,130125,5,8,0:0:0:0:
227,179,130285,1,0,0:0:0:0:
247,44,130444,5,0,0:0:0:0:
337,259,130604,1,0,0:0:0:0:
332,76,130763,5,0,0:0:0:0:
278,318,130923,1,0,0:0:0:0:
244,123,131083,5,0,0:0:0:0:
371,349,131242,1,0,0:0:0:0:
295,39,131401,5,0,0:0:0:0:
257,307,131561,1,0,0:0:0:0:
173,44,131721,5,0,0:0:0:0:
471,162,131880,1,0,0:0:0:0:
63,112,132040,5,0,0:0:0:0:
318,215,132200,1,0,0:0:0:0:
230,90,132359,6,0,L|183:47,1,47.5
116,282,132519,2,0,L|119:234,1,47.5
315,135,132679,6,0,L|318:183,1,47.5,2|0,0:0|0:0,0:0:0:0:
185,259,132838,2,0,L|182:211,1,47.5,2|0,0:0|0:0,0:0:0:0:
390,130,132998,6,0,L|387:82,1,47.5,8|0,0:0|0:0,0:0:0:0:
265,270,133158,2,0,L|262:318,1,47.5,2|0,0:0|0:0,0:0:0:0:
294,47,133317,5,0,0:0:0:0:
381,281,133476,1,0,0:0:0:0:
236,104,133636,6,0,L|233:152,1,47.5,8|0,0:0|0:0,0:0:0:0:
133,340,133796,2,0,L|130:292,1,47.5
156,29,133955,6,0,L|153:77,1,47.5,2|0,0:0|0:0,0:0:0:0:
229,311,134115,2,0,L|232:263,1,47.5,2|0,0:0|0:0,0:0:0:0:
262,80,134274,5,0,0:0:0:0:
166,277,134434,1,0,0:0:0:0:
329,127,134593,5,0,0:0:0:0:
393,340,134753,1,0,0:0:0:0:
384,20,134912,5,0,0:0:0:0:
341,258,135072,1,0,0:0:0:0:
276,81,135232,5,0,0:0:0:0:
261,313,135391,1,0,0:0:0:0:
204,15,135551,5,0,0:0:0:0:
158,263,135711,1,0,0:0:0:0:
284,102,135870,6,0,L|337:128,1,47.5,8|0,0:0|0:0,0:0:0:0:
115,147,136029,2,0,L|72:120,1,47.5,2|0,0:0|0:0,0:0:0:0:
202,282,136189,6,0,L|216:337,1,47.5
266,101,136349,2,0,L|263:53,1,47.5
301,295,136508,5,0,0:0:0:0:
355,72,136668,1,0,0:0:0:0:
222,226,136827,5,0,0:0:0:0:
485,163,136987,1,0,0:0:0:0:
152,149,137146,5,0,0:0:0:0:
437,228,137306,1,0,0:0:0:0:
97,241,137466,5,0,0:0:0:0:
383,149,137625,1,0,0:0:0:0:
163,297,137785,5,0,0:0:0:0:
235,51,137944,1,0,0:0:0:0:
269,346,138104,5,0,0:0:0:0:
201,123,138263,1,0,0:0:0:0:
207,277,138423,5,0,0:0:0:0:
304,42,138583,1,0,0:0:0:0:
120,254,138742,6,0,L|117:302,1,47.5,2|0,0:0|0:0,0:0:0:0:
193,80,138902,2,0,L|190:32,1,47.5
57,142,139061,6,0,L|54:190,1,47.5,8|0,0:0|0:0,0:0:0:0:
259,254,139221,2,0,L|256:206,1,47.5
236,35,139380,5,0,0:0:0:0:
178,313,139540,1,0,0:0:0:0:
143,21,139700,5,0,0:0:0:0:
291,293,139859,1,0,0:0:0:0:
129,139,140019,6,0,L|26:133,1,95,2|0,0:0|0:0,0:0:0:0:
171,57,140338,1,0,0:0:0:0:
331,185,140497,5,0,0:0:0:0:
253,133,140657,2,0,L|259:29,1,95,8|0,0:0|0:0,0:0:0:0:
149,223,140976,6,0,L|143:317,1,95
66,202,141295,2,0,L|60:107,1,95
314,44,141615,5,2,0:0:0:0:
253,241,141774,1,0,0:0:0:0:
379,112,141934,6,0,L|373:206,1,95,8|0,0:0|0:0,0:0:0:0:
196,161,142253,2,0,L|190:66,1,95
335,63,142572,5,2,0:0:0:0:
277,275,142732,1,0,0:0:0:0:
201,125,142891,6,0,L|118:76,1,95
375,198,143210,2,0,L|470:193,1,95,8|0,0:0|0:0,0:0:0:0:
176,232,143529,5,0,0:0:0:0:
412,90,143689,1,0,0:0:0:0:
212,117,143849,5,0,0:0:0:0:
398,291,144009,1,0,0:0:0:0:
189,288,144168,6,0,L|97:365,1,95,2|0,0:0|0:0,0:0:0:0:
295,59,144487,1,0,0:0:0:0:
395,243,144646,6,0,L|398:295,1,47.5,2|0,0:0|0:0,0:0:0:0:
480,161,144806,2,0,L|487:55,1,95,8|0,0:0|0:0,0:0:0:0:
253,232,145125,6,0,L|152:237,1,95,2|0,0:0|0:0,0:0:0:0:
365,84,145444,1,0,0:0:0:0:
173,120,145604,5,0,0:0:0:0:
375,256,145763,2,0,L|469:260,1,95,8|0,0:0|0:0,0:0:0:0:
218,308,146083,6,0,L|123:312,1,95
332,163,146402,1,0,0:0:0:0:
172,55,146561,5,0,0:0:0:0:
194,255,146721,2,0,P|217:313|268:333,1,95,2|0,0:0|0:0,0:0:0:0:
437,229,147040,6,0,L|443:134,1,95,8|0,0:0|0:0,0:0:0:0:
284,57,147359,1,0,0:0:0:0:
318,296,147518,5,0,0:0:0:0:
191,116,147678,2,0,L|96:119,1,95,2|0,0:0|0:0,0:0:0:0:
126,285,147998,5,0,0:0:0:0:
342,65,148157,1,0,0:0:0:0:
125,173,148317,5,0,0:0:0:0:
416,156,148476,1,2,0:0:0:0:
232,283,148636,5,8,0:0:0:0:
212,35,148795,1,0,0:0:0:0:
370,295,148955,5,0,0:0:0:0:
150,128,149115,1,0,0:0:0:0:
272,243,149274,5,8,0:0:0:0:
236,28,149434,1,0,0:0:0:0:
160,230,149593,5,0,0:0:0:0:
379,56,149752,1,2,0:0:0:0:
163,86,149912,5,8,0:0:0:0:
403,183,150072,1,0,0:0:0:0:
326,107,150232,5,6,0:0:0:0:
305,311,150391,1,0,0:0:0:0:
244,122,150551,5,8,0:0:0:0:
362,341,150710,1,0,0:0:0:0:
385,56,150870,5,0,0:0:0:0:
247,292,151029,1,2,0:0:0:0:
228,39,151189,5,8,0:0:0:0:
348,293,151348,1,0,0:0:0:0:
342,26,151508,5,2,0:0:0:0:
174,211,151667,1,0,0:0:0:0:
399,143,151827,5,8,0:0:0:0:
140,94,151987,1,0,0:0:0:0:
323,200,152146,5,0,0:0:0:0:
110,30,152306,1,2,0:0:0:0:
318,112,152466,5,8,0:0:0:0:
75,155,152625,1,0,0:0:0:0:
131,47,152785,5,2,0:0:0:0:
96,263,152944,1,0,0:0:0:0:
263,21,153104,5,8,0:0:0:0:
242,198,153263,1,0,0:0:0:0:
380,92,153423,5,0,0:0:0:0:
394,267,153582,1,2,0:0:0:0:
288,144,153743,5,8,0:0:0:0:
265,335,153902,1,0,0:0:0:0:
165,88,154061,5,2,0:0:0:0:
122,291,154220,1,0,0:0:0:0:
109,41,154380,5,8,0:0:0:0:
155,225,154539,1,0,0:0:0:0:
198,19,154700,5,0,0:0:0:0:
67,225,154860,1,2,0:0:0:0:
153,101,155019,5,8,0:0:0:0:
189,320,155178,1,0,0:0:0:0:
260,32,155338,5,2,0:0:0:0:
221,244,155497,1,0,0:0:0:0:
209,105,155657,5,8,0:0:0:0:
286,326,155816,1,0,0:0:0:0:
288,151,155976,5,0,0:0:0:0:
220,269,156136,1,0,0:0:0:0:
312,102,156295,5,0,0:0:0:0:
343,234,156455,1,0,0:0:0:0:
373,135,156615,5,2,0:0:0:0:
357,303,156774,1,0,0:0:0:0:
315,39,156934,5,8,0:0:0:0:
383,210,157093,1,0,0:0:0:0:
260,131,157253,5,0,0:0:0:0:
199,293,157412,1,2,0:0:0:0:
164,193,157572,5,8,0:0:0:0:
134,336,157732,1,0,0:0:0:0:
167,96,157891,5,2,0:0:0:0:
79,242,158051,1,0,0:0:0:0:
207,26,158210,5,8,0:0:0:0:
220,189,158370,1,0,0:0:0:0:
265,109,158529,5,0,0:0:0:0:
236,295,158689,1,2,0:0:0:0:
347,119,158848,5,8,0:0:0:0:
146,180,159008,1,0,0:0:0:0:
336,44,159168,5,0,0:0:0:0:
326,266,159327,1,0,0:0:0:0:
457,168,159487,5,0,0:0:0:0:
200,93,159646,1,0,0:0:0:0:
434,53,159806,5,0,0:0:0:0:
459,301,159965,1,2,0:0:0:0:
350,123,160125,5,8,0:0:0:0:
392,356,160284,1,0,0:0:0:0:
374,31,160444,5,2,0:0:0:0:
320,277,160603,1,0,0:0:0:0:
299,59,160763,5,8,0:0:0:0:
205,332,160922,1,0,0:0:0:0:
194,34,161082,5,0,0:0:0:0:
215,241,161241,1,2,0:0:0:0:
91,64,161402,5,8,0:0:0:0:
355,106,161561,1,0,0:0:0:0:
144,156,161721,5,2,0:0:0:0:
414,53,161880,1,0,0:0:0:0:
175,53,162040,5,8,0:0:0:0:
122,294,162200,1,0,0:0:0:0:
314,37,162359,5,0,0:0:0:0:
366,217,162519,1,2,0:0:0:0:
192,111,162678,5,8,0:0:0:0:
467,123,162837,1,0,0:0:0:0:
187,244,162998,5,2,0:0:0:0:
298,25,163157,1,0,0:0:0:0:
243,310,163317,5,8,0:0:0:0:
124,76,163476,1,0,0:0:0:0:
139,335,163636,5,0,0:0:0:0:
200,48,163795,1,2,0:0:0:0:
80,291,163955,5,8,0:0:0:0:
315,93,164115,1,0,0:0:0:0:
256,319,164274,5,2,0:0:0:0:
147,83,164434,1,0,0:0:0:0:
177,314,164594,5,8,0:0:0:0:
266,24,164753,1,0,0:0:0:0:
309,260,164913,5,0,0:0:0:0:
186,34,165072,1,2,0:0:0:0:
415,155,165231,5,8,0:0:0:0:
97,229,165391,1,0,0:0:0:0:
366,21,165551,5,2,0:0:0:0:
340,327,165710,1,0,0:0:0:0:
280,85,165870,5,8,0:0:0:0:
441,311,166029,1,0,0:0:0:0:
320,15,166189,5,0,0:0:0:0:
243,344,166349,1,2,0:0:0:0:
174,52,166508,5,8,0:0:0:0:
380,250,166668,1,0,0:0:0:0:
266,37,166827,5,2,0:0:0:0:
102,324,166987,1,0,0:0:0:0:
98,94,167146,5,8,0:0:0:0:
265,345,167306,1,0,0:0:0:0:
243,16,167466,5,0,0:0:0:0:
83,263,167625,1,2,0:0:0:0:
153,32,167785,5,8,0:0:0:0:
262,322,167944,1,0,0:0:0:0:
320,37,168104,5,2,0:0:0:0:
396,314,168263,1,0,0:0:0:0:
416,68,168423,5,8,0:0:0:0:
265,309,168583,1,0,0:0:0:0:
206,23,168742,5,0,0:0:0:0:
380,309,168902,1,2,0:0:0:0:
300,54,169061,5,8,0:0:0:0:
96,331,169221,1,0,0:0:0:0:
91,25,169380,5,2,0:0:0:0:
224,321,169540,1,0,0:0:0:0:
300,7,169699,5,8,0:0:0:0:
14,239,169859,1,0,0:0:0:0:
194,18,170019,5,0,0:0:0:0:
343,340,170178,1,2,0:0:0:0:
456,25,170338,5,8,0:0:0:0:
224,321,170498,1,0,0:0:0:0:
82,4,170657,5,4,0:0:0:0:
256,192,170737,12,0,180870,0:0:0:0:
48,238,191083,6,0,B|36:182|71:110|160:79|214:133|227:172|232:205|221:255|244:299|244:299|340:226|306:219|358:194|377:151|347:98|335:87|316:78|282:54|281:29,1,712.500027179719
446,41,192998,5,2,0:0:0:0:
393,228,193317,1,2,0:0:0:0:
290,87,193636,6,0,P|264:139|58:114,1,285.000010871888
228,68,194593,2,0,P|262:142|454:142,1,285.000010871888
373,72,195551,5,2,0:0:0:0:
133,72,195870,1,2,0:0:0:0:
263,211,196189,6,0,B|262:253|252:275|249:321|211:364|117:379|22:360|-5:306|20:218|19:183|19:183|94:212|94:212|143:269|143:269|295:206|7:143|286:26|311:124|402:113|437:191|324:220|318:284|279:312|284:376|276:380|355:392|460:393|497:367|495:331|525:304|540:258|515:212|521:148|493:123|469:108|434:156|380:133|344:109|456:28|456:28|406:15|369:7|321:12|291:25|271:44|258:53|235:71|172:65|144:27|144:27|141:88|136:128|36:125|14:110|21:74|15:25,1,2137.50008153916
266,94,201295,2,0,P|351:265|231:91,1,712.500027179719
241,231,203210,5,2,0:0:0:0:
413,69,203529,1,2,0:0:0:0:
209,87,203849,6,0,P|148:106|136:310,1,285.000010871888
303,87,204806,2,0,P|364:106|376:310,1,285.000010871888
224,310,205763,5,2,0:0:0:0:
276,220,206083,1,2,0:0:0:0:
215,102,206402,6,0,B|175:103|146:129|136:169|136:169|152:103|120:47|120:47|183:-1|271:-5|299:51|314:97|290:142|290:142|330:194|408:178|408:178|396:210|409:247,1,712.500027179719,2|0,0:0|0:0,0:0:0:0:
328,343,208317,5,2,0:0:0:0:
186,241,208636,1,2,0:0:0:0:
329,165,208955,6,0,B|334:147|328:127|314:113|293:97|280:78|274:62|273:50|274:31|281:19|289:11|298:5|314:0|328:0|337:9|349:19|350:45|346:67|323:84|303:96|282:103|265:106|243:109|229:104|211:101|197:92|183:88|169:91|145:111|143:116,1,427.500016307831
371,255,210870,5,2,0:0:0:0:
397,102,211189,1,2,0:0:0:0:
234,264,211508,6,0,L|126:203,1,95,2|0,0:0|0:0,0:0:0:0:
97,83,211827,1,8,0:0:0:0:
115,284,211987,5,0,0:0:0:0:
210,42,212146,1,0,0:0:0:0:
245,230,212306,5,2,0:0:0:0:
469,94,212466,2,0,B|447:53|447:53|379:37,1,95
377,346,212785,6,0,P|377:288|357:240,1,95
168,285,213104,1,8,0:0:0:0:
254,60,213263,5,0,0:0:0:0:
267,269,213422,1,0,0:0:0:0:
163,46,213582,5,2,0:0:0:0:
91,340,213742,2,0,P|76:289|79:229,1,95
135,24,214061,5,2,0:0:0:0:
198,225,214220,1,0,0:0:0:0:
207,77,214380,5,8,0:0:0:0:
193,314,214540,1,0,0:0:0:0:
271,24,214699,5,0,0:0:0:0:
143,231,214859,1,2,0:0:0:0:
365,207,215019,6,0,L|471:136,1,95,8|0,0:0|0:0,0:0:0:0:
410,5,215338,2,0,L|304:76,1,95,8|0,0:0|0:0,0:0:0:0:
77,100,215657,5,8,0:0:0:0:
158,287,215817,1,0,0:0:0:0:
177,71,215976,5,0,0:0:0:0:
121,226,216136,1,2,0:0:0:0:
246,125,216295,6,0,P|310:130|351:117,1,95
416,297,216615,2,0,P|368:299|324:282,1,95,2|0,0:0|0:0,0:0:0:0:
190,184,216934,5,8,0:0:0:0:
275,339,217093,1,0,0:0:0:0:
275,87,217252,5,0,0:0:0:0:
204,278,217412,1,2,0:0:0:0:
186,102,217572,6,0,P|124:62|94:58,1,95
359,164,217891,2,0,P|421:133|436:96,1,95
292,42,218210,5,8,0:0:0:0:
190,250,218370,1,0,0:0:0:0:
199,48,218529,5,0,0:0:0:0:
336,232,218689,1,2,0:0:0:0:
126,128,218849,6,0,P|96:190|98:233,1,95
306,325,219168,2,0,P|352:259|354:209,1,95
377,43,219487,5,8,0:0:0:0:
452,238,219646,1,0,0:0:0:0:
347,115,219805,5,0,0:0:0:0:
330,318,219965,1,2,0:0:0:0:
266,182,220125,6,0,P|233:120|190:97,1,95
101,244,220444,2,0,L|84:304,1,47.5
339,253,220604,6,0,L|340:197,1,47.5
185,194,220763,2,0,L|180:256,1,47.5
421,181,220923,6,0,L|424:122,1,47.5
249,261,221083,2,0,L|246:320,1,47.5
309,131,221242,6,0,L|312:72,1,47.5
163,313,221402,2,0,L|160:360,1,47.5
229,164,221561,5,0,0:0:0:0:
59,233,221721,2,0,B|41:179|41:179|56:111,1,95
86,317,222040,6,0,L|155:322,1,47.5,8|0,0:0|0:0,0:0:0:0:
326,326,222200,1,0,0:0:0:0:
168,234,222359,6,0,L|215:238,1,47.5,2|0,0:0|0:0,0:0:0:0:
420,224,222519,2,0,L|367:219,1,47.5,2|0,0:0|0:0,0:0:0:0:
216,125,222678,6,0,L|237:17,1,95
357,110,222998,2,0,L|336:218,1,95
51,107,223317,6,0,L|120:112,1,47.5,8|0,0:0|0:0,0:0:0:0:
300,62,223476,2,0,L|231:67,1,47.5,8|0,0:0|0:0,0:0:0:0:
76,30,223636,5,0,0:0:0:0:
282,162,223795,1,0,0:0:0:0:
71,317,223955,6,0,P|60:269|68:205,1,95
289,359,224274,2,0,P|300:311|292:247,1,95
229,53,224593,5,0,0:0:0:0:
171,253,224753,1,0,0:0:0:0:
326,27,224912,5,0,0:0:0:0:
378,212,225072,1,0,0:0:0:0:
198,50,225232,6,0,P|141:38|86:50,1,95
42,177,225551,2,0,P|99:189|154:177,1,95
428,57,225870,5,0,0:0:0:0:
256,233,226029,1,0,0:0:0:0:
324,18,226189,5,0,0:0:0:0:
377,266,226349,1,0,0:0:0:0:
180,10,226508,6,0,B|161:60|161:60|161:126,1,95
243,343,226827,2,0,B|262:293|262:293|262:227,1,95
236,61,227146,5,0,0:0:0:0:
144,286,227306,1,0,0:0:0:0:
154,19,227466,5,0,0:0:0:0:
224,246,227625,1,0,0:0:0:0:
58,76,227785,6,0,P|45:132|50:179,1,95
304,338,228104,2,0,P|317:282|312:235,1,95
265,25,228423,6,0,L|301:97,1,47.5,8|0,0:0|0:0,0:0:0:0:
441,270,228583,2,0,L|405:198,1,47.5,8|0,0:0|0:0,0:0:0:0:
226,113,228742,6,0,L|262:185,1,47.5,8|0,0:0|0:0,0:0:0:0:
402,358,228902,2,0,L|366:286,1,47.5,8|0,0:0|0:0,0:0:0:0:
106,344,229061,6,0,B|92:303|92:303|92:237,1,95
217,63,229380,2,0,P|165:47|114:55,1,95
369,268,229700,5,0,0:0:0:0:
328,42,229859,1,0,0:0:0:0:
263,342,230019,5,0,0:0:0:0:
298,142,230178,1,0,0:0:0:0:
240,258,230338,5,0,0:0:0:0:
215,52,230498,1,0,0:0:0:0:
81,330,230657,6,0,L|87:274,1,47.5
163,36,230817,2,0,L|157:92,1,47.5
200,275,230976,6,0,L|194:219,1,47.5
259,36,231136,2,0,L|264:83,1,47.5
348,308,231295,6,0,L|342:252,1,47.5
346,29,231455,2,0,L|352:85,1,47.5
256,220,231615,6,0,L|250:164,1,47.5
461,240,231774,2,0,L|467:296,1,47.5
362,116,231934,5,0,0:0:0:0:
304,323,232093,1,0,0:0:0:0:
300,58,232253,5,0,0:0:0:0:
377,280,232412,1,0,0:0:0:0:
443,63,232572,5,0,0:0:0:0:
186,172,232732,1,0,0:0:0:0:
402,163,232891,5,0,0:0:0:0:
127,96,233051,1,0,0:0:0:0:
317,219,233210,5,0,0:0:0:0:
51,143,233370,1,0,0:0:0:0:
352,138,233529,5,0,0:0:0:0:
62,225,233689,1,0,0:0:0:0:
276,60,233848,5,0,0:0:0:0:
211,308,234008,1,0,0:0:0:0:
202,8,234168,5,0,0:0:0:0:
289,265,234327,1,0,0:0:0:0:
147,96,234487,5,0,0:0:0:0:
86,316,234646,1,0,0:0:0:0:
234,22,234806,5,0,0:0:0:0:
189,229,234966,1,0,0:0:0:0:
138,77,235125,5,0,0:0:0:0:
203,323,235285,1,0,0:0:0:0:
212,148,235444,5,0,0:0:0:0:
120,345,235604,1,0,0:0:0:0:
306,77,235763,6,0,L|311:130,1,47.5
141,147,235923,2,0,L|136:200,1,47.5
404,159,236083,6,0,L|409:212,1,47.5
203,243,236242,2,0,L|198:290,1,47.5
319,52,236402,6,0,L|324:105,1,47.5
108,267,236561,2,0,L|103:314,1,47.5
331,235,236721,6,0,L|336:288,1,47.5
185,39,236880,2,0,L|180:92,1,47.5
119,330,237040,6,0,L|245:341,1,95
458,274,237359,2,0,L|332:263,1,95
126,244,237678,5,0,0:0:0:0:
374,179,237838,1,0,0:0:0:0:
61,154,237998,5,0,0:0:0:0:
336,237,238157,1,0,0:0:0:0:
112,83,238317,5,0,0:0:0:0:
136,303,238476,1,0,0:0:0:0:
217,26,238636,5,0,0:0:0:0:
218,231,238795,1,0,0:0:0:0:
313,110,238955,5,0,0:0:0:0:
361,338,239115,1,0,0:0:0:0:
423,43,239274,5,0,0:0:0:0:
452,251,239434,1,0,0:0:0:0:
341,118,239593,5,0,0:0:0:0:
288,324,239753,1,0,0:0:0:0:
274,29,239912,5,0,0:0:0:0:
321,248,240072,1,0,0:0:0:0:
227,117,240232,5,0,0:0:0:0:
186,318,240391,1,0,0:0:0:0:
156,38,240551,5,0,0:0:0:0:
205,250,240710,1,0,0:0:0:0:
366,208,240870,6,0,L|442:216,1,47.5,2|0,0:0|0:0,0:0:0:0:
152,228,241029,2,0,L|104:269,1,47.5
339,73,241189,6,0,L|381:49,1,47.5,8|0,0:0|0:0,0:0:0:0:
113,143,241348,2,0,L|42:160,1,47.5
342,183,241508,6,0,L|407:197,1,47.5
178,61,241668,2,0,L|120:48,1,47.5,2|0,0:0|0:0,0:0:0:0:
422,124,241827,6,0,L|475:136,1,47.5
196,172,241987,2,0,L|154:213,1,47.5
368,46,242146,6,0,P|380:99|371:144,1,95
233,293,242466,2,0,P|282:318|334:319,1,95
169,148,242785,6,0,P|119:176|91:217,1,95
396,174,243104,2,0,P|407:119|399:71,1,95
217,280,243423,5,0,0:0:0:0:
440,279,243583,1,0,0:0:0:0:
129,211,243742,5,0,0:0:0:0:
356,318,243902,1,0,0:0:0:0:
228,110,244061,5,0,0:0:0:0:
173,320,244221,1,0,0:0:0:0:
318,40,244380,5,0,0:0:0:0:
344,268,244540,1,0,0:0:0:0:
201,144,244700,5,0,0:0:0:0:
141,329,244859,1,0,0:0:0:0:
211,43,245019,5,0,0:0:0:0:
251,278,245178,1,0,0:0:0:0:
127,142,245338,5,0,0:0:0:0:
69,334,245498,1,0,0:0:0:0:
178,36,245657,5,0,0:0:0:0:
201,259,245817,1,0,0:0:0:0:
314,119,245976,6,0,L|308:175,1,47.5
375,347,246136,2,0,L|382:297,1,47.5
340,41,246295,5,0,0:0:0:0:
312,276,246455,2,0,L|319:222,1,47.5
263,74,246615,6,0,L|255:130,1,47.5
209,331,246774,1,0,0:0:0:0:
206,27,246934,6,0,L|225:105,1,47.5
263,255,247093,1,0,0:0:0:0:
182,127,247253,5,0,0:0:0:0:
96,316,247412,1,0,0:0:0:0:
134,26,247572,5,0,0:0:0:0:
200,259,247732,1,0,0:0:0:0:
325,92,247891,5,0,0:0:0:0:
375,336,248051,1,0,0:0:0:0:
407,35,248210,5,0,0:0:0:0:
353,252,248370,1,0,0:0:0:0:
270,128,248529,5,0,0:0:0:0:
285,335,248689,1,0,0:0:0:0:
197,49,248849,5,0,0:0:0:0:
166,279,249008,1,0,0:0:0:0:
361,126,249168,5,0,0:0:0:0:
86,92,249327,1,0,0:0:0:0:
469,211,249487,5,0,0:0:0:0:
185,178,249646,1,0,0:0:0:0:
382,278,249806,5,0,0:0:0:0:
98,235,249966,1,0,0:0:0:0:
361,115,250125,5,0,0:0:0:0:
303,344,250285,1,0,0:0:0:0:
279,24,250444,5,0,0:0:0:0:
320,253,250604,1,0,0:0:0:0:
109,93,250763,6,0,P|98:167|104:207,1,95
251,335,251083,2,0,L|249:287,1,47.5
360,79,251242,6,0,L|362:126,1,47.5
150,261,251402,2,0,L|151:214,1,47.5
408,287,251561,6,0,L|406:334,1,47.5
252,108,251721,2,0,L|248:170,1,47.5
319,335,251880,6,0,L|318:281,1,47.5
162,47,252040,2,0,L|162:109,1,47.5
71,345,252200,6,0,B|71:274|71:274|36:259|36:259|37:200|37:200|70:177|70:177|70:118,1,266
349,24,253636,5,6,0:0:0:0:
409,223,253795,1,0,0:0:0:0:
257,94,253955,5,8,0:0:0:0:
321,298,254114,1,0,0:0:0:0:
182,181,254274,5,0,0:0:0:0:
245,373,254434,1,2,0:0:0:0:
93,147,254593,5,8,0:0:0:0:
96,334,254753,1,0,0:0:0:0:
250,60,254913,5,2,0:0:0:0:
90,210,255072,1,0,0:0:0:0:
344,114,255232,5,8,0:0:0:0:
130,116,255392,1,0,0:0:0:0:
396,222,255551,5,0,0:0:0:0:
217,73,255710,1,2,0:0:0:0:
352,337,255870,5,0,0:0:0:0:
344,114,256029,1,8,0:0:0:0:
226,348,256189,5,2,0:0:0:0:
431,239,256348,1,0,0:0:0:0:
244,221,256508,5,8,0:0:0:0:
445,89,256667,1,0,0:0:0:0:
226,73,256827,5,0,0:0:0:0:
429,200,256986,1,2,0:0:0:0:
111,115,257146,5,8,0:0:0:0:
353,58,257306,1,0,0:0:0:0:
146,241,257466,5,2,0:0:0:0:
227,51,257625,1,0,0:0:0:0:
280,267,257785,5,8,0:0:0:0:
308,46,257944,1,0,0:0:0:0:
441,280,258104,5,0,0:0:0:0:
234,126,258263,1,2,0:0:0:0:
420,125,258423,5,8,0:0:0:0:
221,304,258583,1,0,0:0:0:0:
234,37,258742,5,2,0:0:0:0:
369,352,258901,1,0,0:0:0:0:
318,57,259061,5,8,0:0:0:0:
307,324,259220,1,0,0:0:0:0:
271,130,259380,5,0,0:0:0:0:
368,286,259540,1,0,0:0:0:0:
336,168,259700,5,0,0:0:0:0:
308,252,259859,1,0,0:0:0:0:
258,183,260019,5,2,0:0:0:0:
302,337,260178,1,0,0:0:0:0:
222,266,260338,5,8,0:0:0:0:
182,345,260497,1,0,0:0:0:0:
181,164,260657,5,0,0:0:0:0:
144,277,260817,1,0,0:0:0:0:
118,75,260976,5,0,0:0:0:0:
112,203,261136,1,0,0:0:0:0:
254,56,261295,5,2,0:0:0:0:
207,176,261454,1,0,0:0:0:0:
197,61,261614,5,8,0:0:0:0:
272,241,261773,1,0,0:0:0:0:
310,95,261934,5,0,0:0:0:0:
224,281,262093,1,0,0:0:0:0:
289,168,262253,5,0,0:0:0:0:
338,328,262412,1,0,0:0:0:0:
400,122,262572,5,2,0:0:0:0:
286,312,262731,1,0,0:0:0:0:
301,23,262891,5,0,0:0:0:0:
399,321,263051,1,0,0:0:0:0:
391,54,263210,5,0,0:0:0:0:
178,348,263369,1,2,0:0:0:0:
147,51,263529,5,0,0:0:0:0:
495,291,263689,1,0,0:0:0:0:
369,60,263849,5,2,0:0:0:0:
217,234,264008,1,0,0:0:0:0:
299,25,264168,5,8,0:0:0:0:
395,271,264328,1,0,0:0:0:0:
247,88,264488,5,0,0:0:0:0:
168,345,264646,1,2,0:0:0:0:
99,96,264806,5,8,0:0:0:0:
274,319,264966,1,0,0:0:0:0:
238,18,265125,5,2,0:0:0:0:
94,245,265285,1,0,0:0:0:0:
369,88,265445,5,8,0:0:0:0:
105,36,265604,1,0,0:0:0:0:
357,206,265763,5,0,0:0:0:0:
170,24,265923,1,2,0:0:0:0:
438,111,266083,5,8,0:0:0:0:
153,254,266242,1,0,0:0:0:0:
351,35,266402,5,2,0:0:0:0:
221,338,266561,1,0,0:0:0:0:
243,21,266721,5,8,0:0:0:0:
373,327,266880,1,0,0:0:0:0:
129,93,267040,5,0,0:0:0:0:
452,255,267200,1,2,0:0:0:0:
146,208,267359,5,8,0:0:0:0:
376,49,267519,1,0,0:0:0:0:
266,288,267678,5,2,0:0:0:0:
146,50,267838,1,0,0:0:0:0:
114,303,267998,5,8,0:0:0:0:
245,22,268156,1,0,0:0:0:0:
197,264,268316,5,0,0:0:0:0:
132,35,268475,1,2,0:0:0:0:
162,180,268635,5,8,0:0:0:0:
202,65,268795,1,0,0:0:0:0:
96,127,268955,5,2,0:0:0:0:
328,299,269114,1,0,0:0:0:0:
275,72,269274,5,8,0:0:0:0:
416,287,269433,1,0,0:0:0:0:
390,39,269593,5,0,0:0:0:0:
254,320,269753,1,2,0:0:0:0:
203,31,269912,5,8,0:0:0:0:
427,264,270072,1,0,0:0:0:0:
152,222,270231,5,2,0:0:0:0:
350,50,270391,1,0,0:0:0:0:
105,78,270550,5,8,0:0:0:0:
310,326,270710,1,0,0:0:0:0:
259,30,270870,5,0,0:0:0:0:
184,336,271029,1,2,0:0:0:0:
86,140,271189,5,8,0:0:0:0:
392,322,271349,1,0,0:0:0:0:
344,24,271508,5,2,0:0:0:0:
293,353,271667,1,0,0:0:0:0:
161,61,271827,5,8,0:0:0:0:
74,347,271986,1,0,0:0:0:0:
40,139,272146,5,0,0:0:0:0:
492,220,272305,1,2,0:0:0:0:
205,20,272466,5,8,0:0:0:0:
286,350,272625,1,0,0:0:0:0:
407,37,272785,5,2,0:0:0:0:
132,330,272944,1,0,0:0:0:0:
278,23,273104,5,8,0:0:0:0:
422,341,273263,1,0,0:0:0:0:
482,89,273423,5,0,0:0:0:0:
111,269,273582,1,2,0:0:0:0:
194,27,273742,5,8,0:0:0:0:
270,342,273901,1,0,0:0:0:0:
70,93,274061,5,2,0:0:0:0:
401,145,274220,1,0,0:0:0:0:
112,201,274380,5,8,0:0:0:0:
442,50,274539,1,0,0:0:0:0:
206,97,274699,5,0,0:0:0:0:
477,271,274859,1,2,0:0:0:0:
228,295,275019,5,8,0:0:0:0:
396,31,275178,1,0,0:0:0:0:
367,321,275338,5,2,0:0:0:0:
335,43,275498,1,0,0:0:0:0:
477,271,275657,5,8,0:0:0:0:
166,162,275817,1,0,0:0:0:0:
388,129,275976,5,0,0:0:0:0:
111,337,276136,1,2,0:0:0:0:
236,82,276295,5,8,0:0:0:0:
334,321,276454,1,0,0:0:0:0:
338,3,276615,5,2,0:0:0:0:
208,291,276774,1,0,0:0:0:0:
147,36,276934,5,8,0:0:0:0:
408,188,277093,1,0,0:0:0:0:
253,35,277253,5,0,0:0:0:0:
99,314,277412,1,2,0:0:0:0:
329,195,277572,5,8,0:0:0:0:
31,190,277731,1,0,0:0:0:0:
224,339,277891,5,2,0:0:0:0:
53,68,278051,1,0,0:0:0:0:
182,247,278210,5,8,0:0:0:0:
201,0,278370,1,0,0:0:0:0:
348,334,278529,5,0,0:0:0:0:
194,79,278689,1,2,0:0:0:0:
240,316,278849,5,8,0:0:0:0:
373,30,279008,1,0,0:0:0:0:
425,301,279168,5,0,0:0:0:0:
302,79,279327,1,0,0:0:0:0:
333,277,279487,5,0,0:0:0:0:
410,114,279646,1,0,0:0:0:0:
417,298,279806,5,0,0:0:0:0:
337,145,279965,1,2,0:0:0:0:
258,335,280125,5,8,0:0:0:0:
262,80,280284,1,0,0:0:0:0:
317,270,280444,5,0,0:0:0:0:
255,21,280604,1,0,0:0:0:0:
196,276,280763,5,0,0:0:0:0:
377,38,280923,1,0,0:0:0:0:
387,259,281083,5,0,0:0:0:0:
217,36,281242,1,2,0:0:0:0:
204,283,281402,5,8,0:0:0:0:
87,35,281561,1,0,0:0:0:0:
98,293,281721,5,0,0:0:0:0:
227,105,281880,1,0,0:0:0:0:
257,309,282040,5,8,0:0:0:0:
125,119,282199,1,0,0:0:0:0:
172,345,282359,5,0,0:0:0:0:
342,96,282519,1,0,0:0:0:0:
147,224,282678,5,8,0:0:0:0:
461,181,282837,1,0,0:0:0:0:
210,79,282998,5,2,0:0:0:0:
403,344,283157,1,0,0:0:0:0:
417,36,283317,5,8,0:0:0:0:
224,357,283476,1,0,0:0:0:0:
187,32,283636,5,2,0:0:0:0:
428,360,283795,1,0,0:0:0:0:
465,17,283955,5,8,0:0:0:0:
173,357,284114,1,0,0:0:0:0:
297,60,284274,5,2,0:0:0:0:
455,281,284433,1,0,0:0:0:0:
197,219,284593,5,8,0:0:0:0:
469,111,284752,1,0,0:0:0:0:
227,44,284912,5,0,0:0:0:0:
331,338,285072,1,2,0:0:0:0:
118,155,285232,5,8,0:0:0:0:
408,69,285391,1,0,0:0:0:0:
106,49,285551,5,2,0:0:0:0:
266,338,285710,1,0,0:0:0:0:
69,202,285870,5,8,0:0:0:0:
289,14,286029,1,0,0:0:0:0:
174,325,286189,5,0,0:0:0:0:
95,48,286349,1,2,0:0:0:0:
268,294,286508,5,8,0:0:0:0:
62,98,286667,1,0,0:0:0:0:
184,350,286827,5,2,0:0:0:0:
217,26,286986,1,0,0:0:0:0:
85,287,287146,5,8,0:0:0:0:
313,31,287306,1,0,0:0:0:0:
178,348,287466,5,0,0:0:0:0:
207,25,287625,1,2,0:0:0:0:
254,282,287785,5,8,0:0:0:0:
139,60,287944,1,0,0:0:0:0:
145,308,288104,5,2,0:0:0:0:
245,62,288263,1,0,0:0:0:0:
367,350,288423,5,8,0:0:0:0:
312,117,288582,1,0,0:0:0:0:
253,318,288742,5,0,0:0:0:0:
349,33,288901,1,2,0:0:0:0:
336,280,289061,5,8,0:0:0:0:
165,19,289220,1,0,0:0:0:0:
302,310,289380,6,0,L|296:370,1,47.5,2|0,0:0|0:0,0:0:0:0:
217,75,289540,2,0,L|223:15,1,47.5
123,249,289700,6,0,L|117:309,1,47.5,8|0,0:0|0:0,0:0:0:0:
363,85,289859,2,0,L|369:25,1,47.5
359,278,290019,6,0,L|353:338,1,47.5
241,75,290178,2,0,L|247:15,1,47.5
125,283,290338,6,0,L|61:317,1,47.5,8|0,0:0|0:0,0:0:0:0:
349,137,290498,2,0,L|276:97,1,47.5
125,101,290657,6,0,L|61:67,1,47.5,8|0,0:0|0:0,0:0:0:0:
340,306,290817,2,0,L|267:266,1,47.5
450,118,290976,6,0,L|367:151,1,47.5
436,349,291136,2,0,L|405:292,1,47.5
315,62,291295,6,0,L|304:124,1,47.5
156,338,291455,2,0,L|173:270,1,47.5
146,44,291615,6,0,L|132:103,1,47.5
312,333,291774,2,0,L|326:267,1,47.5
375,98,291934,5,2,0:0:0:0:
402,263,292093,1,0,0:0:0:0:
345,155,292253,5,8,0:0:0:0:
283,305,292412,1,0,0:0:0:0:
256,71,292572,5,0,0:0:0:0:
307,227,292731,1,2,0:0:0:0:
333,22,292891,5,8,0:0:0:0:
224,238,293051,1,0,0:0:0:0:
168,30,293210,5,0,0:0:0:0:
334,320,293370,1,0,0:0:0:0:
442,48,293529,5,0,0:0:0:0:
29,137,293689,1,0,0:0:0:0:
458,282,293849,5,0,0:0:0:0:
106,18,294008,1,0,0:0:0:0:
76,267,294168,5,0,0:0:0:0:
476,71,294327,1,0,0:0:0:0:
116,82,294487,5,0,0:0:0:0:
377,354,294806,6,0,L|384:299,1,47.5,8|0,0:0|0:0,0:0:0:0:
386,50,294966,2,0,L|379:105,1,47.5,8|0,0:0|0:0,0:0:0:0:
294,301,295125,6,0,L|301:246,1,47.5,8|0,0:0|0:0,0:0:0:0:
252,26,295285,2,0,L|245:81,1,47.5,8|0,0:0|0:0,0:0:0:0:
203,252,295444,6,0,L|204:352,1,95,8|0,0:0|0:0,0:0:0:0:
69,229,295763,2,0,L|75:133,1,95,2|0,0:0|0:0,0:0:0:0:
471,73,296083,6,0,L|416:66,1,47.5,8|0,0:0|0:0,0:0:0:0:
167,64,296243,2,0,L|221:71,1,47.5,8|0,0:0|0:0,0:0:0:0:
418,156,296402,6,0,L|363:149,1,47.5,8|0,0:0|0:0,0:0:0:0:
143,198,296562,2,0,L|198:204,1,47.5,8|0,0:0|0:0,0:0:0:0:
427,340,296721,6,0,P|439:283|426:227,1,95
312,66,297040,2,0,P|362:52|427:58,1,95
84,162,297359,6,0,L|36:167,1,47.5,8|0,0:0|0:0,0:0:0:0:
264,215,297519,2,0,L|311:209,1,47.5,8|0,0:0|0:0,0:0:0:0:
108,296,297678,6,0,L|60:301,1,47.5,8|0,0:0|0:0,0:0:0:0:
317,298,297838,2,0,L|364:292,1,47.5,8|0,0:0|0:0,0:0:0:0:
176,175,297998,5,0,0:0:0:0:
248,349,298157,1,0,0:0:0:0:
249,39,298317,6,0,L|256:103,1,47.5
364,305,298476,2,0,L|357:241,1,47.5
350,64,298636,6,0,L|357:128,1,47.5
267,345,298795,2,0,L|260:281,1,47.5
149,42,298955,6,0,L|156:106,1,47.5
64,337,299115,2,0,L|71:273,1,47.5
242,120,299274,6,0,L|235:184,1,47.5
144,284,299434,2,0,L|137:220,1,47.5
123,60,299593,5,0,0:0:0:0:
262,250,299753,1,0,0:0:0:0:
277,85,299912,5,0,0:0:0:0:
218,338,300072,1,0,0:0:0:0:
337,167,300232,5,0,0:0:0:0:
369,306,300391,1,0,0:0:0:0:
441,52,300551,6,0,P|451:104|438:156,1,95
281,91,300870,2,0,P|275:157|287:202,1,95
421,332,301189,5,0,0:0:0:0:
346,120,301349,1,0,0:0:0:0:
292,274,301508,5,0,0:0:0:0:
338,29,301668,1,0,0:0:0:0:
356,356,301827,5,0,0:0:0:0:
269,122,301987,1,0,0:0:0:0:
191,349,302146,6,0,P|175:294|181:236,1,95
274,95,302466,2,0,P|218:52|184:40,1,95
306,296,302785,5,0,0:0:0:0:
396,36,302944,1,0,0:0:0:0:
434,354,303104,5,0,0:0:0:0:
358,132,303263,1,0,0:0:0:0:
288,328,303423,6,0,L|292:275,1,47.5
256,47,303583,2,0,L|252:100,1,47.5
200,364,303742,6,0,L|204:311,1,47.5
168,83,303902,2,0,L|164:136,1,47.5
119,327,304061,6,0,L|123:274,1,47.5
87,46,304221,2,0,L|83:99,1,47.5
75,295,304380,5,0,0:0:0:0:
163,26,304540,1,0,0:0:0:0:
192,353,304700,5,0,0:0:0:0:
159,131,304859,1,0,0:0:0:0:
218,271,305019,5,0,0:0:0:0:
262,38,305178,1,0,0:0:0:0:
305,343,305338,5,0,0:0:0:0:
261,132,305498,1,0,0:0:0:0:
204,320,305657,6,0,B|160:342|160:342|97:337,1,95
399,211,305976,2,0,P|411:264|409:322,1,95
284,57,306295,5,0,0:0:0:0:
226,276,306455,1,0,0:0:0:0:
201,133,306615,5,0,0:0:0:0:
296,354,306774,1,0,0:0:0:0:
161,44,306934,6,0,L|50:73,1,95
381,146,307253,2,0,P|387:94|375:39,1,95
227,328,307572,5,0,0:0:0:0:
290,113,307732,1,0,0:0:0:0:
320,268,307891,5,0,0:0:0:0:
228,47,308051,1,0,0:0:0:0:
150,343,308210,5,0,0:0:0:0:
196,136,308370,1,0,0:0:0:0:
224,278,308529,5,0,0:0:0:0:
139,59,308689,1,0,0:0:0:0:
76,338,308849,5,0,0:0:0:0:
196,136,309008,1,0,0:0:0:0:
40,256,309168,5,0,0:0:0:0:
287,277,309327,1,0,0:0:0:0:
115,183,309487,5,0,0:0:0:0:
381,166,309646,1,0,0:0:0:0:
166,253,309806,5,0,0:0:0:0:
363,92,309966,1,0,0:0:0:0:
180,150,310125,5,0,0:0:0:0:
464,216,310285,1,0,0:0:0:0:
239,75,310444,5,0,0:0:0:0:
218,335,310604,1,0,0:0:0:0:
366,27,310763,6,0,P|381:81|371:140,1,95
187,314,311083,2,0,P|172:260|182:201,1,95
279,42,311402,5,0,0:0:0:0:
364,264,311561,1,0,0:0:0:0:
248,136,311721,5,0,0:0:0:0:
157,326,311880,1,0,0:0:0:0:
211,34,312040,5,0,0:0:0:0:
251,255,312200,1,0,0:0:0:0:
120,112,312359,6,0,B|113:71|113:71|135:5,1,95
404,186,312678,2,0,B|411:145|411:145|389:79,1,95
168,191,312998,5,0,0:0:0:0:
450,267,313157,1,0,0:0:0:0:
79,277,313317,5,0,0:0:0:0:
397,202,313476,1,0,0:0:0:0:
74,172,313636,6,0,L|63:226,1,47.5
264,227,313795,2,0,L|275:292,1,47.5
164,80,313955,6,0,L|153:137,1,47.5
345,140,314115,2,0,L|354:192,1,47.5
268,36,314274,6,0,L|260:97,1,47.5
447,83,314434,2,0,L|460:140,1,47.5
404,276,314593,6,0,P|350:283|297:267,1,95
119,209,314912,2,0,P|106:258|112:315,1,95
239,52,315232,5,0,0:0:0:0:
278,250,315391,1,0,0:0:0:0:
176,143,315551,5,0,0:0:0:0:
159,318,315710,1,2,0:0:0:0:
274,44,315870,5,0,0:0:0:0:
297,238,316029,1,0,0:0:0:0:
175,79,316189,5,0,0:0:0:0:
414,106,316349,1,0,0:0:0:0:
80,145,316508,5,0,0:0:0:0:
308,167,316668,1,0,0:0:0:0:
117,67,316827,5,0,0:0:0:0:
244,266,316987,1,0,0:0:0:0:
177,123,317146,5,0,0:0:0:0:
167,333,317306,1,0,0:0:0:0:
275,27,317466,6,0,P|286:89|278:137,1,95
151,281,317785,2,0,P|210:314|248:313,1,95
415,171,318104,6,0,P|435:216|437:265,1,95
252,130,318423,2,0,P|232:85|230:36,1,95
346,288,318742,6,0,L|337:348,1,47.5
191,169,318902,2,0,L|194:226,1,47.5
366,85,319061,6,0,L|360:146,1,47.5
215,249,319221,2,0,L|221:305,1,47.5
156,80,319380,6,0,L|151:134,1,47.5
307,182,319540,2,0,L|319:237,1,47.5
130,257,319700,6,0,L|123:318,1,47.5
232,29,319859,2,0,L|241:90,1,47.5
265,273,320019,5,0,0:0:0:0:
154,115,320178,1,0,0:0:0:0:
194,338,320338,5,0,0:0:0:0:
223,62,320498,1,0,0:0:0:0:
165,251,320657,5,0,0:0:0:0:
154,7,320817,1,0,0:0:0:0:
256,338,320976,5,0,0:0:0:0:
188,108,321136,1,0,0:0:0:0:
188,278,321295,5,0,0:0:0:0:
266,42,321455,1,0,0:0:0:0:
325,330,321615,5,0,0:0:0:0:
232,120,321774,1,0,0:0:0:0:
222,354,321934,6,0,P|158:358|106:333,1,95
443,235,322253,2,0,L|452:350,1,95
364,66,322572,5,0,0:0:0:0:
318,253,322732,1,0,0:0:0:0:
282,27,322891,5,0,0:0:0:0:
461,152,323051,1,0,0:0:0:0:
170,102,323210,5,0,0:0:0:0:
453,67,323370,1,0,0:0:0:0:
97,40,323529,5,0,0:0:0:0:
394,152,323689,1,0,0:0:0:0:
47,123,323849,6,0,L|107:120,1,47.5
310,54,324008,2,0,L|263:57,1,47.5
145,202,324168,6,0,L|207:201,1,47.5
419,133,324327,2,0,L|357:132,1,47.5
133,132,324487,5,0,0:0:0:0:
369,221,324646,1,0,0:0:0:0:
145,260,324806,5,0,0:0:0:0:
184,44,324966,1,0,0:0:0:0:
332,337,325125,5,0,0:0:0:0:
284,118,325285,1,0,0:0:0:0:
256,268,325444,5,0,0:0:0:0:
331,32,325604,1,0,0:0:0:0:
420,348,325763,6,0,P|426:293|417:234,1,95
166,137,326083,2,0,P|162:184|168:232,1,95
319,338,326402,5,0,0:0:0:0:
105,288,326561,1,0,0:0:0:0:
413,269,326721,5,0,0:0:0:0:
222,244,326880,1,0,0:0:0:0:
398,166,327040,5,0,0:0:0:0:
344,356,327200,1,0,0:0:0:0:
330,83,327359,5,0,0:0:0:0:
376,274,327519,1,0,0:0:0:0:
257,167,327678,5,0,0:0:0:0:
210,351,327838,1,0,0:0:0:0:
189,58,327998,5,0,0:0:0:0:
273,284,328157,1,0,0:0:0:0:
82,118,328317,5,0,0:0:0:0:
344,139,328476,1,0,0:0:0:0:
141,196,328636,5,0,0:0:0:0:
327,45,328795,1,0,0:0:0:0:
90,83,328955,6,0,L|76:148,1,47.5
318,147,329115,2,0,L|328:201,1,47.5
130,244,329274,6,0,L|124:298,1,47.5
335,298,329434,2,0,L|342:353,1,47.5
215,150,329593,6,0,L|211:212,1,47.5
397,47,329753,2,0,L|404:100,1,47.5
287,200,329912,6,0,L|278:263,1,47.5
175,37,330072,2,0,L|186:96,1,47.5
246,271,330232,5,0,0:0:0:0:
99,124,330391,1,0,0:0:0:0:
187,345,330551,5,0,0:0:0:0:
226,131,330710,1,0,0:0:0:0:
71,366,330870,6,0,P|64:310|73:256,1,95
195,73,331189,2,0,P|138:57|86:61,1,95
313,263,331508,5,0,0:0:0:0:
372,56,331668,1,0,0:0:0:0:
217,211,331827,5,0,0:0:0:0:
456,205,331987,1,0,0:0:0:0:
266,80,332146,5,0,0:0:0:0:
238,305,332306,1,0,0:0:0:0:
401,36,332466,5,0,0:0:0:0:
438,239,332625,1,0,0:0:0:0:
309,125,332785,5,0,0:0:0:0:
263,348,332944,1,0,0:0:0:0:
265,56,333104,5,0,0:0:0:0:
359,301,333263,1,0,0:0:0:0:
120,125,333423,5,0,0:0:0:0:
427,77,333583,1,0,0:0:0:0:
224,218,333742,5,0,0:0:0:0:
485,170,333902,1,0,0:0:0:0:
174,104,334061,6,0,L|165:156,1,47.5
339,313,334221,2,0,L|326:248,1,47.5
370,72,334380,6,0,L|362:135,1,47.5
195,328,334540,2,0,L|186:273,1,47.5
263,42,334700,6,0,L|260:98,1,47.5
408,325,334859,2,0,L|418:265,1,47.5
208,226,335019,6,0,L|217:282,1,47.5
303,119,335178,2,0,L|306:67,1,47.5
44,87,335338,6,0,B|122:59|122:59|78:257,1,285.000010871888
175,186,335817,2,0,L|337:210,1,142.500005435944
379,147,336295,6,0,B|419:91|489:123|514:150|520:219|466:237|430:244|386:260|366:301|366:301|522:330,1,427.500016307831
