osu file format v14

[General]
AudioFilename: mayday.mp3
AudioLeadIn: 0
PreviewTime: 51523
Countdown: 1
SampleSet: Soft
StackLeniency: 0.7
Mode: 0
LetterboxInBreaks: 0
WidescreenStoryboard: 1

[Editor]
Bookmarks: 222707,238924,244113,269734
DistanceSpacing: 1
BeatDivisor: 4
GridSize: 4
TimelineZoom: 1.8

[Metadata]
Title:1-2 pp Jump Training
TitleUnicode:1-2 pp Jump Training
Artist:Various Artists
ArtistUnicode:Various Artists
Creator:Krisu
Version:1-2 Mayday [AR9.5]
Source:
Tags:black bride melodic death metal ettore rigotti stamina jumps 1-2 sotarks feat disarmonia mundi
BeatmapID:1783424
BeatmapSetID:852235

[Difficulty]
HPDrainRate:5
CircleSize:4
OverallDifficulty:8
ApproachRate:9.5
SliderMultiplier:1.8
SliderTickRate:2

[Events]
//Background and Video events
0,0,"324.jpg",0,0
//Break Periods
2,38723,50998
//Storyboard Layer 0 (Background)
//Storyboard Layer 1 (Fail)
//Storyboard Layer 2 (Pass)
//Storyboard Layer 3 (Foreground)
//Storyboard Layer 4 (Overlay)
//Storyboard Sound Samples

[TimingPoints]
13123,400,4,2,22,42,1,0
13123,-138.888888888889,4,2,22,42,0,0
19123,-98.0392156862745,4,2,22,42,0,0
19423,-98.0392156862745,4,2,22,5,0,0
19523,-138.888888888889,4,2,22,42,0,0
23923,-98.0392156862745,4,2,22,42,0,0
25923,-98.0392156862745,4,2,22,52,0,0
38723,-192.307692307692,4,2,22,32,0,0
45123,-312.499999999999,4,2,22,32,0,0
48323,-454.545454545452,4,2,22,32,0,0
51523,-138.888888888889,4,2,22,52,0,0
61123,-121.951219512195,4,2,22,52,0,0
61523,-108.695652173913,4,2,22,52,0,0
61923,-98.0392156862744,4,2,22,52,0,0
62323,-89.2857142857143,4,2,22,52,0,0
62743,400,4,2,22,32,1,0
62743,-121.951219512195,4,2,22,32,0,0
64323,400,4,2,22,82,1,1
64323,-89.2857142857142,4,2,22,82,0,1
89923,-89.2857142857142,4,2,22,42,0,0

[Colours]
Combo1 : 142,164,179
Combo2 : 191,166,166
Combo3 : 223,153,151

[HitObjects]
122,91,13123,5,0,0:0:0:0:
148,257,13323,1,0,0:0:0:0:
181,60,13523,5,2,0:2:0:0:
135,198,13723,1,2,0:2:0:0:
132,72,13923,5,0,0:0:0:0:
185,255,14123,1,0,0:0:0:0:
218,48,14323,5,2,1:2:0:0:
175,195,14523,1,2,1:2:0:0:
314,73,14723,5,0,0:0:0:0:
111,157,14923,1,0,0:0:0:0:
364,140,15123,5,2,0:0:0:0:
160,86,15323,1,2,0:0:0:0:
391,77,15523,5,0,0:0:0:0:
221,169,15723,1,0,0:0:0:0:
454,139,15923,5,0,0:0:0:0:
229,107,16123,1,0,0:0:0:0:
361,260,16323,5,0,0:0:0:0:
410,45,16523,1,0,0:0:0:0:
303,177,16723,5,0,0:0:0:0:
248,25,16923,1,0,0:0:0:0:
215,284,17123,5,0,0:0:0:0:
202,114,17323,1,0,0:0:0:0:
104,272,17523,5,0,0:0:0:0:
163,60,17723,1,0,0:0:0:0:
59,191,17923,5,0,0:0:0:0:
275,210,18123,1,0,0:0:0:0:
121,234,18323,5,0,0:0:0:0:
363,152,18523,1,0,0:0:0:0:
176,156,18723,5,0,0:0:0:0:
391,220,18923,1,0,0:0:0:0:
265,84,19123,5,0,0:0:0:0:
261,297,19323,1,0,0:0:0:0:
352,37,19523,5,0,0:0:0:0:
329,219,19723,1,0,0:0:0:0:
402,85,19923,5,0,0:0:0:0:
428,284,20123,1,0,0:0:0:0:
306,52,20323,5,0,0:0:0:0:
360,228,20523,1,0,0:0:0:0:
206,97,20723,5,2,1:2:0:0:
429,125,20923,1,2,1:2:0:0:
119,190,21123,5,0,0:0:0:0:
320,226,21323,1,0,0:0:0:0:
87,267,21523,5,2,0:0:0:0:
283,153,21723,1,2,0:0:0:0:
77,154,21923,5,0,0:0:0:0:
227,300,22123,1,0,0:0:0:0:
119,84,22323,5,0,0:0:0:0:
131,312,22523,1,0,0:0:0:0:
208,22,22723,5,0,0:0:0:0:
175,234,22923,1,0,0:0:0:0:
249,99,23123,5,0,0:0:0:0:
295,319,23323,1,2,0:0:0:0:
166,61,23523,5,10,0:0:0:0:
380,257,23723,1,2,0:0:0:0:
67,155,23923,5,0,0:0:0:0:
331,125,24123,1,0,0:0:0:0:
141,16,24323,5,0,0:0:0:0:
119,312,24523,1,0,0:0:0:0:
231,88,24723,5,0,0:0:0:0:
297,324,24923,1,0,0:0:0:0:
312,40,25123,5,10,0:2:0:0:
211,297,25323,1,2,0:2:0:0:
206,21,25523,5,2,1:2:0:0:
289,329,25723,1,2,0:2:0:0:
344,99,25923,5,2,1:2:0:0:
135,220,26123,1,2,3:2:0:0:
270,58,26323,6,0,L|276:19,6,22.9500001400757
215,138,26723,5,10,0:0:0:0:
255,312,26923,1,2,0:0:0:0:
192,61,27123,5,2,1:2:0:0:
155,272,27323,1,0,0:0:0:0:
345,155,27523,5,0,0:0:0:0:
104,98,27723,1,0,0:0:0:0:
284,227,27923,5,0,0:0:0:0:
18,157,28123,1,0,0:0:0:0:
339,304,28323,5,0,0:0:0:0:
65,225,28523,1,0,0:0:0:0:
247,352,28723,5,0,0:0:0:0:
289,121,28923,1,2,3:2:0:0:
168,286,29123,5,2,1:2:0:0:
226,29,29323,1,2,0:2:0:0:
75,341,29523,5,2,0:2:0:0:
125,73,29723,1,2,3:2:0:0:
33,251,29923,5,10,0:2:0:0:
262,114,30123,1,2,3:2:0:0:
67,146,30323,5,0,0:0:0:0:
358,240,30523,1,0,0:0:0:0:
134,225,30723,5,0,0:0:0:0:
392,95,30923,1,0,3:0:0:0:
186,107,31123,5,0,0:0:0:0:
452,207,31323,1,0,0:0:0:0:
188,231,31523,5,0,0:0:0:0:
445,45,31723,1,0,0:0:0:0:
276,315,31923,5,0,0:0:0:0:
325,75,32123,1,0,0:0:0:0:
177,356,32323,5,0,1:0:0:0:
243,121,32523,1,0,0:0:0:0:
68,288,32723,5,2,0:0:0:0:
366,276,32923,1,2,0:0:0:0:
147,109,33123,5,0,0:0:0:0:
131,361,33323,1,0,0:0:0:0:
215,61,33523,5,0,0:0:0:0:
213,250,33723,1,2,1:2:0:0:
215,144,33923,5,0,0:0:0:0:
202,330,34123,1,0,0:0:0:0:
108,123,34323,5,2,3:2:0:0:
257,261,34523,1,2,3:2:0:0:
201,101,34723,5,0,0:0:0:0:
139,293,34923,1,0,0:0:0:0:
285,55,35123,5,0,0:0:0:0:
226,225,35323,1,0,0:0:0:0:
330,126,35523,5,0,0:0:0:0:
335,300,35723,1,0,0:0:0:0:
272,70,35923,5,0,0:0:0:0:
362,220,36123,1,2,0:0:0:0:
352,55,36323,5,10,0:0:0:0:
239,161,36523,1,2,3:2:0:0:
368,150,36723,5,0,0:0:0:0:
165,105,36923,1,0,0:0:0:0:
285,105,37123,5,0,0:0:0:0:
165,184,37323,1,0,0:0:0:0:
226,54,37523,5,0,0:0:0:0:
193,279,37723,1,0,0:0:0:0:
115,64,37923,5,10,0:0:0:0:
268,265,38123,1,2,3:2:0:0:
161,122,38323,5,2,0:0:0:0:
100,318,38523,1,0,0:0:0:0:
110,61,51523,6,0,P|136:114|155:132,1,64.8000015820313
264,240,51923,5,0,1:0:0:0:
239,36,52123,1,8,0:0:0:0:
155,217,52323,6,0,P|113:257|80:269,1,64.8000015820313
323,98,52723,2,0,P|361:96|389:101,1,64.8000015820313
322,282,53123,5,0,1:0:0:0:
246,37,53323,1,8,0:0:0:0:
222,336,53523,5,0,0:0:0:0:
325,85,53723,1,0,0:0:0:0:
345,371,53923,5,0,0:0:0:0:
277,161,54123,1,0,0:0:0:0:
256,323,54323,5,8,0:0:0:0:
81,165,54523,2,0,L|76:211,1,32.4000007910156
109,64,54723,5,0,0:0:0:0:
149,325,54923,1,0,0:0:0:0:
251,85,55123,5,2,1:2:0:0:
65,233,55323,1,10,0:2:0:0:
191,9,55523,5,0,0:0:0:0:
244,308,55723,1,0,0:0:0:0:
358,47,55923,5,0,0:0:0:0:
150,164,56123,1,0,0:0:0:0:
281,18,56323,5,0,1:0:0:0:
267,294,56523,1,8,0:0:0:0:
443,64,56723,5,0,0:0:0:0:
163,219,56923,1,0,0:0:0:0:
461,225,57123,5,0,0:0:0:0:
218,83,57323,1,0,0:0:0:0:
335,347,57523,5,8,0:0:0:0:
340,68,57723,2,0,L|346:15,1,32.4000007910156,8|8,0:2|0:2,0:2:0:0:
238,24,57923,5,10,0:2:0:0:
107,279,58123,1,0,1:0:0:0:
415,188,58323,5,8,0:0:0:0:
69,29,58523,1,0,1:0:0:0:
412,59,58723,5,8,0:0:0:0:
310,328,58923,1,0,1:0:0:0:
205,46,59123,5,10,0:2:0:0:
404,320,59323,1,0,1:0:0:0:
391,52,59523,5,8,0:0:0:0:
84,138,59723,1,0,1:0:0:0:
439,219,59923,5,8,0:0:0:0:
121,43,60123,1,0,1:0:0:0:
134,259,60323,5,8,0:0:0:0:
474,112,60523,1,0,1:0:0:0:
174,34,60723,5,8,0:0:0:0:
184,350,60923,1,0,0:0:0:0:
311,89,61123,6,0,L|337:40,1,36.9000005630493
78,162,61323,2,0,L|36:185,1,36.9000005630493
338,251,61523,6,0,L|369:293,1,41.3999986102295
180,55,61723,2,0,L|190:7,1,41.3999986102295
107,300,61923,6,0,L|74:337,1,45.9000002801514
335,126,62123,2,0,L|420:132,1,45.9000002801514
48,119,62323,6,0,L|32:56,1,50.4000006152344
292,308,62523,2,0,L|304:362,1,50.4000006152344
345,25,62743,6,0,L|291:89,1,73.8000011260987,2|2,0:0|0:0,0:0:0:0:
184,215,63143,1,2,0:0:0:0:
59,65,63543,5,0,0:0:0:0:
369,355,63943,1,0,0:0:0:0:
110,342,64323,5,6,1:2:0:0:
201,19,64523,1,0,3:0:0:0:
233,331,64723,5,0,3:0:0:0:
108,46,64923,1,0,3:0:0:0:
122,290,65123,5,0,0:0:0:0:
296,45,65323,1,0,0:0:0:0:
341,324,65523,5,2,1:2:0:0:
165,59,65723,1,0,0:0:0:0:
205,340,65923,5,0,0:0:0:0:
384,57,66123,1,0,0:0:0:0:
122,158,66323,5,0,0:0:0:0:
478,223,66523,1,0,0:0:0:0:
188,324,66723,5,8,0:0:0:0:
411,124,66923,1,2,0:2:0:0:
126,209,67123,5,2,3:2:0:0:
320,31,67323,1,2,3:2:0:0:
69,83,67523,5,2,1:2:0:0:
321,344,67723,1,2,3:2:0:0:
54,220,67923,5,2,3:2:0:0:
409,56,68123,1,2,3:2:0:0:
182,10,68323,5,10,0:2:0:0:
462,309,68523,1,2,3:2:0:0:
145,329,68723,5,0,0:0:0:0:
286,50,68923,1,0,0:0:0:0:
352,347,69123,5,0,0:0:0:0:
58,111,69323,1,2,0:2:0:0:
163,351,69523,5,2,1:2:0:0:
432,78,69723,1,2,3:2:0:0:
124,55,69923,5,10,0:2:0:0:
427,230,70123,1,2,3:2:0:0:
111,230,70323,5,2,3:2:0:0:
403,60,70523,1,2,3:2:0:0:
191,28,70723,5,0,0:0:0:0:
382,290,70923,1,0,0:0:0:0:
123,212,71123,5,0,0:0:0:0:
442,150,71323,1,0,3:0:0:0:
125,53,71523,5,0,0:0:0:0:
285,347,71723,1,0,0:0:0:0:
350,42,71923,5,2,1:2:0:0:
30,193,72123,1,0,0:0:0:0:
411,276,72323,5,0,0:0:0:0:
125,53,72523,1,0,0:0:0:0:
396,57,72723,5,0,0:0:0:0:
217,338,72923,1,0,0:0:0:0:
206,41,73123,5,8,0:0:0:0:
355,345,73323,1,2,0:2:0:0:
303,24,73523,5,2,0:2:0:0:
29,245,73723,1,2,0:2:0:0:
371,107,73923,5,0,0:0:0:0:
14,131,74123,1,0,0:0:0:0:
419,267,74323,5,0,0:0:0:0:
56,37,74523,1,0,3:0:0:0:
381,350,74723,5,0,0:0:0:0:
410,39,74923,1,0,0:0:0:0:
290,322,75123,5,0,1:0:0:0:
368,109,75323,1,0,1:0:0:0:
380,302,75523,5,0,1:0:0:0:
274,77,75723,1,0,1:0:0:0:
180,347,75923,5,0,0:0:0:0:
292,166,76123,1,0,0:0:0:0:
234,283,76323,5,0,0:0:0:0:
226,95,76523,1,0,0:0:0:0:
113,328,76723,5,0,0:0:0:0:
169,154,76923,1,0,0:0:0:0:
58,257,77123,5,6,1:2:0:0:
218,27,77323,1,0,3:0:0:0:
37,137,77523,5,0,3:0:0:0:
377,230,77723,1,0,3:0:0:0:
136,50,77923,5,0,0:0:0:0:
217,327,78123,1,0,0:0:0:0:
288,43,78323,5,2,1:2:0:0:
71,308,78523,1,0,0:0:0:0:
196,24,78723,5,0,0:0:0:0:
240,263,78923,1,0,0:0:0:0:
321,35,79123,5,0,0:0:0:0:
399,353,79323,1,0,0:0:0:0:
400,126,79523,5,8,0:0:0:0:
158,306,79723,1,2,0:2:0:0:
456,204,79923,5,2,3:2:0:0:
156,113,80123,1,2,3:2:0:0:
338,105,80323,5,2,1:2:0:0:
26,273,80523,1,2,3:2:0:0:
262,278,80723,5,2,0:2:0:0:
65,30,80923,1,2,3:2:0:0:
102,291,81123,5,10,0:2:0:0:
245,34,81323,1,2,3:2:0:0:
44,169,81523,5,0,0:0:0:0:
414,79,81723,1,0,0:0:0:0:
191,318,81923,5,0,0:0:0:0:
305,23,82123,1,2,3:2:0:0:
386,288,82323,5,2,1:2:0:0:
193,17,82523,1,2,3:2:0:0:
447,165,82723,5,10,0:2:0:0:
99,248,82923,1,2,3:2:0:0:
352,58,83123,5,2,0:2:0:0:
240,346,83323,1,2,3:2:0:0:
204,35,83523,5,0,0:0:0:0:
391,301,83723,1,0,0:0:0:0:
392,39,83923,5,0,0:0:0:0:
170,280,84123,1,0,3:0:0:0:
300,80,84323,5,0,0:0:0:0:
424,315,84523,1,0,0:0:0:0:
124,213,84723,5,2,1:2:0:0:
396,122,84923,1,0,0:0:0:0:
202,345,85123,5,0,0:0:0:0:
156,42,85323,1,0,0:0:0:0:
75,314,85523,5,0,0:0:0:0:
280,40,85723,1,0,0:0:0:0:
152,237,85923,5,8,0:0:0:0:
410,152,86123,1,2,0:2:0:0:
112,156,86323,5,2,0:2:0:0:
363,233,86523,1,2,0:2:0:0:
179,66,86723,5,0,0:0:0:0:
129,302,86923,1,0,0:0:0:0:
307,64,87123,5,0,3:0:0:0:
182,224,87323,1,0,3:0:0:0:
380,100,87523,5,0,0:0:0:0:
426,328,87723,1,0,0:0:0:0:
197,51,87923,5,0,1:0:0:0:
119,258,88123,1,0,0:0:0:0:
297,135,88323,5,0,0:0:0:0:
295,332,88523,1,2,1:2:0:0:
256,41,88723,5,0,0:0:0:0:
177,248,88923,1,0,0:0:0:0:
149,69,89123,5,0,0:0:0:0:
364,221,89323,1,0,0:0:0:0:
46,176,89523,5,0,0:0:0:0:
302,55,89723,1,0,0:0:0:0:
174,277,89923,5,2,0:0:0:0:
