osu file format v14

[General]
AudioFilename: Hanks.mp3
AudioLeadIn: 0
PreviewTime: 52620
Countdown: 1
SampleSet: Soft
StackLeniency: 0.7
Mode: 0
LetterboxInBreaks: 0
WidescreenStoryboard: 1

[Editor]
Bookmarks: 222707,238924,244113,269734
DistanceSpacing: 1
BeatDivisor: 4
GridSize: 4
TimelineZoom: 1.8

[Metadata]
Title:1-2 pp Jump Training
TitleUnicode:1-2 pp Jump Training
Artist:Various Artists
ArtistUnicode:Various Artists
Creator:Krisu
Version:1-2 Hank's Back [AR10]
Source:
Tags:black bride melodic death metal ettore rigotti stamina jumps 1-2 sotarks feat disarmonia mundi
BeatmapID:2717711
BeatmapSetID:852235

[Difficulty]
HPDrainRate:3
CircleSize:3.7
OverallDifficulty:9
ApproachRate:10
SliderMultiplier:1.8
SliderTickRate:2

[Events]
//Background and Video events
0,0,"taroumaru big qt.jpg",0,0
//Break Periods
//Storyboard Layer 0 (Background)
//Storyboard Layer 1 (Fail)
//Storyboard Layer 2 (Pass)
//Storyboard Layer 3 (Foreground)
//Storyboard Layer 4 (Overlay)
//Storyboard Sound Samples

[TimingPoints]
4620,375,4,2,1,100,1,0
28620,-200,4,2,1,65,0,0
39870,-133.333333333333,4,2,1,70,0,0
40620,-133.333333333333,4,2,1,70,0,0
51495,-100,4,2,1,70,0,0
52620,-66.6666666666667,4,2,1,90,0,0
53370,-66.6666666666667,4,2,1,90,0,1
54495,-66.6666666666667,4,2,1,90,0,0
54870,-66.6666666666667,4,2,1,90,0,1
55620,-66.6666666666667,4,2,1,90,0,0
56370,-66.6666666666667,4,2,1,90,0,1
57495,-66.6666666666667,4,2,1,90,0,0
57870,-66.6666666666667,4,2,1,90,0,1
58620,-66.6666666666667,4,2,1,90,0,0
59370,-66.6666666666667,4,2,1,90,0,1
60495,-66.6666666666667,4,2,1,90,0,0
60870,-66.6666666666667,4,2,1,90,0,1
61620,-66.6666666666667,4,2,1,90,0,0
62370,-66.6666666666667,4,2,1,90,0,1
63495,-66.6666666666667,4,2,1,90,0,0
63870,-66.6666666666667,4,2,1,90,0,1
64620,-66.6666666666667,4,2,1,90,0,0
65370,-66.6666666666667,4,2,1,90,0,1
66495,-66.6666666666667,4,2,1,90,0,0
66870,-66.6666666666667,4,2,1,90,0,1
67620,-66.6666666666667,4,2,1,90,0,0
68370,-66.6666666666667,4,2,1,90,0,1
69495,-66.6666666666667,4,2,1,90,0,0
69870,-66.6666666666667,4,2,1,90,0,1
70620,-66.6666666666667,4,2,1,90,0,0
71370,-66.6666666666667,4,2,1,90,0,1
72495,-66.6666666666667,4,2,1,90,0,0
72870,-66.6666666666667,4,2,1,90,0,1
73620,-66.6666666666667,4,2,1,90,0,0
74370,-62.5,4,2,1,90,0,1
75495,-66.6666666666667,4,2,1,90,0,0
75870,-66.6666666666667,4,2,1,75,0,1
76620,-66.6666666666667,4,2,1,90,0,0
77370,-83.3333333333333,4,2,1,80,0,1
78026,-83.3333333333333,4,2,1,5,0,1
78120,-83.3333333333333,4,2,1,80,0,1
81026,-83.3333333333333,4,2,1,5,0,1
81120,-83.3333333333333,4,2,1,80,0,1
84026,-83.3333333333333,4,2,1,5,0,1
84120,-83.3333333333333,4,2,1,80,0,1
87026,-83.3333333333333,4,2,1,5,0,1
87120,-83.3333333333333,4,2,1,80,0,1
99870,-66.6666666666667,4,2,1,70,0,0

[Colours]
Combo1 : 23,23,255
Combo2 : 0,128,0
Combo3 : 60,255,60
Combo4 : 253,126,0
Combo5 : 255,139,83
Combo6 : 0,0,160

[HitObjects]
105,174,53370,5,0,0:0:0:0:
240,294,53463,1,0,0:0:0:0:
181,122,53557,5,0,0:0:0:0:
116,273,53651,1,0,0:0:0:0:
287,175,53745,5,0,0:0:0:0:
102,137,53838,1,0,0:0:0:0:
275,86,53932,5,0,0:0:0:0:
216,236,54026,1,0,0:0:0:0:
348,136,54120,5,0,0:0:0:0:
206,108,54213,1,0,0:0:0:0:
338,50,54307,5,0,0:0:0:0:
300,208,54401,1,0,0:0:0:0:
261,14,54495,6,0,P|181:11|131:49,1,135.000005149842
94,311,54870,5,0,0:0:0:0:
232,217,54963,1,0,0:0:0:0:
91,229,55057,5,0,0:0:0:0:
281,288,55151,1,0,0:0:0:0:
158,157,55245,5,0,0:0:0:0:
119,295,55338,1,0,0:0:0:0:
224,98,55432,5,0,0:0:0:0:
215,259,55526,1,0,0:0:0:0:
160,22,55620,6,0,B|135:83|135:83|141:165,1,135.000005149842
396,23,55995,2,0,P|434:100|417:170,1,135.000005149842
301,322,56370,5,0,0:0:0:0:
161,237,56463,1,0,0:0:0:0:
299,237,56557,5,0,0:0:0:0:
111,300,56651,1,0,0:0:0:0:
261,162,56745,5,0,0:0:0:0:
235,308,56838,1,0,0:0:0:0:
190,92,56932,5,0,0:0:0:0:
234,235,57026,1,0,0:0:0:0:
131,157,57120,5,0,0:0:0:0:
55,285,57213,1,0,0:0:0:0:
95,69,57307,5,0,0:0:0:0:
160,247,57401,1,0,0:0:0:0:
163,7,57495,6,0,P|235:5|305:38,1,135.000005149842
419,294,57870,5,0,0:0:0:0:
472,146,57963,1,0,0:0:0:0:
371,214,58057,5,0,0:0:0:0:
357,72,58151,1,0,0:0:0:0:
290,262,58245,5,0,0:0:0:0:
392,133,58338,1,0,0:0:0:0:
233,161,58432,5,0,0:0:0:0:
380,262,58526,1,0,0:0:0:0:
270,86,58620,6,0,P|282:26|356:-11,1,135.000005149842
270,86,58995,1,0,1:0:0:0:
156,332,59370,5,0,0:0:0:0:
109,190,59463,1,0,0:0:0:0:
59,303,59557,5,0,0:0:0:0:
171,142,59651,1,0,0:0:0:0:
163,295,59745,5,0,0:0:0:0:
261,156,59838,1,0,0:0:0:0:
247,273,59932,5,0,0:0:0:0:
216,78,60026,1,0,0:0:0:0:
159,220,60120,5,0,0:0:0:0:
359,152,60213,1,0,0:0:0:0:
103,115,60307,5,0,0:0:0:0:
307,230,60401,1,0,0:0:0:0:
175,15,60495,6,0,P|186:82|165:161,1,135.000005149842
64,333,60870,5,0,0:0:0:0:
232,301,60963,1,0,0:0:0:0:
101,237,61057,5,0,0:0:0:0:
221,370,61151,1,0,0:0:0:0:
177,151,61245,5,0,0:0:0:0:
139,326,61338,1,0,0:0:0:0:
105,103,61432,5,0,0:0:0:0:
49,248,61526,1,0,0:0:0:0:
41,32,61620,6,0,P|130:19|211:53,1,135.000005149842
415,146,61995,2,0,P|425:106|421:59,2,67.5000025749208
299,327,62370,5,0,0:0:0:0:
154,258,62463,1,0,0:0:0:0:
351,227,62557,5,0,0:0:0:0:
195,315,62651,1,0,0:0:0:0:
324,127,62745,5,0,0:0:0:0:
392,312,62838,1,0,0:0:0:0:
253,75,62932,5,0,0:0:0:0:
221,234,63026,1,0,0:0:0:0:
382,80,63120,5,0,0:0:0:0:
184,135,63213,1,0,0:0:0:0:
349,201,63307,5,0,0:0:0:0:
281,14,63401,1,0,0:0:0:0:
291,279,63495,6,0,P|221:294|150:271,1,135.000005149842
76,52,63870,5,0,0:0:0:0:
42,214,64010,1,0,0:0:0:0:
167,140,64120,5,2,0:0:0:0:
178,309,64245,1,0,0:0:0:0:
79,149,64385,5,0,0:0:0:0:
256,237,64495,1,2,0:0:0:0:
226,75,64620,6,0,P|301:43|368:77,1,135.000005149842
465,200,64995,2,0,P|487:137|481:68,1,135.000005149842
259,322,65370,5,0,0:0:0:0:
295,160,65463,1,0,0:0:0:0:
329,256,65557,5,0,0:0:0:0:
199,145,65651,1,0,0:0:0:0:
176,255,65745,5,0,0:0:0:0:
281,89,65838,1,0,0:0:0:0:
103,167,65932,5,0,0:0:0:0:
271,210,66026,1,0,0:0:0:0:
59,243,66120,5,0,0:0:0:0:
206,132,66213,1,0,0:0:0:0:
13,138,66307,5,0,0:0:0:0:
165,274,66401,1,0,0:0:0:0:
81,74,66495,6,0,B|116:47|116:47|157:62|157:62|221:56,1,135.000005149842
426,42,66870,5,0,0:0:0:0:
470,189,66963,1,0,0:0:0:0:
381,86,67057,5,0,0:0:0:0:
364,254,67151,1,0,0:0:0:0:
412,162,67245,5,0,0:0:0:0:
463,315,67338,1,0,0:0:0:0:
386,218,67432,5,0,0:0:0:0:
359,363,67526,1,0,0:0:0:0:
306,255,67620,6,0,P|229:230|155:268,1,135.000005149842
76,338,67995,2,0,P|49:268|53:195,1,135.000005149842
172,61,68370,5,0,0:0:0:0:
334,103,68463,1,0,0:0:0:0:
210,128,68557,5,0,0:0:0:0:
354,51,68651,1,0,0:0:0:0:
263,80,68745,5,0,0:0:0:0:
418,148,68838,1,0,0:0:0:0:
325,69,68932,5,0,0:0:0:0:
363,234,69026,1,0,0:0:0:0:
289,145,69120,5,0,0:0:0:0:
259,279,69213,1,0,0:0:0:0:
347,98,69307,5,0,0:0:0:0:
417,237,69401,1,0,0:0:0:0:
283,58,69495,6,0,P|353:25|415:54,1,135.000005149842
130,282,69870,5,0,0:0:0:0:
228,169,69963,1,0,0:0:0:0:
93,179,70057,5,0,0:0:0:0:
250,268,70151,1,0,0:0:0:0:
154,100,70245,5,0,0:0:0:0:
87,247,70338,1,0,0:0:0:0:
76,45,70432,5,0,0:0:0:0:
118,184,70526,1,0,0:0:0:0:
23,27,70620,6,0,L|304:37,1,270.000010299683
451,309,71370,5,0,0:0:0:0:
326,273,71463,1,0,0:0:0:0:
423,215,71557,5,0,0:0:0:0:
375,342,71651,1,0,0:0:0:0:
343,150,71745,5,0,0:0:0:0:
297,269,71838,1,0,0:0:0:0:
243,198,71932,5,0,0:0:0:0:
254,335,72026,1,0,0:0:0:0:
351,227,72120,5,0,0:0:0:0:
191,245,72213,1,0,0:0:0:0:
362,304,72307,5,0,0:0:0:0:
288,148,72401,1,0,0:0:0:0:
293,360,72495,6,0,L|144:364,1,135.000005149842
42,148,72870,5,0,0:0:0:0:
181,94,72963,1,0,0:0:0:0:
60,42,73057,5,0,0:0:0:0:
169,192,73151,1,0,0:0:0:0:
220,24,73245,5,0,0:0:0:0:
93,125,73338,1,0,0:0:0:0:
281,156,73432,5,0,0:0:0:0:
167,35,73526,1,0,0:0:0:0:
178,208,73620,6,0,P|161:273|337:300,1,270.000010299683
377,61,74370,5,0,0:0:0:0:
435,210,74510,1,0,0:0:0:0:
322,142,74620,5,2,0:0:0:0:
296,287,74745,1,0,0:0:0:0:
407,230,74885,5,0,0:0:0:0:
455,360,74979,1,2,0:0:0:0:
404,139,75120,5,0,0:0:0:0:
308,219,75260,1,0,0:0:0:0:
470,238,75370,5,0,0:0:0:0:
334,139,75495,2,0,P|248:150|217:205,1,135.000005149842
209,355,75870,5,0,0:0:0:0:
297,180,75963,1,0,0:0:0:0:
336,309,76057,5,0,0:0:0:0:
179,161,76151,1,0,0:0:0:0:
394,170,76245,5,0,0:0:0:0:
119,265,76338,1,0,0:0:0:0:
299,73,76432,5,0,0:0:0:0:
397,308,76526,1,0,0:0:0:0:
168,167,76620,5,0,0:0:0:0:
