osu file format v14

[General]
AudioFilename: pig.mp3
AudioLeadIn: 0
PreviewTime: 25832
Countdown: 1
SampleSet: Soft
StackLeniency: 0.7
Mode: 0
LetterboxInBreaks: 0
WidescreenStoryboard: 1

[Editor]
Bookmarks: 25832,196189,200976,222707,238924,244113,269734
DistanceSpacing: 1
BeatDivisor: 4
GridSize: 4
TimelineZoom: 1.8

[Metadata]
Title:1-2 pp Jump Training
TitleUnicode:1-2 pp Jump Training
Artist:Various Artists
ArtistUnicode:Various Artists
Creator:Krisu
Version:1-2 Guinea Pig Bridge [AR9.5]
Source:
Tags:black bride melodic death metal ettore rigotti stamina jumps 1-2 sotarks feat disarmonia mundi drum and bass dnb drumstep Mishima Yurara
BeatmapID:2625431
BeatmapSetID:852235

[Difficulty]
HPDrainRate:4.5
CircleSize:4.1
OverallDifficulty:9
ApproachRate:9.5
SliderMultiplier:1.9
SliderTickRate:1

[Events]
//Background and Video events
0,0,"bg.jpg",0,0
//Break Periods
//Storyboard Layer 0 (Background)
//Storyboard Layer 1 (Fail)
//Storyboard Layer 2 (Pass)
//Storyboard Layer 3 (Foreground)
//Storyboard Layer 4 (Overlay)
//Storyboard Sound Samples

[TimingPoints]
499,333.333333333333,4,2,0,100,1,0

[Colours]
Combo1 : 19,34,94
Combo2 : 0,255,255
Combo3 : 18,124,255
Combo4 : 0,0,255

[HitObjects]
90,53,499,5,0,0:0:0:0:
122,268,665,2,0,P|100:312|60:338,2,95
422,53,1165,5,0,0:0:0:0:
390,268,1331,2,0,P|412:312|452:338,2,95
251,62,1832,5,0,0:0:0:0:
140,259,1998,1,0,0:0:0:0:
319,176,2165,5,0,0:0:0:0:
349,361,2332,1,0,0:0:0:0:
217,72,2498,5,0,0:0:0:0:
198,289,2665,2,0,P|181:349|123:373,2,95
99,73,3165,5,0,0:0:0:0:
373,169,3332,2,0,P|393:109|393:58,2,95
121,320,3832,5,0,0:0:0:0:
196,98,3998,2,0,P|183:37|159:6,2,95
50,260,4498,5,0,0:0:0:0:
267,313,4665,1,0,0:0:0:0:
125,324,4832,5,0,0:0:0:0:
334,253,4998,1,0,0:0:0:0:
130,150,5165,5,0,0:0:0:0:
204,355,5332,2,0,P|262:373|309:366,2,95
88,89,5832,5,0,0:0:0:0:
378,110,5998,1,0,0:0:0:0:
104,194,6165,5,0,0:0:0:0:
319,32,6332,1,0,0:0:0:0:
294,299,6498,5,0,0:0:0:0:
207,62,6665,1,0,0:0:0:0:
134,341,6832,5,0,0:0:0:0:
193,137,6998,1,0,0:0:0:0:
301,345,7165,5,0,0:0:0:0:
106,172,7332,1,0,0:0:0:0:
362,216,7498,5,0,0:0:0:0:
47,225,7665,1,0,0:0:0:0:
313,134,7832,5,0,0:0:0:0:
90,315,7999,1,0,0:0:0:0:
251,68,8166,5,0,0:0:0:0:
173,349,8332,1,0,0:0:0:0:
308,144,8498,5,0,0:0:0:0:
366,297,8665,1,0,0:0:0:0:
370,73,8832,5,0,0:0:0:0:
317,233,8998,1,0,0:0:0:0:
428,143,9165,5,0,0:0:0:0:
459,334,9332,1,0,0:0:0:0:
368,212,9498,5,0,0:0:0:0:
334,366,9665,1,0,0:0:0:0:
271,78,9832,5,0,0:0:0:0:
322,307,9998,1,0,0:0:0:0:
153,162,10165,5,0,0:0:0:0:
142,361,10332,1,0,0:0:0:0:
263,24,10498,5,0,0:0:0:0:
234,263,10665,1,0,0:0:0:0:
84,50,10832,5,0,0:0:0:0:
57,312,10998,1,0,0:0:0:0:
190,101,11165,5,0,0:0:0:0:
350,238,11332,2,0,L|446:203,1,95
120,258,11665,5,0,0:0:0:0:
300,43,11832,2,0,P|312:88|305:147,1,95
221,343,12165,5,0,0:0:0:0:
176,100,12332,1,0,0:0:0:0:
256,258,12498,5,0,0:0:0:0:
301,15,12665,1,0,0:0:0:0:
166,304,12832,5,0,0:0:0:0:
89,44,12998,2,0,P|66:96|67:146,1,95
311,101,13332,5,0,0:0:0:0:
436,350,13498,2,0,P|459:304|460:250,1,95
363,33,13832,5,0,0:0:0:0:
244,272,13998,1,0,0:0:0:0:
256,76,14165,5,0,0:0:0:0:
305,353,14332,1,0,0:0:0:0:
175,151,14498,5,0,0:0:0:0:
104,358,14665,1,0,0:0:0:0:
101,96,14832,5,0,0:0:0:0:
154,239,14998,1,0,0:0:0:0:
166,29,15165,5,0,0:0:0:0:
75,193,15332,1,0,0:0:0:0:
232,89,15498,5,0,0:0:0:0:
291,338,15665,1,0,0:0:0:0:
176,161,15832,5,0,0:0:0:0:
123,361,15998,1,0,0:0:0:0:
311,53,16165,5,0,0:0:0:0:
371,311,16332,1,0,0:0:0:0:
224,4,16498,6,0,P|196:63|199:111,1,95
309,236,16832,2,0,P|306:307|285:349,1,95
172,115,17165,5,0,0:0:0:0:
416,171,17332,1,0,0:0:0:0:
80,215,17498,5,0,0:0:0:0:
316,98,17665,1,0,0:0:0:0:
210,303,17832,5,0,0:0:0:0:
248,47,17998,1,0,0:0:0:0:
354,354,18165,5,0,0:0:0:0:
316,98,18331,1,0,0:0:0:0:
149,323,18498,6,0,P|90:328|40:309,2,95
421,237,18998,2,0,P|441:284|442:340,2,95
156,37,19498,6,0,P|131:97|148:138,1,95
319,229,19832,1,0,0:0:0:0:
257,67,19998,5,0,0:0:0:0:
183,306,20165,1,0,0:0:0:0:
153,135,20332,5,0,0:0:0:0:
101,357,20498,1,0,0:0:0:0:
142,42,20665,5,0,0:0:0:0:
180,274,20832,1,0,0:0:0:0:
130,140,20998,5,0,0:0:0:0:
104,341,21165,1,0,0:0:0:0:
60,59,21332,5,0,0:0:0:0:
21,266,21498,2,0,P|43:321|88:338,1,95
427,98,21832,5,0,0:0:0:0:
366,336,21998,1,0,0:0:0:0:
85,98,22165,5,0,0:0:0:0:
146,336,22331,1,0,0:0:0:0:
335,31,22498,5,0,0:0:0:0:
438,274,22665,1,0,0:0:0:0:
177,31,22832,5,0,0:0:0:0:
74,274,22999,1,0,0:0:0:0:
421,119,23165,5,0,0:0:0:0:
131,213,23332,1,0,0:0:0:0:
369,187,23498,5,0,0:0:0:0:
79,93,23665,1,0,0:0:0:0:
349,65,23832,5,0,0:0:0:0:
265,329,23998,1,0,0:0:0:0:
147,60,24165,5,0,0:0:0:0:
446,147,24332,1,0,0:0:0:0:
148,260,24498,5,0,0:0:0:0:
143,288,25832,5,0,0:0:0:0:
79,43,25998,2,0,P|56:100|57:141,2,95
369,288,26498,5,0,0:0:0:0:
433,43,26664,2,0,P|456:100|455:141,2,95
151,274,27165,5,0,0:0:0:0:
270,47,27332,1,0,0:0:0:0:
331,307,27498,5,0,0:0:0:0:
101,181,27665,1,0,0:0:0:0:
426,258,27832,5,0,0:0:0:0:
178,115,27998,2,0,P|162:71|165:1,2,95
260,51,28498,5,0,0:0:0:0:
186,301,28665,2,0,P|128:334|80:334,2,95
162,108,29165,5,0,0:0:0:0:
326,301,29332,2,0,P|384:334|432:334,2,95
212,52,29832,5,0,0:0:0:0:
125,293,29998,1,0,0:0:0:0:
304,133,30165,5,0,0:0:0:0:
351,356,30332,1,0,0:0:0:0:
434,50,30498,5,0,0:0:0:0:
266,283,30665,1,0,0:0:0:0:
236,62,30832,5,0,0:0:0:0:
157,344,30998,1,0,0:0:0:0:
127,26,31165,5,0,0:0:0:0:
203,267,31332,1,0,0:0:0:0:
342,37,31498,5,0,0:0:0:0:
46,96,31665,1,0,0:0:0:0:
451,162,31832,5,0,0:0:0:0:
143,35,31998,1,0,0:0:0:0:
302,313,32165,5,0,0:0:0:0:
342,37,32332,1,0,0:0:0:0:
125,347,32498,5,0,0:0:0:0:
181,83,32665,1,0,0:0:0:0:
312,352,32832,5,0,0:0:0:0:
107,117,32998,1,0,0:0:0:0:
67,336,33165,5,0,0:0:0:0:
183,32,33332,1,0,0:0:0:0:
310,301,33498,5,0,0:0:0:0:
30,211,33665,1,0,0:0:0:0:
435,226,33832,5,0,0:0:0:0:
65,310,33998,1,0,0:0:0:0:
349,60,34165,5,0,0:0:0:0:
391,356,34332,1,0,0:0:0:0:
163,60,34498,5,0,0:0:0:0:
121,356,34665,1,0,0:0:0:0:
422,42,34832,5,0,0:0:0:0:
72,100,34998,2,0,P|47:148|44:201,1,95
353,282,35832,5,0,0:0:0:0:
277,152,35998,1,0,0:0:0:0:
251,348,36165,5,0,0:0:0:0:
261,232,36332,1,0,0:0:0:0:
180,294,36498,6,0,P|170:245|180:189,1,95
256,188,37165,1,0,0:0:0:0:
