osu file format v14

[General]
AudioFilename: joshi.mp3
AudioLeadIn: 0
PreviewTime: 56885
Countdown: 1
SampleSet: None
StackLeniency: 0.7
Mode: 0
LetterboxInBreaks: 0
WidescreenStoryboard: 1

[Editor]
Bookmarks: 43786,44686,222707,238924,244113,269734
DistanceSpacing: 1
BeatDivisor: 4
GridSize: 8
TimelineZoom: 1.8

[Metadata]
Title:1-2 pp Jump Training
TitleUnicode:1-2 pp Jump Training
Artist:Various Artists
ArtistUnicode:Various Artists
Creator:Krisu
Version:1-2 Gachi Danshi [AR10]
Source:
Tags:black bride melodic death metal ettore rigotti stamina jumps 1-2 sotarks feat disarmonia mundi
BeatmapID:2957452
BeatmapSetID:852235

[Difficulty]
HPDrainRate:3.5
CircleSize:4
OverallDifficulty:9
ApproachRate:10
SliderMultiplier:1.8
SliderTickRate:2

[Events]
//Background and Video events
0,0,"123gachi.jpg",0,0
//Break Periods
//Storyboard Layer 0 (Background)
//Storyboard Layer 1 (Fail)
//Storyboard Layer 2 (Pass)
//Storyboard Layer 3 (Foreground)
//Storyboard Layer 4 (Overlay)
//Storyboard Sound Samples

[TimingPoints]
2385,333.333333333333,4,1,0,100,1,0
2385,-100,4,1,0,100,0,1
24384,-100,4,1,0,100,0,0

[Colours]
Combo1 : 242,136,208
Combo2 : 253,155,66
Combo3 : 28,193,249
Combo4 : 232,215,0

[HitObjects]
370,81,2385,6,0,L|358:151,1,45
322,320,2552,2,0,L|334:250,1,45
292,8,2719,6,0,L|304:78,1,45
340,247,2886,2,0,L|328:177,1,45
139,55,3052,5,0,0:0:0:0:
187,279,3218,1,0,0:0:0:0:
195,119,3385,5,0,0:0:0:0:
103,335,3552,1,0,0:0:0:0:
108,41,3718,5,0,0:0:0:0:
226,224,3885,1,0,0:0:0:0:
195,79,4052,5,0,0:0:0:0:
171,303,4219,1,0,0:0:0:0:
270,165,4385,5,0,0:0:0:0:
316,347,4552,1,0,0:0:0:0:
343,103,4719,5,0,0:0:0:0:
329,259,4885,1,0,0:0:0:0:
412,168,5052,5,0,0:0:0:0:
451,336,5219,1,0,0:0:0:0:
462,84,5385,5,0,0:0:0:0:
412,261,5552,1,0,0:0:0:0:
350,127,5719,5,0,0:0:0:0:
375,349,5885,1,0,0:0:0:0:
273,58,6052,5,0,0:0:0:0:
210,292,6219,1,0,0:0:0:0:
367,113,6385,5,0,0:0:0:0:
118,79,6552,1,0,0:0:0:0:
294,178,6719,5,0,0:0:0:0:
35,133,6885,1,0,0:0:0:0:
341,98,7052,5,0,0:0:0:0:
96,188,7219,1,0,0:0:0:0:
430,189,7385,5,0,0:0:0:0:
151,117,7552,1,0,0:0:0:0:
411,98,7719,5,0,0:0:0:0:
443,316,7885,1,0,0:0:0:0:
226,150,8052,5,0,0:0:0:0:
189,339,8219,1,0,0:0:0:0:
323,78,8385,5,0,0:0:0:0:
370,285,8552,1,0,0:0:0:0:
181,28,8719,5,0,0:0:0:0:
131,266,8885,1,0,0:0:0:0:
381,83,9052,5,0,0:0:0:0:
449,310,9219,1,0,0:0:0:0:
128,50,9385,5,0,0:0:0:0:
71,309,9552,1,0,0:0:0:0:
416,23,9719,5,0,0:0:0:0:
504,256,9885,1,0,0:0:0:0:
63,36,10052,5,0,0:0:0:0:
16,280,10219,1,0,0:0:0:0:
238,111,10385,5,0,0:0:0:0:
297,343,10552,1,0,0:0:0:0:
316,46,10719,5,0,0:0:0:0:
215,273,10885,1,0,0:0:0:0:
505,167,11052,5,0,0:0:0:0:
253,57,11219,1,0,0:0:0:0:
456,75,11385,5,0,0:0:0:0:
284,240,11552,1,0,0:0:0:0:
367,49,11719,5,0,0:0:0:0:
382,325,11885,1,0,0:0:0:0:
234,60,12052,5,0,0:0:0:0:
511,178,12219,1,0,0:0:0:0:
126,20,12385,6,0,B|112:61|112:61|107:141,1,90
455,180,12719,2,0,B|453:134|453:134|439:93,1,90
101,256,13052,6,0,B|81:278|81:278|65:345,1,90
295,151,13385,2,0,B|315:173|315:173|331:240,1,90
126,58,13719,5,0,0:0:0:0:
403,94,13885,1,0,0:0:0:0:
62,129,14052,5,0,0:0:0:0:
356,39,14219,1,0,0:0:0:0:
78,20,14385,5,0,0:0:0:0:
56,287,14552,1,0,0:0:0:0:
202,104,14719,5,0,0:0:0:0:
257,336,14885,1,0,0:0:0:0:
289,51,15052,5,0,0:0:0:0:
186,265,15219,1,0,0:0:0:0:
338,144,15385,5,0,0:0:0:0:
402,344,15552,1,0,0:0:0:0:
400,51,15719,5,0,0:0:0:0:
305,283,15885,1,0,0:0:0:0:
277,108,16052,5,0,0:0:0:0:
363,360,16219,1,0,0:0:0:0:
227,16,16385,5,0,0:0:0:0:
191,270,16551,1,0,0:0:0:0:
103,52,16719,5,0,0:0:0:0:
402,127,16885,1,0,0:0:0:0:
168,147,17053,5,0,0:0:0:0:
446,54,17219,1,0,0:0:0:0:
98,57,17385,5,0,0:0:0:0:
412,149,17552,1,0,0:0:0:0:
116,265,17719,5,0,0:0:0:0:
187,12,17885,1,0,0:0:0:0:
266,356,18052,5,0,0:0:0:0:
206,119,18219,1,0,0:0:0:0:
181,307,18385,5,0,0:0:0:0:
280,46,18552,1,0,0:0:0:0:
374,348,18719,5,0,0:0:0:0:
258,132,18885,1,0,0:0:0:0:
489,254,19052,6,0,P|491:189|472:132,1,90
80,191,19385,2,0,P|78:126|92:69,1,90
433,95,19719,6,0,P|378:80|336:87,1,90
182,346,20052,2,0,P|171:290|174:236,1,90
413,197,20385,6,0,P|417:242|407:291,1,90
132,105,20719,1,0,0:0:0:0:
396,98,20885,5,0,0:0:0:0:
164,196,21052,5,0,0:0:0:0:
465,233,21219,1,0,0:0:0:0:
119,282,21385,5,0,0:0:0:0:
406,176,21552,1,0,0:0:0:0:
71,153,21719,5,0,0:0:0:0:
285,328,21885,1,0,0:0:0:0:
178,66,22052,5,0,0:0:0:0:
93,298,22219,1,0,0:0:0:0:
250,168,22385,5,0,0:0:0:0:
302,379,22552,1,0,0:0:0:0:
310,62,22719,5,0,0:0:0:0:
240,293,22885,1,0,0:0:0:0:
222,30,23052,6,0,B|170:19|170:19|106:30,1,90
438,176,23385,2,0,B|444:139|444:139|433:87,1,90,0|0,0:3|0:3,0:3:0:0:
45,61,23719,5,0,0:0:0:0:
319,258,23885,1,0,0:0:0:0:
187,71,24052,5,0,0:0:0:0:
113,328,24219,1,0,0:0:0:0:
104,32,24385,6,0,P|163:22|206:33,1,90
438,111,24719,2,0,P|446:56|441:9,1,90
234,282,25052,6,0,L|226:340,1,45
333,143,25219,2,0,L|341:85,1,45
95,273,25385,6,0,P|87:221|98:162,1,90
223,39,25719,1,0,0:0:0:0:
338,262,25886,6,0,L|344:306,1,45
180,178,26052,2,0,L|173:222,1,45
403,147,26219,6,0,L|409:191,1,45
272,76,26385,2,0,L|265:120,1,45
186,334,26552,6,0,L|195:276,1,45
140,80,26719,2,0,L|131:137,1,45
284,201,26885,6,0,L|226:192,1,45
30,247,27052,2,0,L|87:256,1,45
