osu file format v14

[General]
AudioFilename: audio.mp3
AudioLeadIn: 0
PreviewTime: -1
Countdown: 0
SampleSet: Normal
StackLeniency: 0.7
Mode: 1
LetterboxInBreaks: 0
EpilepsyWarning: 1
WidescreenStoryboard: 1

[Editor]
DistanceSpacing: 0.1
BeatDivisor: 4
GridSize: 32
TimelineZoom: 2.5

[Metadata]
Title:- DREAM COME TRUE -
TitleUnicode:- DREAM COME TRUE -
Artist:Various Artists
ArtistUnicode:Various Artists
Creator:Mayuzumi Sayaka
Version:DREAM
Source:International Wrestling Festival
Tags:gachimuchi International Wrestling Festival teenage mutant ninja turtles: turtles in time dragon ball z op my skateboard will go on DuckTales remove kebab unknown bossian kazuya snake dance Jojo's bizzare adventure bloody streeam miss kobayashi's dragon maid aozora no rhapsody chavez obama's theme IDOLM@STER praline me!me!me! teddyloid ft. daoke grand theft auto: san andreas gta:sa dr. wily stage 1 mega man z dragonforce through fire and flames haru yo, koi matsutoya plus danshi reol & giga feat kagamine lan reach for the moon, immortal smoke Touhou Eiyashou imperishable night brain power noma solar sect of mystic wisdom nuclear fusion chireiden subterrean animism bucchigiri ni shite ageru miku ni shite ageru remix meme
BeatmapID:1532469
BeatmapSetID:725837

[Difficulty]
HPDrainRate:5
CircleSize:4
OverallDifficulty:7
ApproachRate:10
SliderMultiplier:1.9
SliderTickRate:1

[Events]
//Background and Video events
0,0,"Dream Come True.jpg",0,0
//Break Periods
//Storyboard Layer 0 (Background)
//Storyboard Layer 1 (Fail)
//Storyboard Layer 2 (Pass)
//Storyboard Layer 3 (Foreground)
//Storyboard Sound Samples

[TimingPoints]
1388,333.333333333333,4,1,0,45,1,0
55082,333.333333333333,4,1,0,45,1,0
97414,333.333333333333,4,1,0,45,1,0
132079,333.333333333333,4,1,0,45,1,0
184499,434.782608695652,4,1,0,45,1,0
187977,434.782608695652,4,1,0,45,1,0
249715,434.782608695652,4,1,0,45,1,0
291454,434.782608695652,4,1,0,45,1,0
319280,434.782608695652,4,1,0,45,1,0
333169,434.782608695652,4,1,0,45,1,0
347082,-100,4,1,0,45,0,1
374908,-100,4,1,0,45,0,0
381888,434.782608695652,4,1,0,45,1,1
395801,333.333333333333,4,1,0,45,1,1
409634,-100,4,1,0,45,0,0
413259,333.333333333333,4,1,0,45,1,0
477259,333.333333333333,4,1,0,45,1,0
521259,333.333333333333,4,1,0,45,1,0
565259,322.58064516129,4,1,0,45,1,0
623317,322.58064516129,4,1,0,45,1,0
633639,322.58064516129,4,1,0,45,1,1
654284,-100,4,1,0,45,0,0
656865,322.58064516129,4,1,0,45,1,0
667187,-100,4,1,0,45,0,1
677510,-100,4,1,0,45,0,0
687832,-100,4,1,0,45,0,1
698155,322.58064516129,4,1,0,45,1,0
739445,322.58064516129,4,1,0,45,1,0
749767,-100,4,1,0,45,0,1
770412,322.58064516129,4,1,0,45,1,0
803152,322.58064516129,4,1,0,45,1,0
845732,322.58064516129,4,1,0,45,1,1
845733,-100,4,1,0,45,0,0
845973,-100,4,1,0,45,0,1
845974,-100,4,1,0,45,0,0
846215,-100,4,1,0,45,0,1
846216,-100,4,1,0,45,0,0
846457,-100,4,1,0,45,0,1
846458,-100,4,1,0,45,0,0
846699,-100,4,1,0,45,0,1
846700,-100,4,1,0,45,0,0
847022,-100,4,1,0,45,0,1
867667,-100,4,1,0,45,0,0

[HitObjects]
256,192,1388,5,12,0:0:0:0:
256,192,2054,1,0,0:0:0:0:
256,192,2387,1,0,0:0:0:0:
256,192,2721,1,8,0:0:0:0:
256,192,3387,1,0,0:0:0:0:
256,192,4054,1,0,0:0:0:0:
256,192,4304,1,0,0:0:0:0:
256,192,4637,1,0,0:0:0:0:
256,192,4971,1,0,0:0:0:0:
256,192,5387,1,8,0:0:0:0:
256,192,5887,1,0,0:0:0:0:
256,192,6721,1,12,0:0:0:0:
256,192,7387,1,8,0:0:0:0:
256,192,7721,1,8,0:0:0:0:
256,192,7887,1,0,0:0:0:0:
256,192,7971,1,0,0:0:0:0:
256,192,8054,1,8,0:0:0:0:
256,192,8137,1,0,0:0:0:0:
256,192,8221,1,0,0:0:0:0:
256,192,8304,1,0,0:0:0:0:
256,192,8387,1,8,0:0:0:0:
256,192,8554,1,8,0:0:0:0:
256,192,8721,1,8,0:0:0:0:
256,192,9054,1,8,0:0:0:0:
256,192,9387,1,8,0:0:0:0:
256,192,9804,1,0,0:0:0:0:
256,192,10221,1,0,0:0:0:0:
256,192,10721,1,8,0:0:0:0:
256,192,11054,1,8,0:0:0:0:
256,192,11387,1,8,0:0:0:0:
256,192,11721,1,0,0:0:0:0:
256,192,12054,1,8,0:0:0:0:
256,192,12221,1,0,0:0:0:0:
256,192,12387,1,8,0:0:0:0:
256,192,12471,1,8,0:0:0:0:
256,192,12554,1,8,0:0:0:0:
256,192,12637,1,0,0:0:0:0:
256,192,12721,1,12,0:0:0:0:
256,192,13054,1,0,0:0:0:0:
256,192,13221,1,0,0:0:0:0:
256,192,13387,1,8,0:0:0:0:
256,192,13887,1,12,0:0:0:0:
256,192,14221,1,12,0:0:0:0:
256,192,14554,1,12,0:0:0:0:
256,192,14721,1,0,0:0:0:0:
256,192,14887,1,0,0:0:0:0:
256,192,15054,1,8,0:0:0:0:
256,192,15221,1,0,0:0:0:0:
256,192,15387,1,8,0:0:0:0:
256,192,15554,1,0,0:0:0:0:
256,192,15721,1,8,0:0:0:0:
256,192,15887,1,0,0:0:0:0:
256,192,16054,1,8,0:0:0:0:
256,192,16221,1,0,0:0:0:0:
256,192,16387,1,8,0:0:0:0:
256,192,16554,1,8,0:0:0:0:
256,192,16721,1,8,0:0:0:0:
256,192,16887,1,0,0:0:0:0:
256,192,17054,1,8,0:0:0:0:
256,192,17387,1,8,0:0:0:0:
256,192,17554,1,0,0:0:0:0:
256,192,17637,1,0,0:0:0:0:
256,192,17721,1,8,0:0:0:0:
256,192,17887,1,0,0:0:0:0:
256,192,18054,1,12,0:0:0:0:
256,192,18387,1,8,0:0:0:0:
256,192,18471,1,0,0:0:0:0:
256,192,18554,1,0,0:0:0:0:
256,192,18637,1,0,0:0:0:0:
256,192,18721,1,8,0:0:0:0:
256,192,19221,1,12,0:0:0:0:
256,192,19554,1,12,0:0:0:0:
256,192,19887,1,12,0:0:0:0:
256,192,20054,1,0,0:0:0:0:
256,192,20221,1,0,0:0:0:0:
256,192,20387,1,8,0:0:0:0:
256,192,20554,1,0,0:0:0:0:
256,192,20721,1,0,0:0:0:0:
256,192,20887,1,0,0:0:0:0:
256,192,21054,1,8,0:0:0:0:
256,192,21221,1,0,0:0:0:0:
256,192,21387,1,0,0:0:0:0:
256,192,21554,1,0,0:0:0:0:
256,192,21721,1,8,0:0:0:0:
256,192,21887,1,0,0:0:0:0:
256,192,22054,1,8,0:0:0:0:
256,192,22221,1,0,0:0:0:0:
256,192,22387,1,8,0:0:0:0:
256,192,22471,1,0,0:0:0:0:
256,192,22554,1,0,0:0:0:0:
256,192,22637,1,0,0:0:0:0:
256,192,22721,1,12,0:0:0:0:
256,192,23054,1,8,0:0:0:0:
256,192,23387,1,0,0:0:0:0:
256,192,23721,1,8,0:0:0:0:
256,192,24054,1,8,0:0:0:0:
256,192,24387,1,8,0:0:0:0:
256,192,24554,1,0,0:0:0:0:
256,192,24721,1,8,0:0:0:0:
256,192,24887,1,0,0:0:0:0:
256,192,25054,1,8,0:0:0:0:
256,192,25137,1,0,0:0:0:0:
256,192,25221,1,0,0:0:0:0:
256,192,25304,1,0,0:0:0:0:
256,192,25387,1,8,0:0:0:0:
256,192,25554,1,0,0:0:0:0:
256,192,25721,1,8,0:0:0:0:
256,192,25887,1,0,0:0:0:0:
256,192,25971,1,0,0:0:0:0:
256,192,26054,1,8,0:0:0:0:
256,192,26221,1,0,0:0:0:0:
256,192,26387,1,0,0:0:0:0:
256,192,26554,1,12,0:0:0:0:
256,192,27054,1,8,0:0:0:0:
256,192,27387,1,8,0:0:0:0:
256,192,27554,1,0,0:0:0:0:
256,192,27637,1,0,0:0:0:0:
256,192,27721,1,8,0:0:0:0:
256,192,27804,1,0,0:0:0:0:
256,192,27887,1,0,0:0:0:0:
256,192,27971,1,0,0:0:0:0:
256,192,28054,1,8,0:0:0:0:
256,192,28387,1,8,0:0:0:0:
256,192,28721,1,0,0:0:0:0:
256,192,29054,1,8,0:0:0:0:
256,192,29387,1,8,0:0:0:0:
256,192,29554,1,0,0:0:0:0:
256,192,29721,1,8,0:0:0:0:
256,192,29887,1,0,0:0:0:0:
256,192,30054,1,8,0:0:0:0:
256,192,30387,1,8,0:0:0:0:
256,192,30554,1,0,0:0:0:0:
256,192,30721,1,8,0:0:0:0:
256,192,30887,1,0,0:0:0:0:
256,192,31054,1,8,0:0:0:0:
256,192,31387,1,8,0:0:0:0:
256,192,31721,1,8,0:0:0:0:
256,192,31887,1,8,0:0:0:0:
256,192,32221,1,8,0:0:0:0:
256,192,32554,1,8,0:0:0:0:
256,192,32887,1,8,0:0:0:0:
256,192,33387,1,8,0:0:0:0:
256,192,33554,1,0,0:0:0:0:
256,192,33721,1,8,0:0:0:0:
256,192,33804,1,0,0:0:0:0:
256,192,33887,1,0,0:0:0:0:
256,192,34054,1,8,0:0:0:0:
256,192,34221,1,0,0:0:0:0:
256,192,34387,1,8,0:0:0:0:
256,192,34554,1,8,0:0:0:0:
256,192,34721,1,8,0:0:0:0:
256,192,35054,1,0,0:0:0:0:
256,192,35221,1,0,0:0:0:0:
256,192,35387,1,8,0:0:0:0:
256,192,35554,1,0,0:0:0:0:
256,192,35721,1,8,0:0:0:0:
256,192,35887,1,8,0:0:0:0:
256,192,36054,1,8,0:0:0:0:
256,192,36221,1,0,0:0:0:0:
256,192,36387,1,8,0:0:0:0:
256,192,36721,1,8,0:0:0:0:
256,192,36887,1,8,0:0:0:0:
256,192,37054,1,8,0:0:0:0:
256,192,37387,1,8,0:0:0:0:
256,192,37554,1,0,0:0:0:0:
256,192,37721,1,8,0:0:0:0:
256,192,37887,1,0,0:0:0:0:
256,192,38054,1,8,0:0:0:0:
256,192,38221,1,0,0:0:0:0:
256,192,38304,1,0,0:0:0:0:
256,192,38387,1,8,0:0:0:0:
256,192,38554,1,0,0:0:0:0:
256,192,38721,1,12,0:0:0:0:
256,192,38887,1,0,0:0:0:0:
256,192,39054,1,8,0:0:0:0:
256,192,39387,1,8,0:0:0:0:
256,192,39554,1,8,0:0:0:0:
256,192,39721,1,8,0:0:0:0:
256,192,39887,1,0,0:0:0:0:
256,192,40054,1,8,0:0:0:0:
256,192,40221,1,8,0:0:0:0:
256,192,40387,1,8,0:0:0:0:
256,192,40554,1,0,0:0:0:0:
256,192,40721,1,8,0:0:0:0:
256,192,40887,1,8,0:0:0:0:
256,192,41054,1,8,0:0:0:0:
256,192,41221,1,0,0:0:0:0:
256,192,41387,1,8,0:0:0:0:
256,192,41554,1,0,0:0:0:0:
256,192,41721,1,8,0:0:0:0:
256,192,42054,1,8,0:0:0:0:
256,192,42221,1,8,0:0:0:0:
256,192,42387,1,8,0:0:0:0:
256,192,42554,1,0,0:0:0:0:
256,192,42721,1,8,0:0:0:0:
256,192,42887,1,0,0:0:0:0:
256,192,43054,1,8,0:0:0:0:
256,192,43221,1,0,0:0:0:0:
256,192,43387,1,8,0:0:0:0:
256,192,43554,1,0,0:0:0:0:
256,192,43721,1,8,0:0:0:0:
256,192,43804,1,0,0:0:0:0:
256,192,43887,1,0,0:0:0:0:
256,192,43971,1,0,0:0:0:0:
256,192,44054,1,12,0:0:0:0:
256,192,44387,1,8,0:0:0:0:
256,192,44721,1,8,0:0:0:0:
256,192,44887,1,0,0:0:0:0:
256,192,45054,1,8,0:0:0:0:
256,192,45221,1,0,0:0:0:0:
256,192,45387,1,8,0:0:0:0:
256,192,45721,1,8,0:0:0:0:
256,192,46054,1,8,0:0:0:0:
256,192,46387,1,8,0:0:0:0:
256,192,46721,1,8,0:0:0:0:
256,192,46887,1,0,0:0:0:0:
256,192,47054,1,0,0:0:0:0:
256,192,47387,1,8,0:0:0:0:
256,192,47554,1,0,0:0:0:0:
256,192,47721,1,8,0:0:0:0:
256,192,48054,1,8,0:0:0:0:
256,192,48221,1,0,0:0:0:0:
256,192,48387,1,8,0:0:0:0:
256,192,48721,1,8,0:0:0:0:
256,192,48887,1,8,0:0:0:0:
256,192,49054,1,8,0:0:0:0:
256,192,49221,1,8,0:0:0:0:
256,192,49387,1,12,0:0:0:0:
256,192,49721,1,8,0:0:0:0:
256,192,50054,1,8,0:0:0:0:
256,192,50221,1,0,0:0:0:0:
256,192,50387,1,8,0:0:0:0:
256,192,50554,1,0,0:0:0:0:
256,192,50721,1,8,0:0:0:0:
256,192,51054,1,8,0:0:0:0:
256,192,51387,1,8,0:0:0:0:
256,192,51554,1,0,0:0:0:0:
256,192,51721,1,8,0:0:0:0:
256,192,52054,1,8,0:0:0:0:
256,192,52221,1,0,0:0:0:0:
256,192,52387,1,8,0:0:0:0:
256,192,52721,1,8,0:0:0:0:
256,192,52887,1,0,0:0:0:0:
256,192,53054,1,8,0:0:0:0:
256,192,53387,1,8,0:0:0:0:
256,192,53721,1,8,0:0:0:0:
256,192,53804,1,0,0:0:0:0:
256,192,53887,1,0,0:0:0:0:
256,192,53971,1,0,0:0:0:0:
256,192,54054,1,8,0:0:0:0:
256,192,54137,1,0,0:0:0:0:
256,192,54221,1,0,0:0:0:0:
256,192,54304,1,0,0:0:0:0:
256,192,54387,1,8,0:0:0:0:
256,192,54471,1,0,0:0:0:0:
256,192,54554,1,0,0:0:0:0:
256,192,54637,1,0,0:0:0:0:
256,192,54721,1,0,0:0:0:0:
256,192,55082,1,12,0:0:0:0:
256,192,55415,1,0,0:0:0:0:
256,192,55748,1,4,0:0:0:0:
256,192,56082,1,4,0:0:0:0:
256,192,56415,1,8,0:0:0:0:
256,192,56748,1,8,0:0:0:0:
256,192,57082,1,8,0:0:0:0:
256,192,57248,1,0,0:0:0:0:
256,192,57415,1,8,0:0:0:0:
256,192,57498,1,0,0:0:0:0:
256,192,57582,1,0,0:0:0:0:
256,192,57665,1,0,0:0:0:0:
256,192,57748,1,8,0:0:0:0:
256,192,57915,1,0,0:0:0:0:
256,192,58082,1,8,0:0:0:0:
256,192,58248,1,0,0:0:0:0:
256,192,58415,1,8,0:0:0:0:
256,192,58582,1,0,0:0:0:0:
256,192,58748,1,0,0:0:0:0:
256,192,58915,1,0,0:0:0:0:
256,192,59081,1,8,0:0:0:0:
256,192,59415,1,8,0:0:0:0:
256,192,59498,1,8,0:0:0:0:
256,192,59581,1,8,0:0:0:0:
256,192,59665,1,0,0:0:0:0:
256,192,59748,1,8,0:0:0:0:
256,192,59915,1,0,0:0:0:0:
256,192,60081,1,8,0:0:0:0:
256,192,60248,1,0,0:0:0:0:
256,192,60415,1,8,0:0:0:0:
256,192,60498,1,8,0:0:0:0:
256,192,60581,1,0,0:0:0:0:
256,192,60748,1,8,0:0:0:0:
256,192,60915,1,0,0:0:0:0:
256,192,61081,1,8,0:0:0:0:
256,192,61248,1,0,0:0:0:0:
256,192,61415,1,8,0:0:0:0:
256,192,61581,1,0,0:0:0:0:
256,192,61748,1,8,0:0:0:0:
256,192,61915,1,8,0:0:0:0:
256,192,62081,1,8,0:0:0:0:
256,192,62165,1,0,0:0:0:0:
256,192,62248,1,0,0:0:0:0:
256,192,62331,1,0,0:0:0:0:
256,192,62415,1,8,0:0:0:0:
256,192,62748,1,8,0:0:0:0:
256,192,62915,1,8,0:0:0:0:
256,192,63081,1,8,0:0:0:0:
256,192,63248,1,0,0:0:0:0:
256,192,63415,1,8,0:0:0:0:
256,192,63581,1,0,0:0:0:0:
256,192,63748,1,8,0:0:0:0:
256,192,63915,1,0,0:0:0:0:
256,192,64081,1,0,0:0:0:0:
256,192,64248,1,0,0:0:0:0:
256,192,64415,1,8,0:0:0:0:
256,192,64581,1,8,0:0:0:0:
256,192,64748,1,12,0:0:0:0:
256,192,64915,1,0,0:0:0:0:
256,192,65081,1,12,0:0:0:0:
256,192,65415,1,12,0:0:0:0:
256,192,65581,1,8,0:0:0:0:
256,192,65915,1,8,0:0:0:0:
256,192,66081,1,8,0:0:0:0:
256,192,66415,1,8,0:0:0:0:
256,192,66581,1,8,0:0:0:0:
256,192,66748,1,0,0:0:0:0:
256,192,66915,1,0,0:0:0:0:
256,192,67081,1,8,0:0:0:0:
256,192,67415,1,8,0:0:0:0:
256,192,67581,1,8,0:0:0:0:
256,192,67665,1,0,0:0:0:0:
256,192,67748,1,8,0:0:0:0:
256,192,67831,1,0,0:0:0:0:
256,192,67915,1,8,0:0:0:0:
256,192,68081,1,8,0:0:0:0:
256,192,68248,1,8,0:0:0:0:
256,192,68415,1,8,0:0:0:0:
256,192,68748,1,8,0:0:0:0:
256,192,68915,1,8,0:0:0:0:
256,192,69248,1,8,0:0:0:0:
256,192,69415,1,8,0:0:0:0:
256,192,69581,1,0,0:0:0:0:
256,192,69748,1,8,0:0:0:0:
256,192,70081,1,8,0:0:0:0:
256,192,70165,1,0,0:0:0:0:
256,192,70248,1,0,0:0:0:0:
256,192,70415,1,0,0:0:0:0:
256,192,70581,1,0,0:0:0:0:
256,192,70748,1,8,0:0:0:0:
256,192,70915,1,8,0:0:0:0:
256,192,71248,1,8,0:0:0:0:
256,192,71415,1,8,0:0:0:0:
256,192,71748,1,8,0:0:0:0:
256,192,71915,1,8,0:0:0:0:
256,192,72248,1,0,0:0:0:0:
256,192,72415,1,8,0:0:0:0:
256,192,72748,1,8,0:0:0:0:
256,192,72831,1,8,0:0:0:0:
256,192,72915,1,8,0:0:0:0:
256,192,72998,1,0,0:0:0:0:
256,192,73081,1,8,0:0:0:0:
256,192,73165,1,0,0:0:0:0:
256,192,73248,1,0,0:0:0:0:
256,192,73331,1,0,0:0:0:0:
256,192,73415,1,8,0:0:0:0:
256,192,73581,1,8,0:0:0:0:
256,192,73748,1,8,0:0:0:0:
256,192,74081,1,8,0:0:0:0:
256,192,74248,1,8,0:0:0:0:
256,192,74581,1,8,0:0:0:0:
256,192,74748,1,0,0:0:0:0:
256,192,74915,1,8,0:0:0:0:
256,192,75081,1,8,0:0:0:0:
256,192,75415,1,8,0:0:0:0:
256,192,75581,1,12,0:0:0:0:
256,192,75915,1,12,0:0:0:0:
256,192,76081,1,8,0:0:0:0:
256,192,76248,1,0,0:0:0:0:
256,192,76415,1,8,0:0:0:0:
256,192,76581,1,8,0:0:0:0:
256,192,76748,1,8,0:0:0:0:
256,192,76915,1,8,0:0:0:0:
256,192,77081,1,8,0:0:0:0:
256,192,77248,1,0,0:0:0:0:
256,192,77415,1,8,0:0:0:0:
256,192,77581,1,0,0:0:0:0:
256,192,77748,1,8,0:0:0:0:
256,192,78081,1,0,0:0:0:0:
256,192,78165,1,0,0:0:0:0:
256,192,78248,1,0,0:0:0:0:
256,192,78415,1,0,0:0:0:0:
256,192,78581,1,0,0:0:0:0:
256,192,78748,1,8,0:0:0:0:
256,192,78915,1,0,0:0:0:0:
256,192,79081,1,8,0:0:0:0:
256,192,79248,1,0,0:0:0:0:
256,192,79415,1,8,0:0:0:0:
256,192,79581,1,8,0:0:0:0:
256,192,79748,1,8,0:0:0:0:
256,192,79915,1,0,0:0:0:0:
256,192,80081,1,8,0:0:0:0:
256,192,80248,1,0,0:0:0:0:
256,192,80415,1,8,0:0:0:0:
256,192,80581,1,0,0:0:0:0:
256,192,80748,1,8,0:0:0:0:
256,192,80915,1,8,0:0:0:0:
256,192,81081,1,8,0:0:0:0:
256,192,81248,1,8,0:0:0:0:
256,192,81415,1,8,0:0:0:0:
256,192,81581,1,0,0:0:0:0:
256,192,81748,1,8,0:0:0:0:
256,192,81915,1,0,0:0:0:0:
256,192,82081,1,8,0:0:0:0:
256,192,82165,1,0,0:0:0:0:
256,192,82248,1,0,0:0:0:0:
256,192,82415,1,8,0:0:0:0:
256,192,82581,1,8,0:0:0:0:
256,192,82748,1,8,0:0:0:0:
256,192,82915,1,0,0:0:0:0:
256,192,83081,1,8,0:0:0:0:
256,192,83248,1,0,0:0:0:0:
256,192,83415,1,8,0:0:0:0:
256,192,83748,1,8,0:0:0:0:
256,192,83915,1,8,0:0:0:0:
256,192,84081,1,8,0:0:0:0:
256,192,84248,1,8,0:0:0:0:
256,192,84415,1,8,0:0:0:0:
256,192,84581,1,8,0:0:0:0:
256,192,84748,1,8,0:0:0:0:
256,192,84915,1,8,0:0:0:0:
256,192,85081,1,8,0:0:0:0:
256,192,85248,1,8,0:0:0:0:
256,192,85415,1,8,0:0:0:0:
256,192,85498,1,0,0:0:0:0:
256,192,85581,1,8,0:0:0:0:
256,192,85665,1,0,0:0:0:0:
256,192,85748,1,8,0:0:0:0:
256,192,86081,1,12,0:0:0:0:
256,192,86415,1,12,0:0:0:0:
256,192,86581,1,8,0:0:0:0:
256,192,86915,1,8,0:0:0:0:
256,192,87081,1,12,0:0:0:0:
256,192,87248,1,0,0:0:0:0:
256,192,87415,1,8,0:0:0:0:
256,192,87581,1,8,0:0:0:0:
256,192,87748,1,8,0:0:0:0:
256,192,87915,1,0,0:0:0:0:
256,192,88081,1,8,0:0:0:0:
256,192,88248,1,8,0:0:0:0:
256,192,88415,1,0,0:0:0:0:
256,192,88748,1,0,0:0:0:0:
256,192,88831,1,0,0:0:0:0:
256,192,88915,1,0,0:0:0:0:
256,192,89081,1,8,0:0:0:0:
256,192,89248,1,8,0:0:0:0:
256,192,89331,1,0,0:0:0:0:
256,192,89415,1,0,0:0:0:0:
256,192,89498,1,0,0:0:0:0:
256,192,89581,1,8,0:0:0:0:
256,192,89748,1,8,0:0:0:0:
256,192,89915,1,8,0:0:0:0:
256,192,90081,1,8,0:0:0:0:
256,192,90248,1,0,0:0:0:0:
256,192,90415,1,8,0:0:0:0:
256,192,90581,1,8,0:0:0:0:
256,192,90748,1,0,0:0:0:0:
256,192,90915,1,0,0:0:0:0:
256,192,91081,1,8,0:0:0:0:
256,192,91248,1,0,0:0:0:0:
256,192,91415,1,0,0:0:0:0:
256,192,91498,1,0,0:0:0:0:
256,192,91581,1,0,0:0:0:0:
256,192,91748,1,8,0:0:0:0:
256,192,91915,1,0,0:0:0:0:
256,192,92081,1,8,0:0:0:0:
256,192,92248,1,0,0:0:0:0:
256,192,92415,1,8,0:0:0:0:
256,192,92581,1,0,0:0:0:0:
256,192,92748,1,8,0:0:0:0:
256,192,92915,1,0,0:0:0:0:
256,192,93081,1,8,0:0:0:0:
256,192,93248,1,0,0:0:0:0:
256,192,93415,1,8,0:0:0:0:
256,192,93581,1,8,0:0:0:0:
256,192,93748,1,8,0:0:0:0:
256,192,93915,1,0,0:0:0:0:
256,192,94081,1,8,0:0:0:0:
256,192,94248,1,0,0:0:0:0:
256,192,94415,1,8,0:0:0:0:
256,192,94581,1,8,0:0:0:0:
256,192,94748,1,8,0:0:0:0:
256,192,94915,1,8,0:0:0:0:
256,192,95081,1,8,0:0:0:0:
256,192,95248,1,0,0:0:0:0:
256,192,95415,1,8,0:0:0:0:
256,192,95581,1,8,0:0:0:0:
256,192,95748,1,8,0:0:0:0:
256,192,95915,1,0,0:0:0:0:
256,192,96081,1,8,0:0:0:0:
256,192,96248,1,0,0:0:0:0:
256,192,96415,1,8,0:0:0:0:
256,192,96581,1,0,0:0:0:0:
256,192,96665,1,0,0:0:0:0:
256,192,96748,1,8,0:0:0:0:
256,192,96831,1,0,0:0:0:0:
256,192,96915,1,0,0:0:0:0:
256,192,96998,1,0,0:0:0:0:
256,192,97081,1,12,0:0:0:0:
256,192,97414,1,12,0:0:0:0:
256,192,97747,1,8,0:0:0:0:
256,192,98080,1,8,0:0:0:0:
256,192,98247,1,8,0:0:0:0:
256,192,98414,1,8,0:0:0:0:
256,192,98747,1,8,0:0:0:0:
256,192,99080,1,8,0:0:0:0:
256,192,99247,1,0,0:0:0:0:
256,192,99414,1,8,0:0:0:0:
256,192,99580,1,8,0:0:0:0:
256,192,99747,1,8,0:0:0:0:
256,192,100080,1,8,0:0:0:0:
256,192,100414,1,8,0:0:0:0:
256,192,100747,1,8,0:0:0:0:
256,192,100914,1,8,0:0:0:0:
256,192,101080,1,8,0:0:0:0:
256,192,101414,1,8,0:0:0:0:
256,192,101580,1,0,0:0:0:0:
256,192,101747,1,8,0:0:0:0:
256,192,101914,1,8,0:0:0:0:
256,192,102080,1,8,0:0:0:0:
256,192,102247,1,0,0:0:0:0:
256,192,102414,1,8,0:0:0:0:
256,192,102747,1,12,0:0:0:0:
256,192,103080,1,8,0:0:0:0:
256,192,103414,1,8,0:0:0:0:
256,192,103580,1,8,0:0:0:0:
256,192,103747,1,8,0:0:0:0:
256,192,104080,1,8,0:0:0:0:
256,192,104414,1,8,0:0:0:0:
256,192,104580,1,0,0:0:0:0:
256,192,104747,1,8,0:0:0:0:
256,192,104913,1,8,0:0:0:0:
256,192,105080,1,8,0:0:0:0:
256,192,105413,1,8,0:0:0:0:
256,192,105747,1,8,0:0:0:0:
256,192,105913,1,0,0:0:0:0:
256,192,106080,1,8,0:0:0:0:
256,192,106247,1,8,0:0:0:0:
256,192,106413,1,8,0:0:0:0:
256,192,106747,1,8,0:0:0:0:
256,192,107080,1,8,0:0:0:0:
256,192,107247,1,0,0:0:0:0:
256,192,107413,1,8,0:0:0:0:
256,192,107580,1,8,0:0:0:0:
256,192,107747,1,8,0:0:0:0:
256,192,108080,1,12,0:0:0:0:
256,192,108413,1,8,0:0:0:0:
256,192,108580,1,0,0:0:0:0:
256,192,108747,1,8,0:0:0:0:
256,192,108913,1,8,0:0:0:0:
256,192,109080,1,8,0:0:0:0:
256,192,109413,1,8,0:0:0:0:
256,192,109747,1,8,0:0:0:0:
256,192,109913,1,0,0:0:0:0:
256,192,110080,1,8,0:0:0:0:
256,192,110247,1,8,0:0:0:0:
256,192,110413,1,8,0:0:0:0:
256,192,110747,1,8,0:0:0:0:
256,192,111080,1,8,0:0:0:0:
256,192,111413,1,8,0:0:0:0:
256,192,111580,1,8,0:0:0:0:
256,192,111747,1,8,0:0:0:0:
256,192,112080,1,8,0:0:0:0:
256,192,112247,1,0,0:0:0:0:
256,192,112413,1,8,0:0:0:0:
256,192,112747,1,8,0:0:0:0:
256,192,112913,1,8,0:0:0:0:
256,192,113080,1,8,0:0:0:0:
256,192,113163,1,0,0:0:0:0:
256,192,113247,1,8,0:0:0:0:
256,192,113330,1,8,0:0:0:0:
256,192,113413,1,12,0:0:0:0:
256,192,113747,1,8,0:0:0:0:
256,192,114080,1,8,0:0:0:0:
256,192,114247,1,8,0:0:0:0:
256,192,114413,1,8,0:0:0:0:
256,192,114747,1,8,0:0:0:0:
256,192,115080,1,8,0:0:0:0:
256,192,115247,1,0,0:0:0:0:
256,192,115413,1,0,0:0:0:0:
256,192,115580,1,8,0:0:0:0:
256,192,115747,1,8,0:0:0:0:
256,192,115913,1,0,0:0:0:0:
256,192,116080,1,8,0:0:0:0:
256,192,116413,1,8,0:0:0:0:
256,192,116747,1,8,0:0:0:0:
256,192,116913,1,0,0:0:0:0:
256,192,117080,1,8,0:0:0:0:
256,192,117413,1,8,0:0:0:0:
256,192,117580,1,0,0:0:0:0:
256,192,117747,1,8,0:0:0:0:
256,192,117913,1,0,0:0:0:0:
256,192,118080,1,8,0:0:0:0:
256,192,118413,1,8,0:0:0:0:
256,192,118525,1,8,0:0:0:0:
256,192,118636,1,8,0:0:0:0:
256,192,118747,1,12,0:0:0:0:
256,192,119080,1,8,0:0:0:0:
256,192,119413,1,8,0:0:0:0:
256,192,119580,1,8,0:0:0:0:
256,192,119747,1,8,0:0:0:0:
256,192,120080,1,8,0:0:0:0:
256,192,120413,1,8,0:0:0:0:
256,192,120580,1,0,0:0:0:0:
256,192,120747,1,0,0:0:0:0:
256,192,120913,1,8,0:0:0:0:
256,192,121080,1,8,0:0:0:0:
256,192,121247,1,0,0:0:0:0:
256,192,121413,1,8,0:0:0:0:
256,192,121747,1,8,0:0:0:0:
256,192,122080,1,8,0:0:0:0:
256,192,122247,1,0,0:0:0:0:
256,192,122413,1,8,0:0:0:0:
256,192,122747,1,8,0:0:0:0:
256,192,122913,1,0,0:0:0:0:
256,192,123080,1,8,0:0:0:0:
256,192,123413,1,8,0:0:0:0:
256,192,123580,1,0,0:0:0:0:
256,192,123747,1,8,0:0:0:0:
256,192,123858,1,8,0:0:0:0:
256,192,123969,1,8,0:0:0:0:
256,192,124080,1,12,0:0:0:0:
256,192,124413,1,8,0:0:0:0:
256,192,124747,1,8,0:0:0:0:
256,192,124913,1,0,0:0:0:0:
256,192,125080,1,8,0:0:0:0:
256,192,125413,1,8,0:0:0:0:
256,192,125747,1,8,0:0:0:0:
256,192,125913,1,0,0:0:0:0:
256,192,126080,1,8,0:0:0:0:
256,192,126247,1,8,0:0:0:0:
256,192,126413,1,8,0:0:0:0:
256,192,126580,1,8,0:0:0:0:
256,192,126747,1,8,0:0:0:0:
256,192,127080,1,8,0:0:0:0:
256,192,127413,1,8,0:0:0:0:
256,192,127580,1,0,0:0:0:0:
256,192,127747,1,8,0:0:0:0:
256,192,128080,1,8,0:0:0:0:
256,192,128247,1,0,0:0:0:0:
256,192,128413,1,8,0:0:0:0:
256,192,128580,1,0,0:0:0:0:
256,192,128747,1,8,0:0:0:0:
256,192,129080,1,8,0:0:0:0:
256,192,129191,1,8,0:0:0:0:
256,192,129302,1,8,0:0:0:0:
256,192,129413,1,12,0:0:0:0:
256,192,129747,1,8,0:0:0:0:
256,192,130080,1,8,0:0:0:0:
256,192,130247,1,0,0:0:0:0:
256,192,130413,1,8,0:0:0:0:
256,192,130747,1,8,0:0:0:0:
256,192,131080,1,8,0:0:0:0:
256,192,131247,1,0,0:0:0:0:
256,192,131413,1,8,0:0:0:0:
256,192,131497,1,8,0:0:0:0:
256,192,131580,1,8,0:0:0:0:
256,192,131663,1,8,0:0:0:0:
256,192,131747,1,8,0:0:0:0:
256,192,131830,1,8,0:0:0:0:
256,192,131913,1,8,0:0:0:0:
256,192,131997,1,0,0:0:0:0:
256,192,132079,1,12,0:0:0:0:
256,192,132245,1,8,0:0:0:0:
256,192,132412,1,8,0:0:0:0:
256,192,132579,1,0,0:0:0:0:
256,192,132745,1,4,0:0:0:0:
256,192,132912,1,4,0:0:0:0:
256,192,133079,1,8,0:0:0:0:
256,192,133245,1,0,0:0:0:0:
256,192,133412,1,4,0:0:0:0:
256,192,133579,1,8,0:0:0:0:
256,192,133745,1,8,0:0:0:0:
256,192,134079,1,4,0:0:0:0:
256,192,134245,1,4,0:0:0:0:
256,192,134412,1,8,0:0:0:0:
256,192,134579,1,8,0:0:0:0:
256,192,134745,1,4,0:0:0:0:
256,192,134912,1,8,0:0:0:0:
256,192,135079,1,8,0:0:0:0:
256,192,135412,1,4,0:0:0:0:
256,192,135579,1,4,0:0:0:0:
256,192,135745,1,8,0:0:0:0:
256,192,136079,1,4,0:0:0:0:
256,192,136245,1,0,0:0:0:0:
256,192,136412,1,8,0:0:0:0:
256,192,136745,1,4,0:0:0:0:
256,192,136912,1,4,0:0:0:0:
256,192,137079,1,0,0:0:0:0:
256,192,137412,1,4,0:0:0:0:
256,192,137579,1,8,0:0:0:0:
256,192,137745,1,8,0:0:0:0:
256,192,138079,1,4,0:0:0:0:
256,192,138245,1,4,0:0:0:0:
256,192,138412,1,8,0:0:0:0:
256,192,138745,1,4,0:0:0:0:
256,192,138912,1,0,0:0:0:0:
256,192,138995,1,0,0:0:0:0:
256,192,139079,1,8,0:0:0:0:
256,192,139412,1,4,0:0:0:0:
256,192,139579,1,4,0:0:0:0:
256,192,139745,1,4,0:0:0:0:
256,192,139912,1,8,0:0:0:0:
256,192,140079,1,8,0:0:0:0:
256,192,140412,1,8,0:0:0:0:
256,192,140745,1,4,0:0:0:0:
256,192,140912,1,4,0:0:0:0:
256,192,141079,1,8,0:0:0:0:
256,192,141245,1,8,0:0:0:0:
256,192,141412,1,8,0:0:0:0:
256,192,141579,1,8,0:0:0:0:
256,192,141745,1,8,0:0:0:0:
256,192,141912,1,0,0:0:0:0:
256,192,142079,1,4,0:0:0:0:
256,192,142245,1,4,0:0:0:0:
256,192,142412,1,8,0:0:0:0:
256,192,142579,1,0,0:0:0:0:
256,192,142745,1,8,0:0:0:0:
256,192,142912,1,0,0:0:0:0:
256,192,143079,1,0,0:0:0:0:
256,192,143412,1,4,0:0:0:0:
256,192,143579,1,4,0:0:0:0:
256,192,143745,1,8,0:0:0:0:
256,192,144079,1,4,0:0:0:0:
256,192,144579,1,8,0:0:0:0:
256,192,144745,1,4,0:0:0:0:
256,192,144912,1,4,0:0:0:0:
256,192,145079,1,8,0:0:0:0:
256,192,145412,1,12,0:0:0:0:
256,192,145745,1,8,0:0:0:0:
256,192,146079,1,4,0:0:0:0:
256,192,146245,1,4,0:0:0:0:
256,192,146412,1,8,0:0:0:0:
256,192,146745,1,12,0:0:0:0:
256,192,147078,1,0,0:0:0:0:
256,192,147412,1,4,0:0:0:0:
256,192,147578,1,4,0:0:0:0:
256,192,147745,1,8,0:0:0:0:
256,192,148078,1,8,0:0:0:0:
256,192,148245,1,0,0:0:0:0:
256,192,148412,1,8,0:0:0:0:
256,192,148578,1,0,0:0:0:0:
256,192,148745,1,4,0:0:0:0:
256,192,148912,1,4,0:0:0:0:
256,192,149078,1,8,0:0:0:0:
256,192,149245,1,0,0:0:0:0:
256,192,149412,1,8,0:0:0:0:
256,192,149578,1,0,0:0:0:0:
256,192,149745,1,8,0:0:0:0:
256,192,149912,1,8,0:0:0:0:
256,192,150078,1,8,0:0:0:0:
256,192,150162,1,8,0:0:0:0:
256,192,150245,1,8,0:0:0:0:
256,192,150328,1,0,0:0:0:0:
256,192,150412,1,8,0:0:0:0:
256,192,150467,1,8,0:0:0:0:
256,192,150523,1,8,0:0:0:0:
256,192,150578,1,8,0:0:0:0:
256,192,150634,1,0,0:0:0:0:
256,192,150690,1,0,0:0:0:0:
256,192,150745,1,8,0:0:0:0:
256,192,151078,1,8,0:0:0:0:
256,192,151578,1,4,0:0:0:0:
256,192,152078,1,12,0:0:0:0:
256,192,152412,1,8,0:0:0:0:
256,192,152745,1,0,0:0:0:0:
256,192,153078,1,0,0:0:0:0:
256,192,153412,1,12,0:0:0:0:
256,192,154245,1,4,0:0:0:0:
256,192,154745,1,4,0:0:0:0:
256,192,155078,1,8,0:0:0:0:
256,192,155412,1,8,0:0:0:0:
256,192,155745,1,8,0:0:0:0:
256,192,156078,1,12,0:0:0:0:
256,192,156412,1,8,0:0:0:0:
256,192,156745,1,4,0:0:0:0:
256,192,156912,1,4,0:0:0:0:
256,192,157078,1,8,0:0:0:0:
256,192,157412,1,4,0:0:0:0:
256,192,157578,1,0,0:0:0:0:
256,192,157745,1,8,0:0:0:0:
256,192,158078,1,8,0:0:0:0:
256,192,158245,1,0,0:0:0:0:
256,192,158412,1,8,0:0:0:0:
256,192,158745,1,4,0:0:0:0:
256,192,159078,1,8,0:0:0:0:
256,192,159245,1,8,0:0:0:0:
256,192,159412,1,4,0:0:0:0:
256,192,159578,1,4,0:0:0:0:
256,192,160078,1,4,0:0:0:0:
256,192,160412,1,8,0:0:0:0:
256,192,160578,1,8,0:0:0:0:
256,192,160745,1,8,0:0:0:0:
256,192,160912,1,4,0:0:0:0:
256,192,161412,1,4,0:0:0:0:
256,192,161578,1,4,0:0:0:0:
256,192,162078,1,4,0:0:0:0:
256,192,162245,1,4,0:0:0:0:
256,192,162412,1,8,0:0:0:0:
256,192,162495,1,8,0:0:0:0:
256,192,162578,1,0,0:0:0:0:
256,192,162662,1,0,0:0:0:0:
256,192,162745,1,8,0:0:0:0:
256,192,163578,1,0,0:0:0:0:
256,192,163662,1,0,0:0:0:0:
256,192,163745,1,0,0:0:0:0:
256,192,164078,1,12,0:0:0:0:
256,192,164245,1,0,0:0:0:0:
256,192,164412,1,8,0:0:0:0:
256,192,164578,1,8,0:0:0:0:
256,192,164745,1,4,0:0:0:0:
256,192,164912,1,4,0:0:0:0:
256,192,165078,1,8,0:0:0:0:
256,192,165412,1,12,0:0:0:0:
256,192,165745,1,8,0:0:0:0:
256,192,165912,1,0,0:0:0:0:
256,192,166078,1,4,0:0:0:0:
256,192,166245,1,4,0:0:0:0:
256,192,166412,1,8,0:0:0:0:
256,192,166578,1,8,0:0:0:0:
256,192,166745,1,12,0:0:0:0:
256,192,167078,1,8,0:0:0:0:
256,192,167245,1,0,0:0:0:0:
256,192,167412,1,8,0:0:0:0:
256,192,167578,1,0,0:0:0:0:
256,192,167745,1,8,0:0:0:0:
256,192,167912,1,0,0:0:0:0:
256,192,168078,1,8,0:0:0:0:
256,192,168245,1,8,0:0:0:0:
256,192,168412,1,8,0:0:0:0:
256,192,168745,1,8,0:0:0:0:
256,192,168912,1,0,0:0:0:0:
256,192,169078,1,8,0:0:0:0:
256,192,169245,1,0,0:0:0:0:
256,192,169412,1,4,0:0:0:0:
256,192,169578,1,4,0:0:0:0:
256,192,169745,1,8,0:0:0:0:
256,192,170078,1,4,0:0:0:0:
256,192,170245,1,4,0:0:0:0:
256,192,170412,1,8,0:0:0:0:
256,192,170745,1,4,0:0:0:0:
256,192,170912,1,4,0:0:0:0:
256,192,171078,1,8,0:0:0:0:
256,192,171412,1,4,0:0:0:0:
256,192,171578,1,4,0:0:0:0:
256,192,171745,1,8,0:0:0:0:
256,192,171912,1,8,0:0:0:0:
256,192,172245,1,0,0:0:0:0:
256,192,172578,1,0,0:0:0:0:
256,192,172662,1,0,0:0:0:0:
256,192,172912,1,0,0:0:0:0:
256,192,173078,1,8,0:0:0:0:
256,192,173162,1,8,0:0:0:0:
256,192,173245,1,8,0:0:0:0:
256,192,173328,1,8,0:0:0:0:
256,192,173412,1,4,0:0:0:0:
256,192,173578,1,4,0:0:0:0:
256,192,173745,1,8,0:0:0:0:
256,192,173912,1,4,0:0:0:0:
256,192,174078,1,8,0:0:0:0:
256,192,174162,1,8,0:0:0:0:
256,192,174245,1,8,0:0:0:0:
256,192,174328,1,0,0:0:0:0:
256,192,174412,1,8,0:0:0:0:
256,192,174467,1,8,0:0:0:0:
256,192,174523,1,8,0:0:0:0:
256,192,174578,1,8,0:0:0:0:
256,192,174634,1,0,0:0:0:0:
256,192,174690,1,0,0:0:0:0:
256,192,174745,1,12,0:0:0:0:
256,192,175078,1,8,0:0:0:0:
256,192,175245,1,0,0:0:0:0:
256,192,175412,1,4,0:0:0:0:
256,192,175578,1,4,0:0:0:0:
256,192,175745,1,8,0:0:0:0:
256,192,176078,1,4,0:0:0:0:
256,192,176245,1,4,0:0:0:0:
256,192,176412,1,8,0:0:0:0:
256,192,176912,1,4,0:0:0:0:
256,192,177078,1,8,0:0:0:0:
256,192,177245,1,8,0:0:0:0:
256,192,177412,1,8,0:0:0:0:
256,192,177745,1,8,0:0:0:0:
256,192,178078,1,4,0:0:0:0:
256,192,178245,1,4,0:0:0:0:
256,192,178412,1,8,0:0:0:0:
256,192,178578,1,8,0:0:0:0:
256,192,178745,1,8,0:0:0:0:
256,192,178828,1,8,0:0:0:0:
256,192,178912,1,8,0:0:0:0:
256,192,178995,1,8,0:0:0:0:
256,192,179078,1,4,0:0:0:0:
256,192,179412,1,4,0:0:0:0:
256,192,179578,1,4,0:0:0:0:
256,192,179745,1,12,0:0:0:0:
256,192,179912,1,8,0:0:0:0:
256,192,180078,1,12,0:0:0:0:
256,192,180245,1,0,0:0:0:0:
256,192,180412,1,12,0:0:0:0:
256,192,180745,1,4,0:0:0:0:
256,192,180912,1,4,0:0:0:0:
256,192,181078,1,8,0:0:0:0:
256,192,181412,1,4,0:0:0:0:
256,192,181578,1,4,0:0:0:0:
256,192,181745,1,8,0:0:0:0:
256,192,181912,1,8,0:0:0:0:
256,192,182078,1,8,0:0:0:0:
256,192,182245,1,8,0:0:0:0:
256,192,182412,1,8,0:0:0:0:
256,192,182578,1,8,0:0:0:0:
256,192,182745,1,8,0:0:0:0:
256,192,182912,1,8,0:0:0:0:
256,192,183078,1,8,0:0:0:0:
256,192,183245,1,8,0:0:0:0:
256,192,184499,1,12,0:0:0:0:
256,192,184716,1,8,0:0:0:0:
256,192,184879,1,8,0:0:0:0:
256,192,184988,1,8,0:0:0:0:
256,192,185205,1,8,0:0:0:0:
256,192,185314,1,8,0:0:0:0:
256,192,185531,1,8,0:0:0:0:
256,192,185640,1,8,0:0:0:0:
256,192,185857,1,8,0:0:0:0:
256,192,186075,1,8,0:0:0:0:
256,192,186183,1,8,0:0:0:0:
256,192,186238,1,4,0:0:0:0:
256,192,186509,1,8,0:0:0:0:
256,192,186727,1,12,0:0:0:0:
256,192,186944,1,8,0:0:0:0:
256,192,187053,1,8,0:0:0:0:
256,192,187270,1,8,0:0:0:0:
256,192,187379,1,8,0:0:0:0:
256,192,187596,1,4,0:0:0:0:
256,192,187977,1,12,0:0:0:0:
256,192,188085,1,0,0:0:0:0:
256,192,188194,1,0,0:0:0:0:
256,192,188303,1,0,0:0:0:0:
256,192,188412,1,8,0:0:0:0:
256,192,188629,1,8,0:0:0:0:
256,192,188846,1,8,0:0:0:0:
256,192,188955,1,8,0:0:0:0:
256,192,189064,1,8,0:0:0:0:
256,192,189281,1,8,0:0:0:0:
256,192,189390,1,0,0:0:0:0:
256,192,189499,1,8,0:0:0:0:
256,192,189716,1,8,0:0:0:0:
256,192,189825,1,0,0:0:0:0:
256,192,189933,1,8,0:0:0:0:
256,192,190042,1,8,0:0:0:0:
256,192,190151,1,8,0:0:0:0:
256,192,190259,1,8,0:0:0:0:
256,192,190368,1,0,0:0:0:0:
256,192,190477,1,0,0:0:0:0:
256,192,190585,1,8,0:0:0:0:
256,192,190694,1,8,0:0:0:0:
256,192,190803,1,0,0:0:0:0:
256,192,191020,1,8,0:0:0:0:
256,192,191129,1,0,0:0:0:0:
256,192,191238,1,8,0:0:0:0:
256,192,191346,1,8,0:0:0:0:
256,192,191455,1,8,0:0:0:0:
256,192,191563,1,0,0:0:0:0:
256,192,191672,1,8,0:0:0:0:
256,192,191781,1,8,0:0:0:0:
256,192,191890,1,8,0:0:0:0:
256,192,192107,1,0,0:0:0:0:
256,192,192324,1,8,0:0:0:0:
256,192,192433,1,8,0:0:0:0:
256,192,192542,1,8,0:0:0:0:
256,192,192759,1,8,0:0:0:0:
256,192,192868,1,0,0:0:0:0:
256,192,192977,1,8,0:0:0:0:
256,192,193194,1,12,0:0:0:0:
256,192,193303,1,8,0:0:0:0:
256,192,193411,1,8,0:0:0:0:
256,192,193520,1,0,0:0:0:0:
256,192,193629,1,8,0:0:0:0:
256,192,193737,1,0,0:0:0:0:
256,192,193846,1,8,0:0:0:0:
256,192,193955,1,0,0:0:0:0:
256,192,194063,1,8,0:0:0:0:
256,192,194498,1,8,0:0:0:0:
256,192,194716,1,8,0:0:0:0:
256,192,194933,1,4,0:0:0:0:
256,192,195078,1,8,0:0:0:0:
256,192,195223,1,8,0:0:0:0:
256,192,195368,1,8,0:0:0:0:
256,192,195585,1,8,0:0:0:0:
256,192,195803,1,12,0:0:0:0:
256,192,195911,1,8,0:0:0:0:
256,192,196020,1,0,0:0:0:0:
256,192,196129,1,8,0:0:0:0:
256,192,196237,1,8,0:0:0:0:
256,192,196455,1,8,0:0:0:0:
256,192,196672,1,8,0:0:0:0:
256,192,196781,1,0,0:0:0:0:
256,192,196890,1,8,0:0:0:0:
256,192,197107,1,8,0:0:0:0:
256,192,197216,1,8,0:0:0:0:
256,192,197324,1,8,0:0:0:0:
256,192,197542,1,8,0:0:0:0:
256,192,197650,1,0,0:0:0:0:
256,192,197759,1,8,0:0:0:0:
256,192,197868,1,0,0:0:0:0:
256,192,197977,1,8,0:0:0:0:
256,192,198085,1,8,0:0:0:0:
256,192,198194,1,8,0:0:0:0:
256,192,198303,1,0,0:0:0:0:
256,192,198411,1,8,0:0:0:0:
256,192,198520,1,8,0:0:0:0:
256,192,198629,1,8,0:0:0:0:
256,192,198846,1,12,0:0:0:0:
256,192,198955,1,0,0:0:0:0:
256,192,199063,1,8,0:0:0:0:
256,192,199172,1,0,0:0:0:0:
256,192,199281,1,8,0:0:0:0:
256,192,199390,1,8,0:0:0:0:
256,192,199498,1,8,0:0:0:0:
256,192,199607,1,0,0:0:0:0:
256,192,199716,1,8,0:0:0:0:
256,192,199933,1,0,0:0:0:0:
256,192,200150,1,8,0:0:0:0:
256,192,200259,1,0,0:0:0:0:
256,192,200368,1,8,0:0:0:0:
256,192,200585,1,8,0:0:0:0:
256,192,200694,1,8,0:0:0:0:
256,192,200803,1,8,0:0:0:0:
256,192,201020,1,4,0:0:0:0:
256,192,201129,1,8,0:0:0:0:
256,192,201237,1,8,0:0:0:0:
256,192,201346,1,8,0:0:0:0:
256,192,201455,1,8,0:0:0:0:
256,192,201563,1,0,0:0:0:0:
256,192,201672,1,8,0:0:0:0:
256,192,201781,1,8,0:0:0:0:
256,192,201890,1,8,0:0:0:0:
256,192,202107,1,0,0:0:0:0:
256,192,202324,1,12,0:0:0:0:
256,192,202542,1,8,0:0:0:0:
256,192,202759,1,12,0:0:0:0:
256,192,202977,1,0,0:0:0:0:
256,192,203194,1,8,0:0:0:0:
256,192,203411,1,0,0:0:0:0:
256,192,203520,1,8,0:0:0:0:
256,192,203792,1,8,0:0:0:0:
256,192,203900,1,8,0:0:0:0:
256,192,204118,1,8,0:0:0:0:
256,192,204335,1,8,0:0:0:0:
256,192,204553,1,8,0:0:0:0:
256,192,204770,1,8,0:0:0:0:
256,192,204879,1,8,0:0:0:0:
256,192,204987,1,8,0:0:0:0:
256,192,205205,1,8,0:0:0:0:
256,192,205313,1,8,0:0:0:0:
256,192,205531,1,0,0:0:0:0:
256,192,205640,1,8,0:0:0:0:
256,192,205857,1,0,0:0:0:0:
256,192,206074,1,8,0:0:0:0:
256,192,206292,1,0,0:0:0:0:
256,192,206509,1,8,0:0:0:0:
256,192,206727,1,8,0:0:0:0:
256,192,206944,1,8,0:0:0:0:
256,192,207053,1,8,0:0:0:0:
256,192,207270,1,8,0:0:0:0:
256,192,207379,1,8,0:0:0:0:
256,192,207596,1,8,0:0:0:0:
256,192,207813,1,8,0:0:0:0:
256,192,208031,1,8,0:0:0:0:
256,192,208248,1,8,0:0:0:0:
256,192,208466,1,8,0:0:0:0:
256,192,208683,1,0,0:0:0:0:
256,192,208900,1,8,0:0:0:0:
256,192,209009,1,8,0:0:0:0:
256,192,209118,1,8,0:0:0:0:
256,192,209335,1,8,0:0:0:0:
256,192,209553,1,8,0:0:0:0:
256,192,209770,1,8,0:0:0:0:
256,192,209987,1,8,0:0:0:0:
256,192,210205,1,0,0:0:0:0:
256,192,210313,1,8,0:0:0:0:
256,192,210531,1,8,0:0:0:0:
256,192,210640,1,8,0:0:0:0:
256,192,210857,1,8,0:0:0:0:
256,192,211074,1,8,0:0:0:0:
256,192,211183,1,0,0:0:0:0:
256,192,211292,1,8,0:0:0:0:
256,192,211509,1,8,0:0:0:0:
256,192,211727,1,8,0:0:0:0:
256,192,211944,1,8,0:0:0:0:
256,192,212161,1,8,0:0:0:0:
256,192,212379,1,0,0:0:0:0:
256,192,212596,1,8,0:0:0:0:
256,192,212813,1,8,0:0:0:0:
256,192,212922,1,8,0:0:0:0:
256,192,213031,1,8,0:0:0:0:
256,192,213140,1,0,0:0:0:0:
256,192,213248,1,12,0:0:0:0:
256,192,213466,1,8,0:0:0:0:
256,192,213683,1,4,0:0:0:0:
256,192,213900,1,8,0:0:0:0:
256,192,214009,1,8,0:0:0:0:
256,192,214118,1,8,0:0:0:0:
256,192,214335,1,8,0:0:0:0:
256,192,214553,1,8,0:0:0:0:
256,192,214770,1,8,0:0:0:0:
256,192,214879,1,0,0:0:0:0:
256,192,214987,1,8,0:0:0:0:
256,192,215096,1,8,0:0:0:0:
256,192,215205,1,8,0:0:0:0:
256,192,215422,1,8,0:0:0:0:
256,192,215640,1,8,0:0:0:0:
256,192,215748,1,8,0:0:0:0:
256,192,215966,1,8,0:0:0:0:
256,192,216183,1,8,0:0:0:0:
256,192,216292,1,8,0:0:0:0:
256,192,216400,1,8,0:0:0:0:
256,192,216509,1,8,0:0:0:0:
256,192,216618,1,8,0:0:0:0:
256,192,216781,1,0,0:0:0:0:
256,192,216835,1,8,0:0:0:0:
256,192,216944,1,8,0:0:0:0:
256,192,217161,1,8,0:0:0:0:
256,192,217379,1,0,0:0:0:0:
256,192,217487,1,8,0:0:0:0:
256,192,217705,1,8,0:0:0:0:
256,192,217922,1,8,0:0:0:0:
256,192,218031,1,8,0:0:0:0:
256,192,218140,1,8,0:0:0:0:
256,192,218248,1,8,0:0:0:0:
256,192,218466,1,12,0:0:0:0:
256,192,218846,1,8,0:0:0:0:
256,192,219063,1,0,0:0:0:0:
256,192,219172,1,8,0:0:0:0:
256,192,219281,1,8,0:0:0:0:
256,192,219498,1,0,0:0:0:0:
256,192,219716,1,8,0:0:0:0:
256,192,219933,1,0,0:0:0:0:
256,192,220150,1,8,0:0:0:0:
256,192,220368,1,0,0:0:0:0:
256,192,220585,1,8,0:0:0:0:
256,192,220803,1,0,0:0:0:0:
256,192,220911,1,8,0:0:0:0:
256,192,221020,1,12,0:0:0:0:
256,192,221455,1,12,0:0:0:0:
256,192,221672,1,0,0:0:0:0:
256,192,221781,1,0,0:0:0:0:
256,192,221890,1,8,0:0:0:0:
256,192,222216,1,0,0:0:0:0:
256,192,222324,1,8,0:0:0:0:
256,192,222542,1,0,0:0:0:0:
256,192,222650,1,8,0:0:0:0:
256,192,222759,1,8,0:0:0:0:
256,192,222977,1,0,0:0:0:0:
256,192,223085,1,8,0:0:0:0:
256,192,223194,1,8,0:0:0:0:
256,192,223411,1,8,0:0:0:0:
256,192,223629,1,8,0:0:0:0:
256,192,224063,1,8,0:0:0:0:
256,192,224281,1,8,0:0:0:0:
256,192,224390,1,8,0:0:0:0:
256,192,224498,1,8,0:0:0:0:
256,192,224607,1,0,0:0:0:0:
256,192,224716,1,0,0:0:0:0:
256,192,224824,1,0,0:0:0:0:
256,192,224933,1,8,0:0:0:0:
256,192,225150,1,0,0:0:0:0:
256,192,225368,1,12,0:0:0:0:
256,192,225803,1,8,0:0:0:0:
256,192,226020,1,8,0:0:0:0:
256,192,226129,1,8,0:0:0:0:
256,192,226237,1,8,0:0:0:0:
256,192,226563,1,0,0:0:0:0:
256,192,226672,1,8,0:0:0:0:
256,192,226890,1,0,0:0:0:0:
256,192,226998,1,8,0:0:0:0:
256,192,227107,1,8,0:0:0:0:
256,192,227542,1,8,0:0:0:0:
256,192,227759,1,8,0:0:0:0:
256,192,227868,1,8,0:0:0:0:
256,192,227977,1,8,0:0:0:0:
256,192,228194,1,0,0:0:0:0:
256,192,228411,1,8,0:0:0:0:
256,192,228629,1,0,0:0:0:0:
256,192,228846,1,0,0:0:0:0:
256,192,229063,1,0,0:0:0:0:
256,192,229281,1,8,0:0:0:0:
256,192,229498,1,8,0:0:0:0:
256,192,229607,1,8,0:0:0:0:
256,192,229716,1,8,0:0:0:0:
