osu file format v14

[General]
AudioFilename: riotzz.mp3
AudioLeadIn: 0
PreviewTime: 89939
Countdown: 0
SampleSet: Normal
StackLeniency: 0.7
Mode: 2
LetterboxInBreaks: 0
WidescreenStoryboard: 1

[Editor]
Bookmarks: 3982,33162
DistanceSpacing: 0.8
BeatDivisor: 4
GridSize: 4
TimelineZoom: 5.199997

[Metadata]
Title:[DTB] Bullet Hell Pack
TitleUnicode:[DTB] Bullet Hell Pack
Artist:Various Artists
ArtistUnicode:Various Artists
Creator:Staravia
Version:Blastix Riotz
Source:[[Score 10000 OR LESS]]
Tags:catch the beat ctb dodge avoid
BeatmapID:1285033
BeatmapSetID:608391

[Difficulty]
HPDrainRate:0
CircleSize:7
OverallDifficulty:10
ApproachRate:9.7
SliderMultiplier:2.3
SliderTickRate:4

[Events]
//Background and Video events
0,0,"RIOT.jpg",0,0
//Break Periods
//Storyboard Layer 0 (Background)
//Storyboard Layer 1 (Fail)
//Storyboard Layer 2 (Pass)
//Storyboard Layer 3 (Foreground)
//Storyboard Sound Samples

[TimingPoints]
584,234.375,4,1,1,40,1,0
91521,-100,4,1,1,40,0,1
107459,-100,4,1,1,40,0,0
108396,-100,4,1,1,40,0,1
111209,-100,4,1,1,40,0,0
112146,-100,4,1,1,40,0,1
115896,-100,4,1,1,40,0,0

[HitObjects]
160,160,584,5,0,0:0:0:0:
64,160,584,5,0,0:0:0:0:
320,224,584,5,0,0:0:0:0:
416,224,584,5,0,0:0:0:0:
96,96,701,5,0,0:0:0:0:
0,96,701,5,0,0:0:0:0:
480,128,818,5,0,0:0:0:0:
384,128,818,5,0,0:0:0:0:
224,256,935,5,0,0:0:0:0:
128,256,935,5,0,0:0:0:0:
352,288,935,5,0,0:0:0:0:
448,288,935,5,0,0:0:0:0:
192,64,1052,5,0,0:0:0:0:
288,64,1052,5,0,0:0:0:0:
0,320,1169,5,0,0:0:0:0:
96,320,1169,5,0,0:0:0:0:
224,160,1287,5,0,0:0:0:0:
320,160,1287,5,0,0:0:0:0:
352,64,1345,5,0,0:0:0:0:
448,64,1345,5,0,0:0:0:0:
160,96,1404,5,0,0:0:0:0:
256,96,1404,5,0,0:0:0:0:
16,200,1521,5,0,0:0:0:0:
112,200,1521,5,0,0:0:0:0:
372,260,1638,5,0,0:0:0:0:
468,260,1638,5,0,0:0:0:0:
160,284,1755,5,0,0:0:0:0:
256,284,1755,5,0,0:0:0:0:
216,224,1873,5,0,0:0:0:0:
312,224,1873,5,0,0:0:0:0:
100,132,1990,5,0,0:0:0:0:
196,132,1990,5,0,0:0:0:0:
280,112,2107,5,0,0:0:0:0:
376,112,2107,5,0,0:0:0:0:
128,72,2224,5,0,0:0:0:0:
32,72,2224,5,0,0:0:0:0:
504,56,2341,5,0,0:0:0:0:
408,56,2341,5,0,0:0:0:0:
160,160,2459,5,0,0:0:0:0:
320,224,2459,5,0,0:0:0:0:
416,224,2459,5,0,0:0:0:0:
64,160,2459,5,0,0:0:0:0:
96,96,2576,5,0,0:0:0:0:
0,96,2576,5,0,0:0:0:0:
384,128,2693,5,0,0:0:0:0:
480,128,2693,5,0,0:0:0:0:
224,256,2810,5,0,0:0:0:0:
128,256,2810,5,0,0:0:0:0:
352,288,2810,5,0,0:0:0:0:
448,288,2810,5,0,0:0:0:0:
288,64,2927,5,0,0:0:0:0:
192,64,2927,5,0,0:0:0:0:
0,320,3044,5,0,0:0:0:0:
96,320,3044,5,0,0:0:0:0:
320,160,3162,5,0,0:0:0:0:
224,160,3162,5,0,0:0:0:0:
352,64,3220,5,0,0:0:0:0:
448,64,3220,5,0,0:0:0:0:
256,96,3279,5,0,0:0:0:0:
160,96,3279,5,0,0:0:0:0:
16,200,3396,5,0,0:0:0:0:
112,200,3396,5,0,0:0:0:0:
468,260,3513,5,0,0:0:0:0:
372,260,3513,5,0,0:0:0:0:
160,284,3630,5,0,0:0:0:0:
256,284,3630,5,0,0:0:0:0:
312,224,3748,5,0,0:0:0:0:
216,224,3748,5,0,0:0:0:0:
100,132,3865,5,0,0:0:0:0:
196,132,3865,5,0,0:0:0:0:
376,112,3982,5,0,0:0:0:0:
280,112,3982,5,0,0:0:0:0:
128,72,4099,5,0,0:0:0:0:
32,72,4099,5,0,0:0:0:0:
408,56,4216,5,0,0:0:0:0:
504,56,4216,5,0,0:0:0:0:
344,160,4334,5,0,0:0:0:0:
184,224,4334,5,0,0:0:0:0:
440,160,4334,5,0,0:0:0:0:
88,224,4334,5,0,0:0:0:0:
504,96,4451,5,0,0:0:0:0:
408,96,4451,5,0,0:0:0:0:
24,128,4568,5,0,0:0:0:0:
120,128,4568,5,0,0:0:0:0:
152,288,4685,5,0,0:0:0:0:
56,288,4685,5,0,0:0:0:0:
280,256,4685,5,0,0:0:0:0:
376,256,4685,5,0,0:0:0:0:
312,64,4802,5,0,0:0:0:0:
216,64,4802,5,0,0:0:0:0:
408,320,4919,5,0,0:0:0:0:
504,320,4919,5,0,0:0:0:0:
280,160,5037,5,0,0:0:0:0:
184,160,5037,5,0,0:0:0:0:
56,64,5095,5,0,0:0:0:0:
152,64,5095,5,0,0:0:0:0:
344,96,5154,5,0,0:0:0:0:
248,96,5154,5,0,0:0:0:0:
392,200,5271,5,0,0:0:0:0:
488,200,5271,5,0,0:0:0:0:
132,260,5388,5,0,0:0:0:0:
36,260,5388,5,0,0:0:0:0:
248,284,5505,5,0,0:0:0:0:
344,284,5505,5,0,0:0:0:0:
288,224,5623,5,0,0:0:0:0:
192,224,5623,5,0,0:0:0:0:
308,132,5740,5,0,0:0:0:0:
404,132,5740,5,0,0:0:0:0:
224,112,5857,5,0,0:0:0:0:
128,112,5857,5,0,0:0:0:0:
472,72,5974,5,0,0:0:0:0:
376,72,5974,5,0,0:0:0:0:
0,56,6091,5,0,0:0:0:0:
96,56,6091,5,0,0:0:0:0:
344,160,6209,5,0,0:0:0:0:
88,224,6209,5,0,0:0:0:0:
440,160,6209,5,0,0:0:0:0:
184,224,6209,5,0,0:0:0:0:
408,96,6326,5,0,0:0:0:0:
504,96,6326,5,0,0:0:0:0:
24,128,6443,5,0,0:0:0:0:
120,128,6443,5,0,0:0:0:0:
232,224,6501,5,0,0:0:0:0:
280,256,6560,5,0,0:0:0:0:
376,256,6560,5,0,0:0:0:0:
152,288,6560,5,0,0:0:0:0:
56,288,6560,5,0,0:0:0:0:
312,64,6677,5,0,0:0:0:0:
216,64,6677,5,0,0:0:0:0:
504,320,6794,5,0,0:0:0:0:
408,320,6794,5,0,0:0:0:0:
404,40,6853,5,0,0:0:0:0:
280,160,6912,5,0,0:0:0:0:
184,160,6912,5,0,0:0:0:0:
152,64,6970,5,0,0:0:0:0:
56,64,6970,5,0,0:0:0:0:
344,96,7029,5,0,0:0:0:0:
248,96,7029,5,0,0:0:0:0:
432,112,7087,5,0,0:0:0:0:
488,200,7146,5,0,0:0:0:0:
392,200,7146,5,0,0:0:0:0:
448,272,7205,5,0,0:0:0:0:
132,260,7263,5,0,0:0:0:0:
36,260,7263,5,0,0:0:0:0:
100,164,7322,5,0,0:0:0:0:
344,284,7380,5,0,0:0:0:0:
248,284,7380,5,0,0:0:0:0:
192,224,7498,5,0,0:0:0:0:
4,160,7498,5,0,0:0:0:0:
300,328,7556,5,0,0:0:0:0:
404,132,7615,5,0,0:0:0:0:
308,132,7615,5,0,0:0:0:0:
224,112,7732,5,0,0:0:0:0:
128,112,7732,5,0,0:0:0:0:
64,64,7791,5,0,0:0:0:0:
376,72,7849,5,0,0:0:0:0:
472,72,7849,5,0,0:0:0:0:
288,0,8083,5,0,0:0:0:0:
512,0,8083,5,0,0:0:0:0:
224,0,8083,5,0,0:0:0:0:
224,0,8083,5,0,0:0:0:0:
32,0,8083,5,0,0:0:0:0:
256,0,8083,5,0,0:0:0:0:
0,0,8084,5,0,0:0:0:0:
480,0,8084,5,0,0:0:0:0:
192,0,8084,5,0,0:0:0:0:
512,32,8143,5,0,0:0:0:0:
288,32,8143,5,0,0:0:0:0:
256,32,8143,5,0,0:0:0:0:
32,32,8143,5,0,0:0:0:0:
224,32,8143,5,0,0:0:0:0:
448,32,8144,5,0,0:0:0:0:
64,32,8144,5,0,0:0:0:0:
480,32,8144,5,0,0:0:0:0:
0,32,8144,5,0,0:0:0:0:
32,64,8202,5,0,0:0:0:0:
256,64,8202,5,0,0:0:0:0:
224,64,8202,5,0,0:0:0:0:
288,64,8202,5,0,0:0:0:0:
512,64,8202,5,0,0:0:0:0:
480,64,8203,5,0,0:0:0:0:
64,64,8203,5,0,0:0:0:0:
448,64,8203,5,0,0:0:0:0:
0,64,8203,5,0,0:0:0:0:
96,96,8261,5,0,0:0:0:0:
512,96,8262,5,0,0:0:0:0:
256,96,8262,5,0,0:0:0:0:
32,96,8262,5,0,0:0:0:0:
64,96,8263,5,0,0:0:0:0:
448,96,8263,5,0,0:0:0:0:
480,96,8263,5,0,0:0:0:0:
416,96,8263,5,0,0:0:0:0:
0,96,8263,5,0,0:0:0:0:
96,128,8318,5,0,0:0:0:0:
32,128,8319,5,0,0:0:0:0:
256,128,8319,5,0,0:0:0:0:
512,128,8319,5,0,0:0:0:0:
0,128,8320,5,0,0:0:0:0:
480,128,8320,5,0,0:0:0:0:
448,128,8320,5,0,0:0:0:0:
416,128,8320,5,0,0:0:0:0:
64,128,8320,5,0,0:0:0:0:
384,160,8378,5,0,0:0:0:0:
96,160,8378,5,0,0:0:0:0:
32,160,8379,5,0,0:0:0:0:
512,160,8379,5,0,0:0:0:0:
128,160,8380,5,0,0:0:0:0:
416,160,8380,5,0,0:0:0:0:
0,160,8380,5,0,0:0:0:0:
448,160,8380,5,0,0:0:0:0:
64,160,8380,5,0,0:0:0:0:
480,160,8380,5,0,0:0:0:0:
96,192,8437,5,0,0:0:0:0:
384,192,8437,5,0,0:0:0:0:
32,192,8438,5,0,0:0:0:0:
512,192,8438,5,0,0:0:0:0:
416,192,8439,5,0,0:0:0:0:
352,192,8439,5,0,0:0:0:0:
160,192,8439,5,0,0:0:0:0:
64,192,8439,5,0,0:0:0:0:
128,192,8439,5,0,0:0:0:0:
448,192,8439,5,0,0:0:0:0:
480,192,8439,5,0,0:0:0:0:
0,192,8439,5,0,0:0:0:0:
384,224,8497,5,0,0:0:0:0:
96,224,8497,5,0,0:0:0:0:
32,224,8498,5,0,0:0:0:0:
512,224,8498,5,0,0:0:0:0:
160,224,8499,5,0,0:0:0:0:
416,224,8499,5,0,0:0:0:0:
352,224,8499,5,0,0:0:0:0:
0,224,8499,5,0,0:0:0:0:
480,224,8499,5,0,0:0:0:0:
128,224,8499,5,0,0:0:0:0:
448,224,8499,5,0,0:0:0:0:
64,224,8499,5,0,0:0:0:0:
96,256,8552,5,0,0:0:0:0:
384,256,8552,5,0,0:0:0:0:
320,256,8553,5,0,0:0:0:0:
32,256,8553,5,0,0:0:0:0:
512,256,8553,5,0,0:0:0:0:
0,256,8554,5,0,0:0:0:0:
192,256,8554,5,0,0:0:0:0:
480,256,8554,5,0,0:0:0:0:
160,256,8554,5,0,0:0:0:0:
448,256,8554,5,0,0:0:0:0:
128,256,8554,5,0,0:0:0:0:
416,256,8554,5,0,0:0:0:0:
64,256,8554,5,0,0:0:0:0:
352,256,8554,5,0,0:0:0:0:
384,288,8612,5,0,0:0:0:0:
96,288,8612,5,0,0:0:0:0:
32,288,8613,5,0,0:0:0:0:
320,288,8613,5,0,0:0:0:0:
512,288,8613,5,0,0:0:0:0:
160,288,8614,5,0,0:0:0:0:
128,288,8614,5,0,0:0:0:0:
352,288,8614,5,0,0:0:0:0:
416,288,8614,5,0,0:0:0:0:
0,288,8614,5,0,0:0:0:0:
448,288,8614,5,0,0:0:0:0:
64,288,8614,5,0,0:0:0:0:
192,288,8614,5,0,0:0:0:0:
480,288,8614,5,0,0:0:0:0:
96,320,8671,5,0,0:0:0:0:
384,320,8671,5,0,0:0:0:0:
160,320,8672,5,0,0:0:0:0:
32,320,8672,5,0,0:0:0:0:
512,320,8672,5,0,0:0:0:0:
192,320,8672,5,0,0:0:0:0:
320,320,8672,5,0,0:0:0:0:
416,320,8673,5,0,0:0:0:0:
352,320,8673,5,0,0:0:0:0:
64,320,8673,5,0,0:0:0:0:
128,320,8673,5,0,0:0:0:0:
448,320,8673,5,0,0:0:0:0:
480,320,8673,5,0,0:0:0:0:
0,320,8673,5,0,0:0:0:0:
384,352,8731,5,0,0:0:0:0:
96,352,8731,5,0,0:0:0:0:
320,352,8732,5,0,0:0:0:0:
192,352,8732,5,0,0:0:0:0:
160,352,8732,5,0,0:0:0:0:
32,352,8732,5,0,0:0:0:0:
512,352,8732,5,0,0:0:0:0:
416,352,8733,5,0,0:0:0:0:
352,352,8733,5,0,0:0:0:0:
0,352,8733,5,0,0:0:0:0:
480,352,8733,5,0,0:0:0:0:
128,352,8733,5,0,0:0:0:0:
448,352,8733,5,0,0:0:0:0:
64,352,8733,5,0,0:0:0:0:
288,0,8787,5,0,0:0:0:0:
96,0,8787,5,0,0:0:0:0:
192,0,8788,5,0,0:0:0:0:
160,0,8788,5,0,0:0:0:0:
224,0,8788,5,0,0:0:0:0:
32,0,8788,5,0,0:0:0:0:
512,0,8788,5,0,0:0:0:0:
256,0,8789,5,0,0:0:0:0:
64,0,8789,5,0,0:0:0:0:
480,0,8789,5,0,0:0:0:0:
128,0,8789,5,0,0:0:0:0:
448,0,8789,5,0,0:0:0:0:
416,0,8789,5,0,0:0:0:0:
0,0,8789,5,0,0:0:0:0:
96,32,8845,5,0,0:0:0:0:
288,32,8845,5,0,0:0:0:0:
32,32,8846,5,0,0:0:0:0:
512,32,8846,5,0,0:0:0:0:
224,32,8846,5,0,0:0:0:0:
192,32,8846,5,0,0:0:0:0:
160,32,8846,5,0,0:0:0:0:
448,32,8847,5,0,0:0:0:0:
416,32,8847,5,0,0:0:0:0:
0,32,8847,5,0,0:0:0:0:
128,32,8847,5,0,0:0:0:0:
256,32,8847,5,0,0:0:0:0:
64,32,8847,5,0,0:0:0:0:
480,32,8847,5,0,0:0:0:0:
288,64,8904,5,0,0:0:0:0:
96,64,8904,5,0,0:0:0:0:
160,64,8905,5,0,0:0:0:0:
224,64,8905,5,0,0:0:0:0:
32,64,8905,5,0,0:0:0:0:
512,64,8905,5,0,0:0:0:0:
192,64,8905,5,0,0:0:0:0:
64,64,8906,5,0,0:0:0:0:
480,64,8906,5,0,0:0:0:0:
128,64,8906,5,0,0:0:0:0:
256,64,8906,5,0,0:0:0:0:
0,64,8906,5,0,0:0:0:0:
416,64,8906,5,0,0:0:0:0:
448,64,8906,5,0,0:0:0:0:
96,96,8962,5,0,0:0:0:0:
288,96,8962,5,0,0:0:0:0:
192,96,8963,5,0,0:0:0:0:
32,96,8963,5,0,0:0:0:0:
160,96,8963,5,0,0:0:0:0:
224,96,8963,5,0,0:0:0:0:
512,96,8963,5,0,0:0:0:0:
256,96,8964,5,0,0:0:0:0:
64,96,8964,5,0,0:0:0:0:
128,96,8964,5,0,0:0:0:0:
480,96,8964,5,0,0:0:0:0:
416,96,8964,5,0,0:0:0:0:
0,96,8964,5,0,0:0:0:0:
448,96,8964,5,0,0:0:0:0:
384,128,9021,5,0,0:0:0:0:
96,128,9021,5,0,0:0:0:0:
224,128,9022,5,0,0:0:0:0:
512,128,9022,5,0,0:0:0:0:
160,128,9022,5,0,0:0:0:0:
192,128,9022,5,0,0:0:0:0:
32,128,9022,5,0,0:0:0:0:
416,128,9023,5,0,0:0:0:0:
0,128,9023,5,0,0:0:0:0:
448,128,9023,5,0,0:0:0:0:
480,128,9023,5,0,0:0:0:0:
256,128,9023,5,0,0:0:0:0:
64,128,9023,5,0,0:0:0:0:
128,128,9023,5,0,0:0:0:0:
384,160,9080,5,0,0:0:0:0:
96,160,9080,5,0,0:0:0:0:
512,160,9081,5,0,0:0:0:0:
192,160,9081,5,0,0:0:0:0:
160,160,9081,5,0,0:0:0:0:
32,160,9081,5,0,0:0:0:0:
224,160,9081,5,0,0:0:0:0:
0,160,9082,5,0,0:0:0:0:
448,160,9082,5,0,0:0:0:0:
64,160,9082,5,0,0:0:0:0:
128,160,9082,5,0,0:0:0:0:
256,160,9082,5,0,0:0:0:0:
416,160,9082,5,0,0:0:0:0:
480,160,9082,5,0,0:0:0:0:
384,192,9138,5,0,0:0:0:0:
96,192,9138,5,0,0:0:0:0:
192,192,9139,5,0,0:0:0:0:
32,192,9139,5,0,0:0:0:0:
160,192,9139,5,0,0:0:0:0:
224,192,9139,5,0,0:0:0:0:
512,192,9139,5,0,0:0:0:0:
448,192,9140,5,0,0:0:0:0:
64,192,9140,5,0,0:0:0:0:
416,192,9140,5,0,0:0:0:0:
480,192,9140,5,0,0:0:0:0:
352,192,9140,5,0,0:0:0:0:
0,192,9140,5,0,0:0:0:0:
128,192,9140,5,0,0:0:0:0:
384,224,9197,5,0,0:0:0:0:
96,224,9197,5,0,0:0:0:0:
224,224,9198,5,0,0:0:0:0:
160,224,9198,5,0,0:0:0:0:
192,224,9198,5,0,0:0:0:0:
32,224,9198,5,0,0:0:0:0:
512,224,9198,5,0,0:0:0:0:
64,224,9199,5,0,0:0:0:0:
448,224,9199,5,0,0:0:0:0:
416,224,9199,5,0,0:0:0:0:
128,224,9199,5,0,0:0:0:0:
352,224,9199,5,0,0:0:0:0:
480,224,9199,5,0,0:0:0:0:
0,224,9199,5,0,0:0:0:0:
384,256,9255,5,0,0:0:0:0:
96,256,9255,5,0,0:0:0:0:
160,256,9256,5,0,0:0:0:0:
32,256,9256,5,0,0:0:0:0:
192,256,9256,5,0,0:0:0:0:
512,256,9256,5,0,0:0:0:0:
224,256,9256,5,0,0:0:0:0:
448,256,9257,5,0,0:0:0:0:
416,256,9257,5,0,0:0:0:0:
480,256,9257,5,0,0:0:0:0:
0,256,9257,5,0,0:0:0:0:
352,256,9257,5,0,0:0:0:0:
64,256,9257,5,0,0:0:0:0:
128,256,9257,5,0,0:0:0:0:
384,288,9314,5,0,0:0:0:0:
96,288,9314,5,0,0:0:0:0:
160,288,9315,5,0,0:0:0:0:
32,288,9315,5,0,0:0:0:0:
192,288,9315,5,0,0:0:0:0:
512,288,9315,5,0,0:0:0:0:
320,288,9315,5,0,0:0:0:0:
448,288,9316,5,0,0:0:0:0:
416,288,9316,5,0,0:0:0:0:
480,288,9316,5,0,0:0:0:0:
0,288,9316,5,0,0:0:0:0:
352,288,9316,5,0,0:0:0:0:
64,288,9316,5,0,0:0:0:0:
128,288,9316,5,0,0:0:0:0:
96,320,9373,5,0,0:0:0:0:
384,320,9373,5,0,0:0:0:0:
512,320,9374,5,0,0:0:0:0:
320,320,9374,5,0,0:0:0:0:
192,320,9374,5,0,0:0:0:0:
160,320,9374,5,0,0:0:0:0:
32,320,9374,5,0,0:0:0:0:
352,320,9375,5,0,0:0:0:0:
64,320,9375,5,0,0:0:0:0:
128,320,9375,5,0,0:0:0:0:
0,320,9375,5,0,0:0:0:0:
448,320,9375,5,0,0:0:0:0:
416,320,9375,5,0,0:0:0:0:
480,320,9375,5,0,0:0:0:0:
96,352,9431,5,0,0:0:0:0:
384,352,9431,5,0,0:0:0:0:
512,352,9432,5,0,0:0:0:0:
320,352,9432,5,0,0:0:0:0:
192,352,9432,5,0,0:0:0:0:
160,352,9432,5,0,0:0:0:0:
32,352,9432,5,0,0:0:0:0:
352,352,9433,5,0,0:0:0:0:
64,352,9433,5,0,0:0:0:0:
128,352,9433,5,0,0:0:0:0:
0,352,9433,5,0,0:0:0:0:
448,352,9433,5,0,0:0:0:0:
416,352,9433,5,0,0:0:0:0:
480,352,9433,5,0,0:0:0:0:
96,384,9490,5,0,0:0:0:0:
384,384,9490,5,0,0:0:0:0:
512,384,9491,5,0,0:0:0:0:
320,384,9491,5,0,0:0:0:0:
192,384,9491,5,0,0:0:0:0:
160,384,9491,5,0,0:0:0:0:
32,384,9491,5,0,0:0:0:0:
352,384,9492,5,0,0:0:0:0:
64,384,9492,5,0,0:0:0:0:
128,384,9492,5,0,0:0:0:0:
0,384,9492,5,0,0:0:0:0:
448,384,9492,5,0,0:0:0:0:
416,384,9492,5,0,0:0:0:0:
480,384,9492,5,0,0:0:0:0:
96,0,9548,5,0,0:0:0:0:
384,0,9548,5,0,0:0:0:0:
512,0,9549,5,0,0:0:0:0:
320,0,9549,5,0,0:0:0:0:
192,0,9549,5,0,0:0:0:0:
160,0,9549,5,0,0:0:0:0:
32,0,9549,5,0,0:0:0:0:
352,0,9550,5,0,0:0:0:0:
64,0,9550,5,0,0:0:0:0:
128,0,9550,5,0,0:0:0:0:
0,0,9550,5,0,0:0:0:0:
448,0,9550,5,0,0:0:0:0:
416,0,9550,5,0,0:0:0:0:
480,0,9550,5,0,0:0:0:0:
96,32,9607,5,0,0:0:0:0:
384,32,9607,5,0,0:0:0:0:
512,32,9608,5,0,0:0:0:0:
320,32,9608,5,0,0:0:0:0:
192,32,9608,5,0,0:0:0:0:
160,32,9608,5,0,0:0:0:0:
32,32,9608,5,0,0:0:0:0:
352,32,9609,5,0,0:0:0:0:
64,32,9609,5,0,0:0:0:0:
128,32,9609,5,0,0:0:0:0:
0,32,9609,5,0,0:0:0:0:
448,32,9609,5,0,0:0:0:0:
416,32,9609,5,0,0:0:0:0:
480,32,9609,5,0,0:0:0:0:
96,64,9666,5,0,0:0:0:0:
384,64,9666,5,0,0:0:0:0:
512,64,9667,5,0,0:0:0:0:
320,64,9667,5,0,0:0:0:0:
192,64,9667,5,0,0:0:0:0:
160,64,9667,5,0,0:0:0:0:
32,64,9667,5,0,0:0:0:0:
352,64,9668,5,0,0:0:0:0:
64,64,9668,5,0,0:0:0:0:
128,64,9668,5,0,0:0:0:0:
0,64,9668,5,0,0:0:0:0:
448,64,9668,5,0,0:0:0:0:
416,64,9668,5,0,0:0:0:0:
480,64,9668,5,0,0:0:0:0:
224,0,9724,5,0,0:0:0:0:
416,0,9724,5,0,0:0:0:0:
480,0,9725,5,0,0:0:0:0:
0,0,9725,5,0,0:0:0:0:
288,0,9725,5,0,0:0:0:0:
320,0,9725,5,0,0:0:0:0:
352,0,9725,5,0,0:0:0:0:
64,0,9726,5,0,0:0:0:0:
96,0,9726,5,0,0:0:0:0:
512,0,9726,5,0,0:0:0:0:
384,0,9726,5,0,0:0:0:0:
256,0,9726,5,0,0:0:0:0:
448,0,9726,5,0,0:0:0:0:
32,0,9726,5,0,0:0:0:0:
416,32,9782,5,0,0:0:0:0:
224,32,9782,5,0,0:0:0:0:
480,32,9783,5,0,0:0:0:0:
0,32,9783,5,0,0:0:0:0:
288,32,9783,5,0,0:0:0:0:
320,32,9783,5,0,0:0:0:0:
352,32,9783,5,0,0:0:0:0:
64,32,9784,5,0,0:0:0:0:
96,32,9784,5,0,0:0:0:0:
512,32,9784,5,0,0:0:0:0:
384,32,9784,5,0,0:0:0:0:
256,32,9784,5,0,0:0:0:0:
448,32,9784,5,0,0:0:0:0:
32,32,9784,5,0,0:0:0:0:
416,64,9841,5,0,0:0:0:0:
224,64,9841,5,0,0:0:0:0:
352,64,9842,5,0,0:0:0:0:
288,64,9842,5,0,0:0:0:0:
480,64,9842,5,0,0:0:0:0:
0,64,9842,5,0,0:0:0:0:
320,64,9842,5,0,0:0:0:0:
448,64,9843,5,0,0:0:0:0:
32,64,9843,5,0,0:0:0:0:
384,64,9843,5,0,0:0:0:0:
256,64,9843,5,0,0:0:0:0:
512,64,9843,5,0,0:0:0:0:
96,64,9843,5,0,0:0:0:0:
64,64,9843,5,0,0:0:0:0:
224,96,9899,5,0,0:0:0:0:
416,96,9899,5,0,0:0:0:0:
288,96,9900,5,0,0:0:0:0:
0,96,9900,5,0,0:0:0:0:
352,96,9900,5,0,0:0:0:0:
320,96,9900,5,0,0:0:0:0:
480,96,9900,5,0,0:0:0:0:
96,96,9901,5,0,0:0:0:0:
512,96,9901,5,0,0:0:0:0:
64,96,9901,5,0,0:0:0:0:
32,96,9901,5,0,0:0:0:0:
256,96,9901,5,0,0:0:0:0:
448,96,9901,5,0,0:0:0:0:
384,96,9901,5,0,0:0:0:0:
128,128,9958,5,0,0:0:0:0:
416,128,9958,5,0,0:0:0:0:
320,128,9959,5,0,0:0:0:0:
480,128,9959,5,0,0:0:0:0:
352,128,9959,5,0,0:0:0:0:
288,128,9959,5,0,0:0:0:0:
0,128,9959,5,0,0:0:0:0:
256,128,9960,5,0,0:0:0:0:
448,128,9960,5,0,0:0:0:0:
384,128,9960,5,0,0:0:0:0:
32,128,9960,5,0,0:0:0:0:
96,128,9960,5,0,0:0:0:0:
512,128,9960,5,0,0:0:0:0:
64,128,9960,5,0,0:0:0:0:
128,160,10017,5,0,0:0:0:0:
416,160,10017,5,0,0:0:0:0:
480,160,10018,5,0,0:0:0:0:
288,160,10018,5,0,0:0:0:0:
352,160,10018,5,0,0:0:0:0:
0,160,10018,5,0,0:0:0:0:
320,160,10018,5,0,0:0:0:0:
256,160,10019,5,0,0:0:0:0:
96,160,10019,5,0,0:0:0:0:
32,160,10019,5,0,0:0:0:0:
384,160,10019,5,0,0:0:0:0:
512,160,10019,5,0,0:0:0:0:
64,160,10019,5,0,0:0:0:0:
448,160,10019,5,0,0:0:0:0:
128,192,10075,5,0,0:0:0:0:
416,192,10075,5,0,0:0:0:0:
320,192,10076,5,0,0:0:0:0:
480,192,10076,5,0,0:0:0:0:
352,192,10076,5,0,0:0:0:0:
288,192,10076,5,0,0:0:0:0:
0,192,10076,5,0,0:0:0:0:
64,192,10077,5,0,0:0:0:0:
448,192,10077,5,0,0:0:0:0:
96,192,10077,5,0,0:0:0:0:
32,192,10077,5,0,0:0:0:0:
160,192,10077,5,0,0:0:0:0:
512,192,10077,5,0,0:0:0:0:
384,192,10077,5,0,0:0:0:0:
416,224,10134,5,0,0:0:0:0:
128,224,10134,5,0,0:0:0:0:
480,224,10135,5,0,0:0:0:0:
0,224,10135,5,0,0:0:0:0:
320,224,10135,5,0,0:0:0:0:
288,224,10135,5,0,0:0:0:0:
352,224,10135,5,0,0:0:0:0:
160,224,10136,5,0,0:0:0:0:
32,224,10136,5,0,0:0:0:0:
512,224,10136,5,0,0:0:0:0:
384,224,10136,5,0,0:0:0:0:
448,224,10136,5,0,0:0:0:0:
64,224,10136,5,0,0:0:0:0:
96,224,10136,5,0,0:0:0:0:
128,256,10192,5,0,0:0:0:0:
416,256,10192,5,0,0:0:0:0:
352,256,10193,5,0,0:0:0:0:
480,256,10193,5,0,0:0:0:0:
320,256,10193,5,0,0:0:0:0:
0,256,10193,5,0,0:0:0:0:
288,256,10193,5,0,0:0:0:0:
64,256,10194,5,0,0:0:0:0:
96,256,10194,5,0,0:0:0:0:
32,256,10194,5,0,0:0:0:0:
512,256,10194,5,0,0:0:0:0:
160,256,10194,5,0,0:0:0:0:
448,256,10194,5,0,0:0:0:0:
384,256,10194,5,0,0:0:0:0:
416,288,10251,5,0,0:0:0:0:
128,288,10251,5,0,0:0:0:0:
0,288,10252,5,0,0:0:0:0:
192,288,10252,5,0,0:0:0:0:
320,288,10252,5,0,0:0:0:0:
352,288,10252,5,0,0:0:0:0:
480,288,10252,5,0,0:0:0:0:
160,288,10253,5,0,0:0:0:0:
448,288,10253,5,0,0:0:0:0:
384,288,10253,5,0,0:0:0:0:
512,288,10253,5,0,0:0:0:0:
64,288,10253,5,0,0:0:0:0:
96,288,10253,5,0,0:0:0:0:
32,288,10253,5,0,0:0:0:0:
416,320,10310,5,0,0:0:0:0:
128,320,10310,5,0,0:0:0:0:
0,320,10311,5,0,0:0:0:0:
192,320,10311,5,0,0:0:0:0:
320,320,10311,5,0,0:0:0:0:
352,320,10311,5,0,0:0:0:0:
480,320,10311,5,0,0:0:0:0:
160,320,10312,5,0,0:0:0:0:
448,320,10312,5,0,0:0:0:0:
384,320,10312,5,0,0:0:0:0:
512,320,10312,5,0,0:0:0:0:
64,320,10312,5,0,0:0:0:0:
96,320,10312,5,0,0:0:0:0:
32,320,10312,5,0,0:0:0:0:
128,352,10368,5,0,0:0:0:0:
416,352,10368,5,0,0:0:0:0:
352,352,10369,5,0,0:0:0:0:
480,352,10369,5,0,0:0:0:0:
320,352,10369,5,0,0:0:0:0:
0,352,10369,5,0,0:0:0:0:
192,352,10369,5,0,0:0:0:0:
64,352,10370,5,0,0:0:0:0:
96,352,10370,5,0,0:0:0:0:
32,352,10370,5,0,0:0:0:0:
512,352,10370,5,0,0:0:0:0:
160,352,10370,5,0,0:0:0:0:
448,352,10370,5,0,0:0:0:0:
384,352,10370,5,0,0:0:0:0:
416,384,10427,5,0,0:0:0:0:
128,384,10427,5,0,0:0:0:0:
0,384,10428,5,0,0:0:0:0:
192,384,10428,5,0,0:0:0:0:
320,384,10428,5,0,0:0:0:0:
352,384,10428,5,0,0:0:0:0:
480,384,10428,5,0,0:0:0:0:
160,384,10429,5,0,0:0:0:0:
448,384,10429,5,0,0:0:0:0:
384,384,10429,5,0,0:0:0:0:
512,384,10429,5,0,0:0:0:0:
64,384,10429,5,0,0:0:0:0:
96,384,10429,5,0,0:0:0:0:
32,384,10429,5,0,0:0:0:0:
128,0,10485,5,0,0:0:0:0:
416,0,10485,5,0,0:0:0:0:
352,0,10486,5,0,0:0:0:0:
480,0,10486,5,0,0:0:0:0:
320,0,10486,5,0,0:0:0:0:
0,0,10486,5,0,0:0:0:0:
192,0,10486,5,0,0:0:0:0:
64,0,10487,5,0,0:0:0:0:
96,0,10487,5,0,0:0:0:0:
32,0,10487,5,0,0:0:0:0:
512,0,10487,5,0,0:0:0:0:
160,0,10487,5,0,0:0:0:0:
448,0,10487,5,0,0:0:0:0:
384,0,10487,5,0,0:0:0:0:
416,32,10544,5,0,0:0:0:0:
128,32,10544,5,0,0:0:0:0:
0,32,10545,5,0,0:0:0:0:
192,32,10545,5,0,0:0:0:0:
320,32,10545,5,0,0:0:0:0:
352,32,10545,5,0,0:0:0:0:
480,32,10545,5,0,0:0:0:0:
160,32,10546,5,0,0:0:0:0:
448,32,10546,5,0,0:0:0:0:
384,32,10546,5,0,0:0:0:0:
512,32,10546,5,0,0:0:0:0:
64,32,10546,5,0,0:0:0:0:
96,32,10546,5,0,0:0:0:0:
32,32,10546,5,0,0:0:0:0:
128,64,10603,5,0,0:0:0:0:
416,64,10603,5,0,0:0:0:0:
352,64,10604,5,0,0:0:0:0:
480,64,10604,5,0,0:0:0:0:
320,64,10604,5,0,0:0:0:0:
0,64,10604,5,0,0:0:0:0:
192,64,10604,5,0,0:0:0:0:
64,64,10605,5,0,0:0:0:0:
96,64,10605,5,0,0:0:0:0:
32,64,10605,5,0,0:0:0:0:
512,64,10605,5,0,0:0:0:0:
160,64,10605,5,0,0:0:0:0:
448,64,10605,5,0,0:0:0:0:
384,64,10605,5,0,0:0:0:0:
288,0,10662,5,0,0:0:0:0:
96,0,10662,5,0,0:0:0:0:
192,0,10663,5,0,0:0:0:0:
160,0,10663,5,0,0:0:0:0:
224,0,10663,5,0,0:0:0:0:
32,0,10663,5,0,0:0:0:0:
512,0,10663,5,0,0:0:0:0:
256,0,10664,5,0,0:0:0:0:
64,0,10664,5,0,0:0:0:0:
480,0,10664,5,0,0:0:0:0:
128,0,10664,5,0,0:0:0:0:
448,0,10664,5,0,0:0:0:0:
416,0,10664,5,0,0:0:0:0:
0,0,10664,5,0,0:0:0:0:
288,32,10720,5,0,0:0:0:0:
96,32,10720,5,0,0:0:0:0:
192,32,10721,5,0,0:0:0:0:
160,32,10721,5,0,0:0:0:0:
224,32,10721,5,0,0:0:0:0:
32,32,10721,5,0,0:0:0:0:
512,32,10721,5,0,0:0:0:0:
448,32,10722,5,0,0:0:0:0:
416,32,10722,5,0,0:0:0:0:
0,32,10722,5,0,0:0:0:0:
128,32,10722,5,0,0:0:0:0:
256,32,10722,5,0,0:0:0:0:
64,32,10722,5,0,0:0:0:0:
480,32,10722,5,0,0:0:0:0:
96,64,10779,5,0,0:0:0:0:
288,64,10779,5,0,0:0:0:0:
160,64,10780,5,0,0:0:0:0:
224,64,10780,5,0,0:0:0:0:
32,64,10780,5,0,0:0:0:0:
512,64,10780,5,0,0:0:0:0:
192,64,10780,5,0,0:0:0:0:
64,64,10781,5,0,0:0:0:0:
480,64,10781,5,0,0:0:0:0:
128,64,10781,5,0,0:0:0:0:
256,64,10781,5,0,0:0:0:0:
0,64,10781,5,0,0:0:0:0:
416,64,10781,5,0,0:0:0:0:
448,64,10781,5,0,0:0:0:0:
288,96,10837,5,0,0:0:0:0:
96,96,10837,5,0,0:0:0:0:
224,96,10838,5,0,0:0:0:0:
512,96,10838,5,0,0:0:0:0:
160,96,10838,5,0,0:0:0:0:
192,96,10838,5,0,0:0:0:0:
32,96,10838,5,0,0:0:0:0:
416,96,10839,5,0,0:0:0:0:
0,96,10839,5,0,0:0:0:0:
448,96,10839,5,0,0:0:0:0:
480,96,10839,5,0,0:0:0:0:
256,96,10839,5,0,0:0:0:0:
64,96,10839,5,0,0:0:0:0:
128,96,10839,5,0,0:0:0:0:
384,128,10896,5,0,0:0:0:0:
96,128,10896,5,0,0:0:0:0:
224,128,10897,5,0,0:0:0:0:
512,128,10897,5,0,0:0:0:0:
160,128,10897,5,0,0:0:0:0:
192,128,10897,5,0,0:0:0:0:
32,128,10897,5,0,0:0:0:0:
416,128,10898,5,0,0:0:0:0:
0,128,10898,5,0,0:0:0:0:
448,128,10898,5,0,0:0:0:0:
480,128,10898,5,0,0:0:0:0:
256,128,10898,5,0,0:0:0:0:
64,128,10898,5,0,0:0:0:0:
128,128,10898,5,0,0:0:0:0:
96,160,10955,5,0,0:0:0:0:
384,160,10955,5,0,0:0:0:0:
32,160,10956,5,0,0:0:0:0:
224,160,10956,5,0,0:0:0:0:
160,160,10956,5,0,0:0:0:0:
512,160,10956,5,0,0:0:0:0:
192,160,10956,5,0,0:0:0:0:
256,160,10957,5,0,0:0:0:0:
416,160,10957,5,0,0:0:0:0:
480,160,10957,5,0,0:0:0:0:
128,160,10957,5,0,0:0:0:0:
0,160,10957,5,0,0:0:0:0:
448,160,10957,5,0,0:0:0:0:
64,160,10957,5,0,0:0:0:0:
384,192,11013,5,0,0:0:0:0:
96,192,11013,5,0,0:0:0:0:
192,192,11014,5,0,0:0:0:0:
32,192,11014,5,0,0:0:0:0:
160,192,11014,5,0,0:0:0:0:
224,192,11014,5,0,0:0:0:0:
512,192,11014,5,0,0:0:0:0:
448,192,11015,5,0,0:0:0:0:
64,192,11015,5,0,0:0:0:0:
416,192,11015,5,0,0:0:0:0:
480,192,11015,5,0,0:0:0:0:
352,192,11015,5,0,0:0:0:0:
0,192,11015,5,0,0:0:0:0:
128,192,11015,5,0,0:0:0:0:
96,224,11072,5,0,0:0:0:0:
384,224,11072,5,0,0:0:0:0:
32,224,11073,5,0,0:0:0:0:
512,224,11073,5,0,0:0:0:0:
192,224,11073,5,0,0:0:0:0:
224,224,11073,5,0,0:0:0:0:
160,224,11073,5,0,0:0:0:0:
352,224,11074,5,0,0:0:0:0:
480,224,11074,5,0,0:0:0:0:
0,224,11074,5,0,0:0:0:0:
128,224,11074,5,0,0:0:0:0:
64,224,11074,5,0,0:0:0:0:
448,224,11074,5,0,0:0:0:0:
416,224,11074,5,0,0:0:0:0:
384,256,11130,5,0,0:0:0:0:
96,256,11130,5,0,0:0:0:0:
160,256,11131,5,0,0:0:0:0:
32,256,11131,5,0,0:0:0:0:
192,256,11131,5,0,0:0:0:0:
512,256,11131,5,0,0:0:0:0:
224,256,11131,5,0,0:0:0:0:
448,256,11132,5,0,0:0:0:0:
416,256,11132,5,0,0:0:0:0:
480,256,11132,5,0,0:0:0:0:
0,256,11132,5,0,0:0:0:0:
352,256,11132,5,0,0:0:0:0:
64,256,11132,5,0,0:0:0:0:
128,256,11132,5,0,0:0:0:0:
96,384,11365,5,0,0:0:0:0:
384,384,11365,5,0,0:0:0:0:
512,384,11366,5,0,0:0:0:0:
320,384,11366,5,0,0:0:0:0:
288,384,11366,5,0,0:0:0:0:
256,384,11366,5,0,0:0:0:0:
32,384,11366,5,0,0:0:0:0:
352,384,11367,5,0,0:0:0:0:
64,384,11367,5,0,0:0:0:0:
224,384,11367,5,0,0:0:0:0:
0,384,11367,5,0,0:0:0:0:
448,384,11367,5,0,0:0:0:0:
416,384,11367,5,0,0:0:0:0:
480,384,11367,5,0,0:0:0:0:
384,352,11541,5,0,0:0:0:0:
192,352,11541,5,0,0:0:0:0:
512,352,11542,5,0,0:0:0:0:
128,352,11542,5,0,0:0:0:0:
320,352,11542,5,0,0:0:0:0:
256,352,11542,5,0,0:0:0:0:
288,352,11542,5,0,0:0:0:0:
448,352,11543,5,0,0:0:0:0:
0,352,11543,5,0,0:0:0:0:
480,352,11543,5,0,0:0:0:0:
416,352,11543,5,0,0:0:0:0:
224,352,11543,5,0,0:0:0:0:
160,352,11543,5,0,0:0:0:0:
352,352,11543,5,0,0:0:0:0:
384,320,11714,5,0,0:0:0:0:
96,320,11714,5,0,0:0:0:0:
32,320,11715,5,0,0:0:0:0:
256,320,11715,5,0,0:0:0:0:
320,320,11715,5,0,0:0:0:0:
288,320,11715,5,0,0:0:0:0:
512,320,11715,5,0,0:0:0:0:
0,320,11716,5,0,0:0:0:0:
480,320,11716,5,0,0:0:0:0:
64,320,11716,5,0,0:0:0:0:
352,320,11716,5,0,0:0:0:0:
128,320,11716,5,0,0:0:0:0:
448,320,11716,5,0,0:0:0:0:
416,320,11716,5,0,0:0:0:0:
416,160,11834,5,0,0:0:0:0:
128,160,11834,5,0,0:0:0:0:
224,160,11835,5,0,0:0:0:0:
0,160,11835,5,0,0:0:0:0:
192,160,11835,5,0,0:0:0:0:
480,160,11835,5,0,0:0:0:0:
384,160,11836,5,0,0:0:0:0:
64,160,11836,5,0,0:0:0:0:
96,160,11836,5,0,0:0:0:0:
160,160,11836,5,0,0:0:0:0:
512,160,11836,5,0,0:0:0:0:
32,160,11836,5,0,0:0:0:0:
448,160,11836,5,0,0:0:0:0:
128,128,11892,5,0,0:0:0:0:
416,128,11892,5,0,0:0:0:0:
224,128,11893,5,0,0:0:0:0:
480,128,11893,5,0,0:0:0:0:
192,128,11893,5,0,0:0:0:0:
0,128,11893,5,0,0:0:0:0:
512,128,11894,5,0,0:0:0:0:
160,128,11894,5,0,0:0:0:0:
448,128,11894,5,0,0:0:0:0:
32,128,11894,5,0,0:0:0:0:
96,128,11894,5,0,0:0:0:0:
64,128,11894,5,0,0:0:0:0:
256,128,11894,5,0,0:0:0:0:
288,96,11951,5,0,0:0:0:0:
128,96,11951,5,0,0:0:0:0:
224,96,11952,5,0,0:0:0:0:
0,96,11952,5,0,0:0:0:0:
192,96,11952,5,0,0:0:0:0:
480,96,11952,5,0,0:0:0:0:
96,96,11953,5,0,0:0:0:0:
32,96,11953,5,0,0:0:0:0:
256,96,11953,5,0,0:0:0:0:
64,96,11953,5,0,0:0:0:0:
320,96,11953,5,0,0:0:0:0:
160,96,11953,5,0,0:0:0:0:
512,96,11953,5,0,0:0:0:0:
128,64,12009,5,0,0:0:0:0:
288,64,12009,5,0,0:0:0:0:
192,64,12010,5,0,0:0:0:0:
480,64,12010,5,0,0:0:0:0:
224,64,12010,5,0,0:0:0:0:
0,64,12010,5,0,0:0:0:0:
448,64,12011,5,0,0:0:0:0:
160,64,12011,5,0,0:0:0:0:
512,64,12011,5,0,0:0:0:0:
64,64,12011,5,0,0:0:0:0:
96,64,12011,5,0,0:0:0:0:
32,64,12011,5,0,0:0:0:0:
256,64,12011,5,0,0:0:0:0:
128,32,12068,5,0,0:0:0:0:
416,32,12068,5,0,0:0:0:0:
224,32,12069,5,0,0:0:0:0:
480,32,12069,5,0,0:0:0:0:
0,32,12069,5,0,0:0:0:0:
192,32,12069,5,0,0:0:0:0:
160,32,12070,5,0,0:0:0:0:
512,32,12070,5,0,0:0:0:0:
384,32,12070,5,0,0:0:0:0:
32,32,12070,5,0,0:0:0:0:
96,32,12070,5,0,0:0:0:0:
448,32,12070,5,0,0:0:0:0:
64,32,12070,5,0,0:0:0:0:
416,0,12126,5,0,0:0:0:0:
128,0,12126,5,0,0:0:0:0:
352,0,12127,5,0,0:0:0:0:
320,0,12127,5,0,0:0:0:0:
0,0,12127,5,0,0:0:0:0:
480,0,12127,5,0,0:0:0:0:
96,0,12128,5,0,0:0:0:0:
32,0,12128,5,0,0:0:0:0:
64,0,12128,5,0,0:0:0:0:
448,0,12128,5,0,0:0:0:0:
384,0,12128,5,0,0:0:0:0:
512,0,12128,5,0,0:0:0:0:
160,0,12128,5,0,0:0:0:0:
416,384,12185,5,0,0:0:0:0:
256,384,12185,5,0,0:0:0:0:
0,384,12186,5,0,0:0:0:0:
320,384,12186,5,0,0:0:0:0:
480,384,12186,5,0,0:0:0:0:
352,384,12186,5,0,0:0:0:0:
32,384,12187,5,0,0:0:0:0:
64,384,12187,5,0,0:0:0:0:
288,384,12187,5,0,0:0:0:0:
512,384,12187,5,0,0:0:0:0:
384,384,12187,5,0,0:0:0:0:
96,384,12187,5,0,0:0:0:0:
448,384,12187,5,0,0:0:0:0:
416,352,12244,5,0,0:0:0:0:
256,352,12244,5,0,0:0:0:0:
320,352,12245,5,0,0:0:0:0:
352,352,12245,5,0,0:0:0:0:
0,352,12245,5,0,0:0:0:0:
480,352,12245,5,0,0:0:0:0:
64,352,12246,5,0,0:0:0:0:
32,352,12246,5,0,0:0:0:0:
448,352,12246,5,0,0:0:0:0:
384,352,12246,5,0,0:0:0:0:
288,352,12246,5,0,0:0:0:0:
512,352,12246,5,0,0:0:0:0:
224,352,12246,5,0,0:0:0:0:
416,320,12302,5,0,0:0:0:0:
256,320,12302,5,0,0:0:0:0:
352,320,12303,5,0,0:0:0:0:
480,320,12303,5,0,0:0:0:0:
320,320,12303,5,0,0:0:0:0:
0,320,12303,5,0,0:0:0:0:
32,320,12304,5,0,0:0:0:0:
192,320,12304,5,0,0:0:0:0:
224,320,12304,5,0,0:0:0:0:
288,320,12304,5,0,0:0:0:0:
448,320,12304,5,0,0:0:0:0:
384,320,12304,5,0,0:0:0:0:
512,320,12304,5,0,0:0:0:0:
256,288,12361,5,0,0:0:0:0:
416,288,12361,5,0,0:0:0:0:
352,288,12362,5,0,0:0:0:0:
0,288,12362,5,0,0:0:0:0:
320,288,12362,5,0,0:0:0:0:
480,288,12362,5,0,0:0:0:0:
448,288,12363,5,0,0:0:0:0:
288,288,12363,5,0,0:0:0:0:
512,288,12363,5,0,0:0:0:0:
384,288,12363,5,0,0:0:0:0:
224,288,12363,5,0,0:0:0:0:
192,288,12363,5,0,0:0:0:0:
32,288,12363,5,0,0:0:0:0:
96,256,12419,5,0,0:0:0:0:
416,256,12419,5,0,0:0:0:0:
320,256,12420,5,0,0:0:0:0:
0,256,12420,5,0,0:0:0:0:
480,256,12420,5,0,0:0:0:0:
352,256,12420,5,0,0:0:0:0:
288,256,12421,5,0,0:0:0:0:
512,256,12421,5,0,0:0:0:0:
32,256,12421,5,0,0:0:0:0:
64,256,12421,5,0,0:0:0:0:
64,256,12421,5,0,0:0:0:0:
448,256,12421,5,0,0:0:0:0:
384,256,12421,5,0,0:0:0:0:
416,224,12476,5,0,0:0:0:0:
128,224,12476,5,0,0:0:0:0:
480,224,12477,5,0,0:0:0:0:
352,224,12477,5,0,0:0:0:0:
320,224,12477,5,0,0:0:0:0:
0,224,12477,5,0,0:0:0:0:
96,224,12478,5,0,0:0:0:0:
448,224,12478,5,0,0:0:0:0:
384,224,12478,5,0,0:0:0:0:
64,224,12478,5,0,0:0:0:0:
288,224,12478,5,0,0:0:0:0:
512,224,12478,5,0,0:0:0:0:
32,224,12478,5,0,0:0:0:0:
128,192,12537,5,0,0:0:0:0:
416,192,12537,5,0,0:0:0:0:
192,192,12538,5,0,0:0:0:0:
0,192,12538,5,0,0:0:0:0:
480,192,12538,5,0,0:0:0:0:
352,192,12538,5,0,0:0:0:0:
160,192,12539,5,0,0:0:0:0:
512,192,12539,5,0,0:0:0:0:
32,192,12539,5,0,0:0:0:0:
64,192,12539,5,0,0:0:0:0:
96,192,12539,5,0,0:0:0:0:
448,192,12539,5,0,0:0:0:0:
384,192,12539,5,0,0:0:0:0:
416,160,12595,5,0,0:0:0:0:
128,160,12595,5,0,0:0:0:0:
480,160,12596,5,0,0:0:0:0:
224,160,12596,5,0,0:0:0:0:
192,160,12596,5,0,0:0:0:0:
0,160,12596,5,0,0:0:0:0:
96,160,12597,5,0,0:0:0:0:
448,160,12597,5,0,0:0:0:0:
256,160,12597,5,0,0:0:0:0:
64,160,12597,5,0,0:0:0:0:
160,160,12597,5,0,0:0:0:0:
512,160,12597,5,0,0:0:0:0:
32,160,12597,5,0,0:0:0:0:
128,128,12654,5,0,0:0:0:0:
288,128,12654,5,0,0:0:0:0:
480,128,12655,5,0,0:0:0:0:
0,128,12655,5,0,0:0:0:0:
192,128,12655,5,0,0:0:0:0:
224,128,12655,5,0,0:0:0:0:
160,128,12656,5,0,0:0:0:0:
64,128,12656,5,0,0:0:0:0:
32,128,12656,5,0,0:0:0:0:
512,128,12656,5,0,0:0:0:0:
256,128,12656,5,0,0:0:0:0:
448,128,12656,5,0,0:0:0:0:
96,128,12656,5,0,0:0:0:0:
288,96,12712,5,0,0:0:0:0:
128,96,12712,5,0,0:0:0:0:
192,96,12713,5,0,0:0:0:0:
224,96,12713,5,0,0:0:0:0:
480,96,12713,5,0,0:0:0:0:
0,96,12713,5,0,0:0:0:0:
256,96,12714,5,0,0:0:0:0:
320,96,12714,5,0,0:0:0:0:
96,96,12714,5,0,0:0:0:0:
512,96,12714,5,0,0:0:0:0:
160,96,12714,5,0,0:0:0:0:
64,96,12714,5,0,0:0:0:0:
32,96,12714,5,0,0:0:0:0:
128,64,12771,5,0,0:0:0:0:
288,64,12771,5,0,0:0:0:0:
480,64,12772,5,0,0:0:0:0:
0,64,12772,5,0,0:0:0:0:
192,64,12772,5,0,0:0:0:0:
224,64,12772,5,0,0:0:0:0:
160,64,12773,5,0,0:0:0:0:
64,64,12773,5,0,0:0:0:0:
32,64,12773,5,0,0:0:0:0:
512,64,12773,5,0,0:0:0:0:
256,64,12773,5,0,0:0:0:0:
448,64,12773,5,0,0:0:0:0:
96,64,12773,5,0,0:0:0:0:
416,32,12830,5,0,0:0:0:0:
128,32,12830,5,0,0:0:0:0:
480,32,12831,5,0,0:0:0:0:
224,32,12831,5,0,0:0:0:0:
192,32,12831,5,0,0:0:0:0:
0,32,12831,5,0,0:0:0:0:
512,32,12832,5,0,0:0:0:0:
96,32,12832,5,0,0:0:0:0:
448,32,12832,5,0,0:0:0:0:
32,32,12832,5,0,0:0:0:0:
64,32,12832,5,0,0:0:0:0:
160,32,12832,5,0,0:0:0:0:
416,0,12888,5,0,0:0:0:0:
128,0,12888,5,0,0:0:0:0:
352,0,12889,5,0,0:0:0:0:
384,0,12889,5,0,0:0:0:0:
0,0,12889,5,0,0:0:0:0:
480,0,12889,5,0,0:0:0:0:
512,0,12890,5,0,0:0:0:0:
96,0,12890,5,0,0:0:0:0:
160,0,12890,5,0,0:0:0:0:
64,0,12890,5,0,0:0:0:0:
32,0,12890,5,0,0:0:0:0:
448,0,12890,5,0,0:0:0:0:
416,384,12947,5,0,0:0:0:0:
288,384,12947,5,0,0:0:0:0:
0,384,12948,5,0,0:0:0:0:
384,384,12948,5,0,0:0:0:0:
480,384,12948,5,0,0:0:0:0:
352,384,12948,5,0,0:0:0:0:
320,384,12949,5,0,0:0:0:0:
32,384,12949,5,0,0:0:0:0:
96,384,12949,5,0,0:0:0:0:
64,384,12949,5,0,0:0:0:0:
448,384,12949,5,0,0:0:0:0:
512,384,12949,5,0,0:0:0:0:
288,352,13005,5,0,0:0:0:0:
416,352,13005,5,0,0:0:0:0:
0,352,13006,5,0,0:0:0:0:
352,352,13006,5,0,0:0:0:0:
480,352,13006,5,0,0:0:0:0:
384,352,13006,5,0,0:0:0:0:
224,352,13007,5,0,0:0:0:0:
512,352,13007,5,0,0:0:0:0:
448,352,13007,5,0,0:0:0:0:
320,352,13007,5,0,0:0:0:0:
256,352,13007,5,0,0:0:0:0:
32,352,13007,5,0,0:0:0:0:
416,320,13064,5,0,0:0:0:0:
288,320,13064,5,0,0:0:0:0:
480,320,13065,5,0,0:0:0:0:
384,320,13065,5,0,0:0:0:0:
0,320,13065,5,0,0:0:0:0:
352,320,13065,5,0,0:0:0:0:
320,320,13066,5,0,0:0:0:0:
256,320,13066,5,0,0:0:0:0:
192,320,13066,5,0,0:0:0:0:
224,320,13066,5,0,0:0:0:0:
512,320,13066,5,0,0:0:0:0:
448,320,13066,5,0,0:0:0:0:
288,288,13123,5,0,0:0:0:0:
416,288,13123,5,0,0:0:0:0:
0,288,13124,5,0,0:0:0:0:
352,288,13124,5,0,0:0:0:0:
480,288,13124,5,0,0:0:0:0:
384,288,13124,5,0,0:0:0:0:
224,288,13125,5,0,0:0:0:0:
512,288,13125,5,0,0:0:0:0:
448,288,13125,5,0,0:0:0:0:
320,288,13125,5,0,0:0:0:0:
256,288,13125,5,0,0:0:0:0:
32,288,13125,5,0,0:0:0:0:
288,256,13181,5,0,0:0:0:0:
416,256,13181,5,0,0:0:0:0:
480,256,13182,5,0,0:0:0:0:
352,256,13182,5,0,0:0:0:0:
384,256,13182,5,0,0:0:0:0:
0,256,13182,5,0,0:0:0:0:
448,256,13183,5,0,0:0:0:0:
96,256,13183,5,0,0:0:0:0:
512,256,13183,5,0,0:0:0:0:
320,256,13183,5,0,0:0:0:0:
32,256,13183,5,0,0:0:0:0:
64,256,13183,5,0,0:0:0:0:
416,224,13240,5,0,0:0:0:0:
128,224,13240,5,0,0:0:0:0:
480,224,13241,5,0,0:0:0:0:
0,224,13241,5,0,0:0:0:0:
384,224,13241,5,0,0:0:0:0:
352,224,13241,5,0,0:0:0:0:
160,224,13242,5,0,0:0:0:0:
64,224,13242,5,0,0:0:0:0:
32,224,13242,5,0,0:0:0:0:
448,224,13242,5,0,0:0:0:0:
512,224,13242,5,0,0:0:0:0:
96,224,13242,5,0,0:0:0:0:
128,192,13298,5,0,0:0:0:0:
256,192,13298,5,0,0:0:0:0:
224,192,13299,5,0,0:0:0:0:
192,192,13299,5,0,0:0:0:0:
480,192,13299,5,0,0:0:0:0:
0,192,13299,5,0,0:0:0:0:
448,192,13300,5,0,0:0:0:0:
512,192,13300,5,0,0:0:0:0:
96,192,13300,5,0,0:0:0:0:
160,192,13300,5,0,0:0:0:0:
64,192,13300,5,0,0:0:0:0:
32,192,13300,5,0,0:0:0:0:
256,160,13357,5,0,0:0:0:0:
128,160,13357,5,0,0:0:0:0:
320,160,13358,5,0,0:0:0:0:
0,160,13358,5,0,0:0:0:0:
224,160,13358,5,0,0:0:0:0:
192,160,13358,5,0,0:0:0:0:
160,160,13359,5,0,0:0:0:0:
64,160,13359,5,0,0:0:0:0:
32,160,13359,5,0,0:0:0:0:
288,160,13359,5,0,0:0:0:0:
512,160,13359,5,0,0:0:0:0:
96,160,13359,5,0,0:0:0:0:
256,128,13416,5,0,0:0:0:0:
128,128,13416,5,0,0:0:0:0:
224,128,13417,5,0,0:0:0:0:
0,128,13417,5,0,0:0:0:0:
192,128,13417,5,0,0:0:0:0:
480,128,13417,5,0,0:0:0:0:
32,128,13418,5,0,0:0:0:0:
512,128,13418,5,0,0:0:0:0:
64,128,13418,5,0,0:0:0:0:
448,352,13418,5,0,0:0:0:0:
96,128,13418,5,0,0:0:0:0:
160,128,13418,5,0,0:0:0:0:
128,96,13474,5,0,0:0:0:0:
448,96,13474,5,0,0:0:0:0:
192,96,13475,5,0,0:0:0:0:
480,96,13475,5,0,0:0:0:0:
416,96,13475,5,0,0:0:0:0:
0,96,13475,5,0,0:0:0:0:
96,96,13476,5,0,0:0:0:0:
160,96,13476,5,0,0:0:0:0:
32,96,13476,5,0,0:0:0:0:
512,96,13476,5,0,0:0:0:0:
64,96,13476,5,0,0:0:0:0:
320,64,13533,5,0,0:0:0:0:
448,64,13533,5,0,0:0:0:0:
416,64,13534,5,0,0:0:0:0:
480,64,13534,5,0,0:0:0:0:
0,64,13534,5,0,0:0:0:0:
384,64,13534,5,0,0:0:0:0:
352,64,13535,5,0,0:0:0:0:
512,64,13535,5,0,0:0:0:0:
96,64,13535,5,0,0:0:0:0:
32,64,13535,5,0,0:0:0:0:
64,64,13535,5,0,0:0:0:0:
448,32,13591,5,0,0:0:0:0:
320,32,13591,5,0,0:0:0:0:
0,32,13592,5,0,0:0:0:0:
384,32,13592,5,0,0:0:0:0:
416,32,13592,5,0,0:0:0:0:
480,32,13592,5,0,0:0:0:0:
32,32,13593,5,0,0:0:0:0:
256,32,13593,5,0,0:0:0:0:
352,32,13593,5,0,0:0:0:0:
512,32,13593,5,0,0:0:0:0:
288,32,13593,5,0,0:0:0:0:
448,0,13650,5,0,0:0:0:0:
320,0,13650,5,0,0:0:0:0:
384,0,13651,5,0,0:0:0:0:
480,0,13651,5,0,0:0:0:0:
0,0,13651,5,0,0:0:0:0:
416,0,13651,5,0,0:0:0:0:
32,0,13652,5,0,0:0:0:0:
64,0,13652,5,0,0:0:0:0:
352,0,13652,5,0,0:0:0:0:
96,0,13652,5,0,0:0:0:0:
512,0,13652,5,0,0:0:0:0:
128,384,13709,5,0,0:0:0:0:
448,384,13709,5,0,0:0:0:0:
0,384,13710,5,0,0:0:0:0:
416,384,13710,5,0,0:0:0:0:
384,384,13710,5,0,0:0:0:0:
480,384,13710,5,0,0:0:0:0:
512,384,13711,5,0,0:0:0:0:
96,384,13711,5,0,0:0:0:0:
160,384,13711,5,0,0:0:0:0:
32,384,13711,5,0,0:0:0:0:
64,384,13711,5,0,0:0:0:0:
448,352,13767,5,0,0:0:0:0:
128,352,13767,5,0,0:0:0:0:
192,352,13768,5,0,0:0:0:0:
480,352,13768,5,0,0:0:0:0:
0,352,13768,5,0,0:0:0:0:
448,384,13768,5,0,0:0:0:0:
32,352,13769,5,0,0:0:0:0:
64,352,13769,5,0,0:0:0:0:
160,352,13769,5,0,0:0:0:0:
512,352,13769,5,0,0:0:0:0:
96,352,13769,5,0,0:0:0:0:
128,320,13826,5,0,0:0:0:0:
448,320,13826,5,0,0:0:0:0:
480,320,13827,5,0,0:0:0:0:
416,320,13827,5,0,0:0:0:0:
0,320,13827,5,0,0:0:0:0:
224,352,13827,5,0,0:0:0:0:
96,320,13828,5,0,0:0:0:0:
512,320,13828,5,0,0:0:0:0:
384,320,13828,5,0,0:0:0:0:
64,320,13828,5,0,0:0:0:0:
32,320,13828,5,0,0:0:0:0:
448,288,13884,5,0,0:0:0:0:
320,288,13884,5,0,0:0:0:0:
0,288,13885,5,0,0:0:0:0:
384,288,13885,5,0,0:0:0:0:
416,288,13885,5,0,0:0:0:0:
480,288,13885,5,0,0:0:0:0:
512,288,13886,5,0,0:0:0:0:
480,384,13886,5,0,0:0:0:0:
352,288,13886,5,0,0:0:0:0:
32,288,13886,5,0,0:0:0:0:
64,288,13886,5,0,0:0:0:0:
448,256,13943,5,0,0:0:0:0:
320,256,13943,5,0,0:0:0:0:
416,256,13944,5,0,0:0:0:0:
384,256,13944,5,0,0:0:0:0:
480,256,13944,5,0,0:0:0:0:
0,256,13944,5,0,0:0:0:0:
288,256,13945,5,0,0:0:0:0:
256,256,13945,5,0,0:0:0:0:
224,256,13945,5,0,0:0:0:0:
352,256,13945,5,0,0:0:0:0:
512,256,13945,5,0,0:0:0:0:
352,96,14001,5,0,0:0:0:0:
224,96,14001,5,0,0:0:0:0:
512,96,14001,5,0,0:0:0:0:
256,96,14001,5,0,0:0:0:0:
288,96,14001,5,0,0:0:0:0:
384,96,14002,5,0,0:0:0:0:
0,96,14002,5,0,0:0:0:0:
416,96,14002,5,0,0:0:0:0:
480,96,14002,5,0,0:0:0:0:
320,96,14003,5,0,0:0:0:0:
448,96,14003,5,0,0:0:0:0:
352,128,14060,5,0,0:0:0:0:
512,128,14060,5,0,0:0:0:0:
64,128,14060,5,0,0:0:0:0:
480,224,14060,5,0,0:0:0:0:
32,128,14060,5,0,0:0:0:0:
384,128,14061,5,0,0:0:0:0:
480,128,14061,5,0,0:0:0:0:
0,128,14061,5,0,0:0:0:0:
416,128,14061,5,0,0:0:0:0:
320,128,14062,5,0,0:0:0:0:
448,128,14062,5,0,0:0:0:0:
384,160,14118,5,0,0:0:0:0:
64,160,14118,5,0,0:0:0:0:
512,160,14118,5,0,0:0:0:0:
32,160,14118,5,0,0:0:0:0:
96,160,14118,5,0,0:0:0:0:
416,160,14119,5,0,0:0:0:0:
0,160,14119,5,0,0:0:0:0:
224,192,14119,5,0,0:0:0:0:
480,160,14119,5,0,0:0:0:0:
128,160,14120,5,0,0:0:0:0:
448,160,14120,5,0,0:0:0:0:
448,352,14177,5,0,0:0:0:0:
128,352,14177,5,0,0:0:0:0:
0,352,14178,5,0,0:0:0:0:
480,352,14178,5,0,0:0:0:0:
448,384,14178,5,0,0:0:0:0:
192,352,14178,5,0,0:0:0:0:
160,352,14179,5,0,0:0:0:0:
32,352,14179,5,0,0:0:0:0:
512,352,14179,5,0,0:0:0:0:
96,352,14179,5,0,0:0:0:0:
64,352,14179,5,0,0:0:0:0:
128,320,14236,5,0,0:0:0:0:
448,320,14236,5,0,0:0:0:0:
224,352,14237,5,0,0:0:0:0:
0,320,14237,5,0,0:0:0:0:
480,320,14237,5,0,0:0:0:0:
416,320,14237,5,0,0:0:0:0:
64,320,14238,5,0,0:0:0:0:
384,320,14238,5,0,0:0:0:0:
32,320,14238,5,0,0:0:0:0:
96,320,14238,5,0,0:0:0:0:
512,320,14238,5,0,0:0:0:0:
448,288,14294,5,0,0:0:0:0:
320,288,14294,5,0,0:0:0:0:
416,288,14295,5,0,0:0:0:0:
480,288,14295,5,0,0:0:0:0:
384,288,14295,5,0,0:0:0:0:
0,288,14295,5,0,0:0:0:0:
64,288,14296,5,0,0:0:0:0:
512,288,14296,5,0,0:0:0:0:
32,288,14296,5,0,0:0:0:0:
480,384,14296,5,0,0:0:0:0:
352,288,14296,5,0,0:0:0:0:
448,256,14353,5,0,0:0:0:0:
320,256,14353,5,0,0:0:0:0:
416,256,14354,5,0,0:0:0:0:
384,256,14354,5,0,0:0:0:0:
0,256,14354,5,0,0:0:0:0:
480,256,14354,5,0,0:0:0:0:
288,256,14355,5,0,0:0:0:0:
352,256,14355,5,0,0:0:0:0:
256,256,14355,5,0,0:0:0:0:
224,256,14355,5,0,0:0:0:0:
512,256,14355,5,0,0:0:0:0:
256,96,14411,5,0,0:0:0:0:
352,96,14411,5,0,0:0:0:0:
224,96,14411,5,0,0:0:0:0:
288,96,14411,5,0,0:0:0:0:
512,96,14411,5,0,0:0:0:0:
0,96,14412,5,0,0:0:0:0:
480,96,14412,5,0,0:0:0:0:
384,96,14412,5,0,0:0:0:0:
416,96,14412,5,0,0:0:0:0:
320,96,14413,5,0,0:0:0:0:
448,96,14413,5,0,0:0:0:0:
512,128,14470,5,0,0:0:0:0:
32,128,14470,5,0,0:0:0:0:
480,224,14470,5,0,0:0:0:0:
352,128,14470,5,0,0:0:0:0:
64,128,14470,5,0,0:0:0:0:
480,128,14471,5,0,0:0:0:0:
0,128,14471,5,0,0:0:0:0:
384,128,14471,5,0,0:0:0:0:
416,128,14471,5,0,0:0:0:0:
448,128,14472,5,0,0:0:0:0:
320,128,14472,5,0,0:0:0:0:
352,344,15246,5,0,0:0:0:0:
21,344,15246,5,0,0:0:0:0:
51,344,15246,5,0,0:0:0:0:
382,344,15246,5,0,0:0:0:0:
258,344,15246,5,0,0:0:0:0:
141,328,15261,5,0,0:0:0:0:
171,328,15261,5,0,0:0:0:0:
81,328,15261,5,0,0:0:0:0:
111,328,15261,5,0,0:0:0:0:
232,312,15275,5,0,0:0:0:0:
397,328,15275,5,0,0:0:0:0:
280,328,15275,5,0,0:0:0:0:
201,312,15275,5,0,0:0:0:0:
412,296,15304,5,0,0:0:0:0:
303,296,15304,5,0,0:0:0:0:
126,312,15304,5,0,0:0:0:0:
6,280,15334,5,0,0:0:0:0:
36,280,15334,5,0,0:0:0:0:
66,280,15334,5,0,0:0:0:0:
96,280,15334,5,0,0:0:0:0:
156,280,15334,5,0,0:0:0:0:
186,280,15334,5,0,0:0:0:0:
217,280,15334,5,0,0:0:0:0:
247,280,15334,5,0,0:0:0:0:
314,268,15334,5,0,0:0:0:0:
126,296,15334,5,0,0:0:0:0:
412,264,15334,5,0,0:0:0:0:
326,236,15363,5,0,0:0:0:0:
126,264,15363,5,0,0:0:0:0:
412,232,15363,5,0,0:0:0:0:
96,248,15378,5,0,0:0:0:0:
66,248,15378,5,0,0:0:0:0:
36,248,15378,5,0,0:0:0:0:
156,248,15378,5,0,0:0:0:0:
186,248,15378,5,0,0:0:0:0:
217,248,15378,5,0,0:0:0:0:
36,232,15392,5,0,0:0:0:0:
217,232,15392,5,0,0:0:0:0:
329,216,15392,5,0,0:0:0:0:
126,232,15392,5,0,0:0:0:0:
412,216,15392,5,0,0:0:0:0:
217,216,15421,5,0,0:0:0:0:
36,216,15421,5,0,0:0:0:0:
126,200,15421,5,0,0:0:0:0:
412,184,15422,5,0,0:0:0:0:
326,184,15422,5,0,0:0:0:0:
66,208,15436,5,0,0:0:0:0:
96,208,15436,5,0,0:0:0:0:
156,208,15436,5,0,0:0:0:0:
186,208,15436,5,0,0:0:0:0:
217,200,15450,5,0,0:0:0:0:
36,200,15450,5,0,0:0:0:0:
326,168,15451,5,0,0:0:0:0:
126,168,15451,5,0,0:0:0:0:
412,168,15451,5,0,0:0:0:0:
217,184,15479,5,0,0:0:0:0:
36,184,15479,5,0,0:0:0:0:
412,152,15480,5,0,0:0:0:0:
322,152,15480,5,0,0:0:0:0:
126,152,15480,5,0,0:0:0:0:
126,136,15495,5,0,0:0:0:0:
217,168,15509,5,0,0:0:0:0:
36,168,15509,5,0,0:0:0:0:
156,168,15509,5,0,0:0:0:0:
96,168,15509,5,0,0:0:0:0:
66,168,15509,5,0,0:0:0:0:
186,168,15509,5,0,0:0:0:0:
412,152,15510,5,0,0:0:0:0:
322,152,15510,5,0,0:0:0:0:
412,136,15523,5,0,0:0:0:0:
382,136,15524,5,0,0:0:0:0:
322,136,15524,5,0,0:0:0:0:
352,136,15524,5,0,0:0:0:0:
292,136,15524,5,0,0:0:0:0:
322,104,15538,5,0,0:0:0:0:
126,120,15539,5,0,0:0:0:0:
322,88,15567,5,0,0:0:0:0:
247,120,15568,5,0,0:0:0:0:
6,120,15568,5,0,0:0:0:0:
36,120,15568,5,0,0:0:0:0:
66,120,15568,5,0,0:0:0:0:
186,120,15568,5,0,0:0:0:0:
217,120,15568,5,0,0:0:0:0:
96,120,15568,5,0,0:0:0:0:
156,120,15568,5,0,0:0:0:0:
126,104,15583,5,0,0:0:0:0:
126,88,15597,5,0,0:0:0:0:
318,72,15597,5,0,0:0:0:0:
314,56,15611,5,0,0:0:0:0:
21,72,15612,5,0,0:0:0:0:
51,72,15612,5,0,0:0:0:0:
201,56,15627,5,0,0:0:0:0:
171,56,15627,5,0,0:0:0:0:
111,56,15627,5,0,0:0:0:0:
141,56,15627,5,0,0:0:0:0:
81,56,15627,5,0,0:0:0:0:
314,44,15641,5,0,0:0:0:0:
232,48,15641,5,0,0:0:0:0:
146,312,15700,5,0,0:0:0:0:
173,312,15700,5,0,0:0:0:0:
339,298,15714,5,0,0:0:0:0:
63,298,15714,5,0,0:0:0:0:
201,312,15715,5,0,0:0:0:0:
311,298,15729,5,0,0:0:0:0:
90,298,15729,5,0,0:0:0:0:
276,260,15730,5,0,0:0:0:0:
116,264,15730,5,0,0:0:0:0:
201,284,15744,5,0,0:0:0:0:
84,244,15759,5,0,0:0:0:0:
256,284,15759,5,0,0:0:0:0:
146,284,15759,5,0,0:0:0:0:
308,244,15759,5,0,0:0:0:0:
242,270,15773,5,0,0:0:0:0:
187,270,15773,5,0,0:0:0:0:
214,270,15773,5,0,0:0:0:0:
201,243,15773,5,0,0:0:0:0:
159,270,15773,5,0,0:0:0:0:
283,284,15788,5,0,0:0:0:0:
114,296,15788,5,0,0:0:0:0:
201,215,15802,5,0,0:0:0:0:
366,222,15803,5,0,0:0:0:0:
35,222,15803,5,0,0:0:0:0:
339,222,15803,5,0,0:0:0:0:
63,222,15803,5,0,0:0:0:0:
325,222,15817,5,0,0:0:0:0:
297,208,15817,5,0,0:0:0:0:
77,222,15817,5,0,0:0:0:0:
104,208,15817,5,0,0:0:0:0:
132,195,15832,5,0,0:0:0:0:
270,195,15832,5,0,0:0:0:0:
201,153,15832,5,0,0:0:0:0:
146,181,15847,5,0,0:0:0:0:
256,181,15847,5,0,0:0:0:0:
256,167,15860,5,0,0:0:0:0:
146,167,15860,5,0,0:0:0:0:
8,126,15875,5,0,0:0:0:0:
394,126,15875,5,0,0:0:0:0:
339,126,15875,5,0,0:0:0:0:
311,126,15875,5,0,0:0:0:0:
173,126,15875,5,0,0:0:0:0:
146,126,15875,5,0,0:0:0:0:
283,126,15876,5,0,0:0:0:0:
90,126,15876,5,0,0:0:0:0:
366,126,15876,5,0,0:0:0:0:
256,126,15876,5,0,0:0:0:0:
118,126,15876,5,0,0:0:0:0:
63,126,15876,5,0,0:0:0:0:
35,126,15876,5,0,0:0:0:0:
201,126,15876,5,0,0:0:0:0:
228,126,15876,5,0,0:0:0:0:
339,70,15889,5,0,0:0:0:0:
146,98,15890,5,0,0:0:0:0:
256,98,15890,5,0,0:0:0:0:
366,70,15890,5,0,0:0:0:0:
256,98,15904,5,0,0:0:0:0:
146,98,15904,5,0,0:0:0:0:
173,70,15918,5,0,0:0:0:0:
146,70,15918,5,0,0:0:0:0:
311,70,15918,5,0,0:0:0:0:
35,70,15919,5,0,0:0:0:0:
63,70,15919,5,0,0:0:0:0:
228,70,15919,5,0,0:0:0:0:
201,70,15919,5,0,0:0:0:0:
118,70,15919,5,0,0:0:0:0:
90,70,15919,5,0,0:0:0:0:
283,70,15919,5,0,0:0:0:0:
256,70,15919,5,0,0:0:0:0:
146,43,15934,5,0,0:0:0:0:
256,43,15934,5,0,0:0:0:0:
146,43,15948,5,0,0:0:0:0:
256,43,15948,5,0,0:0:0:0:
146,43,15963,5,0,0:0:0:0:
256,43,15963,5,0,0:0:0:0:
270,15,15978,5,0,0:0:0:0:
242,15,15978,5,0,0:0:0:0:
187,15,15978,5,0,0:0:0:0:
132,15,15978,5,0,0:0:0:0:
214,15,15978,5,0,0:0:0:0:
297,15,15978,5,0,0:0:0:0:
104,15,15978,5,0,0:0:0:0:
159,15,15979,5,0,0:0:0:0:
297,15,15992,5,0,0:0:0:0:
104,15,15992,5,0,0:0:0:0:
297,15,16007,5,0,0:0:0:0:
104,15,16007,5,0,0:0:0:0:
297,15,16022,5,0,0:0:0:0:
104,15,16022,5,0,0:0:0:0:
297,15,16037,5,0,0:0:0:0:
104,15,16037,5,0,0:0:0:0:
132,15,16037,5,0,0:0:0:0:
214,15,16037,5,0,0:0:0:0:
187,15,16037,5,0,0:0:0:0:
270,15,16037,5,0,0:0:0:0:
242,15,16037,5,0,0:0:0:0:
159,15,16038,5,0,0:0:0:0:
297,15,16051,5,0,0:0:0:0:
104,15,16051,5,0,0:0:0:0:
297,15,16066,5,0,0:0:0:0:
104,15,16066,5,0,0:0:0:0:
104,15,16080,5,0,0:0:0:0:
297,15,16080,5,0,0:0:0:0:
297,15,16095,5,0,0:0:0:0:
104,15,16095,5,0,0:0:0:0:
132,15,16095,5,0,0:0:0:0:
214,15,16095,5,0,0:0:0:0:
187,15,16095,5,0,0:0:0:0:
270,15,16095,5,0,0:0:0:0:
242,15,16095,5,0,0:0:0:0:
159,15,16096,5,0,0:0:0:0:
224,384,16520,5,0,0:0:0:0:
448,384,16520,5,0,0:0:0:0:
416,384,16520,5,0,0:0:0:0:
0,384,16521,5,0,0:0:0:0:
256,384,16521,5,0,0:0:0:0:
384,384,16521,5,0,0:0:0:0:
64,384,16521,5,0,0:0:0:0:
320,384,16521,5,0,0:0:0:0:
512,384,16521,5,0,0:0:0:0:
32,384,16521,5,0,0:0:0:0:
288,384,16521,5,0,0:0:0:0:
480,384,16521,5,0,0:0:0:0:
352,384,16521,5,0,0:0:0:0:
256,352,16580,5,0,0:0:0:0:
96,352,16580,5,0,0:0:0:0:
448,352,16580,5,0,0:0:0:0:
416,352,16580,5,0,0:0:0:0:
288,352,16581,5,0,0:0:0:0:
32,352,16581,5,0,0:0:0:0:
480,352,16581,5,0,0:0:0:0:
352,352,16581,5,0,0:0:0:0:
512,352,16581,5,0,0:0:0:0:
0,352,16581,5,0,0:0:0:0:
384,352,16581,5,0,0:0:0:0:
320,352,16581,5,0,0:0:0:0:
64,352,16581,5,0,0:0:0:0:
128,320,16638,5,0,0:0:0:0:
96,320,16638,5,0,0:0:0:0:
320,320,16638,5,0,0:0:0:0:
448,320,16638,5,0,0:0:0:0:
416,320,16638,5,0,0:0:0:0:
160,320,16638,5,0,0:0:0:0:
0,320,16639,5,0,0:0:0:0:
384,320,16639,5,0,0:0:0:0:
64,320,16639,5,0,0:0:0:0:
512,320,16639,5,0,0:0:0:0:
32,320,16639,5,0,0:0:0:0:
480,320,16639,5,0,0:0:0:0:
352,320,16639,5,0,0:0:0:0:
96,288,16697,5,0,0:0:0:0:
128,288,16697,5,0,0:0:0:0:
160,288,16697,5,0,0:0:0:0:
192,288,16697,5,0,0:0:0:0:
448,288,16697,5,0,0:0:0:0:
416,288,16697,5,0,0:0:0:0:
0,288,16698,5,0,0:0:0:0:
384,288,16698,5,0,0:0:0:0:
64,288,16698,5,0,0:0:0:0:
512,288,16698,5,0,0:0:0:0:
32,288,16698,5,0,0:0:0:0:
480,288,16698,5,0,0:0:0:0:
224,288,16698,5,0,0:0:0:0:
96,256,16757,5,0,0:0:0:0:
128,256,16757,5,0,0:0:0:0:
448,256,16757,5,0,0:0:0:0:
416,256,16757,5,0,0:0:0:0:
480,384,16757,5,0,0:0:0:0:
32,256,16758,5,0,0:0:0:0:
480,256,16758,5,0,0:0:0:0:
512,256,16758,5,0,0:0:0:0:
0,256,16758,5,0,0:0:0:0:
384,256,16758,5,0,0:0:0:0:
64,256,16758,5,0,0:0:0:0:
448,224,16813,5,0,0:0:0:0:
416,224,16813,5,0,0:0:0:0:
96,224,16814,5,0,0:0:0:0:
0,224,16814,5,0,0:0:0:0:
64,224,16814,5,0,0:0:0:0:
512,224,16814,5,0,0:0:0:0:
32,224,16814,5,0,0:0:0:0:
480,224,16814,5,0,0:0:0:0:
288,224,16814,5,0,0:0:0:0:
352,224,16814,5,0,0:0:0:0:
320,224,16814,5,0,0:0:0:0:
384,224,16814,5,0,0:0:0:0:
448,192,16873,5,0,0:0:0:0:
416,192,16873,5,0,0:0:0:0:
192,192,16873,5,0,0:0:0:0:
288,192,16874,5,0,0:0:0:0:
224,192,16874,5,0,0:0:0:0:
480,192,16874,5,0,0:0:0:0:
384,192,16874,5,0,0:0:0:0:
320,192,16874,5,0,0:0:0:0:
352,192,16874,5,0,0:0:0:0:
256,192,16874,5,0,0:0:0:0:
0,192,16874,5,0,0:0:0:0:
32,192,16874,5,0,0:0:0:0:
512,192,16874,5,0,0:0:0:0:
448,160,16931,5,0,0:0:0:0:
416,160,16931,5,0,0:0:0:0:
0,160,16932,5,0,0:0:0:0:
256,160,16932,5,0,0:0:0:0:
192,160,16932,5,0,0:0:0:0:
512,160,16932,5,0,0:0:0:0:
160,160,16932,5,0,0:0:0:0:
480,160,16932,5,0,0:0:0:0:
224,160,16932,5,0,0:0:0:0:
288,160,16932,5,0,0:0:0:0:
352,160,16932,5,0,0:0:0:0:
320,160,16932,5,0,0:0:0:0:
384,160,16932,5,0,0:0:0:0:
448,128,16990,5,0,0:0:0:0:
416,128,16990,5,0,0:0:0:0:
192,128,16990,5,0,0:0:0:0:
288,128,16991,5,0,0:0:0:0:
224,128,16991,5,0,0:0:0:0:
480,128,16991,5,0,0:0:0:0:
384,128,16991,5,0,0:0:0:0:
320,128,16991,5,0,0:0:0:0:
352,128,16991,5,0,0:0:0:0:
256,128,16991,5,0,0:0:0:0:
0,128,16991,5,0,0:0:0:0:
32,128,16991,5,0,0:0:0:0:
512,128,16991,5,0,0:0:0:0:
448,96,17048,5,0,0:0:0:0:
416,96,17048,5,0,0:0:0:0:
256,96,17049,5,0,0:0:0:0:
0,96,17049,5,0,0:0:0:0:
384,96,17049,5,0,0:0:0:0:
352,96,17049,5,0,0:0:0:0:
288,96,17049,5,0,0:0:0:0:
64,96,17049,5,0,0:0:0:0:
320,96,17049,5,0,0:0:0:0:
32,96,17049,5,0,0:0:0:0:
480,96,17049,5,0,0:0:0:0:
512,96,17049,5,0,0:0:0:0:
128,64,17108,5,0,0:0:0:0:
448,64,17108,5,0,0:0:0:0:
416,64,17108,5,0,0:0:0:0:
96,64,17109,5,0,0:0:0:0:
512,64,17109,5,0,0:0:0:0:
480,64,17109,5,0,0:0:0:0:
32,64,17109,5,0,0:0:0:0:
0,64,17109,5,0,0:0:0:0:
64,64,17109,5,0,0:0:0:0:
352,64,17109,5,0,0:0:0:0:
288,64,17109,5,0,0:0:0:0:
320,64,17109,5,0,0:0:0:0:
384,64,17109,5,0,0:0:0:0:
128,32,17166,5,0,0:0:0:0:
416,32,17166,5,0,0:0:0:0:
448,32,17166,5,0,0:0:0:0:
192,32,17166,5,0,0:0:0:0:
160,32,17166,5,0,0:0:0:0:
96,32,17167,5,0,0:0:0:0:
32,32,17167,5,0,0:0:0:0:
352,32,17167,5,0,0:0:0:0:
480,32,17167,5,0,0:0:0:0:
0,32,17167,5,0,0:0:0:0:
384,32,17167,5,0,0:0:0:0:
64,32,17167,5,0,0:0:0:0:
512,32,17167,5,0,0:0:0:0:
128,0,17225,5,0,0:0:0:0:
448,0,17225,5,0,0:0:0:0:
160,0,17225,5,0,0:0:0:0:
416,0,17225,5,0,0:0:0:0:
192,0,17225,5,0,0:0:0:0:
96,0,17226,5,0,0:0:0:0:
0,0,17226,5,0,0:0:0:0:
224,0,17226,5,0,0:0:0:0:
32,0,17226,5,0,0:0:0:0:
64,0,17226,5,0,0:0:0:0:
512,0,17226,5,0,0:0:0:0:
256,0,17226,5,0,0:0:0:0:
480,0,17226,5,0,0:0:0:0:
128,384,17283,5,0,0:0:0:0:
448,384,17283,5,0,0:0:0:0:
416,384,17283,5,0,0:0:0:0:
192,384,17283,5,0,0:0:0:0:
160,384,17283,5,0,0:0:0:0:
96,384,17284,5,0,0:0:0:0:
256,384,17284,5,0,0:0:0:0:
0,384,17284,5,0,0:0:0:0:
64,384,17284,5,0,0:0:0:0:
32,384,17284,5,0,0:0:0:0:
224,384,17284,5,0,0:0:0:0:
480,384,17284,5,0,0:0:0:0:
512,384,17284,5,0,0:0:0:0:
128,352,17343,5,0,0:0:0:0:
448,352,17343,5,0,0:0:0:0:
416,352,17343,5,0,0:0:0:0:
160,352,17343,5,0,0:0:0:0:
192,352,17343,5,0,0:0:0:0:
96,352,17344,5,0,0:0:0:0:
512,352,17344,5,0,0:0:0:0:
384,352,17344,5,0,0:0:0:0:
64,352,17344,5,0,0:0:0:0:
224,352,17344,5,0,0:0:0:0:
480,352,17344,5,0,0:0:0:0:
0,352,17344,5,0,0:0:0:0:
32,352,17344,5,0,0:0:0:0:
128,320,17401,5,0,0:0:0:0:
160,320,17401,5,0,0:0:0:0:
416,320,17401,5,0,0:0:0:0:
448,320,17401,5,0,0:0:0:0:
96,320,17402,5,0,0:0:0:0:
512,320,17402,5,0,0:0:0:0:
32,320,17402,5,0,0:0:0:0:
480,320,17402,5,0,0:0:0:0:
0,320,17402,5,0,0:0:0:0:
64,320,17402,5,0,0:0:0:0:
320,320,17402,5,0,0:0:0:0:
384,320,17402,5,0,0:0:0:0:
352,320,17402,5,0,0:0:0:0:
128,288,17460,5,0,0:0:0:0:
416,288,17460,5,0,0:0:0:0:
192,288,17460,5,0,0:0:0:0:
160,288,17460,5,0,0:0:0:0:
448,288,17460,5,0,0:0:0:0:
96,288,17461,5,0,0:0:0:0:
224,288,17461,5,0,0:0:0:0:
0,288,17461,5,0,0:0:0:0:
32,288,17461,5,0,0:0:0:0:
480,288,17461,5,0,0:0:0:0:
384,288,17461,5,0,0:0:0:0:
512,288,17461,5,0,0:0:0:0:
64,288,17461,5,0,0:0:0:0:
128,256,17518,5,0,0:0:0:0:
160,256,17518,5,0,0:0:0:0:
192,256,17518,5,0,0:0:0:0:
448,256,17518,5,0,0:0:0:0:
96,256,17519,5,0,0:0:0:0:
256,256,17519,5,0,0:0:0:0:
0,256,17519,5,0,0:0:0:0:
480,256,17519,5,0,0:0:0:0:
288,256,17519,5,0,0:0:0:0:
32,256,17519,5,0,0:0:0:0:
64,256,17519,5,0,0:0:0:0:
224,256,17519,5,0,0:0:0:0:
512,256,17519,5,0,0:0:0:0:
128,224,17578,5,0,0:0:0:0:
192,224,17578,5,0,0:0:0:0:
160,224,17578,5,0,0:0:0:0:
96,224,17579,5,0,0:0:0:0:
320,224,17579,5,0,0:0:0:0:
480,224,17579,5,0,0:0:0:0:
32,224,17579,5,0,0:0:0:0:
512,224,17579,5,0,0:0:0:0:
224,224,17579,5,0,0:0:0:0:
288,224,17579,5,0,0:0:0:0:
256,224,17579,5,0,0:0:0:0:
0,224,17579,5,0,0:0:0:0:
64,224,17579,5,0,0:0:0:0:
128,192,17636,5,0,0:0:0:0:
448,192,17636,5,0,0:0:0:0:
160,192,17636,5,0,0:0:0:0:
192,192,17636,5,0,0:0:0:0:
96,192,17637,5,0,0:0:0:0:
224,192,17637,5,0,0:0:0:0:
64,192,17637,5,0,0:0:0:0:
288,192,17637,5,0,0:0:0:0:
256,192,17637,5,0,0:0:0:0:
32,192,17637,5,0,0:0:0:0:
512,192,17637,5,0,0:0:0:0:
0,192,17637,5,0,0:0:0:0:
480,192,17637,5,0,0:0:0:0:
128,160,17695,5,0,0:0:0:0:
416,160,17695,5,0,0:0:0:0:
160,160,17695,5,0,0:0:0:0:
192,160,17695,5,0,0:0:0:0:
448,160,17695,5,0,0:0:0:0:
96,160,17696,5,0,0:0:0:0:
0,160,17696,5,0,0:0:0:0:
64,160,17696,5,0,0:0:0:0:
224,160,17696,5,0,0:0:0:0:
32,160,17696,5,0,0:0:0:0:
384,160,17696,5,0,0:0:0:0:
480,160,17696,5,0,0:0:0:0:
512,160,17696,5,0,0:0:0:0:
128,128,17751,5,0,0:0:0:0:
160,128,17751,5,0,0:0:0:0:
416,128,17751,5,0,0:0:0:0:
448,128,17751,5,0,0:0:0:0:
96,128,17752,5,0,0:0:0:0:
384,128,17752,5,0,0:0:0:0:
64,128,17752,5,0,0:0:0:0:
0,128,17752,5,0,0:0:0:0:
480,128,17752,5,0,0:0:0:0:
352,128,17752,5,0,0:0:0:0:
512,128,17752,5,0,0:0:0:0:
32,128,17752,5,0,0:0:0:0:
320,128,17752,5,0,0:0:0:0:
448,96,17811,5,0,0:0:0:0:
416,96,17811,5,0,0:0:0:0:
96,96,17812,5,0,0:0:0:0:
352,96,17812,5,0,0:0:0:0:
512,96,17812,5,0,0:0:0:0:
480,96,17812,5,0,0:0:0:0:
320,96,17812,5,0,0:0:0:0:
0,96,17812,5,0,0:0:0:0:
32,96,17812,5,0,0:0:0:0:
64,96,17812,5,0,0:0:0:0:
256,96,17812,5,0,0:0:0:0:
384,96,17812,5,0,0:0:0:0:
288,96,17812,5,0,0:0:0:0:
416,64,17869,5,0,0:0:0:0:
448,64,17869,5,0,0:0:0:0:
192,64,17869,5,0,0:0:0:0:
32,64,17870,5,0,0:0:0:0:
352,64,17870,5,0,0:0:0:0:
512,64,17870,5,0,0:0:0:0:
0,64,17870,5,0,0:0:0:0:
384,64,17870,5,0,0:0:0:0:
224,64,17870,5,0,0:0:0:0:
256,64,17870,5,0,0:0:0:0:
480,64,17870,5,0,0:0:0:0:
320,64,17870,5,0,0:0:0:0:
288,64,17870,5,0,0:0:0:0:
192,32,17928,5,0,0:0:0:0:
416,32,17928,5,0,0:0:0:0:
448,32,17928,5,0,0:0:0:0:
160,32,17928,5,0,0:0:0:0:
224,32,17929,5,0,0:0:0:0:
288,32,17929,5,0,0:0:0:0:
384,32,17929,5,0,0:0:0:0:
256,32,17929,5,0,0:0:0:0:
320,32,17929,5,0,0:0:0:0:
352,32,17929,5,0,0:0:0:0:
0,32,17929,5,0,0:0:0:0:
512,32,17929,5,0,0:0:0:0:
480,32,17929,5,0,0:0:0:0:
192,384,17986,5,0,0:0:0:0:
416,384,17986,5,0,0:0:0:0:
448,384,17986,5,0,0:0:0:0:
0,384,17987,5,0,0:0:0:0:
256,384,17987,5,0,0:0:0:0:
512,384,17987,5,0,0:0:0:0:
224,384,17987,5,0,0:0:0:0:
32,384,17987,5,0,0:0:0:0:
384,384,17987,5,0,0:0:0:0:
480,384,17987,5,0,0:0:0:0:
288,384,17987,5,0,0:0:0:0:
320,384,17987,5,0,0:0:0:0:
352,384,17987,5,0,0:0:0:0:
448,352,18046,5,0,0:0:0:0:
416,352,18046,5,0,0:0:0:0:
256,352,18047,5,0,0:0:0:0:
0,352,18047,5,0,0:0:0:0:
32,352,18047,5,0,0:0:0:0:
64,352,18047,5,0,0:0:0:0:
224,352,18047,5,0,0:0:0:0:
352,352,18047,5,0,0:0:0:0:
320,352,18047,5,0,0:0:0:0:
512,352,18047,5,0,0:0:0:0:
480,352,18047,5,0,0:0:0:0:
384,352,18047,5,0,0:0:0:0:
288,352,18047,5,0,0:0:0:0:
448,320,18104,5,0,0:0:0:0:
416,320,18104,5,0,0:0:0:0:
96,320,18105,5,0,0:0:0:0:
384,320,18105,5,0,0:0:0:0:
320,320,18105,5,0,0:0:0:0:
32,320,18105,5,0,0:0:0:0:
512,320,18105,5,0,0:0:0:0:
256,320,18105,5,0,0:0:0:0:
0,320,18105,5,0,0:0:0:0:
480,320,18105,5,0,0:0:0:0:
288,320,18105,5,0,0:0:0:0:
352,320,18105,5,0,0:0:0:0:
64,320,18105,5,0,0:0:0:0:
128,288,18163,5,0,0:0:0:0:
160,288,18163,5,0,0:0:0:0:
448,288,18163,5,0,0:0:0:0:
416,288,18163,5,0,0:0:0:0:
96,288,18164,5,0,0:0:0:0:
384,288,18164,5,0,0:0:0:0:
0,288,18164,5,0,0:0:0:0:
480,288,18164,5,0,0:0:0:0:
512,288,18164,5,0,0:0:0:0:
320,288,18164,5,0,0:0:0:0:
32,288,18164,5,0,0:0:0:0:
64,288,18164,5,0,0:0:0:0:
352,288,18164,5,0,0:0:0:0:
128,256,18221,5,0,0:0:0:0:
448,256,18221,5,0,0:0:0:0:
416,256,18221,5,0,0:0:0:0:
192,256,18221,5,0,0:0:0:0:
160,256,18221,5,0,0:0:0:0:
96,256,18222,5,0,0:0:0:0:
512,256,18222,5,0,0:0:0:0:
0,256,18222,5,0,0:0:0:0:
384,256,18222,5,0,0:0:0:0:
64,256,18222,5,0,0:0:0:0:
480,256,18222,5,0,0:0:0:0:
32,256,18222,5,0,0:0:0:0:
128,224,18281,5,0,0:0:0:0:
160,224,18281,5,0,0:0:0:0:
192,224,18281,5,0,0:0:0:0:
96,224,18282,5,0,0:0:0:0:
512,224,18282,5,0,0:0:0:0:
0,224,18282,5,0,0:0:0:0:
224,224,18282,5,0,0:0:0:0:
480,224,18282,5,0,0:0:0:0:
64,224,18282,5,0,0:0:0:0:
256,224,18282,5,0,0:0:0:0:
32,224,18282,5,0,0:0:0:0:
128,192,18339,5,0,0:0:0:0:
160,192,18339,5,0,0:0:0:0:
192,192,18339,5,0,0:0:0:0:
96,192,18340,5,0,0:0:0:0:
224,192,18340,5,0,0:0:0:0:
32,192,18340,5,0,0:0:0:0:
256,192,18340,5,0,0:0:0:0:
0,192,18340,5,0,0:0:0:0:
512,192,18340,5,0,0:0:0:0:
64,192,18340,5,0,0:0:0:0:
288,192,18340,5,0,0:0:0:0:
320,192,18340,5,0,0:0:0:0:
128,160,18398,5,0,0:0:0:0:
160,160,18398,5,0,0:0:0:0:
192,160,18398,5,0,0:0:0:0:
96,160,18399,5,0,0:0:0:0:
512,160,18399,5,0,0:0:0:0:
320,160,18399,5,0,0:0:0:0:
256,160,18399,5,0,0:0:0:0:
352,160,18399,5,0,0:0:0:0:
32,160,18399,5,0,0:0:0:0:
288,160,18399,5,0,0:0:0:0:
0,160,18399,5,0,0:0:0:0:
224,160,18399,5,0,0:0:0:0:
64,160,18399,5,0,0:0:0:0:
128,128,18454,5,0,0:0:0:0:
192,128,18454,5,0,0:0:0:0:
160,128,18454,5,0,0:0:0:0:
96,128,18455,5,0,0:0:0:0:
224,128,18455,5,0,0:0:0:0:
480,128,18455,5,0,0:0:0:0:
320,128,18455,5,0,0:0:0:0:
256,128,18455,5,0,0:0:0:0:
64,128,18455,5,0,0:0:0:0:
512,128,18455,5,0,0:0:0:0:
32,128,18455,5,0,0:0:0:0:
0,128,18455,5,0,0:0:0:0:
288,128,18455,5,0,0:0:0:0:
128,96,18514,5,0,0:0:0:0:
448,96,18514,5,0,0:0:0:0:
192,96,18514,5,0,0:0:0:0:
160,96,18514,5,0,0:0:0:0:
416,96,18514,5,0,0:0:0:0:
96,96,18515,5,0,0:0:0:0:
32,96,18515,5,0,0:0:0:0:
224,96,18515,5,0,0:0:0:0:
0,96,18515,5,0,0:0:0:0:
64,96,18515,5,0,0:0:0:0:
480,96,18515,5,0,0:0:0:0:
256,96,18515,5,0,0:0:0:0:
512,96,18515,5,0,0:0:0:0:
128,64,18572,5,0,0:0:0:0:
192,64,18572,5,0,0:0:0:0:
160,64,18572,5,0,0:0:0:0:
448,64,18572,5,0,0:0:0:0:
416,64,18572,5,0,0:0:0:0:
96,64,18573,5,0,0:0:0:0:
480,64,18573,5,0,0:0:0:0:
64,64,18573,5,0,0:0:0:0:
224,64,18573,5,0,0:0:0:0:
512,64,18573,5,0,0:0:0:0:
32,64,18573,5,0,0:0:0:0:
0,64,18573,5,0,0:0:0:0:
384,64,18573,5,0,0:0:0:0:
128,32,18631,5,0,0:0:0:0:
448,32,18631,5,0,0:0:0:0:
416,32,18631,5,0,0:0:0:0:
192,32,18631,5,0,0:0:0:0:
160,32,18631,5,0,0:0:0:0:
96,32,18632,5,0,0:0:0:0:
352,32,18632,5,0,0:0:0:0:
512,32,18632,5,0,0:0:0:0:
32,32,18632,5,0,0:0:0:0:
384,32,18632,5,0,0:0:0:0:
64,32,18632,5,0,0:0:0:0:
480,32,18632,5,0,0:0:0:0:
0,32,18632,5,0,0:0:0:0:
128,384,18689,5,0,0:0:0:0:
448,384,18689,5,0,0:0:0:0:
416,384,18689,5,0,0:0:0:0:
192,384,18689,5,0,0:0:0:0:
160,384,18689,5,0,0:0:0:0:
96,384,18690,5,0,0:0:0:0:
480,384,18690,5,0,0:0:0:0:
352,384,18690,5,0,0:0:0:0:
64,384,18690,5,0,0:0:0:0:
512,384,18690,5,0,0:0:0:0:
0,384,18690,5,0,0:0:0:0:
384,384,18690,5,0,0:0:0:0:
32,384,18690,5,0,0:0:0:0:
128,352,18749,5,0,0:0:0:0:
160,352,18749,5,0,0:0:0:0:
448,352,18749,5,0,0:0:0:0:
416,352,18749,5,0,0:0:0:0:
96,352,18750,5,0,0:0:0:0:
512,352,18750,5,0,0:0:0:0:
320,352,18750,5,0,0:0:0:0:
384,352,18750,5,0,0:0:0:0:
480,352,18750,5,0,0:0:0:0:
32,352,18750,5,0,0:0:0:0:
0,352,18750,5,0,0:0:0:0:
352,352,18750,5,0,0:0:0:0:
64,352,18750,5,0,0:0:0:0:
128,320,18807,5,0,0:0:0:0:
416,320,18807,5,0,0:0:0:0:
448,320,18807,5,0,0:0:0:0:
96,320,18808,5,0,0:0:0:0:
480,320,18808,5,0,0:0:0:0:
0,320,18808,5,0,0:0:0:0:
64,320,18808,5,0,0:0:0:0:
352,320,18808,5,0,0:0:0:0:
32,320,18808,5,0,0:0:0:0:
320,320,18808,5,0,0:0:0:0:
384,320,18808,5,0,0:0:0:0:
512,320,18808,5,0,0:0:0:0:
416,288,18866,5,0,0:0:0:0:
448,288,18866,5,0,0:0:0:0:
320,288,18867,5,0,0:0:0:0:
512,288,18867,5,0,0:0:0:0:
352,288,18867,5,0,0:0:0:0:
64,288,18867,5,0,0:0:0:0:
32,288,18867,5,0,0:0:0:0:
384,288,18867,5,0,0:0:0:0:
256,288,18867,5,0,0:0:0:0:
480,288,18867,5,0,0:0:0:0:
288,288,18867,5,0,0:0:0:0:
0,288,18867,5,0,0:0:0:0:
192,256,18924,5,0,0:0:0:0:
448,256,18924,5,0,0:0:0:0:
416,256,18924,5,0,0:0:0:0:
384,256,18925,5,0,0:0:0:0:
352,256,18925,5,0,0:0:0:0:
32,256,18925,5,0,0:0:0:0:
480,256,18925,5,0,0:0:0:0:
320,256,18925,5,0,0:0:0:0:
224,256,18925,5,0,0:0:0:0:
512,256,18925,5,0,0:0:0:0:
288,256,18925,5,0,0:0:0:0:
0,256,18925,5,0,0:0:0:0:
256,256,18925,5,0,0:0:0:0:
448,224,18984,5,0,0:0:0:0:
192,224,18984,5,0,0:0:0:0:
416,224,18984,5,0,0:0:0:0:
160,224,18984,5,0,0:0:0:0:
480,224,18985,5,0,0:0:0:0:
352,224,18985,5,0,0:0:0:0:
256,224,18985,5,0,0:0:0:0:
0,224,18985,5,0,0:0:0:0:
512,224,18985,5,0,0:0:0:0:
384,224,18985,5,0,0:0:0:0:
224,224,18985,5,0,0:0:0:0:
288,224,18985,5,0,0:0:0:0:
320,224,18985,5,0,0:0:0:0:
192,192,19042,5,0,0:0:0:0:
160,192,19042,5,0,0:0:0:0:
416,192,19042,5,0,0:0:0:0:
448,192,19042,5,0,0:0:0:0:
384,192,19043,5,0,0:0:0:0:
512,192,19043,5,0,0:0:0:0:
320,192,19043,5,0,0:0:0:0:
288,192,19043,5,0,0:0:0:0:
480,192,19043,5,0,0:0:0:0:
224,192,19043,5,0,0:0:0:0:
352,192,19043,5,0,0:0:0:0:
0,192,19043,5,0,0:0:0:0:
256,192,19043,5,0,0:0:0:0:
416,160,19101,5,0,0:0:0:0:
448,160,19101,5,0,0:0:0:0:
288,160,19102,5,0,0:0:0:0:
32,160,19102,5,0,0:0:0:0:
64,160,19102,5,0,0:0:0:0:
224,160,19102,5,0,0:0:0:0:
0,160,19102,5,0,0:0:0:0:
320,160,19102,5,0,0:0:0:0:
512,160,19102,5,0,0:0:0:0:
480,160,19102,5,0,0:0:0:0:
384,160,19102,5,0,0:0:0:0:
352,160,19102,5,0,0:0:0:0:
256,160,19102,5,0,0:0:0:0:
448,128,19157,5,0,0:0:0:0:
416,128,19157,5,0,0:0:0:0:
96,128,19158,5,0,0:0:0:0:
512,128,19158,5,0,0:0:0:0:
64,128,19158,5,0,0:0:0:0:
288,128,19158,5,0,0:0:0:0:
0,128,19158,5,0,0:0:0:0:
32,128,19158,5,0,0:0:0:0:
480,128,19158,5,0,0:0:0:0:
352,128,19158,5,0,0:0:0:0:
256,128,19158,5,0,0:0:0:0:
320,128,19158,5,0,0:0:0:0:
384,128,19158,5,0,0:0:0:0:
128,96,19217,5,0,0:0:0:0:
416,96,19217,5,0,0:0:0:0:
160,96,19217,5,0,0:0:0:0:
448,96,19217,5,0,0:0:0:0:
96,96,19218,5,0,0:0:0:0:
480,96,19218,5,0,0:0:0:0:
64,96,19218,5,0,0:0:0:0:
512,96,19218,5,0,0:0:0:0:
384,96,19218,5,0,0:0:0:0:
32,96,19218,5,0,0:0:0:0:
0,96,19218,5,0,0:0:0:0:
352,96,19218,5,0,0:0:0:0:
320,96,19218,5,0,0:0:0:0:
128,64,19275,5,0,0:0:0:0:
416,64,19275,5,0,0:0:0:0:
448,64,19275,5,0,0:0:0:0:
192,64,19275,5,0,0:0:0:0:
160,64,19275,5,0,0:0:0:0:
96,64,19276,5,0,0:0:0:0:
0,64,19276,5,0,0:0:0:0:
32,64,19276,5,0,0:0:0:0:
384,64,19276,5,0,0:0:0:0:
64,64,19276,5,0,0:0:0:0:
480,64,19276,5,0,0:0:0:0:
512,64,19276,5,0,0:0:0:0:
224,64,19276,5,0,0:0:0:0:
128,32,19334,5,0,0:0:0:0:
160,32,19334,5,0,0:0:0:0:
192,32,19334,5,0,0:0:0:0:
448,32,19334,5,0,0:0:0:0:
416,32,19334,5,0,0:0:0:0:
96,32,19335,5,0,0:0:0:0:
64,32,19335,5,0,0:0:0:0:
384,32,19335,5,0,0:0:0:0:
0,32,19335,5,0,0:0:0:0:
480,32,19335,5,0,0:0:0:0:
512,32,19335,5,0,0:0:0:0:
352,32,19335,5,0,0:0:0:0:
32,32,19335,5,0,0:0:0:0:
128,384,19392,5,0,0:0:0:0:
416,384,19392,5,0,0:0:0:0:
448,384,19392,5,0,0:0:0:0:
96,384,19393,5,0,0:0:0:0:
0,384,19393,5,0,0:0:0:0:
32,384,19393,5,0,0:0:0:0:
512,384,19393,5,0,0:0:0:0:
480,384,19393,5,0,0:0:0:0:
320,384,19393,5,0,0:0:0:0:
384,384,19393,5,0,0:0:0:0:
352,384,19393,5,0,0:0:0:0:
64,384,19393,5,0,0:0:0:0:
128,352,19452,5,0,0:0:0:0:
448,352,19452,5,0,0:0:0:0:
416,352,19452,5,0,0:0:0:0:
96,352,19453,5,0,0:0:0:0:
320,352,19453,5,0,0:0:0:0:
64,352,19453,5,0,0:0:0:0:
352,352,19453,5,0,0:0:0:0:
288,352,19453,5,0,0:0:0:0:
512,352,19453,5,0,0:0:0:0:
480,352,19453,5,0,0:0:0:0:
32,352,19453,5,0,0:0:0:0:
0,352,19453,5,0,0:0:0:0:
384,352,19453,5,0,0:0:0:0:
416,320,19510,5,0,0:0:0:0:
448,320,19510,5,0,0:0:0:0:
96,320,19511,5,0,0:0:0:0:
64,320,19511,5,0,0:0:0:0:
0,320,19511,5,0,0:0:0:0:
352,320,19511,5,0,0:0:0:0:
288,320,19511,5,0,0:0:0:0:
256,320,19511,5,0,0:0:0:0:
512,320,19511,5,0,0:0:0:0:
32,320,19511,5,0,0:0:0:0:
320,320,19511,5,0,0:0:0:0:
384,320,19511,5,0,0:0:0:0:
480,320,19511,5,0,0:0:0:0:
416,288,19569,5,0,0:0:0:0:
448,288,19569,5,0,0:0:0:0:
64,288,19570,5,0,0:0:0:0:
224,288,19570,5,0,0:0:0:0:
32,288,19570,5,0,0:0:0:0:
256,288,19570,5,0,0:0:0:0:
288,288,19570,5,0,0:0:0:0:
320,288,19570,5,0,0:0:0:0:
352,288,19570,5,0,0:0:0:0:
384,288,19570,5,0,0:0:0:0:
384,256,19627,5,0,0:0:0:0:
96,256,19628,5,0,0:0:0:0:
256,256,19628,5,0,0:0:0:0:
320,256,19628,5,0,0:0:0:0:
288,256,19628,5,0,0:0:0:0:
352,256,19628,5,0,0:0:0:0:
64,256,19628,5,0,0:0:0:0:
128,224,19687,5,0,0:0:0:0:
96,224,19688,5,0,0:0:0:0:
288,224,19688,5,0,0:0:0:0:
320,224,19688,5,0,0:0:0:0:
128,192,19745,5,0,0:0:0:0:
448,192,19745,5,0,0:0:0:0:
160,192,19745,5,0,0:0:0:0:
512,192,19746,5,0,0:0:0:0:
64,192,19746,5,0,0:0:0:0:
320,192,19746,5,0,0:0:0:0:
160,192,19788,6,0,B|248:120|248:120|184:24|184:24|384:172,1,460
320,192,19802,6,0,B|408:120|408:120|344:24|344:24|532:160,1,460
160,192,19802,6,0,B|248:120|248:120|184:24|184:24|384:172,1,460
112,180,19802,5,0,0:0:0:0:
408,179,19846,5,0,0:0:0:0:
156,143,19860,5,0,0:0:0:0:
451,142,19905,5,0,0:0:0:0:
199,106,19919,5,0,0:0:0:0:
419,95,19963,5,0,0:0:0:0:
167,59,19977,5,0,0:0:0:0:
388,48,20022,5,0,0:0:0:0:
136,12,20036,5,0,0:0:0:0:
435,81,20080,5,0,0:0:0:0:
182,46,20094,5,0,0:0:0:0:
483,114,20139,5,0,0:0:0:0:
229,80,20153,5,0,0:0:0:0:
512,147,20198,5,0,0:0:0:0:
275,115,20212,5,0,0:0:0:0:
321,149,20270,5,0,0:0:0:0:
128,288,20272,5,0,0:0:0:0:
192,288,20272,5,0,0:0:0:0:
160,288,20272,5,0,0:0:0:0:
96,288,20273,5,0,0:0:0:0:
64,288,20273,5,0,0:0:0:0:
32,288,20273,5,0,0:0:0:0:
512,288,20273,5,0,0:0:0:0:
288,288,20273,5,0,0:0:0:0:
0,288,20273,5,0,0:0:0:0:
256,288,20273,5,0,0:0:0:0:
320,288,20273,5,0,0:0:0:0:
352,288,20273,5,0,0:0:0:0:
224,288,20273,5,0,0:0:0:0:
128,256,20330,5,0,0:0:0:0:
192,256,20330,5,0,0:0:0:0:
160,256,20330,5,0,0:0:0:0:
96,256,20331,5,0,0:0:0:0:
512,256,20331,5,0,0:0:0:0:
320,256,20331,5,0,0:0:0:0:
288,256,20331,5,0,0:0:0:0:
64,256,20331,5,0,0:0:0:0:
224,256,20331,5,0,0:0:0:0:
256,256,20331,5,0,0:0:0:0:
0,256,20331,5,0,0:0:0:0:
480,256,20331,5,0,0:0:0:0:
32,256,20331,5,0,0:0:0:0:
128,224,20390,5,0,0:0:0:0:
160,224,20390,5,0,0:0:0:0:
448,224,20390,5,0,0:0:0:0:
192,224,20390,5,0,0:0:0:0:
96,224,20391,5,0,0:0:0:0:
224,224,20391,5,0,0:0:0:0:
288,224,20391,5,0,0:0:0:0:
512,224,20391,5,0,0:0:0:0:
64,224,20391,5,0,0:0:0:0:
256,224,20391,5,0,0:0:0:0:
32,224,20391,5,0,0:0:0:0:
480,224,20391,5,0,0:0:0:0:
0,224,20391,5,0,0:0:0:0:
128,192,20448,5,0,0:0:0:0:
448,192,20448,5,0,0:0:0:0:
416,192,20448,5,0,0:0:0:0:
192,192,20448,5,0,0:0:0:0:
160,192,20448,5,0,0:0:0:0:
96,192,20449,5,0,0:0:0:0:
0,192,20449,5,0,0:0:0:0:
480,192,20449,5,0,0:0:0:0:
32,192,20449,5,0,0:0:0:0:
64,192,20449,5,0,0:0:0:0:
512,192,20449,5,0,0:0:0:0:
384,192,20449,5,0,0:0:0:0:
448,160,20507,5,0,0:0:0:0:
416,160,20507,5,0,0:0:0:0:
96,160,20508,5,0,0:0:0:0:
0,160,20508,5,0,0:0:0:0:
512,160,20508,5,0,0:0:0:0:
32,160,20508,5,0,0:0:0:0:
320,160,20508,5,0,0:0:0:0:
352,160,20508,5,0,0:0:0:0:
64,160,20508,5,0,0:0:0:0:
384,160,20508,5,0,0:0:0:0:
480,160,20508,5,0,0:0:0:0:
416,128,20563,5,0,0:0:0:0:
448,128,20563,5,0,0:0:0:0:
480,128,20564,5,0,0:0:0:0:
256,128,20564,5,0,0:0:0:0:
288,128,20564,5,0,0:0:0:0:
352,128,20564,5,0,0:0:0:0:
320,128,20564,5,0,0:0:0:0:
512,128,20564,5,0,0:0:0:0:
224,128,20564,5,0,0:0:0:0:
0,128,20564,5,0,0:0:0:0:
32,128,20564,5,0,0:0:0:0:
384,128,20564,5,0,0:0:0:0:
160,96,20623,5,0,0:0:0:0:
416,96,20623,5,0,0:0:0:0:
192,96,20623,5,0,0:0:0:0:
448,96,20623,5,0,0:0:0:0:
384,96,20624,5,0,0:0:0:0:
512,96,20624,5,0,0:0:0:0:
480,96,20624,5,0,0:0:0:0:
320,96,20624,5,0,0:0:0:0:
352,96,20624,5,0,0:0:0:0:
256,96,20624,5,0,0:0:0:0:
288,96,20624,5,0,0:0:0:0:
224,96,20624,5,0,0:0:0:0:
0,96,20624,5,0,0:0:0:0:
128,64,20681,5,0,0:0:0:0:
160,64,20681,5,0,0:0:0:0:
416,64,20681,5,0,0:0:0:0:
448,64,20681,5,0,0:0:0:0:
192,64,20681,5,0,0:0:0:0:
480,64,20682,5,0,0:0:0:0:
352,64,20682,5,0,0:0:0:0:
384,64,20682,5,0,0:0:0:0:
512,64,20682,5,0,0:0:0:0:
224,64,20682,5,0,0:0:0:0:
288,64,20682,5,0,0:0:0:0:
320,64,20682,5,0,0:0:0:0:
256,64,20682,5,0,0:0:0:0:
128,32,20740,5,0,0:0:0:0:
416,32,20740,5,0,0:0:0:0:
160,32,20740,5,0,0:0:0:0:
448,32,20740,5,0,0:0:0:0:
192,32,20740,5,0,0:0:0:0:
256,32,20741,5,0,0:0:0:0:
224,32,20741,5,0,0:0:0:0:
320,32,20741,5,0,0:0:0:0:
352,32,20741,5,0,0:0:0:0:
512,32,20741,5,0,0:0:0:0:
480,32,20741,5,0,0:0:0:0:
288,32,20741,5,0,0:0:0:0:
384,32,20741,5,0,0:0:0:0:
128,384,20798,5,0,0:0:0:0:
192,384,20798,5,0,0:0:0:0:
160,384,20798,5,0,0:0:0:0:
448,384,20798,5,0,0:0:0:0:
416,384,20798,5,0,0:0:0:0:
256,384,20799,5,0,0:0:0:0:
384,384,20799,5,0,0:0:0:0:
224,384,20799,5,0,0:0:0:0:
512,384,20799,5,0,0:0:0:0:
480,384,20799,5,0,0:0:0:0:
288,384,20799,5,0,0:0:0:0:
352,384,20799,5,0,0:0:0:0:
320,384,20799,5,0,0:0:0:0:
192,352,20858,5,0,0:0:0:0:
160,352,20858,5,0,0:0:0:0:
416,352,20858,5,0,0:0:0:0:
448,352,20858,5,0,0:0:0:0:
512,352,20859,5,0,0:0:0:0:
320,352,20859,5,0,0:0:0:0:
352,352,20859,5,0,0:0:0:0:
288,352,20859,5,0,0:0:0:0:
384,352,20859,5,0,0:0:0:0:
480,352,20859,5,0,0:0:0:0:
0,352,20859,5,0,0:0:0:0:
256,352,20859,5,0,0:0:0:0:
224,352,20859,5,0,0:0:0:0:
448,320,20916,5,0,0:0:0:0:
416,320,20916,5,0,0:0:0:0:
384,320,20917,5,0,0:0:0:0:
320,320,20917,5,0,0:0:0:0:
224,320,20917,5,0,0:0:0:0:
512,320,20917,5,0,0:0:0:0:
256,320,20917,5,0,0:0:0:0:
32,320,20917,5,0,0:0:0:0:
0,320,20917,5,0,0:0:0:0:
480,320,20917,5,0,0:0:0:0:
352,320,20917,5,0,0:0:0:0:
288,320,20917,5,0,0:0:0:0:
416,288,20975,5,0,0:0:0:0:
448,288,20975,5,0,0:0:0:0:
96,288,20976,5,0,0:0:0:0:
320,288,20976,5,0,0:0:0:0:
512,288,20976,5,0,0:0:0:0:
480,288,20976,5,0,0:0:0:0:
352,288,20976,5,0,0:0:0:0:
64,288,20976,5,0,0:0:0:0:
32,288,20976,5,0,0:0:0:0:
288,288,20976,5,0,0:0:0:0:
0,288,20976,5,0,0:0:0:0:
384,288,20976,5,0,0:0:0:0:
128,256,21033,5,0,0:0:0:0:
448,256,21033,5,0,0:0:0:0:
416,256,21033,5,0,0:0:0:0:
160,256,21033,5,0,0:0:0:0:
96,256,21034,5,0,0:0:0:0:
512,256,21034,5,0,0:0:0:0:
0,256,21034,5,0,0:0:0:0:
384,256,21034,5,0,0:0:0:0:
64,256,21034,5,0,0:0:0:0:
32,256,21034,5,0,0:0:0:0:
480,256,21034,5,0,0:0:0:0:
128,224,21093,5,0,0:0:0:0:
192,224,21093,5,0,0:0:0:0:
160,224,21093,5,0,0:0:0:0:
96,224,21094,5,0,0:0:0:0:
480,224,21094,5,0,0:0:0:0:
224,224,21094,5,0,0:0:0:0:
32,224,21094,5,0,0:0:0:0:
256,224,21094,5,0,0:0:0:0:
64,224,21094,5,0,0:0:0:0:
512,224,21094,5,0,0:0:0:0:
0,224,21094,5,0,0:0:0:0:
128,192,21151,5,0,0:0:0:0:
192,192,21151,5,0,0:0:0:0:
160,192,21151,5,0,0:0:0:0:
96,192,21152,5,0,0:0:0:0:
224,192,21152,5,0,0:0:0:0:
0,192,21152,5,0,0:0:0:0:
32,192,21152,5,0,0:0:0:0:
256,192,21152,5,0,0:0:0:0:
512,192,21152,5,0,0:0:0:0:
288,192,21152,5,0,0:0:0:0:
320,192,21152,5,0,0:0:0:0:
64,192,21152,5,0,0:0:0:0:
128,160,21210,5,0,0:0:0:0:
192,160,21210,5,0,0:0:0:0:
160,160,21210,5,0,0:0:0:0:
96,160,21211,5,0,0:0:0:0:
288,160,21211,5,0,0:0:0:0:
32,160,21211,5,0,0:0:0:0:
384,160,21211,5,0,0:0:0:0:
64,160,21211,5,0,0:0:0:0:
224,160,21211,5,0,0:0:0:0:
0,160,21211,5,0,0:0:0:0:
352,160,21211,5,0,0:0:0:0:
256,160,21211,5,0,0:0:0:0:
320,160,21211,5,0,0:0:0:0:
128,128,21266,5,0,0:0:0:0:
192,128,21266,5,0,0:0:0:0:
160,128,21266,5,0,0:0:0:0:
96,128,21267,5,0,0:0:0:0:
224,128,21267,5,0,0:0:0:0:
352,128,21267,5,0,0:0:0:0:
256,128,21267,5,0,0:0:0:0:
384,128,21267,5,0,0:0:0:0:
320,128,21267,5,0,0:0:0:0:
64,128,21267,5,0,0:0:0:0:
0,128,21267,5,0,0:0:0:0:
288,128,21267,5,0,0:0:0:0:
32,128,21267,5,0,0:0:0:0:
128,96,21326,5,0,0:0:0:0:
160,96,21326,5,0,0:0:0:0:
192,96,21326,5,0,0:0:0:0:
96,96,21327,5,0,0:0:0:0:
64,96,21327,5,0,0:0:0:0:
0,96,21327,5,0,0:0:0:0:
512,96,21327,5,0,0:0:0:0:
256,96,21327,5,0,0:0:0:0:
224,96,21327,5,0,0:0:0:0:
32,96,21327,5,0,0:0:0:0:
352,96,21327,5,0,0:0:0:0:
320,96,21327,5,0,0:0:0:0:
288,96,21327,5,0,0:0:0:0:
128,64,21384,5,0,0:0:0:0:
192,64,21384,5,0,0:0:0:0:
160,64,21384,5,0,0:0:0:0:
96,64,21385,5,0,0:0:0:0:
288,64,21385,5,0,0:0:0:0:
480,64,21385,5,0,0:0:0:0:
512,64,21385,5,0,0:0:0:0:
320,64,21385,5,0,0:0:0:0:
224,64,21385,5,0,0:0:0:0:
64,64,21385,5,0,0:0:0:0:
32,64,21385,5,0,0:0:0:0:
0,64,21385,5,0,0:0:0:0:
256,64,21385,5,0,0:0:0:0:
128,32,21443,5,0,0:0:0:0:
192,32,21443,5,0,0:0:0:0:
160,32,21443,5,0,0:0:0:0:
448,32,21443,5,0,0:0:0:0:
96,32,21444,5,0,0:0:0:0:
64,32,21444,5,0,0:0:0:0:
32,32,21444,5,0,0:0:0:0:
0,32,21444,5,0,0:0:0:0:
256,32,21444,5,0,0:0:0:0:
480,32,21444,5,0,0:0:0:0:
224,32,21444,5,0,0:0:0:0:
288,32,21444,5,0,0:0:0:0:
512,32,21444,5,0,0:0:0:0:
128,384,21501,5,0,0:0:0:0:
448,384,21501,5,0,0:0:0:0:
160,384,21501,5,0,0:0:0:0:
192,384,21501,5,0,0:0:0:0:
96,384,21502,5,0,0:0:0:0:
288,384,21502,5,0,0:0:0:0:
480,384,21502,5,0,0:0:0:0:
512,384,21502,5,0,0:0:0:0:
64,384,21502,5,0,0:0:0:0:
256,384,21502,5,0,0:0:0:0:
0,384,21502,5,0,0:0:0:0:
32,384,21502,5,0,0:0:0:0:
224,384,21502,5,0,0:0:0:0:
128,352,21561,5,0,0:0:0:0:
448,352,21561,5,0,0:0:0:0:
416,352,21561,5,0,0:0:0:0:
192,352,21561,5,0,0:0:0:0:
160,352,21561,5,0,0:0:0:0:
96,352,21562,5,0,0:0:0:0:
0,352,21562,5,0,0:0:0:0:
32,352,21562,5,0,0:0:0:0:
64,352,21562,5,0,0:0:0:0:
224,352,21562,5,0,0:0:0:0:
512,352,21562,5,0,0:0:0:0:
480,352,21562,5,0,0:0:0:0:
384,352,21562,5,0,0:0:0:0:
128,320,21619,5,0,0:0:0:0:
416,320,21619,5,0,0:0:0:0:
160,320,21619,5,0,0:0:0:0:
448,320,21619,5,0,0:0:0:0:
96,320,21620,5,0,0:0:0:0:
480,320,21620,5,0,0:0:0:0:
0,320,21620,5,0,0:0:0:0:
32,320,21620,5,0,0:0:0:0:
352,320,21620,5,0,0:0:0:0:
64,320,21620,5,0,0:0:0:0:
320,320,21620,5,0,0:0:0:0:
384,320,21620,5,0,0:0:0:0:
512,320,21620,5,0,0:0:0:0:
128,288,21678,5,0,0:0:0:0:
160,288,21678,5,0,0:0:0:0:
448,288,21678,5,0,0:0:0:0:
192,288,21678,5,0,0:0:0:0:
416,288,21678,5,0,0:0:0:0:
96,288,21679,5,0,0:0:0:0:
384,288,21679,5,0,0:0:0:0:
0,288,21679,5,0,0:0:0:0:
480,288,21679,5,0,0:0:0:0:
512,288,21679,5,0,0:0:0:0:
32,288,21679,5,0,0:0:0:0:
64,288,21679,5,0,0:0:0:0:
352,288,21679,5,0,0:0:0:0:
128,256,21736,5,0,0:0:0:0:
160,256,21736,5,0,0:0:0:0:
192,256,21736,5,0,0:0:0:0:
416,256,21736,5,0,0:0:0:0:
448,256,21736,5,0,0:0:0:0:
96,256,21737,5,0,0:0:0:0:
64,256,21737,5,0,0:0:0:0:
32,256,21737,5,0,0:0:0:0:
480,256,21737,5,0,0:0:0:0:
224,256,21737,5,0,0:0:0:0:
512,256,21737,5,0,0:0:0:0:
0,256,21737,5,0,0:0:0:0:
256,256,21737,5,0,0:0:0:0:
128,224,21796,5,0,0:0:0:0:
160,224,21796,5,0,0:0:0:0:
192,224,21796,5,0,0:0:0:0:
448,224,21796,5,0,0:0:0:0:
96,224,21797,5,0,0:0:0:0:
512,224,21797,5,0,0:0:0:0:
0,224,21797,5,0,0:0:0:0:
288,224,21797,5,0,0:0:0:0:
224,224,21797,5,0,0:0:0:0:
480,224,21797,5,0,0:0:0:0:
64,224,21797,5,0,0:0:0:0:
256,224,21797,5,0,0:0:0:0:
32,224,21797,5,0,0:0:0:0:
128,192,21854,5,0,0:0:0:0:
192,192,21854,5,0,0:0:0:0:
160,192,21854,5,0,0:0:0:0:
448,192,21854,5,0,0:0:0:0:
96,192,21855,5,0,0:0:0:0:
512,192,21855,5,0,0:0:0:0:
480,192,21855,5,0,0:0:0:0:
288,192,21855,5,0,0:0:0:0:
64,192,21855,5,0,0:0:0:0:
224,192,21855,5,0,0:0:0:0:
256,192,21855,5,0,0:0:0:0:
32,192,21855,5,0,0:0:0:0:
0,192,21855,5,0,0:0:0:0:
128,160,21913,5,0,0:0:0:0:
160,160,21913,5,0,0:0:0:0:
448,160,21913,5,0,0:0:0:0:
416,160,21913,5,0,0:0:0:0:
192,160,21913,5,0,0:0:0:0:
96,160,21914,5,0,0:0:0:0:
480,160,21914,5,0,0:0:0:0:
512,160,21914,5,0,0:0:0:0:
256,160,21914,5,0,0:0:0:0:
32,160,21914,5,0,0:0:0:0:
0,160,21914,5,0,0:0:0:0:
224,160,21914,5,0,0:0:0:0:
64,160,21914,5,0,0:0:0:0:
128,128,21969,5,0,0:0:0:0:
160,128,21969,5,0,0:0:0:0:
448,128,21969,5,0,0:0:0:0:
416,128,21969,5,0,0:0:0:0:
192,128,21969,5,0,0:0:0:0:
96,128,21970,5,0,0:0:0:0:
512,128,21970,5,0,0:0:0:0:
64,128,21970,5,0,0:0:0:0:
480,128,21970,5,0,0:0:0:0:
0,128,21970,5,0,0:0:0:0:
32,128,21970,5,0,0:0:0:0:
224,128,21970,5,0,0:0:0:0:
384,128,21970,5,0,0:0:0:0:
128,96,22029,5,0,0:0:0:0:
448,96,22029,5,0,0:0:0:0:
160,96,22029,5,0,0:0:0:0:
416,96,22029,5,0,0:0:0:0:
96,96,22030,5,0,0:0:0:0:
32,96,22030,5,0,0:0:0:0:
320,96,22030,5,0,0:0:0:0:
352,96,22030,5,0,0:0:0:0:
0,96,22030,5,0,0:0:0:0:
64,96,22030,5,0,0:0:0:0:
480,96,22030,5,0,0:0:0:0:
384,96,22030,5,0,0:0:0:0:
512,96,22030,5,0,0:0:0:0:
128,64,22087,5,0,0:0:0:0:
416,64,22087,5,0,0:0:0:0:
448,64,22087,5,0,0:0:0:0:
96,64,22088,5,0,0:0:0:0:
0,64,22088,5,0,0:0:0:0:
32,64,22088,5,0,0:0:0:0:
64,64,22088,5,0,0:0:0:0:
352,64,22088,5,0,0:0:0:0:
384,64,22088,5,0,0:0:0:0:
480,64,22088,5,0,0:0:0:0:
288,64,22088,5,0,0:0:0:0:
320,64,22088,5,0,0:0:0:0:
512,64,22088,5,0,0:0:0:0:
448,32,22146,5,0,0:0:0:0:
416,32,22146,5,0,0:0:0:0:
96,32,22147,5,0,0:0:0:0:
352,32,22147,5,0,0:0:0:0:
512,32,22147,5,0,0:0:0:0:
288,32,22147,5,0,0:0:0:0:
320,32,22147,5,0,0:0:0:0:
32,32,22147,5,0,0:0:0:0:
384,32,22147,5,0,0:0:0:0:
64,32,22147,5,0,0:0:0:0:
480,32,22147,5,0,0:0:0:0:
256,32,22147,5,0,0:0:0:0:
0,32,22147,5,0,0:0:0:0:
448,384,22204,5,0,0:0:0:0:
416,384,22204,5,0,0:0:0:0:
0,384,22205,5,0,0:0:0:0:
224,384,22205,5,0,0:0:0:0:
256,384,22205,5,0,0:0:0:0:
32,384,22205,5,0,0:0:0:0:
512,384,22205,5,0,0:0:0:0:
288,384,22205,5,0,0:0:0:0:
480,384,22205,5,0,0:0:0:0:
320,384,22205,5,0,0:0:0:0:
352,384,22205,5,0,0:0:0:0:
64,384,22205,5,0,0:0:0:0:
384,384,22205,5,0,0:0:0:0:
160,352,22264,5,0,0:0:0:0:
192,352,22264,5,0,0:0:0:0:
416,352,22264,5,0,0:0:0:0:
448,352,22264,5,0,0:0:0:0:
480,352,22265,5,0,0:0:0:0:
512,352,22265,5,0,0:0:0:0:
224,352,22265,5,0,0:0:0:0:
384,352,22265,5,0,0:0:0:0:
0,352,22265,5,0,0:0:0:0:
320,352,22265,5,0,0:0:0:0:
288,352,22265,5,0,0:0:0:0:
352,352,22265,5,0,0:0:0:0:
256,352,22265,5,0,0:0:0:0:
192,320,22322,5,0,0:0:0:0:
416,320,22322,5,0,0:0:0:0:
448,320,22322,5,0,0:0:0:0:
0,320,22323,5,0,0:0:0:0:
512,320,22323,5,0,0:0:0:0:
288,320,22323,5,0,0:0:0:0:
256,320,22323,5,0,0:0:0:0:
352,320,22323,5,0,0:0:0:0:
32,320,22323,5,0,0:0:0:0:
320,320,22323,5,0,0:0:0:0:
384,320,22323,5,0,0:0:0:0:
480,320,22323,5,0,0:0:0:0:
224,320,22323,5,0,0:0:0:0:
448,288,22381,5,0,0:0:0:0:
416,288,22381,5,0,0:0:0:0:
96,288,22382,5,0,0:0:0:0:
512,288,22382,5,0,0:0:0:0:
320,288,22382,5,0,0:0:0:0:
288,288,22382,5,0,0:0:0:0:
384,288,22382,5,0,0:0:0:0:
352,288,22382,5,0,0:0:0:0:
0,288,22382,5,0,0:0:0:0:
64,288,22382,5,0,0:0:0:0:
256,288,22382,5,0,0:0:0:0:
480,288,22382,5,0,0:0:0:0:
32,288,22382,5,0,0:0:0:0:
128,256,22439,5,0,0:0:0:0:
416,256,22439,5,0,0:0:0:0:
448,256,22439,5,0,0:0:0:0:
96,256,22440,5,0,0:0:0:0:
288,256,22440,5,0,0:0:0:0:
320,256,22440,5,0,0:0:0:0:
512,256,22440,5,0,0:0:0:0:
0,256,22440,5,0,0:0:0:0:
384,256,22440,5,0,0:0:0:0:
352,256,22440,5,0,0:0:0:0:
32,256,22440,5,0,0:0:0:0:
480,256,22440,5,0,0:0:0:0:
64,256,22440,5,0,0:0:0:0:
128,224,22499,5,0,0:0:0:0:
416,224,22499,5,0,0:0:0:0:
160,224,22499,5,0,0:0:0:0:
192,224,22499,5,0,0:0:0:0:
448,224,22499,5,0,0:0:0:0:
96,224,22500,5,0,0:0:0:0:
480,224,22500,5,0,0:0:0:0:
512,224,22500,5,0,0:0:0:0:
0,224,22500,5,0,0:0:0:0:
384,224,22500,5,0,0:0:0:0:
64,224,22500,5,0,0:0:0:0:
352,224,22500,5,0,0:0:0:0:
32,224,22500,5,0,0:0:0:0:
128,192,22557,5,0,0:0:0:0:
416,192,22557,5,0,0:0:0:0:
448,192,22557,5,0,0:0:0:0:
160,192,22557,5,0,0:0:0:0:
192,192,22557,5,0,0:0:0:0:
96,192,22558,5,0,0:0:0:0:
512,192,22558,5,0,0:0:0:0:
64,192,22558,5,0,0:0:0:0:
384,192,22558,5,0,0:0:0:0:
0,192,22558,5,0,0:0:0:0:
480,192,22558,5,0,0:0:0:0:
32,192,22558,5,0,0:0:0:0:
224,192,22558,5,0,0:0:0:0:
128,160,22616,5,0,0:0:0:0:
160,160,22616,5,0,0:0:0:0:
416,160,22616,5,0,0:0:0:0:
448,160,22616,5,0,0:0:0:0:
192,160,22616,5,0,0:0:0:0:
96,160,22617,5,0,0:0:0:0:
64,160,22617,5,0,0:0:0:0:
256,160,22617,5,0,0:0:0:0:
512,160,22617,5,0,0:0:0:0:
0,160,22617,5,0,0:0:0:0:
224,160,22617,5,0,0:0:0:0:
32,160,22617,5,0,0:0:0:0:
480,160,22617,5,0,0:0:0:0:
128,128,22672,5,0,0:0:0:0:
160,128,22672,5,0,0:0:0:0:
416,128,22672,5,0,0:0:0:0:
192,128,22672,5,0,0:0:0:0:
448,128,22672,5,0,0:0:0:0:
96,128,22673,5,0,0:0:0:0:
480,128,22673,5,0,0:0:0:0:
512,128,22673,5,0,0:0:0:0:
64,128,22673,5,0,0:0:0:0:
256,128,22673,5,0,0:0:0:0:
0,128,22673,5,0,0:0:0:0:
224,128,22673,5,0,0:0:0:0:
32,128,22673,5,0,0:0:0:0:
128,96,22732,5,0,0:0:0:0:
416,96,22732,5,0,0:0:0:0:
192,96,22732,5,0,0:0:0:0:
448,96,22732,5,0,0:0:0:0:
160,96,22732,5,0,0:0:0:0:
96,96,22733,5,0,0:0:0:0:
64,96,22733,5,0,0:0:0:0:
384,96,22733,5,0,0:0:0:0:
0,96,22733,5,0,0:0:0:0:
224,96,22733,5,0,0:0:0:0:
480,96,22733,5,0,0:0:0:0:
512,96,22733,5,0,0:0:0:0:
32,96,22733,5,0,0:0:0:0:
128,64,22790,5,0,0:0:0:0:
192,64,22790,5,0,0:0:0:0:
160,64,22790,5,0,0:0:0:0:
416,64,22790,5,0,0:0:0:0:
448,64,22790,5,0,0:0:0:0:
96,64,22791,5,0,0:0:0:0:
0,64,22791,5,0,0:0:0:0:
512,64,22791,5,0,0:0:0:0:
480,64,22791,5,0,0:0:0:0:
64,64,22791,5,0,0:0:0:0:
384,64,22791,5,0,0:0:0:0:
32,64,22791,5,0,0:0:0:0:
352,64,22791,5,0,0:0:0:0:
128,32,22849,5,0,0:0:0:0:
448,32,22849,5,0,0:0:0:0:
416,32,22849,5,0,0:0:0:0:
160,32,22849,5,0,0:0:0:0:
96,32,22850,5,0,0:0:0:0:
384,32,22850,5,0,0:0:0:0:
0,32,22850,5,0,0:0:0:0:
320,32,22850,5,0,0:0:0:0:
352,32,22850,5,0,0:0:0:0:
32,32,22850,5,0,0:0:0:0:
512,32,22850,5,0,0:0:0:0:
480,32,22850,5,0,0:0:0:0:
64,32,22850,5,0,0:0:0:0:
448,384,22907,5,0,0:0:0:0:
416,384,22907,5,0,0:0:0:0:
512,384,22908,5,0,0:0:0:0:
0,384,22908,5,0,0:0:0:0:
288,384,22908,5,0,0:0:0:0:
64,384,22908,5,0,0:0:0:0:
352,384,22908,5,0,0:0:0:0:
320,384,22908,5,0,0:0:0:0:
384,384,22908,5,0,0:0:0:0:
32,384,22908,5,0,0:0:0:0:
480,384,22908,5,0,0:0:0:0:
448,352,22967,5,0,0:0:0:0:
416,352,22967,5,0,0:0:0:0:
256,352,22968,5,0,0:0:0:0:
512,352,22968,5,0,0:0:0:0:
320,352,22968,5,0,0:0:0:0:
480,352,22968,5,0,0:0:0:0:
0,352,22968,5,0,0:0:0:0:
384,352,22968,5,0,0:0:0:0:
288,352,22968,5,0,0:0:0:0:
352,352,22968,5,0,0:0:0:0:
224,352,22968,5,0,0:0:0:0:
0,320,23025,5,0,0:0:0:0:
192,320,23025,5,0,0:0:0:0:
448,320,23025,5,0,0:0:0:0:
416,320,23025,5,0,0:0:0:0:
160,320,23025,5,0,0:0:0:0:
512,320,23026,5,0,0:0:0:0:
352,320,23026,5,0,0:0:0:0:
224,320,23026,5,0,0:0:0:0:
480,320,23026,5,0,0:0:0:0:
320,320,23026,5,0,0:0:0:0:
256,320,23026,5,0,0:0:0:0:
288,320,23026,5,0,0:0:0:0:
384,320,23026,5,0,0:0:0:0:
384,288,23069,6,0,L|512:288,7,115
416,320,23084,5,0,0:0:0:0:
160,320,23084,5,0,0:0:0:0:
448,320,23084,5,0,0:0:0:0:
0,320,23084,5,0,0:0:0:0:
192,320,23084,5,0,0:0:0:0:
256,320,23085,5,0,0:0:0:0:
320,320,23085,5,0,0:0:0:0:
384,320,23085,5,0,0:0:0:0:
288,320,23085,5,0,0:0:0:0:
352,320,23085,5,0,0:0:0:0:
512,320,23085,5,0,0:0:0:0:
480,320,23085,5,0,0:0:0:0:
224,320,23085,5,0,0:0:0:0:
224,288,23098,6,0,L|352:288,7,115
160,288,23142,5,0,0:0:0:0:
0,288,23142,5,0,0:0:0:0:
0,256,23201,5,0,0:0:0:0:
160,256,23201,5,0,0:0:0:0:
0,224,23259,5,0,0:0:0:0:
160,224,23259,5,0,0:0:0:0:
32,192,23318,5,0,0:0:0:0:
192,192,23318,5,0,0:0:0:0:
32,160,23376,5,0,0:0:0:0:
192,160,23376,5,0,0:0:0:0:
32,128,23435,5,0,0:0:0:0:
192,128,23435,5,0,0:0:0:0:
224,96,23493,5,0,0:0:0:0:
64,96,23493,5,0,0:0:0:0:
64,64,23552,5,0,0:0:0:0:
224,64,23552,5,0,0:0:0:0:
64,32,23611,5,0,0:0:0:0:
224,32,23611,5,0,0:0:0:0:
32,0,23669,5,0,0:0:0:0:
192,0,23669,5,0,0:0:0:0:
192,384,23728,5,0,0:0:0:0:
32,384,23728,5,0,0:0:0:0:
192,352,23787,5,0,0:0:0:0:
32,352,23787,5,0,0:0:0:0:
160,320,23845,5,0,0:0:0:0:
0,320,23845,5,0,0:0:0:0:
160,288,23904,5,0,0:0:0:0:
0,288,23904,5,0,0:0:0:0:
0,256,23962,5,0,0:0:0:0:
192,256,23962,5,0,0:0:0:0:
448,256,23962,5,0,0:0:0:0:
416,256,23962,5,0,0:0:0:0:
512,256,23963,5,0,0:0:0:0:
352,256,23963,5,0,0:0:0:0:
224,256,23963,5,0,0:0:0:0:
480,256,23963,5,0,0:0:0:0:
320,256,23963,5,0,0:0:0:0:
256,256,23963,5,0,0:0:0:0:
288,256,23963,5,0,0:0:0:0:
384,256,23963,5,0,0:0:0:0:
416,224,24021,5,0,0:0:0:0:
448,224,24021,5,0,0:0:0:0:
0,224,24021,5,0,0:0:0:0:
32,224,24021,5,0,0:0:0:0:
96,224,24021,5,0,0:0:0:0:
64,224,24021,5,0,0:0:0:0:
320,224,24021,5,0,0:0:0:0:
384,224,24022,5,0,0:0:0:0:
288,224,24022,5,0,0:0:0:0:
352,224,24022,5,0,0:0:0:0:
512,224,24022,5,0,0:0:0:0:
480,224,24022,5,0,0:0:0:0:
96,192,24080,5,0,0:0:0:0:
32,192,24080,5,0,0:0:0:0:
64,192,24080,5,0,0:0:0:0:
128,192,24080,5,0,0:0:0:0:
160,192,24080,5,0,0:0:0:0:
416,192,24080,5,0,0:0:0:0:
448,192,24080,5,0,0:0:0:0:
192,192,24080,5,0,0:0:0:0:
0,192,24080,5,0,0:0:0:0:
512,192,24081,5,0,0:0:0:0:
480,192,24081,5,0,0:0:0:0:
96,160,24138,5,0,0:0:0:0:
32,160,24138,5,0,0:0:0:0:
64,160,24138,5,0,0:0:0:0:
448,160,24138,5,0,0:0:0:0:
160,160,24138,5,0,0:0:0:0:
192,160,24138,5,0,0:0:0:0:
0,160,24138,5,0,0:0:0:0:
128,160,24138,5,0,0:0:0:0:
512,160,24139,5,0,0:0:0:0:
480,160,24139,5,0,0:0:0:0:
224,160,24139,5,0,0:0:0:0:
256,160,24139,5,0,0:0:0:0:
96,128,24197,5,0,0:0:0:0:
32,128,24197,5,0,0:0:0:0:
128,128,24197,5,0,0:0:0:0:
64,128,24197,5,0,0:0:0:0:
160,128,24197,5,0,0:0:0:0:
192,128,24197,5,0,0:0:0:0:
0,128,24197,5,0,0:0:0:0:
320,128,24197,5,0,0:0:0:0:
512,128,24198,5,0,0:0:0:0:
224,128,24198,5,0,0:0:0:0:
256,128,24198,5,0,0:0:0:0:
288,128,24198,5,0,0:0:0:0:
96,96,24255,5,0,0:0:0:0:
32,96,24255,5,0,0:0:0:0:
64,96,24255,5,0,0:0:0:0:
160,96,24255,5,0,0:0:0:0:
192,96,24255,5,0,0:0:0:0:
0,96,24255,5,0,0:0:0:0:
128,96,24255,5,0,0:0:0:0:
320,96,24255,5,0,0:0:0:0:
512,96,24256,5,0,0:0:0:0:
224,96,24256,5,0,0:0:0:0:
256,96,24256,5,0,0:0:0:0:
352,96,24256,5,0,0:0:0:0:
288,96,24256,5,0,0:0:0:0:
96,64,24314,5,0,0:0:0:0:
32,64,24314,5,0,0:0:0:0:
128,64,24314,5,0,0:0:0:0:
64,64,24314,5,0,0:0:0:0:
160,64,24314,5,0,0:0:0:0:
192,64,24314,5,0,0:0:0:0:
0,64,24314,5,0,0:0:0:0:
320,64,24314,5,0,0:0:0:0:
512,64,24315,5,0,0:0:0:0:
480,64,24315,5,0,0:0:0:0:
224,64,24315,5,0,0:0:0:0:
256,64,24315,5,0,0:0:0:0:
288,64,24315,5,0,0:0:0:0:
96,32,24373,5,0,0:0:0:0:
32,32,24373,5,0,0:0:0:0:
64,32,24373,5,0,0:0:0:0:
448,32,24373,5,0,0:0:0:0:
160,32,24373,5,0,0:0:0:0:
192,32,24373,5,0,0:0:0:0:
0,32,24373,5,0,0:0:0:0:
128,32,24373,5,0,0:0:0:0:
512,32,24374,5,0,0:0:0:0:
480,32,24374,5,0,0:0:0:0:
224,32,24374,5,0,0:0:0:0:
256,32,24374,5,0,0:0:0:0:
288,32,24374,5,0,0:0:0:0:
96,0,24432,5,0,0:0:0:0:
32,0,24432,5,0,0:0:0:0:
128,0,24432,5,0,0:0:0:0:
64,0,24432,5,0,0:0:0:0:
448,0,24432,5,0,0:0:0:0:
160,0,24432,5,0,0:0:0:0:
192,0,24432,5,0,0:0:0:0:
0,0,24432,5,0,0:0:0:0:
416,0,24432,5,0,0:0:0:0:
512,0,24433,5,0,0:0:0:0:
480,0,24433,5,0,0:0:0:0:
224,0,24433,5,0,0:0:0:0:
384,0,24433,5,0,0:0:0:0:
192,384,24490,5,0,0:0:0:0:
160,384,24490,5,0,0:0:0:0:
0,384,24490,5,0,0:0:0:0:
416,384,24490,5,0,0:0:0:0:
32,384,24490,5,0,0:0:0:0:
96,384,24490,5,0,0:0:0:0:
128,384,24490,5,0,0:0:0:0:
448,384,24490,5,0,0:0:0:0:
64,384,24490,5,0,0:0:0:0:
352,384,24491,5,0,0:0:0:0:
384,384,24491,5,0,0:0:0:0:
512,384,24491,5,0,0:0:0:0:
480,384,24491,5,0,0:0:0:0:
160,352,24548,5,0,0:0:0:0:
0,352,24548,5,0,0:0:0:0:
320,352,24548,5,0,0:0:0:0:
416,352,24548,5,0,0:0:0:0:
32,352,24548,5,0,0:0:0:0:
96,352,24548,5,0,0:0:0:0:
128,352,24548,5,0,0:0:0:0:
448,352,24548,5,0,0:0:0:0:
64,352,24548,5,0,0:0:0:0:
352,352,24549,5,0,0:0:0:0:
384,352,24549,5,0,0:0:0:0:
512,352,24549,5,0,0:0:0:0:
480,352,24549,5,0,0:0:0:0:
192,320,24607,5,0,0:0:0:0:
160,320,24607,5,0,0:0:0:0:
0,320,24607,5,0,0:0:0:0:
416,320,24607,5,0,0:0:0:0:
32,320,24607,5,0,0:0:0:0:
96,320,24607,5,0,0:0:0:0:
128,320,24607,5,0,0:0:0:0:
448,320,24607,5,0,0:0:0:0:
64,320,24607,5,0,0:0:0:0:
352,320,24608,5,0,0:0:0:0:
384,320,24608,5,0,0:0:0:0:
512,320,24608,5,0,0:0:0:0:
480,320,24608,5,0,0:0:0:0:
192,288,24666,5,0,0:0:0:0:
160,288,24666,5,0,0:0:0:0:
0,288,24666,5,0,0:0:0:0:
416,288,24666,5,0,0:0:0:0:
32,288,24666,5,0,0:0:0:0:
96,288,24666,5,0,0:0:0:0:
128,288,24666,5,0,0:0:0:0:
448,288,24666,5,0,0:0:0:0:
64,288,24666,5,0,0:0:0:0:
256,288,24667,5,0,0:0:0:0:
512,288,24667,5,0,0:0:0:0:
480,288,24667,5,0,0:0:0:0:
224,288,24667,5,0,0:0:0:0:
192,256,24724,5,0,0:0:0:0:
160,256,24724,5,0,0:0:0:0:
0,256,24724,5,0,0:0:0:0:
320,256,24724,5,0,0:0:0:0:
32,256,24724,5,0,0:0:0:0:
96,256,24724,5,0,0:0:0:0:
128,256,24724,5,0,0:0:0:0:
64,256,24724,5,0,0:0:0:0:
256,256,24725,5,0,0:0:0:0:
288,256,24725,5,0,0:0:0:0:
512,256,24725,5,0,0:0:0:0:
480,256,24725,5,0,0:0:0:0:
224,256,24725,5,0,0:0:0:0:
192,224,24783,5,0,0:0:0:0:
160,224,24783,5,0,0:0:0:0:
0,224,24783,5,0,0:0:0:0:
32,224,24783,5,0,0:0:0:0:
96,224,24783,5,0,0:0:0:0:
128,224,24783,5,0,0:0:0:0:
448,224,24783,5,0,0:0:0:0:
64,224,24783,5,0,0:0:0:0:
256,224,24784,5,0,0:0:0:0:
288,224,24784,5,0,0:0:0:0:
512,224,24784,5,0,0:0:0:0:
480,224,24784,5,0,0:0:0:0:
224,224,24784,5,0,0:0:0:0:
192,192,24841,5,0,0:0:0:0:
160,192,24841,5,0,0:0:0:0:
0,192,24841,5,0,0:0:0:0:
416,192,24841,5,0,0:0:0:0:
32,192,24841,5,0,0:0:0:0:
96,192,24841,5,0,0:0:0:0:
128,192,24841,5,0,0:0:0:0:
448,192,24841,5,0,0:0:0:0:
64,192,24841,5,0,0:0:0:0:
384,192,24842,5,0,0:0:0:0:
512,192,24842,5,0,0:0:0:0:
480,192,24842,5,0,0:0:0:0:
224,192,24842,5,0,0:0:0:0:
160,160,24900,5,0,0:0:0:0:
0,160,24900,5,0,0:0:0:0:
320,160,24900,5,0,0:0:0:0:
416,160,24900,5,0,0:0:0:0:
32,160,24900,5,0,0:0:0:0:
96,160,24900,5,0,0:0:0:0:
128,160,24900,5,0,0:0:0:0:
448,160,24900,5,0,0:0:0:0:
64,160,24900,5,0,0:0:0:0:
352,160,24901,5,0,0:0:0:0:
384,160,24901,5,0,0:0:0:0:
512,160,24901,5,0,0:0:0:0:
480,160,24901,5,0,0:0:0:0:
0,128,24959,5,0,0:0:0:0:
320,128,24959,5,0,0:0:0:0:
416,128,24959,5,0,0:0:0:0:
32,128,24959,5,0,0:0:0:0:
96,128,24959,5,0,0:0:0:0:
448,128,24959,5,0,0:0:0:0:
64,128,24959,5,0,0:0:0:0:
256,128,24960,5,0,0:0:0:0:
352,128,24960,5,0,0:0:0:0:
288,128,24960,5,0,0:0:0:0:
384,128,24960,5,0,0:0:0:0:
512,128,24960,5,0,0:0:0:0:
480,128,24960,5,0,0:0:0:0:
0,96,25017,5,0,0:0:0:0:
320,96,25017,5,0,0:0:0:0:
416,96,25017,5,0,0:0:0:0:
32,96,25017,5,0,0:0:0:0:
448,96,25017,5,0,0:0:0:0:
64,96,25017,5,0,0:0:0:0:
256,96,25018,5,0,0:0:0:0:
352,96,25018,5,0,0:0:0:0:
288,96,25018,5,0,0:0:0:0:
384,96,25018,5,0,0:0:0:0:
512,96,25018,5,0,0:0:0:0:
480,96,25018,5,0,0:0:0:0:
224,96,25018,5,0,0:0:0:0:
192,64,25076,5,0,0:0:0:0:
160,64,25076,5,0,0:0:0:0:
0,64,25076,5,0,0:0:0:0:
320,64,25076,5,0,0:0:0:0:
416,64,25076,5,0,0:0:0:0:
448,64,25076,5,0,0:0:0:0:
256,64,25077,5,0,0:0:0:0:
352,64,25077,5,0,0:0:0:0:
288,64,25077,5,0,0:0:0:0:
384,64,25077,5,0,0:0:0:0:
512,64,25077,5,0,0:0:0:0:
480,64,25077,5,0,0:0:0:0:
224,64,25077,5,0,0:0:0:0:
320,32,25134,5,0,0:0:0:0:
416,32,25134,5,0,0:0:0:0:
448,32,25134,5,0,0:0:0:0:
192,32,25134,5,0,0:0:0:0:
32,32,25134,5,0,0:0:0:0:
0,32,25134,5,0,0:0:0:0:
224,32,25135,5,0,0:0:0:0:
480,32,25135,5,0,0:0:0:0:
512,32,25135,5,0,0:0:0:0:
352,32,25135,5,0,0:0:0:0:
288,32,25135,5,0,0:0:0:0:
384,32,25135,5,0,0:0:0:0:
256,32,25135,5,0,0:0:0:0:
320,0,25193,5,0,0:0:0:0:
416,0,25193,5,0,0:0:0:0:
64,0,25193,5,0,0:0:0:0:
0,0,25193,5,0,0:0:0:0:
448,0,25193,5,0,0:0:0:0:
32,0,25193,5,0,0:0:0:0:
224,0,25194,5,0,0:0:0:0:
480,0,25194,5,0,0:0:0:0:
512,0,25194,5,0,0:0:0:0:
352,0,25194,5,0,0:0:0:0:
288,0,25194,5,0,0:0:0:0:
384,0,25194,5,0,0:0:0:0:
256,0,25194,5,0,0:0:0:0:
320,384,25251,5,0,0:0:0:0:
0,384,25251,5,0,0:0:0:0:
64,384,25251,5,0,0:0:0:0:
32,384,25251,5,0,0:0:0:0:
416,384,25251,5,0,0:0:0:0:
448,384,25251,5,0,0:0:0:0:
288,384,25252,5,0,0:0:0:0:
256,384,25252,5,0,0:0:0:0:
480,384,25252,5,0,0:0:0:0:
224,384,25252,5,0,0:0:0:0:
512,384,25252,5,0,0:0:0:0:
352,384,25252,5,0,0:0:0:0:
384,384,25252,5,0,0:0:0:0:
416,352,25309,5,0,0:0:0:0:
0,352,25309,5,0,0:0:0:0:
96,352,25309,5,0,0:0:0:0:
320,352,25309,5,0,0:0:0:0:
32,352,25309,5,0,0:0:0:0:
64,352,25309,5,0,0:0:0:0:
128,352,25309,5,0,0:0:0:0:
448,352,25309,5,0,0:0:0:0:
512,352,25310,5,0,0:0:0:0:
384,352,25310,5,0,0:0:0:0:
480,352,25310,5,0,0:0:0:0:
352,352,25310,5,0,0:0:0:0:
288,352,25310,5,0,0:0:0:0:
160,320,25368,5,0,0:0:0:0:
448,320,25368,5,0,0:0:0:0:
192,320,25368,5,0,0:0:0:0:
0,320,25368,5,0,0:0:0:0:
64,320,25368,5,0,0:0:0:0:
32,320,25368,5,0,0:0:0:0:
416,320,25368,5,0,0:0:0:0:
128,320,25368,5,0,0:0:0:0:
96,320,25368,5,0,0:0:0:0:
384,320,25369,5,0,0:0:0:0:
512,320,25369,5,0,0:0:0:0:
352,320,25369,5,0,0:0:0:0:
480,320,25369,5,0,0:0:0:0:
0,288,25427,5,0,0:0:0:0:
416,288,25427,5,0,0:0:0:0:
96,288,25427,5,0,0:0:0:0:
320,288,25427,5,0,0:0:0:0:
32,288,25427,5,0,0:0:0:0:
128,288,25427,5,0,0:0:0:0:
448,288,25427,5,0,0:0:0:0:
64,288,25427,5,0,0:0:0:0:
160,288,25427,5,0,0:0:0:0:
512,288,25428,5,0,0:0:0:0:
384,288,25428,5,0,0:0:0:0:
352,288,25428,5,0,0:0:0:0:
480,288,25428,5,0,0:0:0:0:
320,256,25485,5,0,0:0:0:0:
448,256,25485,5,0,0:0:0:0:
416,256,25485,5,0,0:0:0:0:
96,256,25485,5,0,0:0:0:0:
128,256,25485,5,0,0:0:0:0:
64,256,25485,5,0,0:0:0:0:
32,256,25485,5,0,0:0:0:0:
0,256,25485,5,0,0:0:0:0:
288,256,25486,5,0,0:0:0:0:
512,256,25486,5,0,0:0:0:0:
384,256,25486,5,0,0:0:0:0:
352,256,25486,5,0,0:0:0:0:
480,256,25486,5,0,0:0:0:0:
32,224,25544,5,0,0:0:0:0:
416,224,25544,5,0,0:0:0:0:
96,224,25544,5,0,0:0:0:0:
0,224,25544,5,0,0:0:0:0:
320,224,25544,5,0,0:0:0:0:
64,224,25544,5,0,0:0:0:0:
448,224,25544,5,0,0:0:0:0:
480,224,25545,5,0,0:0:0:0:
512,224,25545,5,0,0:0:0:0:
288,224,25545,5,0,0:0:0:0:
352,224,25545,5,0,0:0:0:0:
256,224,25545,5,0,0:0:0:0:
384,224,25545,5,0,0:0:0:0:
480,192,25777,5,0,0:0:0:0:
480,384,25777,5,0,0:0:0:0:
64,192,25777,5,0,0:0:0:0:
96,192,25777,5,0,0:0:0:0:
512,192,25777,5,0,0:0:0:0:
192,192,25777,5,0,0:0:0:0:
256,192,25778,5,0,0:0:0:0:
288,192,25778,5,0,0:0:0:0:
32,192,25778,5,0,0:0:0:0:
128,192,25778,5,0,0:0:0:0:
224,192,25778,5,0,0:0:0:0:
160,192,25778,5,0,0:0:0:0:
0,192,25778,5,0,0:0:0:0:
64,160,25836,5,0,0:0:0:0:
480,160,25836,5,0,0:0:0:0:
96,160,25836,5,0,0:0:0:0:
192,160,25836,5,0,0:0:0:0:
448,160,25836,5,0,0:0:0:0:
512,160,25836,5,0,0:0:0:0:
128,160,25837,5,0,0:0:0:0:
224,160,25837,5,0,0:0:0:0:
160,160,25837,5,0,0:0:0:0:
256,160,25837,5,0,0:0:0:0:
32,160,25837,5,0,0:0:0:0:
0,160,25837,5,0,0:0:0:0:
416,128,25895,5,0,0:0:0:0:
64,128,25895,5,0,0:0:0:0:
512,128,25895,5,0,0:0:0:0:
192,128,25895,5,0,0:0:0:0:
96,128,25895,5,0,0:0:0:0:
480,128,25895,5,0,0:0:0:0:
448,128,25895,5,0,0:0:0:0:
0,128,25896,5,0,0:0:0:0:
32,128,25896,5,0,0:0:0:0:
160,128,25896,5,0,0:0:0:0:
224,128,25896,5,0,0:0:0:0:
128,128,25896,5,0,0:0:0:0:
192,96,25953,5,0,0:0:0:0:
480,96,25953,5,0,0:0:0:0:
96,96,25953,5,0,0:0:0:0:
448,96,25953,5,0,0:0:0:0:
512,96,25953,5,0,0:0:0:0:
64,96,25953,5,0,0:0:0:0:
384,96,25953,5,0,0:0:0:0:
416,96,25953,5,0,0:0:0:0:
128,96,25954,5,0,0:0:0:0:
32,96,25954,5,0,0:0:0:0:
160,96,25954,5,0,0:0:0:0:
0,96,25954,5,0,0:0:0:0:
480,64,26012,5,0,0:0:0:0:
64,64,26012,5,0,0:0:0:0:
512,64,26012,5,0,0:0:0:0:
384,64,26012,5,0,0:0:0:0:
96,64,26012,5,0,0:0:0:0:
448,64,26012,5,0,0:0:0:0:
352,64,26012,5,0,0:0:0:0:
320,64,26012,5,0,0:0:0:0:
416,64,26012,5,0,0:0:0:0:
160,64,26013,5,0,0:0:0:0:
128,64,26013,5,0,0:0:0:0:
32,64,26013,5,0,0:0:0:0:
0,64,26013,5,0,0:0:0:0:
320,32,26070,5,0,0:0:0:0:
64,32,26070,5,0,0:0:0:0:
384,32,26070,5,0,0:0:0:0:
416,32,26070,5,0,0:0:0:0:
512,32,26070,5,0,0:0:0:0:
448,32,26070,5,0,0:0:0:0:
352,32,26070,5,0,0:0:0:0:
96,32,26070,5,0,0:0:0:0:
480,32,26070,5,0,0:0:0:0:
32,32,26071,5,0,0:0:0:0:
288,32,26071,5,0,0:0:0:0:
0,32,26071,5,0,0:0:0:0:
320,0,26129,5,0,0:0:0:0:
512,0,26129,5,0,0:0:0:0:
416,0,26129,5,0,0:0:0:0:
352,0,26129,5,0,0:0:0:0:
480,0,26129,5,0,0:0:0:0:
448,0,26129,5,0,0:0:0:0:
384,0,26129,5,0,0:0:0:0:
64,0,26129,5,0,0:0:0:0:
256,0,26130,5,0,0:0:0:0:
224,0,26130,5,0,0:0:0:0:
0,0,26130,5,0,0:0:0:0:
32,0,26130,5,0,0:0:0:0:
288,0,26130,5,0,0:0:0:0:
352,384,26189,5,0,0:0:0:0:
480,384,26189,5,0,0:0:0:0:
512,384,26189,5,0,0:0:0:0:
416,384,26189,5,0,0:0:0:0:
448,384,26189,5,0,0:0:0:0:
320,384,26189,5,0,0:0:0:0:
64,384,26189,5,0,0:0:0:0:
384,384,26189,5,0,0:0:0:0:
256,384,26190,5,0,0:0:0:0:
32,384,26190,5,0,0:0:0:0:
224,384,26190,5,0,0:0:0:0:
0,384,26190,5,0,0:0:0:0:
288,384,26190,5,0,0:0:0:0:
384,352,26248,5,0,0:0:0:0:
480,352,26248,5,0,0:0:0:0:
320,352,26248,5,0,0:0:0:0:
416,352,26248,5,0,0:0:0:0:
352,352,26248,5,0,0:0:0:0:
512,352,26248,5,0,0:0:0:0:
64,352,26248,5,0,0:0:0:0:
448,352,26248,5,0,0:0:0:0:
288,352,26249,5,0,0:0:0:0:
224,352,26249,5,0,0:0:0:0:
0,352,26249,5,0,0:0:0:0:
32,352,26249,5,0,0:0:0:0:
256,352,26249,5,0,0:0:0:0:
384,320,26306,5,0,0:0:0:0:
448,320,26306,5,0,0:0:0:0:
64,320,26306,5,0,0:0:0:0:
416,320,26306,5,0,0:0:0:0:
320,320,26306,5,0,0:0:0:0:
480,320,26306,5,0,0:0:0:0:
512,320,26306,5,0,0:0:0:0:
352,320,26306,5,0,0:0:0:0:
96,320,26306,5,0,0:0:0:0:
288,320,26307,5,0,0:0:0:0:
0,320,26307,5,0,0:0:0:0:
32,320,26307,5,0,0:0:0:0:
256,320,26307,5,0,0:0:0:0:
384,288,26365,5,0,0:0:0:0:
64,288,26365,5,0,0:0:0:0:
512,288,26365,5,0,0:0:0:0:
352,288,26365,5,0,0:0:0:0:
480,288,26365,5,0,0:0:0:0:
416,288,26365,5,0,0:0:0:0:
96,288,26365,5,0,0:0:0:0:
448,288,26365,5,0,0:0:0:0:
128,288,26366,5,0,0:0:0:0:
160,288,26366,5,0,0:0:0:0:
32,288,26366,5,0,0:0:0:0:
0,288,26366,5,0,0:0:0:0:
480,256,26423,5,0,0:0:0:0:
96,256,26423,5,0,0:0:0:0:
448,256,26423,5,0,0:0:0:0:
384,256,26423,5,0,0:0:0:0:
512,256,26423,5,0,0:0:0:0:
416,256,26423,5,0,0:0:0:0:
64,256,26423,5,0,0:0:0:0:
192,256,26423,5,0,0:0:0:0:
160,256,26424,5,0,0:0:0:0:
32,256,26424,5,0,0:0:0:0:
224,256,26424,5,0,0:0:0:0:
0,256,26424,5,0,0:0:0:0:
128,256,26424,5,0,0:0:0:0:
480,224,26482,5,0,0:0:0:0:
64,224,26482,5,0,0:0:0:0:
192,224,26482,5,0,0:0:0:0:
416,224,26482,5,0,0:0:0:0:
512,224,26482,5,0,0:0:0:0:
448,224,26482,5,0,0:0:0:0:
96,224,26482,5,0,0:0:0:0:
224,224,26483,5,0,0:0:0:0:
160,224,26483,5,0,0:0:0:0:
256,224,26483,5,0,0:0:0:0:
128,224,26483,5,0,0:0:0:0:
0,224,26483,5,0,0:0:0:0:
32,224,26483,5,0,0:0:0:0:
480,192,26541,5,0,0:0:0:0:
512,192,26541,5,0,0:0:0:0:
192,192,26541,5,0,0:0:0:0:
96,192,26541,5,0,0:0:0:0:
416,192,26541,5,0,0:0:0:0:
448,192,26541,5,0,0:0:0:0:
64,192,26541,5,0,0:0:0:0:
160,192,26542,5,0,0:0:0:0:
256,192,26542,5,0,0:0:0:0:
32,192,26542,5,0,0:0:0:0:
224,192,26542,5,0,0:0:0:0:
0,192,26542,5,0,0:0:0:0:
128,192,26542,5,0,0:0:0:0:
384,160,26600,5,0,0:0:0:0:
480,160,26600,5,0,0:0:0:0:
416,160,26600,5,0,0:0:0:0:
192,160,26600,5,0,0:0:0:0:
512,160,26600,5,0,0:0:0:0:
64,160,26600,5,0,0:0:0:0:
96,160,26600,5,0,0:0:0:0:
448,160,26600,5,0,0:0:0:0:
224,160,26601,5,0,0:0:0:0:
0,160,26601,5,0,0:0:0:0:
128,160,26601,5,0,0:0:0:0:
32,160,26601,5,0,0:0:0:0:
160,160,26601,5,0,0:0:0:0:
384,128,26658,5,0,0:0:0:0:
448,128,26658,5,0,0:0:0:0:
64,128,26658,5,0,0:0:0:0:
416,128,26658,5,0,0:0:0:0:
320,128,26658,5,0,0:0:0:0:
480,128,26658,5,0,0:0:0:0:
512,128,26658,5,0,0:0:0:0:
352,128,26658,5,0,0:0:0:0:
96,128,26658,5,0,0:0:0:0:
0,128,26659,5,0,0:0:0:0:
128,128,26659,5,0,0:0:0:0:
32,128,26659,5,0,0:0:0:0:
160,128,26659,5,0,0:0:0:0:
384,96,26717,5,0,0:0:0:0:
320,96,26717,5,0,0:0:0:0:
64,96,26717,5,0,0:0:0:0:
512,96,26717,5,0,0:0:0:0:
352,96,26717,5,0,0:0:0:0:
480,96,26717,5,0,0:0:0:0:
416,96,26717,5,0,0:0:0:0:
96,96,26717,5,0,0:0:0:0:
448,96,26717,5,0,0:0:0:0:
128,96,26718,5,0,0:0:0:0:
32,96,26718,5,0,0:0:0:0:
0,96,26718,5,0,0:0:0:0:
288,96,26718,5,0,0:0:0:0:
480,64,26775,5,0,0:0:0:0:
352,64,26775,5,0,0:0:0:0:
96,64,26775,5,0,0:0:0:0:
448,64,26775,5,0,0:0:0:0:
384,64,26775,5,0,0:0:0:0:
512,64,26775,5,0,0:0:0:0:
416,64,26775,5,0,0:0:0:0:
64,64,26775,5,0,0:0:0:0:
320,64,26775,5,0,0:0:0:0:
32,64,26776,5,0,0:0:0:0:
256,64,26776,5,0,0:0:0:0:
0,64,26776,5,0,0:0:0:0:
288,64,26776,5,0,0:0:0:0:
32,32,26834,5,0,0:0:0:0:
256,32,26834,5,0,0:0:0:0:
448,32,26834,5,0,0:0:0:0:
384,32,26834,5,0,0:0:0:0:
480,32,26834,5,0,0:0:0:0:
352,32,26834,5,0,0:0:0:0:
64,32,26834,5,0,0:0:0:0:
320,32,26834,5,0,0:0:0:0:
416,32,26834,5,0,0:0:0:0:
512,32,26834,5,0,0:0:0:0:
224,32,26835,5,0,0:0:0:0:
288,32,26835,5,0,0:0:0:0:
0,32,26835,5,0,0:0:0:0:
32,32,26835,5,0,0:0:0:0:
256,32,26835,5,0,0:0:0:0:
60,37,26863,5,0,0:0:0:0:
284,37,26863,5,0,0:0:0:0:
87,45,26892,5,0,0:0:0:0:
311,45,26892,5,0,0:0:0:0:
114,57,26921,5,0,0:0:0:0:
338,57,26921,5,0,0:0:0:0:
138,72,26951,5,0,0:0:0:0:
362,72,26951,5,0,0:0:0:0:
157,94,26980,5,0,0:0:0:0:
381,94,26980,5,0,0:0:0:0:
164,121,27009,5,0,0:0:0:0:
388,121,27009,5,0,0:0:0:0:
154,148,27039,5,0,0:0:0:0:
378,148,27039,5,0,0:0:0:0:
133,167,27068,5,0,0:0:0:0:
357,167,27068,5,0,0:0:0:0:
107,180,27097,5,0,0:0:0:0:
331,180,27097,5,0,0:0:0:0:
79,187,27126,5,0,0:0:0:0:
303,187,27126,5,0,0:0:0:0:
51,191,27156,5,0,0:0:0:0:
275,191,27156,5,0,0:0:0:0:
41,192,27185,5,0,0:0:0:0:
265,192,27185,5,0,0:0:0:0:
70,193,27214,5,0,0:0:0:0:
294,193,27214,5,0,0:0:0:0:
98,198,27244,5,0,0:0:0:0:
322,198,27244,5,0,0:0:0:0:
126,206,27273,5,0,0:0:0:0:
350,206,27273,5,0,0:0:0:0:
151,219,27302,5,0,0:0:0:0:
375,219,27302,5,0,0:0:0:0:
170,240,27332,5,0,0:0:0:0:
394,240,27332,5,0,0:0:0:0:
175,268,27361,5,0,0:0:0:0:
399,268,27361,5,0,0:0:0:0:
162,293,27390,5,0,0:0:0:0:
386,293,27390,5,0,0:0:0:0:
140,312,27419,5,0,0:0:0:0:
364,312,27419,5,0,0:0:0:0:
116,327,27449,5,0,0:0:0:0:
340,327,27449,5,0,0:0:0:0:
89,337,27478,5,0,0:0:0:0:
313,337,27478,5,0,0:0:0:0:
61,345,27507,5,0,0:0:0:0:
285,345,27507,5,0,0:0:0:0:
257,351,27537,5,0,0:0:0:0:
512,32,27537,5,0,0:0:0:0:
352,32,27537,5,0,0:0:0:0:
64,32,27537,5,0,0:0:0:0:
416,32,27537,5,0,0:0:0:0:
480,32,27537,5,0,0:0:0:0:
384,32,27537,5,0,0:0:0:0:
320,32,27537,5,0,0:0:0:0:
448,32,27537,5,0,0:0:0:0:
33,351,27537,5,0,0:0:0:0:
252,32,27537,6,0,B|316:96|412:128|460:132,1,230
0,32,27537,6,0,B|64:96|160:128|208:132,1,230
32,32,27538,5,0,0:0:0:0:
288,32,27538,5,0,0:0:0:0:
0,32,27538,5,0,0:0:0:0:
64,384,27771,5,0,0:0:0:0:
480,384,27771,5,0,0:0:0:0:
512,384,27771,5,0,0:0:0:0:
192,384,27771,5,0,0:0:0:0:
96,384,27771,5,0,0:0:0:0:
448,384,27771,5,0,0:0:0:0:
128,384,27772,5,0,0:0:0:0:
160,384,27772,5,0,0:0:0:0:
256,384,27772,5,0,0:0:0:0:
32,384,27772,5,0,0:0:0:0:
224,384,27772,5,0,0:0:0:0:
0,384,27772,5,0,0:0:0:0:
512,352,27830,5,0,0:0:0:0:
64,352,27830,5,0,0:0:0:0:
96,352,27830,5,0,0:0:0:0:
192,352,27830,5,0,0:0:0:0:
480,352,27830,5,0,0:0:0:0:
224,352,27831,5,0,0:0:0:0:
128,352,27831,5,0,0:0:0:0:
32,352,27831,5,0,0:0:0:0:
256,352,27831,5,0,0:0:0:0:
0,352,27831,5,0,0:0:0:0:
160,352,27831,5,0,0:0:0:0:
288,352,27831,5,0,0:0:0:0:
512,320,27888,5,0,0:0:0:0:
64,320,27888,5,0,0:0:0:0:
352,320,27888,5,0,0:0:0:0:
192,320,27888,5,0,0:0:0:0:
320,320,27888,5,0,0:0:0:0:
96,320,27888,5,0,0:0:0:0:
224,320,27889,5,0,0:0:0:0:
32,320,27889,5,0,0:0:0:0:
128,320,27889,5,0,0:0:0:0:
160,320,27889,5,0,0:0:0:0:
0,320,27889,5,0,0:0:0:0:
288,320,27889,5,0,0:0:0:0:
256,320,27889,5,0,0:0:0:0:
352,288,27947,5,0,0:0:0:0:
96,288,27947,5,0,0:0:0:0:
512,288,27947,5,0,0:0:0:0:
64,288,27947,5,0,0:0:0:0:
320,288,27947,5,0,0:0:0:0:
192,288,27947,5,0,0:0:0:0:
224,288,27948,5,0,0:0:0:0:
160,288,27948,5,0,0:0:0:0:
32,288,27948,5,0,0:0:0:0:
128,288,27948,5,0,0:0:0:0:
288,288,27948,5,0,0:0:0:0:
0,288,27948,5,0,0:0:0:0:
256,288,27948,5,0,0:0:0:0:
192,256,28005,5,0,0:0:0:0:
320,256,28005,5,0,0:0:0:0:
512,256,28005,5,0,0:0:0:0:
352,256,28005,5,0,0:0:0:0:
64,256,28005,5,0,0:0:0:0:
96,256,28005,5,0,0:0:0:0:
224,256,28006,5,0,0:0:0:0:
128,256,28006,5,0,0:0:0:0:
288,256,28006,5,0,0:0:0:0:
256,256,28006,5,0,0:0:0:0:
0,256,28006,5,0,0:0:0:0:
160,256,28006,5,0,0:0:0:0:
32,256,28006,5,0,0:0:0:0:
192,224,28064,5,0,0:0:0:0:
512,224,28064,5,0,0:0:0:0:
96,224,28064,5,0,0:0:0:0:
352,224,28064,5,0,0:0:0:0:
64,224,28064,5,0,0:0:0:0:
320,224,28064,5,0,0:0:0:0:
256,224,28065,5,0,0:0:0:0:
32,224,28065,5,0,0:0:0:0:
224,224,28065,5,0,0:0:0:0:
128,224,28065,5,0,0:0:0:0:
160,224,28065,5,0,0:0:0:0:
288,224,28065,5,0,0:0:0:0:
0,224,28065,5,0,0:0:0:0:
192,192,28123,5,0,0:0:0:0:
320,192,28123,5,0,0:0:0:0:
64,192,28123,5,0,0:0:0:0:
512,192,28123,5,0,0:0:0:0:
352,192,28123,5,0,0:0:0:0:
96,192,28123,5,0,0:0:0:0:
32,192,28124,5,0,0:0:0:0:
128,192,28124,5,0,0:0:0:0:
0,192,28124,5,0,0:0:0:0:
160,192,28124,5,0,0:0:0:0:
256,192,28124,5,0,0:0:0:0:
288,192,28124,5,0,0:0:0:0:
224,192,28124,5,0,0:0:0:0:
64,160,28182,5,0,0:0:0:0:
352,160,28182,5,0,0:0:0:0:
320,160,28182,5,0,0:0:0:0:
512,160,28182,5,0,0:0:0:0:
192,160,28182,5,0,0:0:0:0:
96,160,28182,5,0,0:0:0:0:
160,160,28183,5,0,0:0:0:0:
128,160,28183,5,0,0:0:0:0:
288,160,28183,5,0,0:0:0:0:
256,160,28183,5,0,0:0:0:0:
32,160,28183,5,0,0:0:0:0:
224,160,28183,5,0,0:0:0:0:
0,160,28183,5,0,0:0:0:0:
64,128,28240,5,0,0:0:0:0:
480,128,28240,5,0,0:0:0:0:
192,128,28240,5,0,0:0:0:0:
96,128,28240,5,0,0:0:0:0:
512,128,28240,5,0,0:0:0:0:
0,128,28241,5,0,0:0:0:0:
256,128,28241,5,0,0:0:0:0:
32,128,28241,5,0,0:0:0:0:
128,128,28241,5,0,0:0:0:0:
160,128,28241,5,0,0:0:0:0:
224,128,28241,5,0,0:0:0:0:
512,96,28299,5,0,0:0:0:0:
448,96,28299,5,0,0:0:0:0:
96,96,28299,5,0,0:0:0:0:
64,96,28299,5,0,0:0:0:0:
416,96,28299,5,0,0:0:0:0:
480,96,28299,5,0,0:0:0:0:
32,96,28300,5,0,0:0:0:0:
128,96,28300,5,0,0:0:0:0:
0,96,28300,5,0,0:0:0:0:
160,96,28300,5,0,0:0:0:0:
96,64,28357,5,0,0:0:0:0:
416,64,28357,5,0,0:0:0:0:
320,64,28357,5,0,0:0:0:0:
480,64,28357,5,0,0:0:0:0:
384,64,28357,5,0,0:0:0:0:
352,64,28357,5,0,0:0:0:0:
512,64,28357,5,0,0:0:0:0:
64,64,28357,5,0,0:0:0:0:
448,64,28357,5,0,0:0:0:0:
32,64,28358,5,0,0:0:0:0:
0,64,28358,5,0,0:0:0:0:
128,64,28358,5,0,0:0:0:0:
512,32,28416,5,0,0:0:0:0:
352,32,28416,5,0,0:0:0:0:
96,32,28416,5,0,0:0:0:0:
64,32,28416,5,0,0:0:0:0:
480,32,28416,5,0,0:0:0:0:
416,32,28416,5,0,0:0:0:0:
384,32,28416,5,0,0:0:0:0:
448,32,28416,5,0,0:0:0:0:
320,32,28416,5,0,0:0:0:0:
0,32,28417,5,0,0:0:0:0:
32,32,28417,5,0,0:0:0:0:
288,32,28417,5,0,0:0:0:0:
416,384,28474,5,0,0:0:0:0:
96,384,28474,5,0,0:0:0:0:
384,384,28474,5,0,0:0:0:0:
320,384,28474,5,0,0:0:0:0:
448,384,28474,5,0,0:0:0:0:
352,384,28474,5,0,0:0:0:0:
64,384,28474,5,0,0:0:0:0:
480,384,28474,5,0,0:0:0:0:
512,384,28474,5,0,0:0:0:0:
0,384,28475,5,0,0:0:0:0:
288,384,28475,5,0,0:0:0:0:
32,384,28475,5,0,0:0:0:0:
256,384,28475,5,0,0:0:0:0:
384,352,28533,5,0,0:0:0:0:
480,352,28533,5,0,0:0:0:0:
320,352,28533,5,0,0:0:0:0:
512,352,28533,5,0,0:0:0:0:
352,352,28533,5,0,0:0:0:0:
416,352,28533,5,0,0:0:0:0:
64,352,28533,5,0,0:0:0:0:
448,352,28533,5,0,0:0:0:0:
0,352,28534,5,0,0:0:0:0:
288,352,28534,5,0,0:0:0:0:
32,352,28534,5,0,0:0:0:0:
256,352,28534,5,0,0:0:0:0:
224,352,28534,5,0,0:0:0:0:
480,320,28591,5,0,0:0:0:0:
384,320,28591,5,0,0:0:0:0:
448,320,28591,5,0,0:0:0:0:
320,320,28591,5,0,0:0:0:0:
64,320,28591,5,0,0:0:0:0:
512,320,28591,5,0,0:0:0:0:
352,320,28591,5,0,0:0:0:0:
416,320,28591,5,0,0:0:0:0:
0,320,28592,5,0,0:0:0:0:
288,320,28592,5,0,0:0:0:0:
256,320,28592,5,0,0:0:0:0:
224,320,28592,5,0,0:0:0:0:
32,320,28592,5,0,0:0:0:0:
448,288,28650,5,0,0:0:0:0:
320,288,28650,5,0,0:0:0:0:
480,288,28650,5,0,0:0:0:0:
384,288,28650,5,0,0:0:0:0:
352,288,28650,5,0,0:0:0:0:
512,288,28650,5,0,0:0:0:0:
416,288,28650,5,0,0:0:0:0:
64,288,28650,5,0,0:0:0:0:
288,288,28651,5,0,0:0:0:0:
0,288,28651,5,0,0:0:0:0:
32,288,28651,5,0,0:0:0:0:
64,256,28708,5,0,0:0:0:0:
416,256,28708,5,0,0:0:0:0:
448,256,28708,5,0,0:0:0:0:
384,256,28708,5,0,0:0:0:0:
96,256,28708,5,0,0:0:0:0:
512,256,28708,5,0,0:0:0:0:
352,256,28708,5,0,0:0:0:0:
480,256,28708,5,0,0:0:0:0:
0,256,28709,5,0,0:0:0:0:
160,256,28709,5,0,0:0:0:0:
32,256,28709,5,0,0:0:0:0:
128,256,28709,5,0,0:0:0:0:
448,224,28767,5,0,0:0:0:0:
64,224,28767,5,0,0:0:0:0:
480,224,28767,5,0,0:0:0:0:
512,224,28767,5,0,0:0:0:0:
192,224,28767,5,0,0:0:0:0:
96,224,28767,5,0,0:0:0:0:
160,224,28768,5,0,0:0:0:0:
0,224,28768,5,0,0:0:0:0:
128,224,28768,5,0,0:0:0:0:
256,224,28768,5,0,0:0:0:0:
32,224,28768,5,0,0:0:0:0:
224,224,28768,5,0,0:0:0:0:
512,192,28826,5,0,0:0:0:0:
96,192,28826,5,0,0:0:0:0:
480,192,28826,5,0,0:0:0:0:
320,192,28826,5,0,0:0:0:0:
192,192,28826,5,0,0:0:0:0:
64,192,28826,5,0,0:0:0:0:
256,192,28827,5,0,0:0:0:0:
288,192,28827,5,0,0:0:0:0:
224,192,28827,5,0,0:0:0:0:
160,192,28827,5,0,0:0:0:0:
32,192,28827,5,0,0:0:0:0:
128,192,28827,5,0,0:0:0:0:
0,192,28827,5,0,0:0:0:0:
512,160,28885,5,0,0:0:0:0:
320,160,28885,5,0,0:0:0:0:
192,160,28885,5,0,0:0:0:0:
96,160,28885,5,0,0:0:0:0:
480,160,28885,5,0,0:0:0:0:
64,160,28885,5,0,0:0:0:0:
32,160,28886,5,0,0:0:0:0:
224,160,28886,5,0,0:0:0:0:
0,160,28886,5,0,0:0:0:0:
256,160,28886,5,0,0:0:0:0:
160,160,28886,5,0,0:0:0:0:
128,160,28886,5,0,0:0:0:0:
288,160,28886,5,0,0:0:0:0:
96,128,28943,5,0,0:0:0:0:
320,128,28943,5,0,0:0:0:0:
512,128,28943,5,0,0:0:0:0:
64,128,28943,5,0,0:0:0:0:
352,128,28943,5,0,0:0:0:0:
192,128,28943,5,0,0:0:0:0:
128,128,28944,5,0,0:0:0:0:
160,128,28944,5,0,0:0:0:0:
224,128,28944,5,0,0:0:0:0:
32,128,28944,5,0,0:0:0:0:
0,128,28944,5,0,0:0:0:0:
288,128,28944,5,0,0:0:0:0:
256,128,28944,5,0,0:0:0:0:
64,96,29002,5,0,0:0:0:0:
320,96,29002,5,0,0:0:0:0:
352,96,29002,5,0,0:0:0:0:
192,96,29002,5,0,0:0:0:0:
512,96,29002,5,0,0:0:0:0:
96,96,29002,5,0,0:0:0:0:
288,96,29003,5,0,0:0:0:0:
160,96,29003,5,0,0:0:0:0:
256,96,29003,5,0,0:0:0:0:
0,96,29003,5,0,0:0:0:0:
32,96,29003,5,0,0:0:0:0:
128,96,29003,5,0,0:0:0:0:
224,96,29003,5,0,0:0:0:0:
512,64,29060,5,0,0:0:0:0:
64,64,29060,5,0,0:0:0:0:
96,64,29060,5,0,0:0:0:0:
192,64,29060,5,0,0:0:0:0:
320,64,29060,5,0,0:0:0:0:
352,64,29060,5,0,0:0:0:0:
0,64,29061,5,0,0:0:0:0:
288,64,29061,5,0,0:0:0:0:
128,64,29061,5,0,0:0:0:0:
160,64,29061,5,0,0:0:0:0:
256,64,29061,5,0,0:0:0:0:
32,64,29061,5,0,0:0:0:0:
224,64,29061,5,0,0:0:0:0:
192,32,29119,5,0,0:0:0:0:
512,32,29119,5,0,0:0:0:0:
64,32,29119,5,0,0:0:0:0:
96,32,29119,5,0,0:0:0:0:
480,32,29119,5,0,0:0:0:0:
128,32,29120,5,0,0:0:0:0:
32,32,29120,5,0,0:0:0:0:
288,32,29120,5,0,0:0:0:0:
224,32,29120,5,0,0:0:0:0:
256,32,29120,5,0,0:0:0:0:
160,32,29120,5,0,0:0:0:0:
0,32,29120,5,0,0:0:0:0:
64,384,29177,5,0,0:0:0:0:
480,384,29177,5,0,0:0:0:0:
512,384,29177,5,0,0:0:0:0:
192,384,29177,5,0,0:0:0:0:
96,384,29177,5,0,0:0:0:0:
416,384,29177,5,0,0:0:0:0:
448,384,29177,5,0,0:0:0:0:
160,384,29178,5,0,0:0:0:0:
32,384,29178,5,0,0:0:0:0:
0,384,29178,5,0,0:0:0:0:
128,384,29178,5,0,0:0:0:0:
352,352,29236,5,0,0:0:0:0:
512,352,29236,5,0,0:0:0:0:
416,352,29236,5,0,0:0:0:0:
448,352,29236,5,0,0:0:0:0:
64,352,29236,5,0,0:0:0:0:
96,352,29236,5,0,0:0:0:0:
384,352,29236,5,0,0:0:0:0:
320,352,29236,5,0,0:0:0:0:
480,352,29236,5,0,0:0:0:0:
32,352,29237,5,0,0:0:0:0:
0,352,29237,5,0,0:0:0:0:
512,320,29294,5,0,0:0:0:0:
64,320,29294,5,0,0:0:0:0:
352,320,29294,5,0,0:0:0:0:
416,320,29294,5,0,0:0:0:0:
384,320,29294,5,0,0:0:0:0:
480,320,29294,5,0,0:0:0:0:
448,320,29294,5,0,0:0:0:0:
320,320,29294,5,0,0:0:0:0:
32,320,29295,5,0,0:0:0:0:
0,320,29295,5,0,0:0:0:0:
288,320,29295,5,0,0:0:0:0:
256,320,29295,5,0,0:0:0:0:
352,288,29353,5,0,0:0:0:0:
512,288,29353,5,0,0:0:0:0:
64,288,29353,5,0,0:0:0:0:
416,288,29353,5,0,0:0:0:0:
320,288,29353,5,0,0:0:0:0:
448,288,29353,5,0,0:0:0:0:
480,288,29353,5,0,0:0:0:0:
384,288,29353,5,0,0:0:0:0:
224,288,29354,5,0,0:0:0:0:
32,288,29354,5,0,0:0:0:0:
288,288,29354,5,0,0:0:0:0:
0,288,29354,5,0,0:0:0:0:
256,288,29354,5,0,0:0:0:0:
192,256,29411,5,0,0:0:0:0:
320,256,29411,5,0,0:0:0:0:
512,256,29411,5,0,0:0:0:0:
480,256,29411,5,0,0:0:0:0:
352,256,29411,5,0,0:0:0:0:
416,256,29411,5,0,0:0:0:0:
448,256,29411,5,0,0:0:0:0:
384,256,29411,5,0,0:0:0:0:
224,256,29412,5,0,0:0:0:0:
288,256,29412,5,0,0:0:0:0:
256,256,29412,5,0,0:0:0:0:
0,256,29412,5,0,0:0:0:0:
32,256,29412,5,0,0:0:0:0:
192,224,29470,5,0,0:0:0:0:
512,224,29470,5,0,0:0:0:0:
384,224,29470,5,0,0:0:0:0:
416,224,29470,5,0,0:0:0:0:
448,224,29470,5,0,0:0:0:0:
352,224,29470,5,0,0:0:0:0:
480,224,29470,5,0,0:0:0:0:
320,224,29470,5,0,0:0:0:0:
256,224,29471,5,0,0:0:0:0:
32,224,29471,5,0,0:0:0:0:
224,224,29471,5,0,0:0:0:0:
288,224,29471,5,0,0:0:0:0:
0,224,29471,5,0,0:0:0:0:
192,192,29529,5,0,0:0:0:0:
320,192,29529,5,0,0:0:0:0:
416,192,29529,5,0,0:0:0:0:
448,192,29529,5,0,0:0:0:0:
512,192,29529,5,0,0:0:0:0:
384,192,29529,5,0,0:0:0:0:
352,192,29529,5,0,0:0:0:0:
480,192,29529,5,0,0:0:0:0:
32,192,29530,5,0,0:0:0:0:
0,192,29530,5,0,0:0:0:0:
256,192,29530,5,0,0:0:0:0:
288,192,29530,5,0,0:0:0:0:
224,192,29530,5,0,0:0:0:0:
480,160,29588,5,0,0:0:0:0:
448,160,29588,5,0,0:0:0:0:
416,160,29588,5,0,0:0:0:0:
352,160,29588,5,0,0:0:0:0:
320,160,29588,5,0,0:0:0:0:
512,160,29588,5,0,0:0:0:0:
192,160,29588,5,0,0:0:0:0:
384,160,29588,5,0,0:0:0:0:
288,160,29589,5,0,0:0:0:0:
256,160,29589,5,0,0:0:0:0:
32,160,29589,5,0,0:0:0:0:
224,160,29589,5,0,0:0:0:0:
0,160,29589,5,0,0:0:0:0:
448,128,29646,5,0,0:0:0:0:
352,128,29646,5,0,0:0:0:0:
480,128,29646,5,0,0:0:0:0:
192,128,29646,5,0,0:0:0:0:
384,128,29646,5,0,0:0:0:0:
320,128,29646,5,0,0:0:0:0:
416,128,29646,5,0,0:0:0:0:
512,128,29646,5,0,0:0:0:0:
0,128,29647,5,0,0:0:0:0:
288,128,29647,5,0,0:0:0:0:
256,128,29647,5,0,0:0:0:0:
32,128,29647,5,0,0:0:0:0:
224,128,29647,5,0,0:0:0:0:
192,96,29705,5,0,0:0:0:0:
384,96,29705,5,0,0:0:0:0:
512,96,29705,5,0,0:0:0:0:
448,96,29705,5,0,0:0:0:0:
416,96,29705,5,0,0:0:0:0:
320,96,29705,5,0,0:0:0:0:
352,96,29705,5,0,0:0:0:0:
480,96,29705,5,0,0:0:0:0:
32,96,29706,5,0,0:0:0:0:
224,96,29706,5,0,0:0:0:0:
0,96,29706,5,0,0:0:0:0:
288,96,29706,5,0,0:0:0:0:
256,96,29706,5,0,0:0:0:0:
416,64,29763,5,0,0:0:0:0:
192,64,29763,5,0,0:0:0:0:
320,64,29763,5,0,0:0:0:0:
480,64,29763,5,0,0:0:0:0:
384,64,29763,5,0,0:0:0:0:
352,64,29763,5,0,0:0:0:0:
512,64,29763,5,0,0:0:0:0:
64,64,29763,5,0,0:0:0:0:
448,64,29763,5,0,0:0:0:0:
96,64,29763,5,0,0:0:0:0:
256,64,29764,5,0,0:0:0:0:
32,64,29764,5,0,0:0:0:0:
224,64,29764,5,0,0:0:0:0:
0,64,29764,5,0,0:0:0:0:
288,64,29764,5,0,0:0:0:0:
512,32,29822,5,0,0:0:0:0:
192,32,29822,5,0,0:0:0:0:
352,32,29822,5,0,0:0:0:0:
64,32,29822,5,0,0:0:0:0:
480,32,29822,5,0,0:0:0:0:
416,32,29822,5,0,0:0:0:0:
384,32,29822,5,0,0:0:0:0:
448,32,29822,5,0,0:0:0:0:
320,32,29822,5,0,0:0:0:0:
96,32,29822,5,0,0:0:0:0:
96,384,29822,5,0,0:0:0:0:
256,32,29823,5,0,0:0:0:0:
0,32,29823,5,0,0:0:0:0:
224,32,29823,5,0,0:0:0:0:
32,32,29823,5,0,0:0:0:0:
288,32,29823,5,0,0:0:0:0:
416,384,29880,5,0,0:0:0:0:
384,384,29880,5,0,0:0:0:0:
320,384,29880,5,0,0:0:0:0:
448,384,29880,5,0,0:0:0:0:
352,384,29880,5,0,0:0:0:0:
64,384,29880,5,0,0:0:0:0:
480,384,29880,5,0,0:0:0:0:
192,384,29880,5,0,0:0:0:0:
512,384,29880,5,0,0:0:0:0:
224,384,29881,5,0,0:0:0:0:
0,384,29881,5,0,0:0:0:0:
288,384,29881,5,0,0:0:0:0:
32,384,29881,5,0,0:0:0:0:
256,384,29881,5,0,0:0:0:0:
192,352,29939,5,0,0:0:0:0:
384,352,29939,5,0,0:0:0:0:
480,352,29939,5,0,0:0:0:0:
320,352,29939,5,0,0:0:0:0:
512,352,29939,5,0,0:0:0:0:
352,352,29939,5,0,0:0:0:0:
416,352,29939,5,0,0:0:0:0:
448,352,29939,5,0,0:0:0:0:
0,352,29940,5,0,0:0:0:0:
288,352,29940,5,0,0:0:0:0:
256,352,29940,5,0,0:0:0:0:
224,352,29940,5,0,0:0:0:0:
32,352,29940,5,0,0:0:0:0:
480,320,29997,5,0,0:0:0:0:
384,320,29997,5,0,0:0:0:0:
448,320,29997,5,0,0:0:0:0:
320,320,29997,5,0,0:0:0:0:
512,320,29997,5,0,0:0:0:0:
352,320,29997,5,0,0:0:0:0:
416,320,29997,5,0,0:0:0:0:
192,320,29997,5,0,0:0:0:0:
0,320,29998,5,0,0:0:0:0:
288,320,29998,5,0,0:0:0:0:
256,320,29998,5,0,0:0:0:0:
224,320,29998,5,0,0:0:0:0:
32,320,29998,5,0,0:0:0:0:
448,288,30056,5,0,0:0:0:0:
320,288,30056,5,0,0:0:0:0:
480,288,30056,5,0,0:0:0:0:
384,288,30056,5,0,0:0:0:0:
192,288,30056,5,0,0:0:0:0:
352,288,30056,5,0,0:0:0:0:
512,288,30056,5,0,0:0:0:0:
416,288,30056,5,0,0:0:0:0:
288,288,30057,5,0,0:0:0:0:
0,288,30057,5,0,0:0:0:0:
256,288,30057,5,0,0:0:0:0:
224,288,30057,5,0,0:0:0:0:
32,288,30057,5,0,0:0:0:0:
416,256,30114,5,0,0:0:0:0:
448,256,30114,5,0,0:0:0:0:
384,256,30114,5,0,0:0:0:0:
320,256,30114,5,0,0:0:0:0:
192,256,30114,5,0,0:0:0:0:
512,256,30114,5,0,0:0:0:0:
352,256,30114,5,0,0:0:0:0:
480,256,30114,5,0,0:0:0:0:
0,256,30115,5,0,0:0:0:0:
32,256,30115,5,0,0:0:0:0:
256,256,30115,5,0,0:0:0:0:
224,256,30115,5,0,0:0:0:0:
288,256,30115,5,0,0:0:0:0:
160,224,30115,5,0,0:0:0:0:
128,224,30115,5,0,0:0:0:0:
352,224,30173,5,0,0:0:0:0:
448,224,30173,5,0,0:0:0:0:
320,224,30173,5,0,0:0:0:0:
480,224,30173,5,0,0:0:0:0:
512,224,30173,5,0,0:0:0:0:
192,224,30173,5,0,0:0:0:0:
384,224,30173,5,0,0:0:0:0:
416,224,30173,5,0,0:0:0:0:
288,224,30174,5,0,0:0:0:0:
0,224,30174,5,0,0:0:0:0:
256,224,30174,5,0,0:0:0:0:
32,224,30174,5,0,0:0:0:0:
224,224,30174,5,0,0:0:0:0:
160,192,30174,5,0,0:0:0:0:
128,192,30174,5,0,0:0:0:0:
384,192,30232,5,0,0:0:0:0:
512,192,30232,5,0,0:0:0:0:
352,192,30232,5,0,0:0:0:0:
480,192,30232,5,0,0:0:0:0:
320,192,30232,5,0,0:0:0:0:
192,192,30232,5,0,0:0:0:0:
416,192,30232,5,0,0:0:0:0:
448,192,30232,5,0,0:0:0:0:
160,224,30232,5,0,0:0:0:0:
256,192,30233,5,0,0:0:0:0:
288,192,30233,5,0,0:0:0:0:
224,192,30233,5,0,0:0:0:0:
32,192,30233,5,0,0:0:0:0:
0,192,30233,5,0,0:0:0:0:
160,160,30233,5,0,0:0:0:0:
128,160,30233,5,0,0:0:0:0:
512,160,30291,5,0,0:0:0:0:
320,160,30291,5,0,0:0:0:0:
192,160,30291,5,0,0:0:0:0:
384,160,30291,5,0,0:0:0:0:
448,160,30291,5,0,0:0:0:0:
480,160,30291,5,0,0:0:0:0:
416,160,30291,5,0,0:0:0:0:
352,160,30291,5,0,0:0:0:0:
160,192,30291,5,0,0:0:0:0:
32,160,30292,5,0,0:0:0:0:
224,160,30292,5,0,0:0:0:0:
0,160,30292,5,0,0:0:0:0:
256,160,30292,5,0,0:0:0:0:
288,160,30292,5,0,0:0:0:0:
384,128,30349,5,0,0:0:0:0:
320,128,30349,5,0,0:0:0:0:
512,128,30349,5,0,0:0:0:0:
416,128,30349,5,0,0:0:0:0:
448,128,30349,5,0,0:0:0:0:
352,128,30349,5,0,0:0:0:0:
192,128,30349,5,0,0:0:0:0:
480,128,30349,5,0,0:0:0:0:
224,128,30350,5,0,0:0:0:0:
32,128,30350,5,0,0:0:0:0:
0,128,30350,5,0,0:0:0:0:
288,128,30350,5,0,0:0:0:0:
256,128,30350,5,0,0:0:0:0:
160,160,30350,5,0,0:0:0:0:
416,96,30408,5,0,0:0:0:0:
320,96,30408,5,0,0:0:0:0:
480,96,30408,5,0,0:0:0:0:
352,96,30408,5,0,0:0:0:0:
384,96,30408,5,0,0:0:0:0:
192,96,30408,5,0,0:0:0:0:
512,96,30408,5,0,0:0:0:0:
448,96,30408,5,0,0:0:0:0:
288,96,30409,5,0,0:0:0:0:
256,96,30409,5,0,0:0:0:0:
0,96,30409,5,0,0:0:0:0:
32,96,30409,5,0,0:0:0:0:
224,96,30409,5,0,0:0:0:0:
352,64,30466,5,0,0:0:0:0:
384,64,30466,5,0,0:0:0:0:
512,64,30466,5,0,0:0:0:0:
448,64,30466,5,0,0:0:0:0:
64,64,30466,5,0,0:0:0:0:
416,64,30466,5,0,0:0:0:0:
192,64,30466,5,0,0:0:0:0:
480,64,30466,5,0,0:0:0:0:
320,64,30466,5,0,0:0:0:0:
0,64,30467,5,0,0:0:0:0:
288,64,30467,5,0,0:0:0:0:
256,64,30467,5,0,0:0:0:0:
32,64,30467,5,0,0:0:0:0:
224,64,30467,5,0,0:0:0:0:
416,32,30525,5,0,0:0:0:0:
480,32,30525,5,0,0:0:0:0:
384,32,30525,5,0,0:0:0:0:
320,32,30525,5,0,0:0:0:0:
448,32,30525,5,0,0:0:0:0:
192,32,30525,5,0,0:0:0:0:
512,32,30525,5,0,0:0:0:0:
352,32,30525,5,0,0:0:0:0:
64,32,30525,5,0,0:0:0:0:
32,32,30526,5,0,0:0:0:0:
288,32,30526,5,0,0:0:0:0:
224,32,30526,5,0,0:0:0:0:
256,32,30526,5,0,0:0:0:0:
0,32,30526,5,0,0:0:0:0:
352,384,30584,5,0,0:0:0:0:
480,384,30584,5,0,0:0:0:0:
512,384,30584,5,0,0:0:0:0:
192,384,30584,5,0,0:0:0:0:
416,384,30584,5,0,0:0:0:0:
384,384,30584,5,0,0:0:0:0:
448,384,30584,5,0,0:0:0:0:
320,384,30584,5,0,0:0:0:0:
256,384,30585,5,0,0:0:0:0:
32,384,30585,5,0,0:0:0:0:
224,384,30585,5,0,0:0:0:0:
0,384,30585,5,0,0:0:0:0:
288,384,30585,5,0,0:0:0:0:
128,352,30642,5,0,0:0:0:0:
352,352,30643,5,0,0:0:0:0:
512,352,30643,5,0,0:0:0:0:
416,352,30643,5,0,0:0:0:0:
448,352,30643,5,0,0:0:0:0:
192,352,30643,5,0,0:0:0:0:
384,352,30643,5,0,0:0:0:0:
320,352,30643,5,0,0:0:0:0:
480,352,30643,5,0,0:0:0:0:
224,352,30644,5,0,0:0:0:0:
32,352,30644,5,0,0:0:0:0:
256,352,30644,5,0,0:0:0:0:
0,352,30644,5,0,0:0:0:0:
160,352,30644,5,0,0:0:0:0:
288,352,30644,5,0,0:0:0:0:
128,320,30700,5,0,0:0:0:0:
512,320,30701,5,0,0:0:0:0:
352,320,30701,5,0,0:0:0:0:
192,320,30701,5,0,0:0:0:0:
416,320,30701,5,0,0:0:0:0:
384,320,30701,5,0,0:0:0:0:
480,320,30701,5,0,0:0:0:0:
448,320,30701,5,0,0:0:0:0:
320,320,30701,5,0,0:0:0:0:
224,320,30702,5,0,0:0:0:0:
32,320,30702,5,0,0:0:0:0:
160,320,30702,5,0,0:0:0:0:
0,320,30702,5,0,0:0:0:0:
288,320,30702,5,0,0:0:0:0:
256,320,30702,5,0,0:0:0:0:
352,288,30760,5,0,0:0:0:0:
512,288,30760,5,0,0:0:0:0:
416,288,30760,5,0,0:0:0:0:
320,288,30760,5,0,0:0:0:0:
448,288,30760,5,0,0:0:0:0:
480,288,30760,5,0,0:0:0:0:
192,288,30760,5,0,0:0:0:0:
384,288,30760,5,0,0:0:0:0:
224,288,30761,5,0,0:0:0:0:
32,288,30761,5,0,0:0:0:0:
288,288,30761,5,0,0:0:0:0:
0,288,30761,5,0,0:0:0:0:
256,288,30761,5,0,0:0:0:0:
192,256,30818,5,0,0:0:0:0:
320,256,30818,5,0,0:0:0:0:
512,256,30818,5,0,0:0:0:0:
480,256,30818,5,0,0:0:0:0:
352,256,30818,5,0,0:0:0:0:
416,256,30818,5,0,0:0:0:0:
64,256,30818,5,0,0:0:0:0:
448,256,30818,5,0,0:0:0:0:
384,256,30818,5,0,0:0:0:0:
96,256,30818,5,0,0:0:0:0:
224,256,30819,5,0,0:0:0:0:
288,256,30819,5,0,0:0:0:0:
256,256,30819,5,0,0:0:0:0:
0,256,30819,5,0,0:0:0:0:
32,256,30819,5,0,0:0:0:0:
192,224,30877,5,0,0:0:0:0:
512,224,30877,5,0,0:0:0:0:
384,224,30877,5,0,0:0:0:0:
416,224,30877,5,0,0:0:0:0:
448,224,30877,5,0,0:0:0:0:
352,224,30877,5,0,0:0:0:0:
480,224,30877,5,0,0:0:0:0:
320,224,30877,5,0,0:0:0:0:
64,224,30877,5,0,0:0:0:0:
96,224,30877,5,0,0:0:0:0:
256,224,30878,5,0,0:0:0:0:
32,224,30878,5,0,0:0:0:0:
224,224,30878,5,0,0:0:0:0:
288,224,30878,5,0,0:0:0:0:
0,224,30878,5,0,0:0:0:0:
128,192,30936,5,0,0:0:0:0:
320,192,30936,5,0,0:0:0:0:
416,192,30936,5,0,0:0:0:0:
448,192,30936,5,0,0:0:0:0:
512,192,30936,5,0,0:0:0:0:
384,192,30936,5,0,0:0:0:0:
352,192,30936,5,0,0:0:0:0:
480,192,30936,5,0,0:0:0:0:
96,192,30936,5,0,0:0:0:0:
64,192,30936,5,0,0:0:0:0:
32,192,30937,5,0,0:0:0:0:
0,192,30937,5,0,0:0:0:0:
256,192,30937,5,0,0:0:0:0:
288,192,30937,5,0,0:0:0:0:
224,192,30937,5,0,0:0:0:0:
480,160,30995,5,0,0:0:0:0:
448,160,30995,5,0,0:0:0:0:
416,160,30995,5,0,0:0:0:0:
352,160,30995,5,0,0:0:0:0:
320,160,30995,5,0,0:0:0:0:
512,160,30995,5,0,0:0:0:0:
128,160,30995,5,0,0:0:0:0:
384,160,30995,5,0,0:0:0:0:
96,160,30995,5,0,0:0:0:0:
64,160,30995,5,0,0:0:0:0:
288,160,30996,5,0,0:0:0:0:
256,160,30996,5,0,0:0:0:0:
32,160,30996,5,0,0:0:0:0:
224,160,30996,5,0,0:0:0:0:
0,160,30996,5,0,0:0:0:0:
448,128,31053,5,0,0:0:0:0:
352,128,31053,5,0,0:0:0:0:
480,128,31053,5,0,0:0:0:0:
480,384,31053,5,0,0:0:0:0:
384,128,31053,5,0,0:0:0:0:
320,128,31053,5,0,0:0:0:0:
416,128,31053,5,0,0:0:0:0:
512,128,31053,5,0,0:0:0:0:
96,128,31053,5,0,0:0:0:0:
64,128,31053,5,0,0:0:0:0:
0,128,31054,5,0,0:0:0:0:
288,128,31054,5,0,0:0:0:0:
256,128,31054,5,0,0:0:0:0:
32,128,31054,5,0,0:0:0:0:
224,128,31054,5,0,0:0:0:0:
512,96,31111,5,0,0:0:0:0:
192,96,31111,5,0,0:0:0:0:
480,96,31111,5,0,0:0:0:0:
320,96,31111,5,0,0:0:0:0:
448,96,31111,5,0,0:0:0:0:
416,96,31111,5,0,0:0:0:0:
352,96,31111,5,0,0:0:0:0:
384,96,31111,5,0,0:0:0:0:
64,96,31111,5,0,0:0:0:0:
96,96,31111,5,0,0:0:0:0:
224,96,31112,5,0,0:0:0:0:
0,96,31112,5,0,0:0:0:0:
288,96,31112,5,0,0:0:0:0:
256,96,31112,5,0,0:0:0:0:
32,96,31112,5,0,0:0:0:0:
352,64,31169,5,0,0:0:0:0:
448,64,31169,5,0,0:0:0:0:
480,64,31169,5,0,0:0:0:0:
160,64,31169,5,0,0:0:0:0:
320,64,31169,5,0,0:0:0:0:
512,64,31169,5,0,0:0:0:0:
64,64,31169,5,0,0:0:0:0:
416,64,31169,5,0,0:0:0:0:
192,64,31169,5,0,0:0:0:0:
384,64,31169,5,0,0:0:0:0:
0,64,31170,5,0,0:0:0:0:
288,64,31170,5,0,0:0:0:0:
32,64,31170,5,0,0:0:0:0:
224,64,31170,5,0,0:0:0:0:
256,64,31170,5,0,0:0:0:0:
512,32,31228,5,0,0:0:0:0:
192,32,31228,5,0,0:0:0:0:
480,32,31228,5,0,0:0:0:0:
320,32,31228,5,0,0:0:0:0:
448,32,31228,5,0,0:0:0:0:
416,32,31228,5,0,0:0:0:0:
352,32,31228,5,0,0:0:0:0:
384,32,31228,5,0,0:0:0:0:
64,32,31228,5,0,0:0:0:0:
160,32,31228,5,0,0:0:0:0:
224,32,31229,5,0,0:0:0:0:
0,32,31229,5,0,0:0:0:0:
288,32,31229,5,0,0:0:0:0:
256,32,31229,5,0,0:0:0:0:
32,32,31229,5,0,0:0:0:0:
352,0,31286,5,0,0:0:0:0:
448,0,31286,5,0,0:0:0:0:
480,0,31286,5,0,0:0:0:0:
96,0,31286,5,0,0:0:0:0:
320,0,31286,5,0,0:0:0:0:
512,0,31286,5,0,0:0:0:0:
64,0,31286,5,0,0:0:0:0:
416,0,31286,5,0,0:0:0:0:
192,0,31286,5,0,0:0:0:0:
384,0,31286,5,0,0:0:0:0:
0,0,31287,5,0,0:0:0:0:
288,0,31287,5,0,0:0:0:0:
32,0,31287,5,0,0:0:0:0:
224,0,31287,5,0,0:0:0:0:
256,0,31287,5,0,0:0:0:0:
288,256,31521,6,0,L|416:256,2,115
0,256,31521,6,0,L|128:256,2,115
32,256,31521,6,0,L|160:256,2,115
256,256,31521,6,0,L|384:256,2,115
96,192,31873,5,0,0:0:0:0:
320,192,31873,5,0,0:0:0:0:
32,192,31873,5,0,0:0:0:0:
384,192,31873,5,0,0:0:0:0:
64,128,31931,5,0,0:0:0:0:
416,128,31931,5,0,0:0:0:0:
128,128,31931,5,0,0:0:0:0:
352,128,31931,5,0,0:0:0:0:
128,64,31989,5,0,0:0:0:0:
480,64,31989,5,0,0:0:0:0:
192,64,31989,5,0,0:0:0:0:
416,64,31989,5,0,0:0:0:0:
224,160,32107,5,0,0:0:0:0:
448,160,32107,5,0,0:0:0:0:
160,160,32107,5,0,0:0:0:0:
512,160,32107,5,0,0:0:0:0:
192,256,32224,5,0,0:0:0:0:
416,256,32224,5,0,0:0:0:0:
128,256,32224,5,0,0:0:0:0:
480,256,32224,5,0,0:0:0:0:
128,320,32341,5,0,0:0:0:0:
352,320,32341,5,0,0:0:0:0:
64,320,32341,5,0,0:0:0:0:
416,320,32341,5,0,0:0:0:0:
96,352,32400,5,0,0:0:0:0:
448,352,32400,5,0,0:0:0:0:
160,352,32400,5,0,0:0:0:0:
384,352,32400,5,0,0:0:0:0:
192,288,32459,6,0,L|64:288,2,115
416,288,32459,6,0,L|288:288,2,115
448,288,32459,6,0,L|320:288,2,115
160,288,32459,6,0,L|32:288,2,115
160,160,32810,5,0,0:0:0:0:
384,160,32810,5,0,0:0:0:0:
96,160,32810,5,0,0:0:0:0:
448,160,32810,5,0,0:0:0:0:
192,96,32868,5,0,0:0:0:0:
416,96,32868,5,0,0:0:0:0:
128,96,32868,5,0,0:0:0:0:
480,96,32868,5,0,0:0:0:0:
160,32,32926,5,0,0:0:0:0:
512,32,32926,5,0,0:0:0:0:
224,32,32926,5,0,0:0:0:0:
448,32,32926,5,0,0:0:0:0:
416,224,33044,5,0,0:0:0:0:
192,224,33044,5,0,0:0:0:0:
480,224,33044,5,0,0:0:0:0:
128,224,33044,5,0,0:0:0:0:
416,320,33162,5,0,0:0:0:0:
64,320,33162,5,0,0:0:0:0:
352,320,33162,5,0,0:0:0:0:
128,320,33162,5,0,0:0:0:0:
384,256,33279,5,0,0:0:0:0:
32,256,33279,5,0,0:0:0:0:
320,256,33279,5,0,0:0:0:0:
96,256,33279,5,0,0:0:0:0:
288,192,33337,5,0,0:0:0:0:
64,192,33337,5,0,0:0:0:0:
352,192,33337,5,0,0:0:0:0:
0,192,33337,5,0,0:0:0:0:
308,160,33396,6,0,B|333:80|424:28|424:28|514:20|514:20|485:116|445:128|445:128|402:148|402:244|402:244|351:64|351:64|395:8|395:8|445:220|445:220|474:36|474:36|346:24|346:24|272:256,1,1566.875
136,152,33396,6,0,B|161:72|251:20|251:20|342:12|342:12|313:108|273:120|273:120|230:140|230:236|230:236|179:56|179:56|223:0|223:0|273:212|273:212|302:28|302:28|174:16|174:16|100:248,1,1566.875
74,148,33396,5,0,0:0:0:0:
359,160,33396,5,0,0:0:0:0:
84,121,33425,5,0,0:0:0:0:
369,133,33425,5,0,0:0:0:0:
97,97,33454,5,0,0:0:0:0:
383,109,33454,5,0,0:0:0:0:
114,75,33483,5,0,0:0:0:0:
400,87,33483,5,0,0:0:0:0:
133,56,33513,5,0,0:0:0:0:
419,68,33513,5,0,0:0:0:0:
154,38,33542,5,0,0:0:0:0:
440,50,33542,5,0,0:0:0:0:
177,23,33571,5,0,0:0:0:0:
463,35,33571,5,0,0:0:0:0:
200,14,33601,5,0,0:0:0:0:
486,26,33601,5,0,0:0:0:0:
227,12,33630,5,0,0:0:0:0:
490,24,33630,5,0,0:0:0:0:
253,10,33659,5,0,0:0:0:0:
490,22,33659,5,0,0:0:0:0:
278,8,33688,5,0,0:0:0:0:
490,20,33688,5,0,0:0:0:0:
271,33,33718,5,0,0:0:0:0:
490,45,33718,5,0,0:0:0:0:
260,60,33747,5,0,0:0:0:0:
490,72,33747,5,0,0:0:0:0:
246,84,33776,5,0,0:0:0:0:
490,96,33776,5,0,0:0:0:0:
229,105,33806,5,0,0:0:0:0:
490,117,33806,5,0,0:0:0:0:
206,118,33835,5,0,0:0:0:0:
490,130,33835,5,0,0:0:0:0:
187,137,33864,5,0,0:0:0:0:
472,149,33864,5,0,0:0:0:0:
175,163,33894,5,0,0:0:0:0:
461,175,33894,5,0,0:0:0:0:
170,191,33923,5,0,0:0:0:0:
455,203,33923,5,0,0:0:0:0:
168,219,33952,5,0,0:0:0:0:
453,231,33952,5,0,0:0:0:0:
163,216,33981,5,0,0:0:0:0:
449,228,33981,5,0,0:0:0:0:
155,188,34011,5,0,0:0:0:0:
441,200,34011,5,0,0:0:0:0:
147,161,34040,5,0,0:0:0:0:
433,173,34040,5,0,0:0:0:0:
140,133,34069,5,0,0:0:0:0:
425,145,34069,5,0,0:0:0:0:
132,106,34099,5,0,0:0:0:0:
417,118,34099,5,0,0:0:0:0:
124,78,34128,5,0,0:0:0:0:
410,90,34128,5,0,0:0:0:0:
117,51,34157,5,0,0:0:0:0:
403,63,34157,5,0,0:0:0:0:
134,29,34187,5,0,0:0:0:0:
420,41,34187,5,0,0:0:0:0:
151,7,34216,5,0,0:0:0:0:
436,19,34216,5,0,0:0:0:0:
163,8,34245,5,0,0:0:0:0:
449,20,34245,5,0,0:0:0:0:
170,36,34274,5,0,0:0:0:0:
455,48,34274,5,0,0:0:0:0:
177,64,34304,5,0,0:0:0:0:
463,76,34304,5,0,0:0:0:0:
183,92,34333,5,0,0:0:0:0:
469,104,34333,5,0,0:0:0:0:
189,119,34362,5,0,0:0:0:0:
475,131,34362,5,0,0:0:0:0:
197,147,34392,5,0,0:0:0:0:
482,159,34392,5,0,0:0:0:0:
203,175,34421,5,0,0:0:0:0:
489,187,34421,5,0,0:0:0:0:
209,203,34450,5,0,0:0:0:0:
490,215,34450,5,0,0:0:0:0:
215,184,34479,5,0,0:0:0:0:
490,196,34479,5,0,0:0:0:0:
219,156,34509,5,0,0:0:0:0:
490,168,34509,5,0,0:0:0:0:
223,127,34538,5,0,0:0:0:0:
490,139,34538,5,0,0:0:0:0:
227,99,34567,5,0,0:0:0:0:
490,111,34567,5,0,0:0:0:0:
232,71,34597,5,0,0:0:0:0:
490,83,34597,5,0,0:0:0:0:
236,42,34626,5,0,0:0:0:0:
490,54,34626,5,0,0:0:0:0:
231,23,34655,5,0,0:0:0:0:
490,35,34655,5,0,0:0:0:0:
205,20,34685,5,0,0:0:0:0:
490,32,34685,5,0,0:0:0:0:
179,18,34714,5,0,0:0:0:0:
465,30,34714,5,0,0:0:0:0:
153,15,34743,5,0,0:0:0:0:
439,27,34743,5,0,0:0:0:0:
127,13,34772,5,0,0:0:0:0:
413,25,34772,5,0,0:0:0:0:
108,22,34802,5,0,0:0:0:0:
394,34,34802,5,0,0:0:0:0:
99,49,34831,5,0,0:0:0:0:
385,61,34831,5,0,0:0:0:0:
91,76,34860,5,0,0:0:0:0:
377,88,34860,5,0,0:0:0:0:
82,103,34890,5,0,0:0:0:0:
368,115,34890,5,0,0:0:0:0:
74,130,34919,5,0,0:0:0:0:
359,142,34919,5,0,0:0:0:0:
65,157,34948,5,0,0:0:0:0:
350,169,34948,5,0,0:0:0:0:
56,184,34978,5,0,0:0:0:0:
341,196,34978,5,0,0:0:0:0:
47,211,35007,5,0,0:0:0:0:
333,223,35007,5,0,0:0:0:0:
38,239,35036,5,0,0:0:0:0:
324,251,35036,5,0,0:0:0:0:
288,256,35271,6,0,L|416:256,2,115
0,256,35271,6,0,L|128:256,2,115
32,256,35271,6,0,L|160:256,2,115
256,256,35271,6,0,L|384:256,2,115
32,192,35623,5,0,0:0:0:0:
384,192,35623,5,0,0:0:0:0:
96,192,35623,5,0,0:0:0:0:
320,192,35623,5,0,0:0:0:0:
64,128,35681,5,0,0:0:0:0:
416,128,35681,5,0,0:0:0:0:
128,128,35681,5,0,0:0:0:0:
352,128,35681,5,0,0:0:0:0:
192,64,35739,5,0,0:0:0:0:
416,64,35739,5,0,0:0:0:0:
128,64,35739,5,0,0:0:0:0:
480,64,35739,5,0,0:0:0:0:
224,160,35857,5,0,0:0:0:0:
448,160,35857,5,0,0:0:0:0:
160,160,35857,5,0,0:0:0:0:
512,160,35857,5,0,0:0:0:0:
128,256,35974,5,0,0:0:0:0:
480,256,35974,5,0,0:0:0:0:
192,256,35974,5,0,0:0:0:0:
416,256,35974,5,0,0:0:0:0:
128,320,36091,5,0,0:0:0:0:
352,320,36091,5,0,0:0:0:0:
64,320,36091,5,0,0:0:0:0:
416,320,36091,5,0,0:0:0:0:
160,352,36150,5,0,0:0:0:0:
384,352,36150,5,0,0:0:0:0:
96,352,36150,5,0,0:0:0:0:
448,352,36150,5,0,0:0:0:0:
192,288,36209,6,0,L|64:288,2,115
416,288,36209,6,0,L|288:288,2,115
448,288,36209,6,0,L|320:288,2,115
160,288,36209,6,0,L|32:288,2,115
96,160,36560,5,0,0:0:0:0:
448,160,36560,5,0,0:0:0:0:
160,160,36560,5,0,0:0:0:0:
384,160,36560,5,0,0:0:0:0:
192,96,36618,5,0,0:0:0:0:
416,96,36618,5,0,0:0:0:0:
128,96,36618,5,0,0:0:0:0:
480,96,36618,5,0,0:0:0:0:
224,32,36676,5,0,0:0:0:0:
448,32,36676,5,0,0:0:0:0:
160,32,36676,5,0,0:0:0:0:
512,32,36676,5,0,0:0:0:0:
416,224,36794,5,0,0:0:0:0:
192,224,36794,5,0,0:0:0:0:
480,224,36794,5,0,0:0:0:0:
128,224,36794,5,0,0:0:0:0:
352,320,36912,5,0,0:0:0:0:
128,320,36912,5,0,0:0:0:0:
416,320,36912,5,0,0:0:0:0:
64,320,36912,5,0,0:0:0:0:
384,256,37029,5,0,0:0:0:0:
32,256,37029,5,0,0:0:0:0:
320,256,37029,5,0,0:0:0:0:
96,256,37029,5,0,0:0:0:0:
0,192,37087,5,0,0:0:0:0:
64,192,37087,5,0,0:0:0:0:
48,92,37146,5,0,0:0:0:0:
264,188,37161,5,0,0:0:0:0:
472,64,37175,5,0,0:0:0:0:
428,280,37190,5,0,0:0:0:0:
56,220,37219,5,0,0:0:0:0:
152,256,37249,5,0,0:0:0:0:
424,288,37263,5,0,0:0:0:0:
452,100,37292,5,0,0:0:0:0:
220,112,37307,5,0,0:0:0:0:
4,56,37336,5,0,0:0:0:0:
500,152,37366,5,0,0:0:0:0:
280,64,37380,5,0,0:0:0:0:
104,132,37410,5,0,0:0:0:0:
56,72,37439,5,0,0:0:0:0:
148,188,37468,5,0,0:0:0:0:
416,80,37498,5,0,0:0:0:0:
248,36,37527,5,0,0:0:0:0:
200,228,37556,5,0,0:0:0:0:
496,300,37585,5,0,0:0:0:0:
412,224,37615,5,0,0:0:0:0:
432,112,37644,5,0,0:0:0:0:
168,288,37703,5,0,0:0:0:0:
252,84,37732,5,0,0:0:0:0:
232,96,37761,5,0,0:0:0:0:
100,108,37834,5,0,0:0:0:0:
176,48,37849,5,0,0:0:0:0:
468,96,37864,5,0,0:0:0:0:
408,276,37893,5,0,0:0:0:0:
20,276,37922,5,0,0:0:0:0:
44,56,37981,5,0,0:0:0:0:
256,144,38069,5,0,0:0:0:0:
408,160,38113,5,0,0:0:0:0:
464,196,38127,5,0,0:0:0:0:
344,272,38157,5,0,0:0:0:0:
56,136,38186,5,0,0:0:0:0:
428,116,38230,5,0,0:0:0:0:
436,132,38259,5,0,0:0:0:0:
436,56,38318,5,0,0:0:0:0:
340,132,38347,5,0,0:0:0:0:
56,272,38376,5,0,0:0:0:0:
492,232,38435,5,0,0:0:0:0:
480,288,38464,5,0,0:0:0:0:
176,64,38494,5,0,0:0:0:0:
384,224,38508,5,0,0:0:0:0:
248,220,38523,5,0,0:0:0:0:
340,108,38552,5,0,0:0:0:0:
288,192,38567,5,0,0:0:0:0:
432,48,38582,5,0,0:0:0:0:
256,128,38596,5,0,0:0:0:0:
464,176,38611,5,0,0:0:0:0:
48,72,38669,5,0,0:0:0:0:
476,108,38713,5,0,0:0:0:0:
380,212,38728,5,0,0:0:0:0:
288,112,38757,5,0,0:0:0:0:
464,272,38787,5,0,0:0:0:0:
324,196,38801,5,0,0:0:0:0:
252,48,38831,5,0,0:0:0:0:
448,272,38860,5,0,0:0:0:0:
268,268,38875,5,0,0:0:0:0:
384,192,39020,5,0,0:0:0:0:
320,192,39020,5,0,0:0:0:0:
128,192,39021,5,0,0:0:0:0:
512,192,39021,5,0,0:0:0:0:
256,192,39021,5,0,0:0:0:0:
448,192,39021,5,0,0:0:0:0:
192,192,39021,5,0,0:0:0:0:
0,192,39021,5,0,0:0:0:0:
320,160,39080,5,0,0:0:0:0:
384,160,39080,5,0,0:0:0:0:
448,160,39081,5,0,0:0:0:0:
192,160,39081,5,0,0:0:0:0:
0,160,39081,5,0,0:0:0:0:
128,160,39081,5,0,0:0:0:0:
512,160,39081,5,0,0:0:0:0:
256,160,39081,5,0,0:0:0:0:
384,128,39138,5,0,0:0:0:0:
320,128,39138,5,0,0:0:0:0:
128,128,39139,5,0,0:0:0:0:
512,128,39139,5,0,0:0:0:0:
256,128,39139,5,0,0:0:0:0:
448,128,39139,5,0,0:0:0:0:
192,128,39139,5,0,0:0:0:0:
0,128,39139,5,0,0:0:0:0:
320,96,39197,5,0,0:0:0:0:
384,96,39197,5,0,0:0:0:0:
448,96,39198,5,0,0:0:0:0:
192,96,39198,5,0,0:0:0:0:
0,96,39198,5,0,0:0:0:0:
128,96,39198,5,0,0:0:0:0:
512,96,39198,5,0,0:0:0:0:
256,96,39198,5,0,0:0:0:0:
320,64,39255,5,0,0:0:0:0:
384,64,39255,5,0,0:0:0:0:
448,64,39256,5,0,0:0:0:0:
192,64,39256,5,0,0:0:0:0:
0,64,39256,5,0,0:0:0:0:
128,64,39256,5,0,0:0:0:0:
512,64,39256,5,0,0:0:0:0:
256,64,39256,5,0,0:0:0:0:
320,32,39314,5,0,0:0:0:0:
384,32,39314,5,0,0:0:0:0:
448,32,39315,5,0,0:0:0:0:
192,32,39315,5,0,0:0:0:0:
0,32,39315,5,0,0:0:0:0:
128,32,39315,5,0,0:0:0:0:
512,32,39315,5,0,0:0:0:0:
256,32,39315,5,0,0:0:0:0:
320,352,39373,5,0,0:0:0:0:
384,352,39373,5,0,0:0:0:0:
448,352,39374,5,0,0:0:0:0:
192,352,39374,5,0,0:0:0:0:
0,352,39374,5,0,0:0:0:0:
512,352,39374,5,0,0:0:0:0:
256,352,39374,5,0,0:0:0:0:
64,288,39490,5,0,0:0:0:0:
320,288,39490,5,0,0:0:0:0:
384,288,39490,5,0,0:0:0:0:
448,288,39491,5,0,0:0:0:0:
0,288,39491,5,0,0:0:0:0:
512,288,39491,5,0,0:0:0:0:
64,256,39548,5,0,0:0:0:0:
384,256,39548,5,0,0:0:0:0:
448,256,39549,5,0,0:0:0:0:
192,256,39549,5,0,0:0:0:0:
0,256,39549,5,0,0:0:0:0:
128,256,39549,5,0,0:0:0:0:
512,256,39549,5,0,0:0:0:0:
64,224,39607,5,0,0:0:0:0:
384,224,39607,5,0,0:0:0:0:
0,224,39608,5,0,0:0:0:0:
128,224,39608,5,0,0:0:0:0:
192,224,39608,5,0,0:0:0:0:
512,224,39608,5,0,0:0:0:0:
448,224,39608,5,0,0:0:0:0:
256,224,39608,5,0,0:0:0:0:
64,192,39666,5,0,0:0:0:0:
384,192,39666,5,0,0:0:0:0:
0,192,39667,5,0,0:0:0:0:
128,192,39667,5,0,0:0:0:0:
192,192,39667,5,0,0:0:0:0:
512,192,39667,5,0,0:0:0:0:
448,192,39667,5,0,0:0:0:0:
256,192,39667,5,0,0:0:0:0:
64,160,39724,5,0,0:0:0:0:
384,160,39724,5,0,0:0:0:0:
0,160,39725,5,0,0:0:0:0:
128,160,39725,5,0,0:0:0:0:
192,160,39725,5,0,0:0:0:0:
512,160,39725,5,0,0:0:0:0:
256,160,39725,5,0,0:0:0:0:
448,160,39725,5,0,0:0:0:0:
64,96,39841,5,0,0:0:0:0:
384,96,39841,5,0,0:0:0:0:
192,96,39842,5,0,0:0:0:0:
512,96,39842,5,0,0:0:0:0:
128,96,39842,5,0,0:0:0:0:
448,96,39842,5,0,0:0:0:0:
0,96,39842,5,0,0:0:0:0:
64,64,39900,5,0,0:0:0:0:
384,64,39900,5,0,0:0:0:0:
512,64,39901,5,0,0:0:0:0:
128,64,39901,5,0,0:0:0:0:
320,64,39901,5,0,0:0:0:0:
448,64,39901,5,0,0:0:0:0:
0,64,39901,5,0,0:0:0:0:
64,32,39959,5,0,0:0:0:0:
384,32,39959,5,0,0:0:0:0:
256,32,39960,5,0,0:0:0:0:
512,32,39960,5,0,0:0:0:0:
128,32,39960,5,0,0:0:0:0:
320,32,39960,5,0,0:0:0:0:
448,32,39960,5,0,0:0:0:0:
0,32,39960,5,0,0:0:0:0:
64,320,40017,5,0,0:0:0:0:
384,320,40017,5,0,0:0:0:0:
256,320,40017,5,0,0:0:0:0:
512,320,40018,5,0,0:0:0:0:
128,320,40018,5,0,0:0:0:0:
320,320,40018,5,0,0:0:0:0:
448,320,40018,5,0,0:0:0:0:
0,320,40018,5,0,0:0:0:0:
64,288,40076,5,0,0:0:0:0:
384,288,40076,5,0,0:0:0:0:
256,288,40076,5,0,0:0:0:0:
512,288,40077,5,0,0:0:0:0:
128,288,40077,5,0,0:0:0:0:
320,288,40077,5,0,0:0:0:0:
448,288,40077,5,0,0:0:0:0:
0,288,40077,5,0,0:0:0:0:
384,128,40193,5,0,0:0:0:0:
64,128,40193,5,0,0:0:0:0:
320,128,40194,5,0,0:0:0:0:
448,128,40194,5,0,0:0:0:0:
0,128,40194,5,0,0:0:0:0:
256,128,40194,5,0,0:0:0:0:
512,128,40194,5,0,0:0:0:0:
128,128,40194,5,0,0:0:0:0:
320,64,40310,5,0,0:0:0:0:
0,64,40310,5,0,0:0:0:0:
384,64,40310,5,0,0:0:0:0:
192,64,40310,5,0,0:0:0:0:
64,64,40310,5,0,0:0:0:0:
512,64,40310,5,0,0:0:0:0:
192,64,40310,6,0,L|224:192,1,115
320,64,40310,6,0,L|416:128,4,115
448,64,40311,5,0,0:0:0:0:
128,64,40311,5,0,0:0:0:0:
219,175,40427,6,0,L|128:64,1,115
146,86,40544,6,0,L|266:155,2,115
150,87,40779,6,0,L|153:217,1,115
320,64,40779,6,0,L|323:194,1,115
13,202,40896,5,0,0:0:0:0:
406,200,40896,5,0,0:0:0:0:
62,200,40896,5,0,0:0:0:0:
452,199,40896,5,0,0:0:0:0:
111,201,40896,5,0,0:0:0:0:
365,200,40896,5,0,0:0:0:0:
494,200,40896,5,0,0:0:0:0:
363,274,41013,5,0,0:0:0:0:
457,274,41013,5,0,0:0:0:0:
67,275,41013,5,0,0:0:0:0:
18,277,41013,5,0,0:0:0:0:
499,275,41013,5,0,0:0:0:0:
407,277,41013,5,0,0:0:0:0:
319,272,41013,5,0,0:0:0:0:
270,273,41013,5,0,0:0:0:0:
226,273,41013,5,0,0:0:0:0:
319,272,41072,5,0,0:0:0:0:
407,277,41072,5,0,0:0:0:0:
226,273,41072,5,0,0:0:0:0:
270,273,41072,5,0,0:0:0:0:
499,275,41072,5,0,0:0:0:0:
457,274,41072,5,0,0:0:0:0:
363,274,41072,5,0,0:0:0:0:
18,277,41072,5,0,0:0:0:0:
67,275,41072,5,0,0:0:0:0:
363,274,41130,5,0,0:0:0:0:
457,274,41130,5,0,0:0:0:0:
67,275,41130,5,0,0:0:0:0:
18,277,41130,5,0,0:0:0:0:
499,275,41130,5,0,0:0:0:0:
407,277,41130,5,0,0:0:0:0:
319,272,41130,5,0,0:0:0:0:
270,273,41130,5,0,0:0:0:0:
226,273,41130,5,0,0:0:0:0:
285,128,41248,5,0,0:0:0:0:
104,131,41248,5,0,0:0:0:0:
393,130,41248,5,0,0:0:0:0:
339,129,41248,5,0,0:0:0:0:
12,129,41248,5,0,0:0:0:0:
54,128,41248,5,0,0:0:0:0:
148,128,41248,5,0,0:0:0:0:
493,131,41248,5,0,0:0:0:0:
444,129,41248,5,0,0:0:0:0:
67,275,41365,5,0,0:0:0:0:
18,277,41365,5,0,0:0:0:0:
363,274,41365,5,0,0:0:0:0:
457,274,41365,5,0,0:0:0:0:
499,275,41365,5,0,0:0:0:0:
270,273,41365,5,0,0:0:0:0:
226,273,41365,5,0,0:0:0:0:
407,277,41365,5,0,0:0:0:0:
319,272,41365,5,0,0:0:0:0:
270,273,41424,5,0,0:0:0:0:
18,277,41424,5,0,0:0:0:0:
407,277,41424,5,0,0:0:0:0:
457,274,41424,5,0,0:0:0:0:
67,275,41424,5,0,0:0:0:0:
319,272,41424,5,0,0:0:0:0:
363,274,41424,5,0,0:0:0:0:
499,275,41424,5,0,0:0:0:0:
226,273,41424,5,0,0:0:0:0:
226,273,41482,5,0,0:0:0:0:
319,272,41482,5,0,0:0:0:0:
18,277,41482,5,0,0:0:0:0:
499,275,41482,5,0,0:0:0:0:
407,277,41482,5,0,0:0:0:0:
363,274,41482,5,0,0:0:0:0:
270,273,41482,5,0,0:0:0:0:
67,275,41482,5,0,0:0:0:0:
457,274,41482,5,0,0:0:0:0:
148,128,41599,5,0,0:0:0:0:
54,128,41599,5,0,0:0:0:0:
444,129,41599,5,0,0:0:0:0:
493,131,41599,5,0,0:0:0:0:
12,129,41599,5,0,0:0:0:0:
104,131,41599,5,0,0:0:0:0:
285,128,41599,5,0,0:0:0:0:
339,129,41599,5,0,0:0:0:0:
393,130,41599,5,0,0:0:0:0:
190,84,41716,5,0,0:0:0:0:
107,85,41716,5,0,0:0:0:0:
396,84,41716,5,0,0:0:0:0:
230,85,41716,5,0,0:0:0:0:
15,83,41716,5,0,0:0:0:0:
57,82,41716,5,0,0:0:0:0:
151,82,41716,5,0,0:0:0:0:
496,85,41716,5,0,0:0:0:0:
447,83,41716,5,0,0:0:0:0:
196,46,41775,5,0,0:0:0:0:
112,47,41775,5,0,0:0:0:0:
401,46,41775,5,0,0:0:0:0:
240,44,41775,5,0,0:0:0:0:
20,45,41775,5,0,0:0:0:0:
62,44,41775,5,0,0:0:0:0:
156,44,41775,5,0,0:0:0:0:
501,47,41775,5,0,0:0:0:0:
452,45,41775,5,0,0:0:0:0:
190,8,41834,5,0,0:0:0:0:
113,9,41834,5,0,0:0:0:0:
402,8,41834,5,0,0:0:0:0:
235,8,41834,5,0,0:0:0:0:
21,7,41834,5,0,0:0:0:0:
63,6,41834,5,0,0:0:0:0:
157,6,41834,5,0,0:0:0:0:
502,9,41834,5,0,0:0:0:0:
453,7,41834,5,0,0:0:0:0:
190,368,41873,5,0,0:0:0:0:
106,373,41873,5,0,0:0:0:0:
395,372,41873,5,0,0:0:0:0:
341,371,41873,5,0,0:0:0:0:
14,371,41873,5,0,0:0:0:0:
56,370,41873,5,0,0:0:0:0:
150,370,41873,5,0,0:0:0:0:
495,373,41873,5,0,0:0:0:0:
446,371,41873,5,0,0:0:0:0:
187,319,41912,5,0,0:0:0:0:
110,325,41912,5,0,0:0:0:0:
399,324,41912,5,0,0:0:0:0:
345,323,41912,5,0,0:0:0:0:
18,323,41912,5,0,0:0:0:0:
60,322,41912,5,0,0:0:0:0:
154,322,41912,5,0,0:0:0:0:
499,325,41912,5,0,0:0:0:0:
450,323,41912,5,0,0:0:0:0:
295,237,41951,5,0,0:0:0:0:
114,240,41951,5,0,0:0:0:0:
403,239,41951,5,0,0:0:0:0:
349,238,41951,5,0,0:0:0:0:
22,238,41951,5,0,0:0:0:0:
64,237,41951,5,0,0:0:0:0:
158,237,41951,5,0,0:0:0:0:
503,240,41951,5,0,0:0:0:0:
454,238,41951,5,0,0:0:0:0:
297,198,41990,5,0,0:0:0:0:
116,201,41990,5,0,0:0:0:0:
405,200,41990,5,0,0:0:0:0:
351,199,41990,5,0,0:0:0:0:
24,199,41990,5,0,0:0:0:0:
66,198,41990,5,0,0:0:0:0:
160,198,41990,5,0,0:0:0:0:
505,201,41990,5,0,0:0:0:0:
456,199,41990,5,0,0:0:0:0:
273,158,42009,5,0,0:0:0:0:
82,157,42009,5,0,0:0:0:0:
458,158,42009,5,0,0:0:0:0:
507,160,42009,5,0,0:0:0:0:
37,156,42009,5,0,0:0:0:0:
129,159,42009,5,0,0:0:0:0:
299,157,42009,5,0,0:0:0:0:
353,158,42009,5,0,0:0:0:0:
407,159,42009,5,0,0:0:0:0:
298,113,42039,5,0,0:0:0:0:
128,115,42039,5,0,0:0:0:0:
406,115,42039,5,0,0:0:0:0:
352,114,42039,5,0,0:0:0:0:
36,112,42039,5,0,0:0:0:0:
81,113,42039,5,0,0:0:0:0:
272,114,42039,5,0,0:0:0:0:
506,116,42039,5,0,0:0:0:0:
457,114,42039,5,0,0:0:0:0:
252,76,42068,5,0,0:0:0:0:
77,76,42068,5,0,0:0:0:0:
453,77,42068,5,0,0:0:0:0:
502,79,42068,5,0,0:0:0:0:
32,75,42068,5,0,0:0:0:0:
124,78,42068,5,0,0:0:0:0:
294,76,42068,5,0,0:0:0:0:
348,77,42068,5,0,0:0:0:0:
402,78,42068,5,0,0:0:0:0:
294,76,42097,5,0,0:0:0:0:
124,78,42097,5,0,0:0:0:0:
402,78,42097,5,0,0:0:0:0:
348,77,42097,5,0,0:0:0:0:
32,75,42097,5,0,0:0:0:0:
77,76,42097,5,0,0:0:0:0:
252,76,42097,5,0,0:0:0:0:
502,79,42097,5,0,0:0:0:0:
453,77,42097,5,0,0:0:0:0:
294,76,42126,5,0,0:0:0:0:
124,78,42126,5,0,0:0:0:0:
402,78,42126,5,0,0:0:0:0:
348,77,42126,5,0,0:0:0:0:
32,75,42126,5,0,0:0:0:0:
77,76,42126,5,0,0:0:0:0:
252,76,42126,5,0,0:0:0:0:
502,79,42126,5,0,0:0:0:0:
453,77,42126,5,0,0:0:0:0:
252,76,42156,5,0,0:0:0:0:
77,76,42156,5,0,0:0:0:0:
453,77,42156,5,0,0:0:0:0:
502,79,42156,5,0,0:0:0:0:
32,75,42156,5,0,0:0:0:0:
124,78,42156,5,0,0:0:0:0:
294,76,42156,5,0,0:0:0:0:
348,77,42156,5,0,0:0:0:0:
402,78,42156,5,0,0:0:0:0:
294,76,42185,5,0,0:0:0:0:
124,78,42185,5,0,0:0:0:0:
402,78,42185,5,0,0:0:0:0:
348,77,42185,5,0,0:0:0:0:
32,75,42185,5,0,0:0:0:0:
77,76,42185,5,0,0:0:0:0:
252,76,42185,5,0,0:0:0:0:
502,79,42185,5,0,0:0:0:0:
453,77,42185,5,0,0:0:0:0:
252,76,42214,5,0,0:0:0:0:
77,76,42214,5,0,0:0:0:0:
453,77,42214,5,0,0:0:0:0:
502,79,42214,5,0,0:0:0:0:
32,75,42214,5,0,0:0:0:0:
124,78,42214,5,0,0:0:0:0:
294,76,42214,5,0,0:0:0:0:
348,77,42214,5,0,0:0:0:0:
402,78,42214,5,0,0:0:0:0:
218,76,42419,5,0,0:0:0:0:
388,78,42419,5,0,0:0:0:0:
110,78,42419,5,0,0:0:0:0:
164,77,42419,5,0,0:0:0:0:
480,75,42419,5,0,0:0:0:0:
435,76,42419,5,0,0:0:0:0:
260,76,42419,5,0,0:0:0:0:
10,79,42419,5,0,0:0:0:0:
59,77,42419,5,0,0:0:0:0:
218,76,42449,5,0,0:0:0:0:
388,78,42449,5,0,0:0:0:0:
110,78,42449,5,0,0:0:0:0:
164,77,42449,5,0,0:0:0:0:
480,75,42449,5,0,0:0:0:0:
435,76,42449,5,0,0:0:0:0:
260,76,42449,5,0,0:0:0:0:
10,79,42449,5,0,0:0:0:0:
59,77,42449,5,0,0:0:0:0:
260,76,42478,5,0,0:0:0:0:
435,76,42478,5,0,0:0:0:0:
59,77,42478,5,0,0:0:0:0:
10,79,42478,5,0,0:0:0:0:
480,75,42478,5,0,0:0:0:0:
388,78,42478,5,0,0:0:0:0:
218,76,42478,5,0,0:0:0:0:
164,77,42478,5,0,0:0:0:0:
110,78,42478,5,0,0:0:0:0:
218,76,42507,5,0,0:0:0:0:
388,78,42507,5,0,0:0:0:0:
110,78,42507,5,0,0:0:0:0:
164,77,42507,5,0,0:0:0:0:
480,75,42507,5,0,0:0:0:0:
435,76,42507,5,0,0:0:0:0:
260,76,42507,5,0,0:0:0:0:
10,79,42507,5,0,0:0:0:0:
59,77,42507,5,0,0:0:0:0:
260,76,42537,5,0,0:0:0:0:
435,76,42537,5,0,0:0:0:0:
59,77,42537,5,0,0:0:0:0:
10,79,42537,5,0,0:0:0:0:
480,75,42537,5,0,0:0:0:0:
388,78,42537,5,0,0:0:0:0:
218,76,42537,5,0,0:0:0:0:
164,77,42537,5,0,0:0:0:0:
110,78,42537,5,0,0:0:0:0:
218,76,42566,5,0,0:0:0:0:
388,78,42566,5,0,0:0:0:0:
110,78,42566,5,0,0:0:0:0:
164,77,42566,5,0,0:0:0:0:
480,75,42566,5,0,0:0:0:0:
435,76,42566,5,0,0:0:0:0:
260,76,42566,5,0,0:0:0:0:
10,79,42566,5,0,0:0:0:0:
59,77,42566,5,0,0:0:0:0:
260,76,42595,5,0,0:0:0:0:
435,76,42595,5,0,0:0:0:0:
59,77,42595,5,0,0:0:0:0:
10,79,42595,5,0,0:0:0:0:
480,75,42595,5,0,0:0:0:0:
388,78,42595,5,0,0:0:0:0:
218,76,42595,5,0,0:0:0:0:
164,77,42595,5,0,0:0:0:0:
110,78,42595,5,0,0:0:0:0:
218,76,42625,5,0,0:0:0:0:
388,78,42625,5,0,0:0:0:0:
110,78,42625,5,0,0:0:0:0:
164,77,42625,5,0,0:0:0:0:
480,75,42625,5,0,0:0:0:0:
435,76,42625,5,0,0:0:0:0:
260,76,42625,5,0,0:0:0:0:
10,79,42625,5,0,0:0:0:0:
59,77,42625,5,0,0:0:0:0:
260,76,42654,5,0,0:0:0:0:
435,76,42654,5,0,0:0:0:0:
59,77,42654,5,0,0:0:0:0:
10,79,42654,5,0,0:0:0:0:
480,75,42654,5,0,0:0:0:0:
388,78,42654,5,0,0:0:0:0:
218,76,42654,5,0,0:0:0:0:
164,77,42654,5,0,0:0:0:0:
110,78,42654,5,0,0:0:0:0:
64,224,42771,5,0,0:0:0:0:
128,224,42771,5,0,0:0:0:0:
96,224,42771,5,0,0:0:0:0:
160,224,42771,5,0,0:0:0:0:
398,229,42888,5,0,0:0:0:0:
462,229,42888,5,0,0:0:0:0:
366,229,42888,5,0,0:0:0:0:
430,229,42888,5,0,0:0:0:0:
335,250,42947,5,0,0:0:0:0:
399,250,42947,5,0,0:0:0:0:
367,250,42947,5,0,0:0:0:0:
431,250,42947,5,0,0:0:0:0:
264,281,43005,5,0,0:0:0:0:
328,281,43005,5,0,0:0:0:0:
296,281,43005,5,0,0:0:0:0:
360,281,43005,5,0,0:0:0:0:
132,323,43123,5,0,0:0:0:0:
196,323,43123,5,0,0:0:0:0:
164,323,43123,5,0,0:0:0:0:
228,323,43123,5,0,0:0:0:0:
214,364,43240,5,0,0:0:0:0:
278,364,43240,5,0,0:0:0:0:
246,364,43240,5,0,0:0:0:0:
310,364,43240,5,0,0:0:0:0:
57,20,43298,5,0,0:0:0:0:
121,20,43298,5,0,0:0:0:0:
25,20,43298,5,0,0:0:0:0:
89,20,43298,5,0,0:0:0:0:
84,61,43357,5,0,0:0:0:0:
148,61,43357,5,0,0:0:0:0:
52,61,43357,5,0,0:0:0:0:
116,61,43357,5,0,0:0:0:0:
197,116,43474,5,0,0:0:0:0:
261,116,43474,5,0,0:0:0:0:
229,116,43474,5,0,0:0:0:0:
293,116,43474,5,0,0:0:0:0:
370,174,43591,5,0,0:0:0:0:
434,174,43591,5,0,0:0:0:0:
338,174,43591,5,0,0:0:0:0:
402,174,43591,5,0,0:0:0:0:
313,212,43650,5,0,0:0:0:0:
377,212,43650,5,0,0:0:0:0:
281,212,43650,5,0,0:0:0:0:
345,212,43650,5,0,0:0:0:0:
448,260,43709,5,0,0:0:0:0:
512,260,43709,5,0,0:0:0:0:
416,260,43709,5,0,0:0:0:0:
480,260,43709,5,0,0:0:0:0:
20,160,43826,5,0,0:0:0:0:
255,162,43840,5,0,0:0:0:0:
65,195,43855,5,0,0:0:0:0:
219,202,43870,5,0,0:0:0:0:
117,215,43884,5,0,0:0:0:0:
172,222,43899,5,0,0:0:0:0:
78,237,43914,5,0,0:0:0:0:
205,258,43928,5,0,0:0:0:0:
35,268,43943,5,0,0:0:0:0:
242,286,43958,5,0,0:0:0:0:
109,288,43972,5,0,0:0:0:0:
176,295,43987,5,0,0:0:0:0:
41,320,44001,5,0,0:0:0:0:
209,327,44016,5,0,0:0:0:0:
95,330,44031,5,0,0:0:0:0:
203,340,44045,5,0,0:0:0:0:
151,339,44060,5,0,0:0:0:0:
91,128,44075,5,0,0:0:0:0:
204,155,44089,5,0,0:0:0:0:
124,171,44104,5,0,0:0:0:0:
186,227,44119,5,0,0:0:0:0:
120,253,44133,5,0,0:0:0:0:
49,302,44148,5,0,0:0:0:0:
141,309,44163,5,0,0:0:0:0:
216,276,44177,5,0,0:0:0:0:
282,309,44192,5,0,0:0:0:0:
208,278,44207,5,0,0:0:0:0:
138,263,44221,5,0,0:0:0:0:
81,264,44236,5,0,0:0:0:0:
209,137,44250,5,0,0:0:0:0:
158,193,44265,5,0,0:0:0:0:
74,71,44265,5,0,0:0:0:0:
211,211,44280,5,0,0:0:0:0:
23,127,44280,5,0,0:0:0:0:
175,275,44294,5,0,0:0:0:0:
76,145,44295,5,0,0:0:0:0:
304,303,44309,5,0,0:0:0:0:
40,209,44309,5,0,0:0:0:0:
256,229,44324,5,0,0:0:0:0:
169,237,44324,5,0,0:0:0:0:
343,128,44338,5,0,0:0:0:0:
121,163,44339,5,0,0:0:0:0:
223,142,44353,5,0,0:0:0:0:
208,62,44353,5,0,0:0:0:0:
88,76,44368,5,0,0:0:0:0:
112,284,44383,5,0,0:0:0:0:
204,291,44398,5,0,0:0:0:0:
279,258,44412,5,0,0:0:0:0:
345,291,44427,5,0,0:0:0:0:
271,260,44442,5,0,0:0:0:0:
201,245,44456,5,0,0:0:0:0:
144,246,44471,5,0,0:0:0:0:
272,119,44485,5,0,0:0:0:0:
137,53,44500,5,0,0:0:0:0:
221,175,44500,5,0,0:0:0:0:
86,109,44515,5,0,0:0:0:0:
274,193,44515,5,0,0:0:0:0:
238,257,44529,5,0,0:0:0:0:
139,127,44530,5,0,0:0:0:0:
103,191,44544,5,0,0:0:0:0:
367,285,44544,5,0,0:0:0:0:
232,219,44559,5,0,0:0:0:0:
319,211,44559,5,0,0:0:0:0:
406,110,44573,5,0,0:0:0:0:
184,145,44574,5,0,0:0:0:0:
271,44,44588,5,0,0:0:0:0:
286,124,44588,5,0,0:0:0:0:
151,58,44603,5,0,0:0:0:0:
32,0,44646,5,0,0:0:0:0:
288,0,44646,5,0,0:0:0:0:
160,0,44646,5,0,0:0:0:0:
96,0,44646,5,0,0:0:0:0:
352,0,44646,5,0,0:0:0:0:
224,0,44646,5,0,0:0:0:0:
352,64,44880,5,0,0:0:0:0:
224,64,44880,5,0,0:0:0:0:
480,64,44880,5,0,0:0:0:0:
96,64,44880,5,0,0:0:0:0:
32,64,44880,5,0,0:0:0:0:
160,64,44880,5,0,0:0:0:0:
416,64,44881,5,0,0:0:0:0:
352,128,45115,5,0,0:0:0:0:
224,128,45115,5,0,0:0:0:0:
480,128,45115,5,0,0:0:0:0:
32,128,45115,5,0,0:0:0:0:
288,128,45115,5,0,0:0:0:0:
160,128,45115,5,0,0:0:0:0:
416,128,45116,5,0,0:0:0:0:
224,192,45349,5,0,0:0:0:0:
480,192,45349,5,0,0:0:0:0:
96,192,45349,5,0,0:0:0:0:
32,192,45349,5,0,0:0:0:0:
352,192,45349,5,0,0:0:0:0:
160,192,45349,5,0,0:0:0:0:
416,192,45350,5,0,0:0:0:0:
352,256,45584,5,0,0:0:0:0:
480,256,45584,5,0,0:0:0:0:
96,256,45584,5,0,0:0:0:0:
32,256,45584,5,0,0:0:0:0:
288,256,45584,5,0,0:0:0:0:
160,256,45584,5,0,0:0:0:0:
292,252,45584,6,0,B|300:192|312:132|384:104,1,172.5
160,256,45584,6,0,B|160:184|172:144|220:48,1,172.5
416,256,45585,5,0,0:0:0:0:
20,172,45935,5,0,0:0:0:0:
216,172,45935,5,0,0:0:0:0:
128,176,45935,5,0,0:0:0:0:
512,172,45935,5,0,0:0:0:0:
56,172,45935,5,0,0:0:0:0:
244,172,45935,5,0,0:0:0:0:
164,176,45935,5,0,0:0:0:0:
480,172,45935,6,0,B|468:248|440:280|380:352,1,201.25
324,172,45935,6,0,B|296:228|256:276|180:292,1,186.875
88,172,45936,5,0,0:0:0:0:
288,172,45936,5,0,0:0:0:0:
508,216,46242,5,0,0:0:0:0:
480,216,46242,5,0,0:0:0:0:
260,217,46242,5,0,0:0:0:0:
408,216,46243,5,0,0:0:0:0:
308,218,46243,5,0,0:0:0:0:
444,216,46243,5,0,0:0:0:0:
216,212,46243,5,0,0:0:0:0:
360,216,46243,5,0,0:0:0:0:
176,212,46243,6,0,B|184:152|261:130|303:130,1,115
8,216,46243,6,0,B|8:144|20:104|88:32,1,172.5
24,36,46521,5,0,0:0:0:0:
163,34,46521,5,0,0:0:0:0:
116,36,46521,5,0,0:0:0:0:
510,38,46521,5,0,0:0:0:0:
248,32,46521,5,0,0:0:0:0:
72,32,46521,5,0,0:0:0:0:
467,38,46521,5,0,0:0:0:0:
209,33,46521,5,0,0:0:0:0:
24,36,46580,5,0,0:0:0:0:
163,34,46580,5,0,0:0:0:0:
116,36,46580,5,0,0:0:0:0:
510,38,46580,5,0,0:0:0:0:
248,32,46580,5,0,0:0:0:0:
72,32,46580,5,0,0:0:0:0:
467,38,46580,5,0,0:0:0:0:
209,33,46580,5,0,0:0:0:0:
24,36,46638,5,0,0:0:0:0:
163,34,46638,5,0,0:0:0:0:
116,36,46638,5,0,0:0:0:0:
510,38,46638,5,0,0:0:0:0:
248,32,46638,5,0,0:0:0:0:
72,32,46638,5,0,0:0:0:0:
467,38,46638,5,0,0:0:0:0:
209,33,46638,5,0,0:0:0:0:
74,113,46697,5,0,0:0:0:0:
469,119,46697,5,0,0:0:0:0:
382,120,46697,5,0,0:0:0:0:
211,114,46697,5,0,0:0:0:0:
427,118,46697,5,0,0:0:0:0:
26,117,46697,5,0,0:0:0:0:
165,115,46697,5,0,0:0:0:0:
512,119,46697,5,0,0:0:0:0:
118,117,46697,5,0,0:0:0:0:
26,117,46755,5,0,0:0:0:0:
427,118,46755,5,0,0:0:0:0:
165,115,46755,5,0,0:0:0:0:
118,117,46755,5,0,0:0:0:0:
512,119,46755,5,0,0:0:0:0:
74,113,46755,5,0,0:0:0:0:
469,119,46755,5,0,0:0:0:0:
211,114,46755,5,0,0:0:0:0:
382,120,46755,5,0,0:0:0:0:
74,161,46873,5,0,0:0:0:0:
469,167,46873,5,0,0:0:0:0:
382,168,46873,5,0,0:0:0:0:
211,162,46873,5,0,0:0:0:0:
427,166,46873,5,0,0:0:0:0:
26,165,46873,5,0,0:0:0:0:
165,163,46873,5,0,0:0:0:0:
512,167,46873,5,0,0:0:0:0:
118,165,46873,5,0,0:0:0:0:
74,161,46931,5,0,0:0:0:0:
469,167,46931,5,0,0:0:0:0:
382,168,46931,5,0,0:0:0:0:
211,162,46931,5,0,0:0:0:0:
427,166,46931,5,0,0:0:0:0:
26,165,46931,5,0,0:0:0:0:
165,163,46931,5,0,0:0:0:0:
512,167,46931,5,0,0:0:0:0:
118,165,46931,5,0,0:0:0:0:
74,210,46990,5,0,0:0:0:0:
342,217,46990,5,0,0:0:0:0:
469,216,46990,5,0,0:0:0:0:
382,217,46990,5,0,0:0:0:0:
299,219,46990,5,0,0:0:0:0:
427,215,46990,5,0,0:0:0:0:
26,214,46990,5,0,0:0:0:0:
512,216,46990,5,0,0:0:0:0:
118,214,46990,5,0,0:0:0:0:
26,214,47048,5,0,0:0:0:0:
427,215,47048,5,0,0:0:0:0:
118,214,47048,5,0,0:0:0:0:
512,216,47048,5,0,0:0:0:0:
342,217,47048,5,0,0:0:0:0:
74,210,47048,5,0,0:0:0:0:
469,216,47048,5,0,0:0:0:0:
299,219,47048,5,0,0:0:0:0:
382,217,47048,5,0,0:0:0:0:
22,275,47107,5,0,0:0:0:0:
423,276,47107,5,0,0:0:0:0:
161,273,47107,5,0,0:0:0:0:
114,275,47107,5,0,0:0:0:0:
508,277,47107,5,0,0:0:0:0:
338,278,47107,5,0,0:0:0:0:
70,271,47107,5,0,0:0:0:0:
465,277,47107,5,0,0:0:0:0:
378,278,47107,5,0,0:0:0:0:
163,276,47107,6,0,L|161:154,1,115
338,278,47107,6,0,L|336:156,1,115
65,30,47575,5,0,0:0:0:0:
16,32,47576,5,0,0:0:0:0:
256,35,47576,5,0,0:0:0:0:
154,31,47576,5,0,0:0:0:0:
204,33,47576,5,0,0:0:0:0:
436,39,47576,5,0,0:0:0:0:
112,31,47576,5,0,0:0:0:0:
476,39,47577,5,0,0:0:0:0:
66,54,47634,5,0,0:0:0:0:
437,63,47635,5,0,0:0:0:0:
205,57,47635,5,0,0:0:0:0:
113,55,47635,5,0,0:0:0:0:
257,59,47635,5,0,0:0:0:0:
17,56,47635,5,0,0:0:0:0:
155,55,47635,5,0,0:0:0:0:
477,63,47636,5,0,0:0:0:0:
66,80,47693,5,0,0:0:0:0:
302,86,47693,5,0,0:0:0:0:
205,83,47694,5,0,0:0:0:0:
341,88,47694,5,0,0:0:0:0:
113,81,47694,5,0,0:0:0:0:
257,85,47694,5,0,0:0:0:0:
17,82,47694,5,0,0:0:0:0:
155,81,47694,5,0,0:0:0:0:
477,89,47695,5,0,0:0:0:0:
67,100,47750,5,0,0:0:0:0:
303,106,47750,5,0,0:0:0:0:
114,101,47751,5,0,0:0:0:0:
342,108,47751,5,0,0:0:0:0:
18,102,47751,5,0,0:0:0:0:
258,105,47751,5,0,0:0:0:0:
156,101,47751,5,0,0:0:0:0:
206,103,47751,5,0,0:0:0:0:
478,109,47752,5,0,0:0:0:0:
67,136,47810,5,0,0:0:0:0:
303,142,47810,5,0,0:0:0:0:
156,137,47811,5,0,0:0:0:0:
258,141,47811,5,0,0:0:0:0:
206,139,47811,5,0,0:0:0:0:
342,144,47811,5,0,0:0:0:0:
114,137,47811,5,0,0:0:0:0:
18,138,47811,5,0,0:0:0:0:
478,145,47812,5,0,0:0:0:0:
67,245,47927,5,0,0:0:0:0:
303,251,47927,5,0,0:0:0:0:
18,247,47928,5,0,0:0:0:0:
389,253,47928,5,0,0:0:0:0:
114,246,47928,5,0,0:0:0:0:
342,253,47928,5,0,0:0:0:0:
438,254,47928,5,0,0:0:0:0:
478,254,47929,5,0,0:0:0:0:
304,275,47986,5,0,0:0:0:0:
68,269,47986,5,0,0:0:0:0:
115,270,47987,5,0,0:0:0:0:
343,277,47987,5,0,0:0:0:0:
439,278,47987,5,0,0:0:0:0:
19,271,47987,5,0,0:0:0:0:
390,277,47987,5,0,0:0:0:0:
479,278,47988,5,0,0:0:0:0:
304,301,48045,5,0,0:0:0:0:
68,295,48045,5,0,0:0:0:0:
343,303,48046,5,0,0:0:0:0:
439,304,48046,5,0,0:0:0:0:
207,298,48046,5,0,0:0:0:0:
19,297,48046,5,0,0:0:0:0:
390,303,48046,5,0,0:0:0:0:
259,300,48046,5,0,0:0:0:0:
479,304,48047,5,0,0:0:0:0:
69,315,48102,5,0,0:0:0:0:
305,321,48102,5,0,0:0:0:0:
20,317,48103,5,0,0:0:0:0:
344,323,48103,5,0,0:0:0:0:
440,324,48103,5,0,0:0:0:0:
391,323,48103,5,0,0:0:0:0:
260,320,48103,5,0,0:0:0:0:
208,318,48103,5,0,0:0:0:0:
480,324,48104,5,0,0:0:0:0:
69,351,48162,5,0,0:0:0:0:
305,357,48162,5,0,0:0:0:0:
391,359,48163,5,0,0:0:0:0:
20,353,48163,5,0,0:0:0:0:
344,359,48163,5,0,0:0:0:0:
260,356,48163,5,0,0:0:0:0:
208,354,48163,5,0,0:0:0:0:
440,360,48163,5,0,0:0:0:0:
480,360,48164,5,0,0:0:0:0:
55,52,48279,5,0,0:0:0:0:
144,53,48280,5,0,0:0:0:0:
6,54,48280,5,0,0:0:0:0:
377,60,48280,5,0,0:0:0:0:
102,53,48280,5,0,0:0:0:0:
194,55,48280,5,0,0:0:0:0:
426,61,48280,5,0,0:0:0:0:
466,61,48281,5,0,0:0:0:0:
56,76,48338,5,0,0:0:0:0:
103,77,48339,5,0,0:0:0:0:
195,79,48339,5,0,0:0:0:0:
427,85,48339,5,0,0:0:0:0:
7,78,48339,5,0,0:0:0:0:
378,84,48339,5,0,0:0:0:0:
145,77,48339,5,0,0:0:0:0:
467,85,48340,5,0,0:0:0:0:
292,108,48397,5,0,0:0:0:0:
56,102,48397,5,0,0:0:0:0:
427,111,48398,5,0,0:0:0:0:
103,103,48398,5,0,0:0:0:0:
195,105,48398,5,0,0:0:0:0:
7,104,48398,5,0,0:0:0:0:
247,107,48398,5,0,0:0:0:0:
145,103,48398,5,0,0:0:0:0:
467,111,48399,5,0,0:0:0:0:
57,122,48454,5,0,0:0:0:0:
293,128,48454,5,0,0:0:0:0:
8,124,48455,5,0,0:0:0:0:
428,131,48455,5,0,0:0:0:0:
104,123,48455,5,0,0:0:0:0:
248,127,48455,5,0,0:0:0:0:
146,123,48455,5,0,0:0:0:0:
196,125,48455,5,0,0:0:0:0:
468,131,48456,5,0,0:0:0:0:
57,158,48514,5,0,0:0:0:0:
293,164,48514,5,0,0:0:0:0:
8,160,48515,5,0,0:0:0:0:
104,159,48515,5,0,0:0:0:0:
146,159,48515,5,0,0:0:0:0:
248,163,48515,5,0,0:0:0:0:
196,161,48515,5,0,0:0:0:0:
428,167,48515,5,0,0:0:0:0:
468,167,48516,5,0,0:0:0:0:
53,194,48748,5,0,0:0:0:0:
142,195,48749,5,0,0:0:0:0:
4,196,48749,5,0,0:0:0:0:
375,202,48749,5,0,0:0:0:0:
100,195,48749,5,0,0:0:0:0:
192,197,48749,5,0,0:0:0:0:
424,203,48749,5,0,0:0:0:0:
464,203,48750,5,0,0:0:0:0:
54,218,48807,5,0,0:0:0:0:
101,219,48808,5,0,0:0:0:0:
329,226,48808,5,0,0:0:0:0:
425,227,48808,5,0,0:0:0:0:
5,220,48808,5,0,0:0:0:0:
376,226,48808,5,0,0:0:0:0:
143,219,48808,5,0,0:0:0:0:
465,227,48809,5,0,0:0:0:0:
290,250,48866,5,0,0:0:0:0:
54,244,48866,5,0,0:0:0:0:
329,252,48867,5,0,0:0:0:0:
425,253,48867,5,0,0:0:0:0:
5,246,48867,5,0,0:0:0:0:
376,252,48867,5,0,0:0:0:0:
245,249,48867,5,0,0:0:0:0:
101,245,48867,5,0,0:0:0:0:
465,253,48868,5,0,0:0:0:0:
291,270,48923,5,0,0:0:0:0:
55,264,48923,5,0,0:0:0:0:
6,266,48924,5,0,0:0:0:0:
330,272,48924,5,0,0:0:0:0:
426,273,48924,5,0,0:0:0:0:
377,272,48924,5,0,0:0:0:0:
246,269,48924,5,0,0:0:0:0:
194,267,48924,5,0,0:0:0:0:
466,273,48925,5,0,0:0:0:0:
83,306,48982,6,0,B|90:198|123:58|317:63|317:63|244:287|244:287|310:169|310:169|187:349|76:270|39:17,1,1207.5
288,302,48982,6,0,B|295:194|328:54|522:59|522:59|449:283|449:283|515:165|515:165|392:345|281:266|244:13,1,1207.5
291,306,48983,5,0,0:0:0:0:
55,300,48983,5,0,0:0:0:0:
377,308,48984,5,0,0:0:0:0:
6,302,48984,5,0,0:0:0:0:
330,308,48984,5,0,0:0:0:0:
246,305,48984,5,0,0:0:0:0:
194,303,48984,5,0,0:0:0:0:
426,309,48984,5,0,0:0:0:0:
466,309,48985,5,0,0:0:0:0:
440,32,50271,5,0,0:0:0:0:
264,32,50271,5,0,0:0:0:0:
303,33,50271,5,0,0:0:0:0:
45,38,50271,5,0,0:0:0:0:
349,34,50271,5,0,0:0:0:0:
488,36,50271,5,0,0:0:0:0:
2,38,50271,5,0,0:0:0:0:
396,36,50271,5,0,0:0:0:0:
488,36,50330,5,0,0:0:0:0:
349,34,50330,5,0,0:0:0:0:
396,36,50330,5,0,0:0:0:0:
2,38,50330,5,0,0:0:0:0:
264,32,50330,5,0,0:0:0:0:
440,32,50330,5,0,0:0:0:0:
45,38,50330,5,0,0:0:0:0:
303,33,50330,5,0,0:0:0:0:
440,32,50388,5,0,0:0:0:0:
264,32,50388,5,0,0:0:0:0:
303,33,50388,5,0,0:0:0:0:
45,38,50388,5,0,0:0:0:0:
349,34,50388,5,0,0:0:0:0:
488,36,50388,5,0,0:0:0:0:
2,38,50388,5,0,0:0:0:0:
396,36,50388,5,0,0:0:0:0:
438,113,50447,5,0,0:0:0:0:
43,119,50447,5,0,0:0:0:0:
130,120,50447,5,0,0:0:0:0:
301,114,50447,5,0,0:0:0:0:
85,118,50447,5,0,0:0:0:0:
486,117,50447,5,0,0:0:0:0:
347,115,50447,5,0,0:0:0:0:
0,119,50447,5,0,0:0:0:0:
394,117,50447,5,0,0:0:0:0:
43,119,50505,5,0,0:0:0:0:
438,113,50505,5,0,0:0:0:0:
130,120,50505,5,0,0:0:0:0:
301,114,50505,5,0,0:0:0:0:
0,119,50505,5,0,0:0:0:0:
85,118,50505,5,0,0:0:0:0:
486,117,50505,5,0,0:0:0:0:
394,117,50505,5,0,0:0:0:0:
347,115,50505,5,0,0:0:0:0:
438,161,50623,5,0,0:0:0:0:
43,167,50623,5,0,0:0:0:0:
130,168,50623,5,0,0:0:0:0:
301,162,50623,5,0,0:0:0:0:
85,166,50623,5,0,0:0:0:0:
486,165,50623,5,0,0:0:0:0:
347,163,50623,5,0,0:0:0:0:
0,167,50623,5,0,0:0:0:0:
394,165,50623,5,0,0:0:0:0:
347,163,50681,5,0,0:0:0:0:
486,165,50681,5,0,0:0:0:0:
394,165,50681,5,0,0:0:0:0:
0,167,50681,5,0,0:0:0:0:
85,166,50681,5,0,0:0:0:0:
43,167,50681,5,0,0:0:0:0:
438,161,50681,5,0,0:0:0:0:
301,162,50681,5,0,0:0:0:0:
130,168,50681,5,0,0:0:0:0:
438,210,50740,5,0,0:0:0:0:
170,217,50740,5,0,0:0:0:0:
43,216,50740,5,0,0:0:0:0:
130,217,50740,5,0,0:0:0:0:
213,219,50740,5,0,0:0:0:0:
85,215,50740,5,0,0:0:0:0:
486,214,50740,5,0,0:0:0:0:
0,216,50740,5,0,0:0:0:0:
394,214,50740,5,0,0:0:0:0:
43,216,50798,5,0,0:0:0:0:
438,210,50798,5,0,0:0:0:0:
130,217,50798,5,0,0:0:0:0:
213,219,50798,5,0,0:0:0:0:
170,217,50798,5,0,0:0:0:0:
85,215,50798,5,0,0:0:0:0:
486,214,50798,5,0,0:0:0:0:
0,216,50798,5,0,0:0:0:0:
394,214,50798,5,0,0:0:0:0:
490,275,50857,5,0,0:0:0:0:
89,276,50857,5,0,0:0:0:0:
351,273,50857,5,0,0:0:0:0:
398,275,50857,5,0,0:0:0:0:
4,277,50857,5,0,0:0:0:0:
174,278,50857,5,0,0:0:0:0:
442,271,50857,5,0,0:0:0:0:
47,277,50857,5,0,0:0:0:0:
134,278,50857,5,0,0:0:0:0:
349,276,50857,6,0,L|351:154,1,115
174,278,50857,6,0,L|176:156,1,115
447,30,51325,5,0,0:0:0:0:
308,33,51326,5,0,0:0:0:0:
76,39,51326,5,0,0:0:0:0:
400,31,51326,5,0,0:0:0:0:
496,32,51326,5,0,0:0:0:0:
256,35,51326,5,0,0:0:0:0:
358,31,51326,5,0,0:0:0:0:
36,39,51327,5,0,0:0:0:0:
446,54,51384,5,0,0:0:0:0:
75,63,51385,5,0,0:0:0:0:
307,57,51385,5,0,0:0:0:0:
399,55,51385,5,0,0:0:0:0:
255,59,51385,5,0,0:0:0:0:
495,56,51385,5,0,0:0:0:0:
357,55,51385,5,0,0:0:0:0:
35,63,51386,5,0,0:0:0:0:
210,86,51443,5,0,0:0:0:0:
446,80,51443,5,0,0:0:0:0:
255,85,51444,5,0,0:0:0:0:
495,82,51444,5,0,0:0:0:0:
357,81,51444,5,0,0:0:0:0:
307,83,51444,5,0,0:0:0:0:
171,88,51444,5,0,0:0:0:0:
399,81,51444,5,0,0:0:0:0:
35,89,51445,5,0,0:0:0:0:
445,100,51500,5,0,0:0:0:0:
209,106,51500,5,0,0:0:0:0:
398,101,51501,5,0,0:0:0:0:
170,108,51501,5,0,0:0:0:0:
494,102,51501,5,0,0:0:0:0:
254,105,51501,5,0,0:0:0:0:
356,101,51501,5,0,0:0:0:0:
306,103,51501,5,0,0:0:0:0:
34,109,51502,5,0,0:0:0:0:
445,136,51560,5,0,0:0:0:0:
209,142,51560,5,0,0:0:0:0:
356,137,51561,5,0,0:0:0:0:
254,141,51561,5,0,0:0:0:0:
306,139,51561,5,0,0:0:0:0:
170,144,51561,5,0,0:0:0:0:
398,137,51561,5,0,0:0:0:0:
494,138,51561,5,0,0:0:0:0:
34,145,51562,5,0,0:0:0:0:
209,251,51677,5,0,0:0:0:0:
445,245,51677,5,0,0:0:0:0:
170,253,51678,5,0,0:0:0:0:
74,254,51678,5,0,0:0:0:0:
398,246,51678,5,0,0:0:0:0:
494,247,51678,5,0,0:0:0:0:
123,253,51678,5,0,0:0:0:0:
34,254,51679,5,0,0:0:0:0:
444,269,51736,5,0,0:0:0:0:
208,275,51736,5,0,0:0:0:0:
493,271,51737,5,0,0:0:0:0:
122,277,51737,5,0,0:0:0:0:
73,278,51737,5,0,0:0:0:0:
397,270,51737,5,0,0:0:0:0:
169,277,51737,5,0,0:0:0:0:
33,278,51738,5,0,0:0:0:0:
208,301,51795,5,0,0:0:0:0:
444,295,51795,5,0,0:0:0:0:
169,303,51796,5,0,0:0:0:0:
73,304,51796,5,0,0:0:0:0:
305,298,51796,5,0,0:0:0:0:
493,297,51796,5,0,0:0:0:0:
122,303,51796,5,0,0:0:0:0:
253,300,51796,5,0,0:0:0:0:
33,304,51797,5,0,0:0:0:0:
443,315,51852,5,0,0:0:0:0:
207,321,51852,5,0,0:0:0:0:
492,317,51853,5,0,0:0:0:0:
168,323,51853,5,0,0:0:0:0:
72,324,51853,5,0,0:0:0:0:
121,323,51853,5,0,0:0:0:0:
252,320,51853,5,0,0:0:0:0:
304,318,51853,5,0,0:0:0:0:
32,324,51854,5,0,0:0:0:0:
207,357,51912,5,0,0:0:0:0:
443,351,51912,5,0,0:0:0:0:
252,356,51913,5,0,0:0:0:0:
304,354,51913,5,0,0:0:0:0:
72,360,51913,5,0,0:0:0:0:
121,359,51913,5,0,0:0:0:0:
492,353,51913,5,0,0:0:0:0:
168,359,51913,5,0,0:0:0:0:
32,360,51914,5,0,0:0:0:0:
457,52,52029,5,0,0:0:0:0:
368,53,52030,5,0,0:0:0:0:
506,54,52030,5,0,0:0:0:0:
135,60,52030,5,0,0:0:0:0:
410,53,52030,5,0,0:0:0:0:
318,55,52030,5,0,0:0:0:0:
86,61,52030,5,0,0:0:0:0:
46,61,52031,5,0,0:0:0:0:
456,76,52088,5,0,0:0:0:0:
409,77,52089,5,0,0:0:0:0:
317,79,52089,5,0,0:0:0:0:
85,85,52089,5,0,0:0:0:0:
505,78,52089,5,0,0:0:0:0:
134,84,52089,5,0,0:0:0:0:
367,77,52089,5,0,0:0:0:0:
45,85,52090,5,0,0:0:0:0:
456,102,52147,5,0,0:0:0:0:
220,108,52147,5,0,0:0:0:0:
505,104,52148,5,0,0:0:0:0:
265,107,52148,5,0,0:0:0:0:
367,103,52148,5,0,0:0:0:0:
85,111,52148,5,0,0:0:0:0:
409,103,52148,5,0,0:0:0:0:
317,105,52148,5,0,0:0:0:0:
45,111,52149,5,0,0:0:0:0:
219,128,52204,5,0,0:0:0:0:
455,122,52204,5,0,0:0:0:0:
264,127,52205,5,0,0:0:0:0:
366,123,52205,5,0,0:0:0:0:
316,125,52205,5,0,0:0:0:0:
504,124,52205,5,0,0:0:0:0:
84,131,52205,5,0,0:0:0:0:
408,123,52205,5,0,0:0:0:0:
44,131,52206,5,0,0:0:0:0:
455,158,52264,5,0,0:0:0:0:
219,164,52264,5,0,0:0:0:0:
504,160,52265,5,0,0:0:0:0:
408,159,52265,5,0,0:0:0:0:
366,159,52265,5,0,0:0:0:0:
264,163,52265,5,0,0:0:0:0:
316,161,52265,5,0,0:0:0:0:
84,167,52265,5,0,0:0:0:0:
44,167,52266,5,0,0:0:0:0:
459,194,52498,5,0,0:0:0:0:
412,195,52499,5,0,0:0:0:0:
320,197,52499,5,0,0:0:0:0:
88,203,52499,5,0,0:0:0:0:
370,195,52499,5,0,0:0:0:0:
508,196,52499,5,0,0:0:0:0:
137,202,52499,5,0,0:0:0:0:
48,203,52500,5,0,0:0:0:0:
458,218,52557,5,0,0:0:0:0:
507,220,52558,5,0,0:0:0:0:
136,226,52558,5,0,0:0:0:0:
369,219,52558,5,0,0:0:0:0:
411,219,52558,5,0,0:0:0:0:
183,226,52558,5,0,0:0:0:0:
87,227,52558,5,0,0:0:0:0:
47,227,52559,5,0,0:0:0:0:
222,250,52616,5,0,0:0:0:0:
458,244,52616,5,0,0:0:0:0:
183,252,52617,5,0,0:0:0:0:
87,253,52617,5,0,0:0:0:0:
507,246,52617,5,0,0:0:0:0:
136,252,52617,5,0,0:0:0:0:
267,249,52617,5,0,0:0:0:0:
411,245,52617,5,0,0:0:0:0:
47,253,52618,5,0,0:0:0:0:
221,270,52673,5,0,0:0:0:0:
457,264,52673,5,0,0:0:0:0:
506,266,52674,5,0,0:0:0:0:
182,272,52674,5,0,0:0:0:0:
86,273,52674,5,0,0:0:0:0:
135,272,52674,5,0,0:0:0:0:
266,269,52674,5,0,0:0:0:0:
318,267,52674,5,0,0:0:0:0:
46,273,52675,5,0,0:0:0:0:
457,300,52733,5,0,0:0:0:0:
221,306,52733,5,0,0:0:0:0:
266,305,52734,5,0,0:0:0:0:
318,303,52734,5,0,0:0:0:0:
86,309,52734,5,0,0:0:0:0:
135,308,52734,5,0,0:0:0:0:
506,302,52734,5,0,0:0:0:0:
182,308,52734,5,0,0:0:0:0:
46,309,52735,5,0,0:0:0:0:
460,297,52791,6,0,L|375:106,1,172.5
318,303,52791,6,0,L|224:224,1,115
344,306,53083,5,0,0:0:0:0:
14,312,53083,5,0,0:0:0:0:
494,306,53084,5,0,0:0:0:0:
441,307,53084,5,0,0:0:0:0:
392,305,53084,5,0,0:0:0:0:
237,306,53084,5,0,0:0:0:0:
284,306,53084,5,0,0:0:0:0:
194,303,53084,6,0,L|314:204,1,115
52,297,53084,6,0,L|137:106,1,172.5
498,72,53318,5,0,0:0:0:0:
168,78,53318,5,0,0:0:0:0:
120,79,53319,5,0,0:0:0:0:
275,78,53319,5,0,0:0:0:0:
228,78,53319,5,0,0:0:0:0:
71,77,53319,5,0,0:0:0:0:
460,87,53319,6,0,L|375:278,1,172.5
318,81,53319,6,0,L|192:160,1,115
18,78,53319,5,0,0:0:0:0:
161,304,53552,6,0,L|141:199,1,57.5
303,298,53552,6,0,L|290:232,1,57.5
228,194,53669,6,0,L|215:128,1,57.5
86,200,53669,6,0,L|66:95,1,57.5
72,32,54021,5,0,0:0:0:0:
248,32,54021,5,0,0:0:0:0:
209,33,54021,5,0,0:0:0:0:
467,38,54021,5,0,0:0:0:0:
163,34,54021,5,0,0:0:0:0:
24,36,54021,5,0,0:0:0:0:
510,38,54021,5,0,0:0:0:0:
116,36,54021,5,0,0:0:0:0:
24,36,54080,5,0,0:0:0:0:
163,34,54080,5,0,0:0:0:0:
116,36,54080,5,0,0:0:0:0:
510,38,54080,5,0,0:0:0:0:
248,32,54080,5,0,0:0:0:0:
72,32,54080,5,0,0:0:0:0:
467,38,54080,5,0,0:0:0:0:
209,33,54080,5,0,0:0:0:0:
72,32,54138,5,0,0:0:0:0:
248,32,54138,5,0,0:0:0:0:
209,33,54138,5,0,0:0:0:0:
467,38,54138,5,0,0:0:0:0:
163,34,54138,5,0,0:0:0:0:
24,36,54138,5,0,0:0:0:0:
510,38,54138,5,0,0:0:0:0:
116,36,54138,5,0,0:0:0:0:
74,113,54197,5,0,0:0:0:0:
469,119,54197,5,0,0:0:0:0:
382,120,54197,5,0,0:0:0:0:
211,114,54197,5,0,0:0:0:0:
427,118,54197,5,0,0:0:0:0:
26,117,54197,5,0,0:0:0:0:
165,115,54197,5,0,0:0:0:0:
512,119,54197,5,0,0:0:0:0:
118,117,54197,5,0,0:0:0:0:
469,119,54255,5,0,0:0:0:0:
74,113,54255,5,0,0:0:0:0:
382,120,54255,5,0,0:0:0:0:
211,114,54255,5,0,0:0:0:0:
512,119,54255,5,0,0:0:0:0:
427,118,54255,5,0,0:0:0:0:
26,117,54255,5,0,0:0:0:0:
118,117,54255,5,0,0:0:0:0:
165,115,54255,5,0,0:0:0:0:
74,161,54373,5,0,0:0:0:0:
469,167,54373,5,0,0:0:0:0:
382,168,54373,5,0,0:0:0:0:
211,162,54373,5,0,0:0:0:0:
427,166,54373,5,0,0:0:0:0:
26,165,54373,5,0,0:0:0:0:
165,163,54373,5,0,0:0:0:0:
512,167,54373,5,0,0:0:0:0:
118,165,54373,5,0,0:0:0:0:
165,163,54431,5,0,0:0:0:0:
26,165,54431,5,0,0:0:0:0:
118,165,54431,5,0,0:0:0:0:
512,167,54431,5,0,0:0:0:0:
427,166,54431,5,0,0:0:0:0:
469,167,54431,5,0,0:0:0:0:
74,161,54431,5,0,0:0:0:0:
211,162,54431,5,0,0:0:0:0:
382,168,54431,5,0,0:0:0:0:
74,210,54490,5,0,0:0:0:0:
342,217,54490,5,0,0:0:0:0:
469,216,54490,5,0,0:0:0:0:
382,217,54490,5,0,0:0:0:0:
299,219,54490,5,0,0:0:0:0:
427,215,54490,5,0,0:0:0:0:
26,214,54490,5,0,0:0:0:0:
512,216,54490,5,0,0:0:0:0:
118,214,54490,5,0,0:0:0:0:
469,216,54548,5,0,0:0:0:0:
74,210,54548,5,0,0:0:0:0:
382,217,54548,5,0,0:0:0:0:
299,219,54548,5,0,0:0:0:0:
342,217,54548,5,0,0:0:0:0:
427,215,54548,5,0,0:0:0:0:
26,214,54548,5,0,0:0:0:0:
512,216,54548,5,0,0:0:0:0:
118,214,54548,5,0,0:0:0:0:
22,275,54607,5,0,0:0:0:0:
423,276,54607,5,0,0:0:0:0:
161,273,54607,5,0,0:0:0:0:
114,275,54607,5,0,0:0:0:0:
508,277,54607,5,0,0:0:0:0:
338,278,54607,5,0,0:0:0:0:
70,271,54607,5,0,0:0:0:0:
465,277,54607,5,0,0:0:0:0:
378,278,54607,5,0,0:0:0:0:
163,276,54607,6,0,L|161:154,1,115
338,278,54607,6,0,L|336:156,1,115
271,258,54841,6,0,L|288:192,1,57.5
96,256,54841,6,0,L|128:160,1,57.5
65,30,55075,5,0,0:0:0:0:
204,33,55076,5,0,0:0:0:0:
436,39,55076,5,0,0:0:0:0:
112,31,55076,5,0,0:0:0:0:
16,32,55076,5,0,0:0:0:0:
256,35,55076,5,0,0:0:0:0:
154,31,55076,5,0,0:0:0:0:
476,39,55077,5,0,0:0:0:0:
66,54,55134,5,0,0:0:0:0:
437,63,55135,5,0,0:0:0:0:
205,57,55135,5,0,0:0:0:0:
113,55,55135,5,0,0:0:0:0:
257,59,55135,5,0,0:0:0:0:
17,56,55135,5,0,0:0:0:0:
155,55,55135,5,0,0:0:0:0:
477,63,55136,5,0,0:0:0:0:
302,86,55193,5,0,0:0:0:0:
66,80,55193,5,0,0:0:0:0:
257,85,55194,5,0,0:0:0:0:
17,82,55194,5,0,0:0:0:0:
155,81,55194,5,0,0:0:0:0:
205,83,55194,5,0,0:0:0:0:
341,88,55194,5,0,0:0:0:0:
113,81,55194,5,0,0:0:0:0:
477,89,55195,5,0,0:0:0:0:
303,106,55250,5,0,0:0:0:0:
67,100,55250,5,0,0:0:0:0:
258,105,55251,5,0,0:0:0:0:
156,101,55251,5,0,0:0:0:0:
206,103,55251,5,0,0:0:0:0:
114,101,55251,5,0,0:0:0:0:
342,108,55251,5,0,0:0:0:0:
18,102,55251,5,0,0:0:0:0:
478,109,55252,5,0,0:0:0:0:
67,136,55310,5,0,0:0:0:0:
303,142,55310,5,0,0:0:0:0:
156,137,55311,5,0,0:0:0:0:
258,141,55311,5,0,0:0:0:0:
206,139,55311,5,0,0:0:0:0:
342,144,55311,5,0,0:0:0:0:
114,137,55311,5,0,0:0:0:0:
18,138,55311,5,0,0:0:0:0:
478,145,55312,5,0,0:0:0:0:
303,251,55427,5,0,0:0:0:0:
67,245,55427,5,0,0:0:0:0:
342,253,55428,5,0,0:0:0:0:
438,254,55428,5,0,0:0:0:0:
114,246,55428,5,0,0:0:0:0:
18,247,55428,5,0,0:0:0:0:
389,253,55428,5,0,0:0:0:0:
478,254,55429,5,0,0:0:0:0:
68,269,55486,5,0,0:0:0:0:
304,275,55486,5,0,0:0:0:0:
19,271,55487,5,0,0:0:0:0:
390,277,55487,5,0,0:0:0:0:
439,278,55487,5,0,0:0:0:0:
115,270,55487,5,0,0:0:0:0:
343,277,55487,5,0,0:0:0:0:
479,278,55488,5,0,0:0:0:0:
304,301,55545,5,0,0:0:0:0:
68,295,55545,5,0,0:0:0:0:
343,303,55546,5,0,0:0:0:0:
439,304,55546,5,0,0:0:0:0:
207,298,55546,5,0,0:0:0:0:
19,297,55546,5,0,0:0:0:0:
390,303,55546,5,0,0:0:0:0:
259,300,55546,5,0,0:0:0:0:
479,304,55547,5,0,0:0:0:0:
69,315,55602,5,0,0:0:0:0:
305,321,55602,5,0,0:0:0:0:
20,317,55603,5,0,0:0:0:0:
344,323,55603,5,0,0:0:0:0:
440,324,55603,5,0,0:0:0:0:
391,323,55603,5,0,0:0:0:0:
260,320,55603,5,0,0:0:0:0:
208,318,55603,5,0,0:0:0:0:
480,324,55604,5,0,0:0:0:0:
305,357,55662,5,0,0:0:0:0:
69,351,55662,5,0,0:0:0:0:
260,356,55663,5,0,0:0:0:0:
208,354,55663,5,0,0:0:0:0:
440,360,55663,5,0,0:0:0:0:
391,359,55663,5,0,0:0:0:0:
20,353,55663,5,0,0:0:0:0:
344,359,55663,5,0,0:0:0:0:
480,360,55664,5,0,0:0:0:0:
55,52,55779,5,0,0:0:0:0:
144,53,55780,5,0,0:0:0:0:
6,54,55780,5,0,0:0:0:0:
377,60,55780,5,0,0:0:0:0:
102,53,55780,5,0,0:0:0:0:
194,55,55780,5,0,0:0:0:0:
426,61,55780,5,0,0:0:0:0:
466,61,55781,5,0,0:0:0:0:
56,76,55838,5,0,0:0:0:0:
7,78,55839,5,0,0:0:0:0:
378,84,55839,5,0,0:0:0:0:
145,77,55839,5,0,0:0:0:0:
103,77,55839,5,0,0:0:0:0:
195,79,55839,5,0,0:0:0:0:
427,85,55839,5,0,0:0:0:0:
467,85,55840,5,0,0:0:0:0:
56,102,55897,5,0,0:0:0:0:
292,108,55897,5,0,0:0:0:0:
7,104,55898,5,0,0:0:0:0:
247,107,55898,5,0,0:0:0:0:
145,103,55898,5,0,0:0:0:0:
427,111,55898,5,0,0:0:0:0:
103,103,55898,5,0,0:0:0:0:
195,105,55898,5,0,0:0:0:0:
467,111,55899,5,0,0:0:0:0:
57,122,55954,5,0,0:0:0:0:
293,128,55954,5,0,0:0:0:0:
8,124,55955,5,0,0:0:0:0:
428,131,55955,5,0,0:0:0:0:
104,123,55955,5,0,0:0:0:0:
248,127,55955,5,0,0:0:0:0:
146,123,55955,5,0,0:0:0:0:
196,125,55955,5,0,0:0:0:0:
468,131,55956,5,0,0:0:0:0:
57,158,56014,5,0,0:0:0:0:
293,164,56014,5,0,0:0:0:0:
8,160,56015,5,0,0:0:0:0:
104,159,56015,5,0,0:0:0:0:
146,159,56015,5,0,0:0:0:0:
248,163,56015,5,0,0:0:0:0:
196,161,56015,5,0,0:0:0:0:
428,167,56015,5,0,0:0:0:0:
468,167,56016,5,0,0:0:0:0:
53,194,56248,5,0,0:0:0:0:
100,195,56249,5,0,0:0:0:0:
192,197,56249,5,0,0:0:0:0:
424,203,56249,5,0,0:0:0:0:
142,195,56249,5,0,0:0:0:0:
4,196,56249,5,0,0:0:0:0:
375,202,56249,5,0,0:0:0:0:
464,203,56250,5,0,0:0:0:0:
54,218,56307,5,0,0:0:0:0:
5,220,56308,5,0,0:0:0:0:
376,226,56308,5,0,0:0:0:0:
143,219,56308,5,0,0:0:0:0:
101,219,56308,5,0,0:0:0:0:
329,226,56308,5,0,0:0:0:0:
425,227,56308,5,0,0:0:0:0:
465,227,56309,5,0,0:0:0:0:
290,250,56366,5,0,0:0:0:0:
54,244,56366,5,0,0:0:0:0:
329,252,56367,5,0,0:0:0:0:
425,253,56367,5,0,0:0:0:0:
5,246,56367,5,0,0:0:0:0:
376,252,56367,5,0,0:0:0:0:
245,249,56367,5,0,0:0:0:0:
101,245,56367,5,0,0:0:0:0:
465,253,56368,5,0,0:0:0:0:
291,270,56423,5,0,0:0:0:0:
55,264,56423,5,0,0:0:0:0:
6,266,56424,5,0,0:0:0:0:
330,272,56424,5,0,0:0:0:0:
426,273,56424,5,0,0:0:0:0:
377,272,56424,5,0,0:0:0:0:
246,269,56424,5,0,0:0:0:0:
194,267,56424,5,0,0:0:0:0:
466,273,56425,5,0,0:0:0:0:
288,302,56482,6,0,B|295:194|328:54|522:59|522:59|449:283|449:283|515:165|515:165|392:345|281:266|244:13,1,1207.5
83,306,56482,6,0,B|90:198|123:58|317:63|317:63|244:287|244:287|310:169|310:169|187:349|76:270|39:17,1,1207.5
55,300,56483,5,0,0:0:0:0:
291,306,56483,5,0,0:0:0:0:
246,305,56484,5,0,0:0:0:0:
194,303,56484,5,0,0:0:0:0:
426,309,56484,5,0,0:0:0:0:
377,308,56484,5,0,0:0:0:0:
6,302,56484,5,0,0:0:0:0:
330,308,56484,5,0,0:0:0:0:
466,309,56485,5,0,0:0:0:0:
440,32,57771,5,0,0:0:0:0:
264,32,57771,5,0,0:0:0:0:
303,33,57771,5,0,0:0:0:0:
45,38,57771,5,0,0:0:0:0:
349,34,57771,5,0,0:0:0:0:
488,36,57771,5,0,0:0:0:0:
2,38,57771,5,0,0:0:0:0:
396,36,57771,5,0,0:0:0:0:
440,32,57830,5,0,0:0:0:0:
264,32,57830,5,0,0:0:0:0:
303,33,57830,5,0,0:0:0:0:
45,38,57830,5,0,0:0:0:0:
349,34,57830,5,0,0:0:0:0:
488,36,57830,5,0,0:0:0:0:
2,38,57830,5,0,0:0:0:0:
396,36,57830,5,0,0:0:0:0:
488,36,57888,5,0,0:0:0:0:
349,34,57888,5,0,0:0:0:0:
396,36,57888,5,0,0:0:0:0:
2,38,57888,5,0,0:0:0:0:
264,32,57888,5,0,0:0:0:0:
440,32,57888,5,0,0:0:0:0:
45,38,57888,5,0,0:0:0:0:
303,33,57888,5,0,0:0:0:0:
438,113,57947,5,0,0:0:0:0:
43,119,57947,5,0,0:0:0:0:
130,120,57947,5,0,0:0:0:0:
301,114,57947,5,0,0:0:0:0:
85,118,57947,5,0,0:0:0:0:
486,117,57947,5,0,0:0:0:0:
347,115,57947,5,0,0:0:0:0:
0,119,57947,5,0,0:0:0:0:
394,117,57947,5,0,0:0:0:0:
486,117,58005,5,0,0:0:0:0:
85,118,58005,5,0,0:0:0:0:
347,115,58005,5,0,0:0:0:0:
394,117,58005,5,0,0:0:0:0:
0,119,58005,5,0,0:0:0:0:
438,113,58005,5,0,0:0:0:0:
43,119,58005,5,0,0:0:0:0:
301,114,58005,5,0,0:0:0:0:
130,120,58005,5,0,0:0:0:0:
438,161,58123,5,0,0:0:0:0:
43,167,58123,5,0,0:0:0:0:
130,168,58123,5,0,0:0:0:0:
301,162,58123,5,0,0:0:0:0:
85,166,58123,5,0,0:0:0:0:
486,165,58123,5,0,0:0:0:0:
347,163,58123,5,0,0:0:0:0:
0,167,58123,5,0,0:0:0:0:
394,165,58123,5,0,0:0:0:0:
438,161,58181,5,0,0:0:0:0:
43,167,58181,5,0,0:0:0:0:
130,168,58181,5,0,0:0:0:0:
301,162,58181,5,0,0:0:0:0:
85,166,58181,5,0,0:0:0:0:
486,165,58181,5,0,0:0:0:0:
347,163,58181,5,0,0:0:0:0:
0,167,58181,5,0,0:0:0:0:
394,165,58181,5,0,0:0:0:0:
486,214,58240,5,0,0:0:0:0:
85,215,58240,5,0,0:0:0:0:
394,214,58240,5,0,0:0:0:0:
0,216,58240,5,0,0:0:0:0:
213,219,58240,5,0,0:0:0:0:
170,217,58240,5,0,0:0:0:0:
438,210,58240,5,0,0:0:0:0:
130,217,58240,5,0,0:0:0:0:
43,216,58240,5,0,0:0:0:0:
43,216,58298,5,0,0:0:0:0:
438,210,58298,5,0,0:0:0:0:
130,217,58298,5,0,0:0:0:0:
213,219,58298,5,0,0:0:0:0:
170,217,58298,5,0,0:0:0:0:
85,215,58298,5,0,0:0:0:0:
486,214,58298,5,0,0:0:0:0:
0,216,58298,5,0,0:0:0:0:
394,214,58298,5,0,0:0:0:0:
47,277,58357,5,0,0:0:0:0:
442,271,58357,5,0,0:0:0:0:
134,278,58357,5,0,0:0:0:0:
174,278,58357,6,0,L|176:156,1,115
349,276,58357,6,0,L|351:154,1,115
174,278,58357,5,0,0:0:0:0:
89,276,58357,5,0,0:0:0:0:
490,275,58357,5,0,0:0:0:0:
351,273,58357,5,0,0:0:0:0:
4,277,58357,5,0,0:0:0:0:
398,275,58357,5,0,0:0:0:0:
416,288,58591,6,0,L|384:192,1,57.5
241,290,58591,6,0,L|224:192,1,57.5
447,30,58825,5,0,0:0:0:0:
308,33,58826,5,0,0:0:0:0:
76,39,58826,5,0,0:0:0:0:
400,31,58826,5,0,0:0:0:0:
496,32,58826,5,0,0:0:0:0:
256,35,58826,5,0,0:0:0:0:
358,31,58826,5,0,0:0:0:0:
36,39,58827,5,0,0:0:0:0:
446,54,58884,5,0,0:0:0:0:
255,59,58885,5,0,0:0:0:0:
495,56,58885,5,0,0:0:0:0:
357,55,58885,5,0,0:0:0:0:
75,63,58885,5,0,0:0:0:0:
307,57,58885,5,0,0:0:0:0:
399,55,58885,5,0,0:0:0:0:
35,63,58886,5,0,0:0:0:0:
210,86,58943,5,0,0:0:0:0:
446,80,58943,5,0,0:0:0:0:
255,85,58944,5,0,0:0:0:0:
495,82,58944,5,0,0:0:0:0:
357,81,58944,5,0,0:0:0:0:
307,83,58944,5,0,0:0:0:0:
171,88,58944,5,0,0:0:0:0:
399,81,58944,5,0,0:0:0:0:
35,89,58945,5,0,0:0:0:0:
209,106,59000,5,0,0:0:0:0:
445,100,59000,5,0,0:0:0:0:
254,105,59001,5,0,0:0:0:0:
356,101,59001,5,0,0:0:0:0:
306,103,59001,5,0,0:0:0:0:
398,101,59001,5,0,0:0:0:0:
170,108,59001,5,0,0:0:0:0:
494,102,59001,5,0,0:0:0:0:
34,109,59002,5,0,0:0:0:0:
209,142,59060,5,0,0:0:0:0:
445,136,59060,5,0,0:0:0:0:
170,144,59061,5,0,0:0:0:0:
398,137,59061,5,0,0:0:0:0:
494,138,59061,5,0,0:0:0:0:
356,137,59061,5,0,0:0:0:0:
254,141,59061,5,0,0:0:0:0:
306,139,59061,5,0,0:0:0:0:
34,145,59062,5,0,0:0:0:0:
209,251,59177,5,0,0:0:0:0:
445,245,59177,5,0,0:0:0:0:
170,253,59178,5,0,0:0:0:0:
74,254,59178,5,0,0:0:0:0:
398,246,59178,5,0,0:0:0:0:
494,247,59178,5,0,0:0:0:0:
123,253,59178,5,0,0:0:0:0:
34,254,59179,5,0,0:0:0:0:
208,275,59236,5,0,0:0:0:0:
444,269,59236,5,0,0:0:0:0:
397,270,59237,5,0,0:0:0:0:
169,277,59237,5,0,0:0:0:0:
73,278,59237,5,0,0:0:0:0:
493,271,59237,5,0,0:0:0:0:
122,277,59237,5,0,0:0:0:0:
33,278,59238,5,0,0:0:0:0:
208,301,59295,5,0,0:0:0:0:
444,295,59295,5,0,0:0:0:0:
169,303,59296,5,0,0:0:0:0:
73,304,59296,5,0,0:0:0:0:
305,298,59296,5,0,0:0:0:0:
493,297,59296,5,0,0:0:0:0:
122,303,59296,5,0,0:0:0:0:
253,300,59296,5,0,0:0:0:0:
33,304,59297,5,0,0:0:0:0:
443,315,59352,5,0,0:0:0:0:
207,321,59352,5,0,0:0:0:0:
492,317,59353,5,0,0:0:0:0:
168,323,59353,5,0,0:0:0:0:
72,324,59353,5,0,0:0:0:0:
121,323,59353,5,0,0:0:0:0:
252,320,59353,5,0,0:0:0:0:
304,318,59353,5,0,0:0:0:0:
32,324,59354,5,0,0:0:0:0:
443,351,59412,5,0,0:0:0:0:
207,357,59412,5,0,0:0:0:0:
121,359,59413,5,0,0:0:0:0:
492,353,59413,5,0,0:0:0:0:
168,359,59413,5,0,0:0:0:0:
252,356,59413,5,0,0:0:0:0:
304,354,59413,5,0,0:0:0:0:
72,360,59413,5,0,0:0:0:0:
32,360,59414,5,0,0:0:0:0:
448,224,59470,5,0,0:0:0:0:
497,226,59471,5,0,0:0:0:0:
126,232,59471,5,0,0:0:0:0:
401,225,59471,5,0,0:0:0:0:
176,224,59471,5,0,0:0:0:0:
77,233,59471,5,0,0:0:0:0:
37,233,59472,5,0,0:0:0:0:
457,52,59529,5,0,0:0:0:0:
368,53,59530,5,0,0:0:0:0:
506,54,59530,5,0,0:0:0:0:
135,60,59530,5,0,0:0:0:0:
410,53,59530,5,0,0:0:0:0:
318,55,59530,5,0,0:0:0:0:
86,61,59530,5,0,0:0:0:0:
46,61,59531,5,0,0:0:0:0:
456,76,59588,5,0,0:0:0:0:
505,78,59589,5,0,0:0:0:0:
134,84,59589,5,0,0:0:0:0:
367,77,59589,5,0,0:0:0:0:
409,77,59589,5,0,0:0:0:0:
317,79,59589,5,0,0:0:0:0:
85,85,59589,5,0,0:0:0:0:
45,85,59590,5,0,0:0:0:0:
220,108,59647,5,0,0:0:0:0:
456,102,59647,5,0,0:0:0:0:
85,111,59648,5,0,0:0:0:0:
409,103,59648,5,0,0:0:0:0:
317,105,59648,5,0,0:0:0:0:
505,104,59648,5,0,0:0:0:0:
265,107,59648,5,0,0:0:0:0:
367,103,59648,5,0,0:0:0:0:
45,111,59649,5,0,0:0:0:0:
219,128,59704,5,0,0:0:0:0:
455,122,59704,5,0,0:0:0:0:
264,127,59705,5,0,0:0:0:0:
366,123,59705,5,0,0:0:0:0:
316,125,59705,5,0,0:0:0:0:
504,124,59705,5,0,0:0:0:0:
84,131,59705,5,0,0:0:0:0:
408,123,59705,5,0,0:0:0:0:
44,131,59706,5,0,0:0:0:0:
219,164,59764,5,0,0:0:0:0:
455,158,59764,5,0,0:0:0:0:
264,163,59765,5,0,0:0:0:0:
316,161,59765,5,0,0:0:0:0:
84,167,59765,5,0,0:0:0:0:
504,160,59765,5,0,0:0:0:0:
408,159,59765,5,0,0:0:0:0:
366,159,59765,5,0,0:0:0:0:
44,167,59766,5,0,0:0:0:0:
459,194,59998,5,0,0:0:0:0:
412,195,59999,5,0,0:0:0:0:
320,197,59999,5,0,0:0:0:0:
88,203,59999,5,0,0:0:0:0:
370,195,59999,5,0,0:0:0:0:
508,196,59999,5,0,0:0:0:0:
137,202,59999,5,0,0:0:0:0:
48,203,60000,5,0,0:0:0:0:
458,218,60057,5,0,0:0:0:0:
507,220,60058,5,0,0:0:0:0:
136,226,60058,5,0,0:0:0:0:
369,219,60058,5,0,0:0:0:0:
411,219,60058,5,0,0:0:0:0:
183,226,60058,5,0,0:0:0:0:
87,227,60058,5,0,0:0:0:0:
47,227,60059,5,0,0:0:0:0:
458,244,60116,5,0,0:0:0:0:
222,250,60116,5,0,0:0:0:0:
136,252,60117,5,0,0:0:0:0:
267,249,60117,5,0,0:0:0:0:
411,245,60117,5,0,0:0:0:0:
183,252,60117,5,0,0:0:0:0:
87,253,60117,5,0,0:0:0:0:
507,246,60117,5,0,0:0:0:0:
47,253,60118,5,0,0:0:0:0:
221,270,60173,5,0,0:0:0:0:
457,264,60173,5,0,0:0:0:0:
506,266,60174,5,0,0:0:0:0:
182,272,60174,5,0,0:0:0:0:
86,273,60174,5,0,0:0:0:0:
135,272,60174,5,0,0:0:0:0:
266,269,60174,5,0,0:0:0:0:
318,267,60174,5,0,0:0:0:0:
46,273,60175,5,0,0:0:0:0:
221,306,60233,5,0,0:0:0:0:
457,300,60233,5,0,0:0:0:0:
135,308,60234,5,0,0:0:0:0:
506,302,60234,5,0,0:0:0:0:
182,308,60234,5,0,0:0:0:0:
266,305,60234,5,0,0:0:0:0:
318,303,60234,5,0,0:0:0:0:
86,309,60234,5,0,0:0:0:0:
46,309,60235,5,0,0:0:0:0:
318,303,60291,6,0,L|224:224,1,115
460,297,60291,6,0,L|375:106,1,172.5
344,306,60583,5,0,0:0:0:0:
14,312,60583,5,0,0:0:0:0:
494,306,60584,5,0,0:0:0:0:
441,307,60584,5,0,0:0:0:0:
392,305,60584,5,0,0:0:0:0:
237,306,60584,5,0,0:0:0:0:
284,306,60584,5,0,0:0:0:0:
194,303,60584,6,0,L|184:52,1,230
52,297,60584,6,0,L|48:36,1,230
184,72,60818,6,0,B|183:12|211:312|215:320|223:312|251:44|259:20|279:16|295:332|299:356|319:372|359:204|367:108|371:12|375:4|391:4|403:288|408:392,1,805
48,67,60818,6,0,B|48:8|76:308|80:316|88:308|116:40|124:16|144:12|160:328|164:352|184:368|224:200|232:104|236:8|240:0|256:0|268:284|272:384,1,805
140,288,61873,6,0,L|128:148,1,115
284,284,61873,6,0,L|272:144,1,115
364,160,62224,6,0,L|352:20,1,115
220,164,62224,6,0,L|208:24,1,115
236,48,62400,5,0,0:0:0:0:
272,40,62459,5,0,0:0:0:0:
308,32,62517,5,0,0:0:0:0:
464,67,62576,6,0,B|464:8|436:308|432:316|424:308|396:40|388:16|368:12|352:328|348:352|328:368|288:200|280:104|276:8|272:0|256:0|244:284|240:384,1,805
328,72,62576,6,0,B|329:12|301:312|297:320|289:312|261:44|253:20|233:16|217:332|213:356|193:372|153:204|145:108|141:12|137:4|121:4|109:288|104:392,1,805
68,328,63513,6,0,L|56:188,1,115
246,326,63513,6,0,L|234:186,1,115
8,152,63748,6,0,L|20:12,1,115
152,156,63748,6,0,L|164:16,1,115
168,260,64099,6,0,L|156:120,1,115
312,256,64099,6,0,L|300:116,1,115
264,256,64334,6,0,L|204:72,2,172.5
100,264,64334,6,0,L|40:80,2,172.5
296,312,64802,6,0,B|304:228|352:140|400:4|408:56|384:152|368:276|400:356|440:348|440:332|436:288|432:188|440:68|436:12|448:0|480:16|496:132|492:344|504:352,1,862.5
128,312,64802,6,0,B|136:228|184:140|232:4|240:56|216:152|200:276|232:356|272:348|272:332|268:288|264:188|272:68|268:12|280:0|312:16|328:132|324:344|336:352,1,862.5
288,312,65740,5,0,0:0:0:0:
240,292,65798,5,0,0:0:0:0:
184,276,65857,5,0,0:0:0:0:
144,248,65916,5,0,0:0:0:0:
268,188,65974,6,0,L|280:56,1,115
104,188,65974,6,0,L|116:56,1,115
256,160,66326,6,0,L|300:348,2,172.5
400,148,66326,6,0,L|444:336,2,172.5
392,144,66794,6,0,B|348:76|332:44|296:20|232:36|128:224|84:208|124:32,1,402.5
428,64,67497,5,0,0:0:0:0:
480,64,67497,5,0,0:0:0:0:
28,64,67498,5,0,0:0:0:0:
192,60,67498,5,0,0:0:0:0:
136,56,67498,5,0,0:0:0:0:
80,60,67498,5,0,0:0:0:0:
380,64,67498,5,0,0:0:0:0:
240,60,67498,5,0,0:0:0:0:
24,64,67849,5,0,0:0:0:0:
72,80,67849,5,0,0:0:0:0:
432,60,67850,5,0,0:0:0:0:
272,60,67850,5,0,0:0:0:0:
484,64,67850,5,0,0:0:0:0:
320,60,67850,5,0,0:0:0:0:
376,56,67850,5,0,0:0:0:0:
252,88,67908,5,0,0:0:0:0:
224,108,67966,5,0,0:0:0:0:
208,128,68025,5,0,0:0:0:0:
68,96,68084,6,0,L|64:252,1,115
228,116,68142,6,0,L|352:208,1,115
408,136,68201,6,0,L|532:228,1,115
352,152,68260,6,0,L|260:288,1,115
368,180,68318,6,0,L|304:304,1,115
12,156,68376,6,0,L|136:248,1,115
136,64,68435,6,0,L|260:156,1,115
512,96,68787,6,0,L|419:164,1,115
408,116,68845,6,0,L|315:184,1,115
176,156,68904,6,0,L|83:224,1,115
440,188,68963,6,0,L|347:256,1,115
100,136,69021,6,0,L|7:204,1,115
0,96,69255,6,0,L|92:164,1,115
104,116,69313,6,0,L|196:184,1,115
336,156,69372,6,0,L|428:224,1,115
72,188,69431,6,0,L|164:256,1,115
412,136,69489,6,0,L|504:204,1,115
512,96,69666,6,0,L|419:164,1,115
408,116,69724,6,0,L|315:184,1,115
176,156,69783,6,0,L|83:224,1,115
80,148,69959,6,0,L|-12:56,1,115
136,152,70017,6,0,L|208:56,1,115
344,160,70134,6,0,L|276:60,1,115
236,144,70193,6,0,L|356:104,1,115
184,96,70310,6,0,L|48:92,1,115
128,224,70369,6,0,L|220:132,1,115
72,228,70427,6,0,L|0:132,1,115
464,320,70603,6,0,L|340:40,1,287.5
464,204,70662,6,0,L|328:200,1,115
408,332,70721,6,0,L|500:240,1,115
240,320,70779,6,0,L|276:196,1,115
304,128,70896,6,0,L|172:84,1,115
224,200,70955,6,0,L|92:156,1,115
316,260,71130,6,0,L|500:108,1,230
360,272,71189,6,0,L|448:220,1,57.5
48,320,71248,6,0,L|172:40,1,287.5
48,204,71307,6,0,L|320:192,4,230
104,332,71366,6,0,L|0:96,2,230
272,320,71424,6,0,L|224:0,1,287.5
208,128,71541,6,0,L|340:84,1,115
288,200,71600,6,0,L|420:156,1,115
372,32,71775,6,0,L|356:344,1,287.5
512,52,71834,6,0,L|500:332,1,230
352,32,72097,6,0,L|336:344,1,287.5
36,232,72126,6,0,L|160:216,1,115
484,44,72156,6,0,L|472:324,1,230
284,240,72185,6,0,L|124:220,1,115
72,184,72302,6,0,L|236:152,1,115
304,128,72361,6,0,L|180:112,1,115
56,136,72420,6,0,L|216:116,1,115
268,80,72537,6,0,L|104:48,1,115
336,36,72595,6,0,B|288:72|40:100|12:180,1,359.375
468,48,72654,6,0,B|464:140|192:252|200:328,1,388.125
504,312,72771,6,0,L|380:296,1,115
416,340,72830,6,0,L|488:132,1,215.625
468,264,72947,6,0,L|292:212,1,172.5
312,268,73006,6,0,L|360:192,1,86.25
484,216,73065,6,0,L|320:192,2,158.125
176,36,73123,6,0,L|184:112,1,71.875
44,48,73123,6,0,L|48:120,1,71.875
312,160,73182,6,0,L|456:152,1,143.75
44,48,73328,6,0,B|48:140|320:252|312:328,1,388.125
176,36,73474,6,0,B|224:72|360:108|392:152,1,230
252,120,73650,6,0,L|16:88,1,230
252,212,73738,6,0,L|68:192,1,172.5
144,88,73826,6,0,L|364:52,1,215.625
512,256,73845,6,0,L|448:192,2,76.6666666666667
40,156,73855,6,0,L|344:100,1,301.875
272,100,73914,6,0,L|36:68,1,230
264,88,74001,6,0,L|80:40,1,186.875
164,68,74090,6,0,L|384:32,1,215.625
284,68,74265,6,0,L|100:20,1,186.875
512,288,74412,6,0,P|432:256|388:164,2,172.5
32,244,74529,6,0,L|100:72,1,172.5
108,256,74587,6,0,L|176:84,1,172.5
204,272,74646,6,0,L|272:100,1,172.5
88,252,74705,6,0,L|156:80,1,172.5
480,224,74763,6,0,L|412:52,1,172.5
416,224,74822,6,0,L|348:52,1,172.5
512,188,74881,6,0,L|444:16,1,172.5
436,200,74939,6,0,L|368:28,1,172.5
340,216,74998,6,0,L|272:44,1,172.5
128,288,75056,6,0,L|60:116,1,172.5
384,256,75114,6,0,L|316:84,1,172.5
164,300,75173,6,0,L|96:128,1,172.5
64,288,75232,6,0,L|-4:116,1,172.5
0,64,75584,5,0,0:0:0:0:
384,64,75584,5,0,0:0:0:0:
128,64,75584,5,0,0:0:0:0:
512,64,75584,5,0,0:0:0:0:
64,64,75584,5,0,0:0:0:0:
448,64,75584,5,0,0:0:0:0:
320,64,75584,5,0,0:0:0:0:
64,64,75642,5,0,0:0:0:0:
448,64,75642,5,0,0:0:0:0:
320,64,75642,5,0,0:0:0:0:
512,64,75642,5,0,0:0:0:0:
0,64,75642,5,0,0:0:0:0:
384,64,75642,5,0,0:0:0:0:
128,64,75642,5,0,0:0:0:0:
0,64,75701,5,0,0:0:0:0:
384,64,75701,5,0,0:0:0:0:
128,64,75701,5,0,0:0:0:0:
512,64,75701,5,0,0:0:0:0:
64,64,75701,5,0,0:0:0:0:
448,64,75701,5,0,0:0:0:0:
320,64,75701,5,0,0:0:0:0:
64,64,75759,5,0,0:0:0:0:
448,64,75759,5,0,0:0:0:0:
320,64,75759,5,0,0:0:0:0:
512,64,75759,5,0,0:0:0:0:
0,64,75759,5,0,0:0:0:0:
384,64,75759,5,0,0:0:0:0:
128,64,75759,5,0,0:0:0:0:
128,64,75818,5,0,0:0:0:0:
384,64,75818,5,0,0:0:0:0:
0,64,75818,5,0,0:0:0:0:
512,64,75818,5,0,0:0:0:0:
320,64,75818,5,0,0:0:0:0:
448,64,75818,5,0,0:0:0:0:
64,64,75818,5,0,0:0:0:0:
320,64,75876,5,0,0:0:0:0:
128,64,75876,5,0,0:0:0:0:
384,64,75876,5,0,0:0:0:0:
0,64,75876,5,0,0:0:0:0:
448,64,75876,5,0,0:0:0:0:
64,64,75876,5,0,0:0:0:0:
512,64,75876,5,0,0:0:0:0:
512,64,75935,5,0,0:0:0:0:
448,64,75935,5,0,0:0:0:0:
0,64,75935,5,0,0:0:0:0:
64,64,75935,5,0,0:0:0:0:
320,64,75935,5,0,0:0:0:0:
128,64,75935,5,0,0:0:0:0:
384,64,75935,5,0,0:0:0:0:
128,64,75993,5,0,0:0:0:0:
512,64,75993,5,0,0:0:0:0:
384,64,75993,5,0,0:0:0:0:
0,64,75993,5,0,0:0:0:0:
320,64,75993,5,0,0:0:0:0:
448,64,75993,5,0,0:0:0:0:
64,64,75993,5,0,0:0:0:0:
320,64,76052,5,0,0:0:0:0:
448,64,76052,5,0,0:0:0:0:
64,64,76052,5,0,0:0:0:0:
512,64,76052,5,0,0:0:0:0:
128,64,76052,5,0,0:0:0:0:
384,64,76052,5,0,0:0:0:0:
0,64,76052,5,0,0:0:0:0:
448,64,76110,5,0,0:0:0:0:
64,64,76110,5,0,0:0:0:0:
512,64,76110,5,0,0:0:0:0:
0,64,76110,5,0,0:0:0:0:
320,64,76110,5,0,0:0:0:0:
128,64,76110,5,0,0:0:0:0:
384,64,76110,5,0,0:0:0:0:
320,64,76169,5,0,0:0:0:0:
128,64,76169,5,0,0:0:0:0:
384,64,76169,5,0,0:0:0:0:
64,64,76169,5,0,0:0:0:0:
512,64,76169,5,0,0:0:0:0:
448,64,76169,5,0,0:0:0:0:
0,64,76169,5,0,0:0:0:0:
320,64,76227,5,0,0:0:0:0:
448,64,76227,5,0,0:0:0:0:
64,64,76227,5,0,0:0:0:0:
0,64,76227,5,0,0:0:0:0:
128,64,76227,5,0,0:0:0:0:
512,64,76227,5,0,0:0:0:0:
384,64,76227,5,0,0:0:0:0:
128,64,76287,5,0,0:0:0:0:
448,64,76287,5,0,0:0:0:0:
64,64,76287,5,0,0:0:0:0:
0,64,76287,5,0,0:0:0:0:
512,64,76287,5,0,0:0:0:0:
320,64,76287,5,0,0:0:0:0:
384,64,76287,5,0,0:0:0:0:
128,64,76345,5,0,0:0:0:0:
384,64,76345,5,0,0:0:0:0:
0,64,76345,5,0,0:0:0:0:
320,64,76345,5,0,0:0:0:0:
448,64,76345,5,0,0:0:0:0:
512,64,76345,5,0,0:0:0:0:
64,64,76345,5,0,0:0:0:0:
320,64,76404,5,0,0:0:0:0:
64,64,76404,5,0,0:0:0:0:
512,64,76404,5,0,0:0:0:0:
448,64,76404,5,0,0:0:0:0:
128,64,76404,5,0,0:0:0:0:
384,64,76404,5,0,0:0:0:0:
0,64,76404,5,0,0:0:0:0:
128,64,76462,5,0,0:0:0:0:
448,64,76462,5,0,0:0:0:0:
0,64,76462,5,0,0:0:0:0:
320,64,76462,5,0,0:0:0:0:
384,64,76462,5,0,0:0:0:0:
64,64,76462,5,0,0:0:0:0:
512,64,76462,5,0,0:0:0:0:
384,64,76521,5,0,0:0:0:0:
512,64,76521,5,0,0:0:0:0:
64,64,76521,5,0,0:0:0:0:
448,64,76521,5,0,0:0:0:0:
0,64,76521,5,0,0:0:0:0:
128,64,76521,5,0,0:0:0:0:
320,64,76521,5,0,0:0:0:0:
128,64,76579,5,0,0:0:0:0:
384,64,76579,5,0,0:0:0:0:
448,64,76579,5,0,0:0:0:0:
64,64,76579,5,0,0:0:0:0:
0,64,76579,5,0,0:0:0:0:
512,64,76579,5,0,0:0:0:0:
320,64,76579,5,0,0:0:0:0:
512,64,76638,5,0,0:0:0:0:
0,64,76638,5,0,0:0:0:0:
128,64,76638,5,0,0:0:0:0:
448,64,76638,5,0,0:0:0:0:
384,64,76638,5,0,0:0:0:0:
64,64,76638,5,0,0:0:0:0:
320,64,76638,5,0,0:0:0:0:
512,64,76696,5,0,0:0:0:0:
64,64,76696,5,0,0:0:0:0:
448,64,76696,5,0,0:0:0:0:
128,64,76696,5,0,0:0:0:0:
320,64,76696,5,0,0:0:0:0:
384,64,76696,5,0,0:0:0:0:
0,64,76696,5,0,0:0:0:0:
320,64,76755,5,0,0:0:0:0:
448,64,76755,5,0,0:0:0:0:
384,64,76755,5,0,0:0:0:0:
512,64,76755,5,0,0:0:0:0:
64,64,76755,5,0,0:0:0:0:
128,64,76755,5,0,0:0:0:0:
0,64,76755,5,0,0:0:0:0:
0,64,76813,5,0,0:0:0:0:
448,64,76813,5,0,0:0:0:0:
128,64,76813,5,0,0:0:0:0:
384,64,76813,5,0,0:0:0:0:
512,64,76813,5,0,0:0:0:0:
320,64,76813,5,0,0:0:0:0:
64,64,76813,5,0,0:0:0:0:
0,64,76872,5,0,0:0:0:0:
384,64,76872,5,0,0:0:0:0:
320,64,76872,5,0,0:0:0:0:
128,64,76872,5,0,0:0:0:0:
448,64,76872,5,0,0:0:0:0:
512,64,76872,5,0,0:0:0:0:
64,64,76872,5,0,0:0:0:0:
0,64,76930,5,0,0:0:0:0:
64,64,76930,5,0,0:0:0:0:
448,64,76930,5,0,0:0:0:0:
128,64,76930,5,0,0:0:0:0:
384,64,76930,5,0,0:0:0:0:
320,64,76930,5,0,0:0:0:0:
512,64,76930,5,0,0:0:0:0:
512,64,76990,5,0,0:0:0:0:
320,64,76990,5,0,0:0:0:0:
384,64,76990,5,0,0:0:0:0:
0,64,76990,5,0,0:0:0:0:
128,64,76990,5,0,0:0:0:0:
448,64,76990,5,0,0:0:0:0:
64,64,76990,5,0,0:0:0:0:
448,64,77048,5,0,0:0:0:0:
512,64,77048,5,0,0:0:0:0:
64,64,77048,5,0,0:0:0:0:
320,64,77048,5,0,0:0:0:0:
128,64,77048,5,0,0:0:0:0:
384,64,77048,5,0,0:0:0:0:
0,64,77048,5,0,0:0:0:0:
128,64,77107,5,0,0:0:0:0:
384,64,77107,5,0,0:0:0:0:
0,64,77107,5,0,0:0:0:0:
448,64,77107,5,0,0:0:0:0:
320,64,77107,5,0,0:0:0:0:
64,64,77107,5,0,0:0:0:0:
512,64,77107,5,0,0:0:0:0:
384,64,77165,5,0,0:0:0:0:
64,64,77165,5,0,0:0:0:0:
512,64,77165,5,0,0:0:0:0:
320,64,77165,5,0,0:0:0:0:
128,64,77165,5,0,0:0:0:0:
448,64,77165,5,0,0:0:0:0:
0,64,77165,5,0,0:0:0:0:
0,64,77224,5,0,0:0:0:0:
128,64,77224,5,0,0:0:0:0:
320,64,77224,5,0,0:0:0:0:
448,64,77224,5,0,0:0:0:0:
384,64,77224,5,0,0:0:0:0:
512,64,77224,5,0,0:0:0:0:
64,64,77224,5,0,0:0:0:0:
0,64,77282,5,0,0:0:0:0:
512,64,77282,5,0,0:0:0:0:
320,64,77282,5,0,0:0:0:0:
64,64,77282,5,0,0:0:0:0:
128,64,77282,5,0,0:0:0:0:
384,64,77282,5,0,0:0:0:0:
448,64,77282,5,0,0:0:0:0:
384,64,77341,5,0,0:0:0:0:
64,64,77341,5,0,0:0:0:0:
320,64,77341,5,0,0:0:0:0:
448,64,77341,5,0,0:0:0:0:
512,64,77341,5,0,0:0:0:0:
0,64,77341,5,0,0:0:0:0:
128,64,77341,5,0,0:0:0:0:
320,64,77399,5,0,0:0:0:0:
384,64,77399,5,0,0:0:0:0:
0,64,77399,5,0,0:0:0:0:
128,64,77399,5,0,0:0:0:0:
512,64,77399,5,0,0:0:0:0:
64,64,77399,5,0,0:0:0:0:
448,64,77399,5,0,0:0:0:0:
448,128,77458,5,0,0:0:0:0:
256,128,77458,5,0,0:0:0:0:
512,128,77458,5,0,0:0:0:0:
0,128,77458,5,0,0:0:0:0:
192,128,77458,5,0,0:0:0:0:
64,128,77458,5,0,0:0:0:0:
128,128,77458,5,0,0:0:0:0:
0,128,77516,5,0,0:0:0:0:
192,128,77516,5,0,0:0:0:0:
448,128,77516,5,0,0:0:0:0:
128,128,77516,5,0,0:0:0:0:
512,128,77516,5,0,0:0:0:0:
64,128,77516,5,0,0:0:0:0:
256,128,77516,5,0,0:0:0:0:
64,128,77575,5,0,0:0:0:0:
0,128,77575,5,0,0:0:0:0:
448,128,77575,5,0,0:0:0:0:
256,128,77575,5,0,0:0:0:0:
512,128,77575,5,0,0:0:0:0:
128,128,77575,5,0,0:0:0:0:
192,128,77575,5,0,0:0:0:0:
128,128,77633,5,0,0:0:0:0:
192,128,77633,5,0,0:0:0:0:
0,128,77633,5,0,0:0:0:0:
256,128,77633,5,0,0:0:0:0:
512,128,77633,5,0,0:0:0:0:
448,128,77633,5,0,0:0:0:0:
64,128,77633,5,0,0:0:0:0:
512,128,77693,5,0,0:0:0:0:
256,128,77693,5,0,0:0:0:0:
448,128,77693,5,0,0:0:0:0:
0,128,77693,5,0,0:0:0:0:
128,128,77693,5,0,0:0:0:0:
64,128,77693,5,0,0:0:0:0:
192,128,77693,5,0,0:0:0:0:
448,128,77751,5,0,0:0:0:0:
256,128,77751,5,0,0:0:0:0:
64,128,77751,5,0,0:0:0:0:
512,128,77751,5,0,0:0:0:0:
192,128,77751,5,0,0:0:0:0:
0,128,77751,5,0,0:0:0:0:
128,128,77751,5,0,0:0:0:0:
256,128,77810,5,0,0:0:0:0:
128,128,77810,5,0,0:0:0:0:
64,128,77810,5,0,0:0:0:0:
512,128,77810,5,0,0:0:0:0:
192,128,77810,5,0,0:0:0:0:
448,128,77810,5,0,0:0:0:0:
0,128,77810,5,0,0:0:0:0:
64,128,77868,5,0,0:0:0:0:
256,128,77868,5,0,0:0:0:0:
448,128,77868,5,0,0:0:0:0:
512,128,77868,5,0,0:0:0:0:
0,128,77868,5,0,0:0:0:0:
192,128,77868,5,0,0:0:0:0:
128,128,77868,5,0,0:0:0:0:
128,128,77927,5,0,0:0:0:0:
64,128,77927,5,0,0:0:0:0:
192,128,77927,5,0,0:0:0:0:
0,128,77927,5,0,0:0:0:0:
512,128,77927,5,0,0:0:0:0:
256,128,77927,5,0,0:0:0:0:
448,128,77927,5,0,0:0:0:0:
128,128,77985,5,0,0:0:0:0:
192,128,77985,5,0,0:0:0:0:
0,128,77985,5,0,0:0:0:0:
512,128,77985,5,0,0:0:0:0:
448,128,77985,5,0,0:0:0:0:
256,128,77985,5,0,0:0:0:0:
64,128,77985,5,0,0:0:0:0:
448,128,78044,5,0,0:0:0:0:
192,128,78044,5,0,0:0:0:0:
128,128,78044,5,0,0:0:0:0:
256,128,78044,5,0,0:0:0:0:
0,128,78044,5,0,0:0:0:0:
512,128,78044,5,0,0:0:0:0:
64,128,78044,5,0,0:0:0:0:
256,128,78102,5,0,0:0:0:0:
128,128,78102,5,0,0:0:0:0:
512,128,78102,5,0,0:0:0:0:
192,128,78102,5,0,0:0:0:0:
448,128,78102,5,0,0:0:0:0:
0,128,78102,5,0,0:0:0:0:
64,128,78102,5,0,0:0:0:0:
128,128,78162,5,0,0:0:0:0:
512,128,78162,5,0,0:0:0:0:
64,128,78162,5,0,0:0:0:0:
192,128,78162,5,0,0:0:0:0:
256,128,78162,5,0,0:0:0:0:
0,128,78162,5,0,0:0:0:0:
448,128,78162,5,0,0:0:0:0:
256,128,78220,5,0,0:0:0:0:
512,128,78220,5,0,0:0:0:0:
448,128,78220,5,0,0:0:0:0:
64,128,78220,5,0,0:0:0:0:
128,128,78220,5,0,0:0:0:0:
192,128,78220,5,0,0:0:0:0:
0,128,78220,5,0,0:0:0:0:
448,128,78279,5,0,0:0:0:0:
256,128,78279,5,0,0:0:0:0:
64,128,78279,5,0,0:0:0:0:
512,128,78279,5,0,0:0:0:0:
128,128,78279,5,0,0:0:0:0:
192,128,78279,5,0,0:0:0:0:
0,128,78279,5,0,0:0:0:0:
192,128,78338,5,0,0:0:0:0:
64,128,78338,5,0,0:0:0:0:
0,128,78338,5,0,0:0:0:0:
128,128,78338,5,0,0:0:0:0:
512,128,78338,5,0,0:0:0:0:
256,128,78338,5,0,0:0:0:0:
448,128,78338,5,0,0:0:0:0:
64,128,78396,5,0,0:0:0:0:
0,128,78396,5,0,0:0:0:0:
256,128,78396,5,0,0:0:0:0:
192,128,78396,5,0,0:0:0:0:
448,128,78396,5,0,0:0:0:0:
128,128,78396,5,0,0:0:0:0:
512,128,78396,5,0,0:0:0:0:
0,128,78455,5,0,0:0:0:0:
448,128,78455,5,0,0:0:0:0:
512,128,78455,5,0,0:0:0:0:
256,128,78455,5,0,0:0:0:0:
128,128,78455,5,0,0:0:0:0:
64,128,78455,5,0,0:0:0:0:
192,128,78455,5,0,0:0:0:0:
448,128,78513,5,0,0:0:0:0:
512,128,78513,5,0,0:0:0:0:
0,128,78513,5,0,0:0:0:0:
64,128,78513,5,0,0:0:0:0:
128,128,78513,5,0,0:0:0:0:
256,128,78513,5,0,0:0:0:0:
192,128,78513,5,0,0:0:0:0:
64,128,78573,5,0,0:0:0:0:
512,128,78573,5,0,0:0:0:0:
448,128,78573,5,0,0:0:0:0:
192,128,78573,5,0,0:0:0:0:
0,128,78573,5,0,0:0:0:0:
128,128,78573,5,0,0:0:0:0:
256,128,78573,5,0,0:0:0:0:
128,128,78631,5,0,0:0:0:0:
448,128,78631,5,0,0:0:0:0:
192,128,78631,5,0,0:0:0:0:
0,128,78631,5,0,0:0:0:0:
64,128,78631,5,0,0:0:0:0:
256,128,78631,5,0,0:0:0:0:
512,128,78631,5,0,0:0:0:0:
448,128,78689,5,0,0:0:0:0:
256,128,78689,5,0,0:0:0:0:
64,128,78689,5,0,0:0:0:0:
512,128,78689,5,0,0:0:0:0:
128,128,78689,5,0,0:0:0:0:
192,128,78689,5,0,0:0:0:0:
0,128,78689,5,0,0:0:0:0:
192,128,78748,5,0,0:0:0:0:
64,128,78748,5,0,0:0:0:0:
0,128,78748,5,0,0:0:0:0:
128,128,78748,5,0,0:0:0:0:
512,128,78748,5,0,0:0:0:0:
256,128,78748,5,0,0:0:0:0:
448,128,78748,5,0,0:0:0:0:
64,128,78806,5,0,0:0:0:0:
0,128,78806,5,0,0:0:0:0:
256,128,78806,5,0,0:0:0:0:
192,128,78806,5,0,0:0:0:0:
448,128,78806,5,0,0:0:0:0:
128,128,78806,5,0,0:0:0:0:
512,128,78806,5,0,0:0:0:0:
0,128,78865,5,0,0:0:0:0:
448,128,78865,5,0,0:0:0:0:
512,128,78865,5,0,0:0:0:0:
256,128,78865,5,0,0:0:0:0:
128,128,78865,5,0,0:0:0:0:
64,128,78865,5,0,0:0:0:0:
192,128,78865,5,0,0:0:0:0:
448,128,78923,5,0,0:0:0:0:
512,128,78923,5,0,0:0:0:0:
0,128,78923,5,0,0:0:0:0:
64,128,78923,5,0,0:0:0:0:
128,128,78923,5,0,0:0:0:0:
256,128,78923,5,0,0:0:0:0:
192,128,78923,5,0,0:0:0:0:
64,128,78983,5,0,0:0:0:0:
512,128,78983,5,0,0:0:0:0:
448,128,78983,5,0,0:0:0:0:
192,128,78983,5,0,0:0:0:0:
0,128,78983,5,0,0:0:0:0:
128,128,78983,5,0,0:0:0:0:
256,128,78983,5,0,0:0:0:0:
128,128,79041,5,0,0:0:0:0:
448,128,79041,5,0,0:0:0:0:
192,128,79041,5,0,0:0:0:0:
0,128,79041,5,0,0:0:0:0:
64,128,79041,5,0,0:0:0:0:
256,128,79041,5,0,0:0:0:0:
512,128,79041,5,0,0:0:0:0:
448,128,79099,5,0,0:0:0:0:
256,128,79099,5,0,0:0:0:0:
64,128,79099,5,0,0:0:0:0:
512,128,79099,5,0,0:0:0:0:
128,128,79099,5,0,0:0:0:0:
192,128,79099,5,0,0:0:0:0:
0,128,79099,5,0,0:0:0:0:
192,128,79158,5,0,0:0:0:0:
64,128,79158,5,0,0:0:0:0:
0,128,79158,5,0,0:0:0:0:
128,128,79158,5,0,0:0:0:0:
512,128,79158,5,0,0:0:0:0:
256,128,79158,5,0,0:0:0:0:
448,128,79158,5,0,0:0:0:0:
64,128,79216,5,0,0:0:0:0:
0,128,79216,5,0,0:0:0:0:
256,128,79216,5,0,0:0:0:0:
192,128,79216,5,0,0:0:0:0:
448,128,79216,5,0,0:0:0:0:
128,128,79216,5,0,0:0:0:0:
512,128,79216,5,0,0:0:0:0:
0,128,79275,5,0,0:0:0:0:
448,128,79275,5,0,0:0:0:0:
512,128,79275,5,0,0:0:0:0:
256,128,79275,5,0,0:0:0:0:
128,128,79275,5,0,0:0:0:0:
64,128,79275,5,0,0:0:0:0:
192,128,79275,5,0,0:0:0:0:
448,192,79333,5,0,0:0:0:0:
512,192,79333,5,0,0:0:0:0:
0,192,79333,5,0,0:0:0:0:
64,192,79333,5,0,0:0:0:0:
128,192,79333,5,0,0:0:0:0:
384,192,79333,5,0,0:0:0:0:
192,192,79333,5,0,0:0:0:0:
256,224,79392,5,0,0:0:0:0:
384,224,79392,5,0,0:0:0:0:
320,224,79392,5,0,0:0:0:0:
64,224,79392,5,0,0:0:0:0:
448,224,79392,5,0,0:0:0:0:
512,224,79392,5,0,0:0:0:0:
0,224,79392,5,0,0:0:0:0:
448,224,79451,5,0,0:0:0:0:
512,224,79451,5,0,0:0:0:0:
0,224,79451,5,0,0:0:0:0:
64,224,79451,5,0,0:0:0:0:
256,224,79451,5,0,0:0:0:0:
384,224,79451,5,0,0:0:0:0:
320,224,79451,5,0,0:0:0:0:
256,224,79509,5,0,0:0:0:0:
384,224,79509,5,0,0:0:0:0:
320,224,79509,5,0,0:0:0:0:
64,224,79509,5,0,0:0:0:0:
448,224,79509,5,0,0:0:0:0:
512,224,79509,5,0,0:0:0:0:
0,224,79509,5,0,0:0:0:0:
448,224,79568,5,0,0:0:0:0:
512,224,79568,5,0,0:0:0:0:
0,224,79568,5,0,0:0:0:0:
64,224,79568,5,0,0:0:0:0:
256,224,79568,5,0,0:0:0:0:
384,224,79568,5,0,0:0:0:0:
320,224,79568,5,0,0:0:0:0:
0,224,79626,5,0,0:0:0:0:
512,224,79626,5,0,0:0:0:0:
448,224,79626,5,0,0:0:0:0:
64,224,79626,5,0,0:0:0:0:
320,224,79626,5,0,0:0:0:0:
384,224,79626,5,0,0:0:0:0:
256,224,79626,5,0,0:0:0:0:
320,224,79685,5,0,0:0:0:0:
256,224,79685,5,0,0:0:0:0:
448,224,79685,5,0,0:0:0:0:
64,224,79685,5,0,0:0:0:0:
512,224,79685,5,0,0:0:0:0:
0,224,79685,5,0,0:0:0:0:
384,224,79685,5,0,0:0:0:0:
0,224,79744,5,0,0:0:0:0:
384,224,79744,5,0,0:0:0:0:
320,224,79744,5,0,0:0:0:0:
448,224,79744,5,0,0:0:0:0:
64,224,79744,5,0,0:0:0:0:
256,224,79744,5,0,0:0:0:0:
512,224,79744,5,0,0:0:0:0:
448,224,79802,5,0,0:0:0:0:
256,224,79802,5,0,0:0:0:0:
0,224,79802,5,0,0:0:0:0:
320,224,79802,5,0,0:0:0:0:
512,224,79802,5,0,0:0:0:0:
384,224,79802,5,0,0:0:0:0:
64,224,79802,5,0,0:0:0:0:
320,224,79861,5,0,0:0:0:0:
0,224,79861,5,0,0:0:0:0:
256,224,79861,5,0,0:0:0:0:
384,224,79861,5,0,0:0:0:0:
64,224,79861,5,0,0:0:0:0:
448,224,79861,5,0,0:0:0:0:
512,224,79861,5,0,0:0:0:0:
320,224,79919,5,0,0:0:0:0:
384,224,79919,5,0,0:0:0:0:
256,224,79919,5,0,0:0:0:0:
64,224,79919,5,0,0:0:0:0:
0,224,79919,5,0,0:0:0:0:
512,224,79919,5,0,0:0:0:0:
448,224,79919,5,0,0:0:0:0:
512,224,79978,5,0,0:0:0:0:
0,224,79978,5,0,0:0:0:0:
384,224,79978,5,0,0:0:0:0:
64,224,79978,5,0,0:0:0:0:
320,224,79978,5,0,0:0:0:0:
256,224,79978,5,0,0:0:0:0:
448,224,79978,5,0,0:0:0:0:
64,224,80037,5,0,0:0:0:0:
256,224,80037,5,0,0:0:0:0:
512,224,80037,5,0,0:0:0:0:
448,224,80037,5,0,0:0:0:0:
0,224,80037,5,0,0:0:0:0:
384,224,80037,5,0,0:0:0:0:
320,224,80037,5,0,0:0:0:0:
512,224,80095,5,0,0:0:0:0:
384,224,80095,5,0,0:0:0:0:
64,224,80095,5,0,0:0:0:0:
320,224,80095,5,0,0:0:0:0:
448,224,80095,5,0,0:0:0:0:
256,224,80095,5,0,0:0:0:0:
0,224,80095,5,0,0:0:0:0:
64,224,80154,5,0,0:0:0:0:
448,224,80154,5,0,0:0:0:0:
512,224,80154,5,0,0:0:0:0:
384,224,80154,5,0,0:0:0:0:
320,224,80154,5,0,0:0:0:0:
0,224,80154,5,0,0:0:0:0:
256,224,80154,5,0,0:0:0:0:
0,224,80212,5,0,0:0:0:0:
512,224,80212,5,0,0:0:0:0:
448,224,80212,5,0,0:0:0:0:
64,224,80212,5,0,0:0:0:0:
320,224,80212,5,0,0:0:0:0:
384,224,80212,5,0,0:0:0:0:
256,224,80212,5,0,0:0:0:0:
320,224,80271,5,0,0:0:0:0:
256,224,80271,5,0,0:0:0:0:
448,224,80271,5,0,0:0:0:0:
64,224,80271,5,0,0:0:0:0:
512,224,80271,5,0,0:0:0:0:
0,224,80271,5,0,0:0:0:0:
384,224,80271,5,0,0:0:0:0:
0,224,80330,5,0,0:0:0:0:
384,224,80330,5,0,0:0:0:0:
320,224,80330,5,0,0:0:0:0:
448,224,80330,5,0,0:0:0:0:
64,224,80330,5,0,0:0:0:0:
256,224,80330,5,0,0:0:0:0:
512,224,80330,5,0,0:0:0:0:
448,224,80388,5,0,0:0:0:0:
256,224,80388,5,0,0:0:0:0:
0,224,80388,5,0,0:0:0:0:
320,224,80388,5,0,0:0:0:0:
512,224,80388,5,0,0:0:0:0:
384,224,80388,5,0,0:0:0:0:
64,224,80388,5,0,0:0:0:0:
320,224,80447,5,0,0:0:0:0:
0,224,80447,5,0,0:0:0:0:
256,224,80447,5,0,0:0:0:0:
384,224,80447,5,0,0:0:0:0:
64,224,80447,5,0,0:0:0:0:
448,224,80447,5,0,0:0:0:0:
512,224,80447,5,0,0:0:0:0:
320,224,80505,5,0,0:0:0:0:
384,224,80505,5,0,0:0:0:0:
256,224,80505,5,0,0:0:0:0:
64,224,80505,5,0,0:0:0:0:
0,224,80505,5,0,0:0:0:0:
512,224,80505,5,0,0:0:0:0:
448,224,80505,5,0,0:0:0:0:
512,224,80564,5,0,0:0:0:0:
0,224,80564,5,0,0:0:0:0:
384,224,80564,5,0,0:0:0:0:
64,224,80564,5,0,0:0:0:0:
320,224,80564,5,0,0:0:0:0:
256,224,80564,5,0,0:0:0:0:
448,224,80564,5,0,0:0:0:0:
64,224,80623,5,0,0:0:0:0:
256,224,80623,5,0,0:0:0:0:
512,224,80623,5,0,0:0:0:0:
448,224,80623,5,0,0:0:0:0:
0,224,80623,5,0,0:0:0:0:
384,224,80623,5,0,0:0:0:0:
320,224,80623,5,0,0:0:0:0:
512,224,80681,5,0,0:0:0:0:
384,224,80681,5,0,0:0:0:0:
64,224,80681,5,0,0:0:0:0:
320,224,80681,5,0,0:0:0:0:
448,224,80681,5,0,0:0:0:0:
256,224,80681,5,0,0:0:0:0:
0,224,80681,5,0,0:0:0:0:
64,224,80740,5,0,0:0:0:0:
448,224,80740,5,0,0:0:0:0:
512,224,80740,5,0,0:0:0:0:
384,224,80740,5,0,0:0:0:0:
320,224,80740,5,0,0:0:0:0:
0,224,80740,5,0,0:0:0:0:
256,224,80740,5,0,0:0:0:0:
0,224,80798,5,0,0:0:0:0:
512,224,80798,5,0,0:0:0:0:
448,224,80798,5,0,0:0:0:0:
64,224,80798,5,0,0:0:0:0:
320,224,80798,5,0,0:0:0:0:
384,224,80798,5,0,0:0:0:0:
256,224,80798,5,0,0:0:0:0:
320,224,80857,5,0,0:0:0:0:
256,224,80857,5,0,0:0:0:0:
448,224,80857,5,0,0:0:0:0:
64,224,80857,5,0,0:0:0:0:
512,224,80857,5,0,0:0:0:0:
0,224,80857,5,0,0:0:0:0:
384,224,80857,5,0,0:0:0:0:
0,224,80916,5,0,0:0:0:0:
384,224,80916,5,0,0:0:0:0:
320,224,80916,5,0,0:0:0:0:
448,224,80916,5,0,0:0:0:0:
64,224,80916,5,0,0:0:0:0:
256,224,80916,5,0,0:0:0:0:
512,224,80916,5,0,0:0:0:0:
448,224,80974,5,0,0:0:0:0:
256,224,80974,5,0,0:0:0:0:
0,224,80974,5,0,0:0:0:0:
320,224,80974,5,0,0:0:0:0:
512,224,80974,5,0,0:0:0:0:
384,224,80974,5,0,0:0:0:0:
64,224,80974,5,0,0:0:0:0:
320,224,81033,5,0,0:0:0:0:
0,224,81033,5,0,0:0:0:0:
256,224,81033,5,0,0:0:0:0:
384,224,81033,5,0,0:0:0:0:
64,224,81033,5,0,0:0:0:0:
448,224,81033,5,0,0:0:0:0:
512,224,81033,5,0,0:0:0:0:
320,224,81091,5,0,0:0:0:0:
384,224,81091,5,0,0:0:0:0:
256,224,81091,5,0,0:0:0:0:
64,224,81091,5,0,0:0:0:0:
0,224,81091,5,0,0:0:0:0:
512,224,81091,5,0,0:0:0:0:
448,224,81091,5,0,0:0:0:0:
512,224,81150,5,0,0:0:0:0:
0,224,81150,5,0,0:0:0:0:
384,224,81150,5,0,0:0:0:0:
64,224,81150,5,0,0:0:0:0:
320,224,81150,5,0,0:0:0:0:
256,224,81150,5,0,0:0:0:0:
448,224,81150,5,0,0:0:0:0:
64,128,81209,5,0,0:0:0:0:
128,128,81209,5,0,0:0:0:0:
512,128,81209,5,0,0:0:0:0:
448,128,81209,5,0,0:0:0:0:
0,128,81209,5,0,0:0:0:0:
384,128,81209,5,0,0:0:0:0:
192,128,81209,5,0,0:0:0:0:
0,128,81267,5,0,0:0:0:0:
384,128,81267,5,0,0:0:0:0:
192,128,81267,5,0,0:0:0:0:
448,128,81267,5,0,0:0:0:0:
64,128,81267,5,0,0:0:0:0:
128,128,81267,5,0,0:0:0:0:
512,128,81267,5,0,0:0:0:0:
64,128,81326,5,0,0:0:0:0:
128,128,81326,5,0,0:0:0:0:
512,128,81326,5,0,0:0:0:0:
448,128,81326,5,0,0:0:0:0:
0,128,81326,5,0,0:0:0:0:
384,128,81326,5,0,0:0:0:0:
192,128,81326,5,0,0:0:0:0:
0,128,81384,5,0,0:0:0:0:
384,128,81384,5,0,0:0:0:0:
192,128,81384,5,0,0:0:0:0:
448,128,81384,5,0,0:0:0:0:
64,128,81384,5,0,0:0:0:0:
128,128,81384,5,0,0:0:0:0:
512,128,81384,5,0,0:0:0:0:
384,128,81443,5,0,0:0:0:0:
0,128,81443,5,0,0:0:0:0:
448,128,81443,5,0,0:0:0:0:
64,128,81443,5,0,0:0:0:0:
192,128,81443,5,0,0:0:0:0:
512,128,81443,5,0,0:0:0:0:
128,128,81443,5,0,0:0:0:0:
192,128,81502,5,0,0:0:0:0:
512,128,81502,5,0,0:0:0:0:
128,128,81502,5,0,0:0:0:0:
0,128,81502,5,0,0:0:0:0:
448,128,81502,5,0,0:0:0:0:
384,128,81502,5,0,0:0:0:0:
64,128,81502,5,0,0:0:0:0:
192,128,81560,5,0,0:0:0:0:
384,128,81560,5,0,0:0:0:0:
0,128,81560,5,0,0:0:0:0:
64,128,81560,5,0,0:0:0:0:
512,128,81560,5,0,0:0:0:0:
448,128,81560,5,0,0:0:0:0:
128,128,81560,5,0,0:0:0:0:
192,128,81619,5,0,0:0:0:0:
512,128,81619,5,0,0:0:0:0:
128,128,81619,5,0,0:0:0:0:
64,128,81619,5,0,0:0:0:0:
384,128,81619,5,0,0:0:0:0:
0,128,81619,5,0,0:0:0:0:
448,128,81619,5,0,0:0:0:0:
448,128,81678,5,0,0:0:0:0:
384,128,81678,5,0,0:0:0:0:
64,128,81678,5,0,0:0:0:0:
0,128,81678,5,0,0:0:0:0:
192,128,81678,5,0,0:0:0:0:
512,128,81678,5,0,0:0:0:0:
128,128,81678,5,0,0:0:0:0:
512,128,81736,5,0,0:0:0:0:
448,128,81736,5,0,0:0:0:0:
128,128,81736,5,0,0:0:0:0:
64,128,81736,5,0,0:0:0:0:
192,128,81736,5,0,0:0:0:0:
384,128,81736,5,0,0:0:0:0:
0,128,81736,5,0,0:0:0:0:
384,128,81794,5,0,0:0:0:0:
0,128,81794,5,0,0:0:0:0:
448,128,81794,5,0,0:0:0:0:
64,128,81794,5,0,0:0:0:0:
192,128,81794,5,0,0:0:0:0:
512,128,81794,5,0,0:0:0:0:
128,128,81794,5,0,0:0:0:0:
192,128,81853,5,0,0:0:0:0:
512,128,81853,5,0,0:0:0:0:
128,128,81853,5,0,0:0:0:0:
0,128,81853,5,0,0:0:0:0:
448,128,81853,5,0,0:0:0:0:
384,128,81853,5,0,0:0:0:0:
64,128,81853,5,0,0:0:0:0:
192,128,81911,5,0,0:0:0:0:
384,128,81911,5,0,0:0:0:0:
0,128,81911,5,0,0:0:0:0:
64,128,81911,5,0,0:0:0:0:
512,128,81911,5,0,0:0:0:0:
448,128,81911,5,0,0:0:0:0:
128,128,81911,5,0,0:0:0:0:
512,128,82029,5,0,0:0:0:0:
448,128,82029,5,0,0:0:0:0:
128,128,82029,5,0,0:0:0:0:
64,128,82029,5,0,0:0:0:0:
192,128,82029,5,0,0:0:0:0:
384,128,82029,5,0,0:0:0:0:
0,128,82029,5,0,0:0:0:0:
0,128,82146,5,0,0:0:0:0:
64,128,82146,5,0,0:0:0:0:
192,128,82146,5,0,0:0:0:0:
384,128,82146,5,0,0:0:0:0:
128,128,82146,5,0,0:0:0:0:
448,128,82146,5,0,0:0:0:0:
512,128,82146,5,0,0:0:0:0:
192,128,82264,5,0,0:0:0:0:
64,128,82264,5,0,0:0:0:0:
0,128,82264,5,0,0:0:0:0:
384,128,82264,5,0,0:0:0:0:
128,128,82264,5,0,0:0:0:0:
448,128,82264,5,0,0:0:0:0:
512,128,82264,5,0,0:0:0:0:
0,128,82380,5,0,0:0:0:0:
64,128,82380,5,0,0:0:0:0:
192,128,82380,5,0,0:0:0:0:
384,128,82380,5,0,0:0:0:0:
128,128,82380,5,0,0:0:0:0:
448,128,82380,5,0,0:0:0:0:
512,128,82380,5,0,0:0:0:0:
192,128,82498,5,0,0:0:0:0:
64,128,82498,5,0,0:0:0:0:
0,128,82498,5,0,0:0:0:0:
384,128,82498,5,0,0:0:0:0:
128,128,82498,5,0,0:0:0:0:
448,128,82498,5,0,0:0:0:0:
512,128,82498,5,0,0:0:0:0:
128,128,82615,5,0,0:0:0:0:
448,128,82615,5,0,0:0:0:0:
512,128,82615,5,0,0:0:0:0:
384,128,82615,5,0,0:0:0:0:
0,128,82615,5,0,0:0:0:0:
64,128,82615,5,0,0:0:0:0:
192,128,82615,5,0,0:0:0:0:
128,128,82733,5,0,0:0:0:0:
448,128,82733,5,0,0:0:0:0:
512,128,82733,5,0,0:0:0:0:
384,128,82733,5,0,0:0:0:0:
192,128,82733,5,0,0:0:0:0:
64,128,82733,5,0,0:0:0:0:
0,128,82733,5,0,0:0:0:0:
0,128,82849,5,0,0:0:0:0:
64,128,82849,5,0,0:0:0:0:
192,128,82849,5,0,0:0:0:0:
384,128,82849,5,0,0:0:0:0:
128,128,82849,5,0,0:0:0:0:
448,128,82849,5,0,0:0:0:0:
512,128,82849,5,0,0:0:0:0:
265,227,83083,5,0,0:0:0:0:
313,227,83083,5,0,0:0:0:0:
421,227,83084,5,0,0:0:0:0:
215,227,83084,5,0,0:0:0:0:
363,227,83084,5,0,0:0:0:0:
125,180,83258,5,0,0:0:0:0:
77,180,83258,5,0,0:0:0:0:
175,180,83259,5,0,0:0:0:0:
27,180,83259,5,0,0:0:0:0:
233,180,83259,5,0,0:0:0:0:
393,66,83435,5,0,0:0:0:0:
345,66,83435,5,0,0:0:0:0:
443,66,83436,5,0,0:0:0:0:
501,66,83436,5,0,0:0:0:0:
169,301,83610,5,0,0:0:0:0:
217,301,83610,5,0,0:0:0:0:
325,301,83611,5,0,0:0:0:0:
119,301,83611,5,0,0:0:0:0:
267,301,83611,5,0,0:0:0:0:
100,100,83787,5,0,0:0:0:0:
52,100,83787,5,0,0:0:0:0:
150,100,83788,5,0,0:0:0:0:
2,100,83788,5,0,0:0:0:0:
346,200,84021,5,0,0:0:0:0:
394,200,84021,5,0,0:0:0:0:
502,200,84022,5,0,0:0:0:0:
296,200,84022,5,0,0:0:0:0:
444,200,84022,5,0,0:0:0:0:
62,157,84138,5,0,0:0:0:0:
110,157,84138,5,0,0:0:0:0:
12,157,84139,5,0,0:0:0:0:
160,157,84139,5,0,0:0:0:0:
264,61,84255,5,0,0:0:0:0:
214,61,84256,5,0,0:0:0:0:
387,290,84373,5,0,0:0:0:0:
437,290,84374,5,0,0:0:0:0:
495,290,84374,5,0,0:0:0:0:
216,240,84547,5,0,0:0:0:0:
168,240,84547,5,0,0:0:0:0:
324,240,84548,5,0,0:0:0:0:
118,240,84548,5,0,0:0:0:0:
266,240,84548,5,0,0:0:0:0:
74,328,84724,5,0,0:0:0:0:
24,328,84725,5,0,0:0:0:0:
386,155,84841,5,0,0:0:0:0:
436,155,84842,5,0,0:0:0:0:
494,155,84842,5,0,0:0:0:0:
336,104,84960,5,0,0:0:0:0:
278,104,84960,5,0,0:0:0:0:
69,141,85017,5,0,0:0:0:0:
117,141,85017,5,0,0:0:0:0:
19,141,85018,5,0,0:0:0:0:
261,57,85076,5,0,0:0:0:0:
213,57,85076,5,0,0:0:0:0:
163,57,85077,5,0,0:0:0:0:
311,57,85077,5,0,0:0:0:0:
330,248,85193,5,0,0:0:0:0:
378,248,85193,5,0,0:0:0:0:
428,248,85194,5,0,0:0:0:0:
280,248,85194,5,0,0:0:0:0:
486,248,85194,5,0,0:0:0:0:
230,200,85309,5,0,0:0:0:0:
180,200,85310,5,0,0:0:0:0:
73,94,85485,5,0,0:0:0:0:
121,94,85485,5,0,0:0:0:0:
23,94,85486,5,0,0:0:0:0:
272,89,85662,5,0,0:0:0:0:
224,89,85662,5,0,0:0:0:0:
380,89,85663,5,0,0:0:0:0:
174,89,85663,5,0,0:0:0:0:
322,89,85663,5,0,0:0:0:0:
404,199,85896,5,0,0:0:0:0:
356,199,85896,5,0,0:0:0:0:
512,199,85897,5,0,0:0:0:0:
306,199,85897,5,0,0:0:0:0:
454,199,85897,5,0,0:0:0:0:
257,145,86013,5,0,0:0:0:0:
207,145,86014,5,0,0:0:0:0:
75,275,86130,5,0,0:0:0:0:
123,275,86130,5,0,0:0:0:0:
173,275,86131,5,0,0:0:0:0:
25,275,86131,5,0,0:0:0:0:
396,268,86248,5,0,0:0:0:0:
348,268,86248,5,0,0:0:0:0:
504,268,86249,5,0,0:0:0:0:
298,268,86249,5,0,0:0:0:0:
446,268,86249,5,0,0:0:0:0:
117,193,86423,5,0,0:0:0:0:
69,193,86423,5,0,0:0:0:0:
19,193,86424,5,0,0:0:0:0:
217,98,86598,5,0,0:0:0:0:
265,98,86598,5,0,0:0:0:0:
315,98,86599,5,0,0:0:0:0:
167,98,86599,5,0,0:0:0:0:
373,98,86599,5,0,0:0:0:0:
476,40,86717,5,0,0:0:0:0:
418,40,86717,5,0,0:0:0:0:
296,54,86775,5,0,0:0:0:0:
354,54,86775,5,0,0:0:0:0:
419,95,86834,5,0,0:0:0:0:
477,95,86834,5,0,0:0:0:0:
295,128,86892,5,0,0:0:0:0:
353,128,86892,5,0,0:0:0:0:
120,152,86951,5,0,0:0:0:0:
62,152,86951,5,0,0:0:0:0:
220,198,87009,5,0,0:0:0:0:
162,198,87009,5,0,0:0:0:0:
332,247,87185,5,0,0:0:0:0:
274,247,87185,5,0,0:0:0:0:
447,208,87302,5,0,0:0:0:0:
389,208,87302,5,0,0:0:0:0:
230,140,87478,5,0,0:0:0:0:
288,140,87478,5,0,0:0:0:0:
113,98,87654,5,0,0:0:0:0:
171,98,87654,5,0,0:0:0:0:
75,152,87771,5,0,0:0:0:0:
17,152,87771,5,0,0:0:0:0:
217,218,87947,5,0,0:0:0:0:
275,218,87947,5,0,0:0:0:0:
325,259,88123,5,0,0:0:0:0:
383,259,88123,5,0,0:0:0:0:
424,227,88240,5,0,0:0:0:0:
482,227,88240,5,0,0:0:0:0:
405,87,88298,5,0,0:0:0:0:
347,87,88298,5,0,0:0:0:0:
416,106,88357,5,0,0:0:0:0:
358,106,88357,5,0,0:0:0:0:
278,131,88416,5,0,0:0:0:0:
336,131,88416,5,0,0:0:0:0:
427,126,88416,5,0,0:0:0:0:
369,126,88416,5,0,0:0:0:0:
232,158,88474,5,0,0:0:0:0:
174,158,88474,5,0,0:0:0:0:
382,150,88474,5,0,0:0:0:0:
440,150,88474,5,0,0:0:0:0:
175,213,88533,5,0,0:0:0:0:
117,213,88533,5,0,0:0:0:0:
393,169,88533,5,0,0:0:0:0:
451,169,88533,5,0,0:0:0:0:
42,263,88591,5,0,0:0:0:0:
100,263,88591,5,0,0:0:0:0:
462,189,88592,5,0,0:0:0:0:
404,189,88592,5,0,0:0:0:0:
112,292,88650,5,0,0:0:0:0:
54,292,88650,5,0,0:0:0:0:
416,218,88651,5,0,0:0:0:0:
474,218,88651,5,0,0:0:0:0:
123,323,88709,5,0,0:0:0:0:
65,323,88709,5,0,0:0:0:0:
427,249,88710,5,0,0:0:0:0:
485,249,88710,5,0,0:0:0:0:
140,351,88767,5,0,0:0:0:0:
82,351,88767,5,0,0:0:0:0:
156,306,88826,5,0,0:0:0:0:
98,306,88826,5,0,0:0:0:0:
118,261,88884,5,0,0:0:0:0:
176,261,88884,5,0,0:0:0:0:
140,218,88943,5,0,0:0:0:0:
198,218,88943,5,0,0:0:0:0:
341,184,88972,5,0,0:0:0:0:
283,184,88972,5,0,0:0:0:0:
157,175,89001,5,0,0:0:0:0:
215,175,89001,5,0,0:0:0:0:
294,203,89031,5,0,0:0:0:0:
352,203,89031,5,0,0:0:0:0:
174,131,89060,5,0,0:0:0:0:
232,131,89060,5,0,0:0:0:0:
0,130,89060,5,0,0:0:0:0:
58,130,89060,5,0,0:0:0:0:
418,54,89089,5,0,0:0:0:0:
360,54,89089,5,0,0:0:0:0:
363,223,89090,5,0,0:0:0:0:
305,223,89090,5,0,0:0:0:0:
15,92,89119,5,0,0:0:0:0:
73,92,89119,5,0,0:0:0:0:
189,93,89119,5,0,0:0:0:0:
247,93,89119,5,0,0:0:0:0:
371,73,89148,5,0,0:0:0:0:
429,73,89148,5,0,0:0:0:0:
31,70,89177,5,0,0:0:0:0:
89,70,89177,5,0,0:0:0:0:
205,71,89177,5,0,0:0:0:0:
263,71,89177,5,0,0:0:0:0:
440,93,89207,5,0,0:0:0:0:
382,93,89207,5,0,0:0:0:0:
41,46,89236,5,0,0:0:0:0:
99,46,89236,5,0,0:0:0:0:
215,47,89236,5,0,0:0:0:0:
273,47,89236,5,0,0:0:0:0:
453,117,89265,5,0,0:0:0:0:
395,117,89265,5,0,0:0:0:0:
398,286,89266,5,0,0:0:0:0:
340,286,89266,5,0,0:0:0:0:
46,31,89294,5,0,0:0:0:0:
104,31,89294,5,0,0:0:0:0:
220,32,89294,5,0,0:0:0:0:
278,32,89294,5,0,0:0:0:0:
341,156,89309,5,0,0:0:0:0:
399,156,89309,5,0,0:0:0:0:
464,136,89324,5,0,0:0:0:0:
406,136,89324,5,0,0:0:0:0:
410,315,89325,5,0,0:0:0:0:
352,315,89325,5,0,0:0:0:0:
48,20,89353,5,0,0:0:0:0:
106,20,89353,5,0,0:0:0:0:
222,21,89353,5,0,0:0:0:0:
280,21,89353,5,0,0:0:0:0:
410,175,89368,5,0,0:0:0:0:
352,175,89368,5,0,0:0:0:0:
387,238,89382,5,0,0:0:0:0:
329,238,89382,5,0,0:0:0:0:
417,156,89383,5,0,0:0:0:0:
48,20,89412,5,0,0:0:0:0:
106,20,89412,5,0,0:0:0:0:
222,21,89412,5,0,0:0:0:0:
280,21,89412,5,0,0:0:0:0:
363,195,89427,5,0,0:0:0:0:
421,195,89427,5,0,0:0:0:0:
340,257,89441,5,0,0:0:0:0:
398,257,89441,5,0,0:0:0:0:
429,185,89442,5,0,0:0:0:0:
224,37,89470,5,0,0:0:0:0:
282,37,89470,5,0,0:0:0:0:
50,36,89470,5,0,0:0:0:0:
108,36,89470,5,0,0:0:0:0:
376,219,89485,5,0,0:0:0:0:
434,219,89485,5,0,0:0:0:0:
409,277,89500,5,0,0:0:0:0:
351,277,89500,5,0,0:0:0:0:
234,61,89529,5,0,0:0:0:0:
292,61,89529,5,0,0:0:0:0:
60,60,89529,5,0,0:0:0:0:
118,60,89529,5,0,0:0:0:0:
387,238,89544,5,0,0:0:0:0:
445,238,89544,5,0,0:0:0:0:
422,301,89558,5,0,0:0:0:0:
364,301,89558,5,0,0:0:0:0:
251,80,89587,5,0,0:0:0:0:
309,80,89587,5,0,0:0:0:0:
77,79,89587,5,0,0:0:0:0:
135,79,89587,5,0,0:0:0:0:
398,258,89603,5,0,0:0:0:0:
433,320,89617,5,0,0:0:0:0:
375,320,89617,5,0,0:0:0:0:
278,102,89646,5,0,0:0:0:0:
336,102,89646,5,0,0:0:0:0:
104,101,89646,5,0,0:0:0:0:
162,101,89646,5,0,0:0:0:0:
410,287,89662,5,0,0:0:0:0:
386,340,89676,5,0,0:0:0:0:
165,116,89705,2,0,B|201:169|198:204|203:244|209:275|227:299|275:317|296:342|312:312|322:258|326:182|345:98|430:73,1,517.5
398,369,89735,1,0,0:0:0:0:
351,344,90232,5,0,0:0:0:0:
20,344,90232,5,0,0:0:0:0:
50,344,90232,5,0,0:0:0:0:
381,344,90232,5,0,0:0:0:0:
257,344,90232,5,0,0:0:0:0:
80,328,90247,5,0,0:0:0:0:
110,328,90247,5,0,0:0:0:0:
140,328,90247,5,0,0:0:0:0:
170,328,90247,5,0,0:0:0:0:
231,312,90261,5,0,0:0:0:0:
396,328,90261,5,0,0:0:0:0:
279,328,90261,5,0,0:0:0:0:
200,312,90261,5,0,0:0:0:0:
125,312,90290,5,0,0:0:0:0:
302,296,90290,5,0,0:0:0:0:
411,296,90290,5,0,0:0:0:0:
5,280,90320,5,0,0:0:0:0:
35,280,90320,5,0,0:0:0:0:
65,280,90320,5,0,0:0:0:0:
95,280,90320,5,0,0:0:0:0:
155,280,90320,5,0,0:0:0:0:
185,280,90320,5,0,0:0:0:0:
216,280,90320,5,0,0:0:0:0:
246,280,90320,5,0,0:0:0:0:
313,268,90320,5,0,0:0:0:0:
125,296,90320,5,0,0:0:0:0:
411,264,90320,5,0,0:0:0:0:
411,232,90349,5,0,0:0:0:0:
125,264,90349,5,0,0:0:0:0:
325,236,90349,5,0,0:0:0:0:
95,248,90364,5,0,0:0:0:0:
65,248,90364,5,0,0:0:0:0:
35,248,90364,5,0,0:0:0:0:
155,248,90364,5,0,0:0:0:0:
185,248,90364,5,0,0:0:0:0:
216,248,90364,5,0,0:0:0:0:
125,232,90378,5,0,0:0:0:0:
411,216,90378,5,0,0:0:0:0:
328,216,90378,5,0,0:0:0:0:
35,232,90378,5,0,0:0:0:0:
216,232,90378,5,0,0:0:0:0:
216,216,90407,5,0,0:0:0:0:
35,216,90407,5,0,0:0:0:0:
125,200,90407,5,0,0:0:0:0:
411,184,90408,5,0,0:0:0:0:
325,184,90408,5,0,0:0:0:0:
155,208,90422,5,0,0:0:0:0:
185,208,90422,5,0,0:0:0:0:
65,208,90422,5,0,0:0:0:0:
95,208,90422,5,0,0:0:0:0:
216,200,90436,5,0,0:0:0:0:
35,200,90436,5,0,0:0:0:0:
325,168,90437,5,0,0:0:0:0:
125,168,90437,5,0,0:0:0:0:
411,168,90437,5,0,0:0:0:0:
35,184,90465,5,0,0:0:0:0:
216,184,90465,5,0,0:0:0:0:
125,152,90466,5,0,0:0:0:0:
321,152,90466,5,0,0:0:0:0:
411,152,90466,5,0,0:0:0:0:
125,136,90481,5,0,0:0:0:0:
95,168,90495,5,0,0:0:0:0:
65,168,90495,5,0,0:0:0:0:
185,168,90495,5,0,0:0:0:0:
216,168,90495,5,0,0:0:0:0:
35,168,90495,5,0,0:0:0:0:
155,168,90495,5,0,0:0:0:0:
321,152,90496,5,0,0:0:0:0:
411,152,90496,5,0,0:0:0:0:
411,136,90509,5,0,0:0:0:0:
381,136,90510,5,0,0:0:0:0:
321,136,90510,5,0,0:0:0:0:
351,136,90510,5,0,0:0:0:0:
291,136,90510,5,0,0:0:0:0:
321,104,90524,5,0,0:0:0:0:
125,120,90525,5,0,0:0:0:0:
321,88,90553,5,0,0:0:0:0:
246,120,90554,5,0,0:0:0:0:
5,120,90554,5,0,0:0:0:0:
35,120,90554,5,0,0:0:0:0:
65,120,90554,5,0,0:0:0:0:
185,120,90554,5,0,0:0:0:0:
216,120,90554,5,0,0:0:0:0:
95,120,90554,5,0,0:0:0:0:
155,120,90554,5,0,0:0:0:0:
125,104,90569,5,0,0:0:0:0:
125,88,90583,5,0,0:0:0:0:
317,72,90583,5,0,0:0:0:0:
313,56,90597,5,0,0:0:0:0:
50,72,90598,5,0,0:0:0:0:
20,72,90598,5,0,0:0:0:0:
200,56,90613,5,0,0:0:0:0:
170,56,90613,5,0,0:0:0:0:
110,56,90613,5,0,0:0:0:0:
140,56,90613,5,0,0:0:0:0:
80,56,90613,5,0,0:0:0:0:
231,48,90627,5,0,0:0:0:0:
313,44,90627,5,0,0:0:0:0:
145,312,90686,5,0,0:0:0:0:
172,312,90686,5,0,0:0:0:0:
62,298,90700,5,0,0:0:0:0:
338,298,90700,5,0,0:0:0:0:
200,312,90701,5,0,0:0:0:0:
310,298,90715,5,0,0:0:0:0:
89,298,90715,5,0,0:0:0:0:
275,260,90716,5,0,0:0:0:0:
115,264,90716,5,0,0:0:0:0:
200,284,90730,5,0,0:0:0:0:
83,244,90745,5,0,0:0:0:0:
255,284,90745,5,0,0:0:0:0:
145,284,90745,5,0,0:0:0:0:
307,244,90745,5,0,0:0:0:0:
200,243,90759,5,0,0:0:0:0:
158,270,90759,5,0,0:0:0:0:
213,270,90759,5,0,0:0:0:0:
241,270,90759,5,0,0:0:0:0:
186,270,90759,5,0,0:0:0:0:
282,284,90774,5,0,0:0:0:0:
113,296,90774,5,0,0:0:0:0:
200,215,90788,5,0,0:0:0:0:
338,222,90789,5,0,0:0:0:0:
62,222,90789,5,0,0:0:0:0:
365,222,90789,5,0,0:0:0:0:
34,222,90789,5,0,0:0:0:0:
324,222,90803,5,0,0:0:0:0:
296,208,90803,5,0,0:0:0:0:
76,222,90803,5,0,0:0:0:0:
103,208,90803,5,0,0:0:0:0:
200,153,90818,5,0,0:0:0:0:
269,195,90818,5,0,0:0:0:0:
131,195,90818,5,0,0:0:0:0:
145,181,90833,5,0,0:0:0:0:
255,181,90833,5,0,0:0:0:0:
145,167,90846,5,0,0:0:0:0:
255,167,90846,5,0,0:0:0:0:
310,126,90861,5,0,0:0:0:0:
172,126,90861,5,0,0:0:0:0:
145,126,90861,5,0,0:0:0:0:
7,126,90861,5,0,0:0:0:0:
393,126,90861,5,0,0:0:0:0:
338,126,90861,5,0,0:0:0:0:
282,126,90862,5,0,0:0:0:0:
89,126,90862,5,0,0:0:0:0:
365,126,90862,5,0,0:0:0:0:
255,126,90862,5,0,0:0:0:0:
117,126,90862,5,0,0:0:0:0:
62,126,90862,5,0,0:0:0:0:
34,126,90862,5,0,0:0:0:0:
200,126,90862,5,0,0:0:0:0:
227,126,90862,5,0,0:0:0:0:
338,70,90875,5,0,0:0:0:0:
145,98,90876,5,0,0:0:0:0:
255,98,90876,5,0,0:0:0:0:
365,70,90876,5,0,0:0:0:0:
145,98,90890,5,0,0:0:0:0:
255,98,90890,5,0,0:0:0:0:
310,70,90904,5,0,0:0:0:0:
145,70,90904,5,0,0:0:0:0:
172,70,90904,5,0,0:0:0:0:
89,70,90905,5,0,0:0:0:0:
117,70,90905,5,0,0:0:0:0:
255,70,90905,5,0,0:0:0:0:
282,70,90905,5,0,0:0:0:0:
62,70,90905,5,0,0:0:0:0:
34,70,90905,5,0,0:0:0:0:
200,70,90905,5,0,0:0:0:0:
227,70,90905,5,0,0:0:0:0:
145,43,90920,5,0,0:0:0:0:
255,43,90920,5,0,0:0:0:0:
255,43,90934,5,0,0:0:0:0:
145,43,90934,5,0,0:0:0:0:
255,43,90949,5,0,0:0:0:0:
145,43,90949,5,0,0:0:0:0:
269,15,90964,5,0,0:0:0:0:
241,15,90964,5,0,0:0:0:0:
186,15,90964,5,0,0:0:0:0:
131,15,90964,5,0,0:0:0:0:
213,15,90964,5,0,0:0:0:0:
296,15,90964,5,0,0:0:0:0:
103,15,90964,5,0,0:0:0:0:
158,15,90965,5,0,0:0:0:0:
296,15,90978,5,0,0:0:0:0:
103,15,90978,5,0,0:0:0:0:
103,15,90993,5,0,0:0:0:0:
296,15,90993,5,0,0:0:0:0:
103,15,91008,5,0,0:0:0:0:
296,15,91008,5,0,0:0:0:0:
296,15,91023,5,0,0:0:0:0:
103,15,91023,5,0,0:0:0:0:
131,15,91023,5,0,0:0:0:0:
213,15,91023,5,0,0:0:0:0:
186,15,91023,5,0,0:0:0:0:
269,15,91023,5,0,0:0:0:0:
241,15,91023,5,0,0:0:0:0:
158,15,91024,5,0,0:0:0:0:
103,15,91037,5,0,0:0:0:0:
296,15,91037,5,0,0:0:0:0:
103,15,91052,5,0,0:0:0:0:
296,15,91052,5,0,0:0:0:0:
103,15,91066,5,0,0:0:0:0:
296,15,91066,5,0,0:0:0:0:
296,15,91081,5,0,0:0:0:0:
103,15,91081,5,0,0:0:0:0:
131,15,91081,5,0,0:0:0:0:
213,15,91081,5,0,0:0:0:0:
186,15,91081,5,0,0:0:0:0:
269,15,91081,5,0,0:0:0:0:
241,15,91081,5,0,0:0:0:0:
158,15,91082,5,0,0:0:0:0:
323,42,91520,5,0,0:0:0:0:
486,44,91521,5,0,0:0:0:0:
367,42,91521,5,0,0:0:0:0:
446,40,91521,5,0,0:0:0:0:
406,42,91521,5,0,0:0:0:0:
273,42,91521,5,0,0:0:0:0:
56,145,91638,5,0,0:0:0:0:
6,145,91639,5,0,0:0:0:0:
100,145,91639,5,0,0:0:0:0:
139,145,91639,5,0,0:0:0:0:
194,186,91697,5,0,0:0:0:0:
144,186,91698,5,0,0:0:0:0:
238,186,91698,5,0,0:0:0:0:
277,186,91698,5,0,0:0:0:0:
502,244,91754,5,0,0:0:0:0:
409,246,91755,5,0,0:0:0:0:
455,245,91755,5,0,0:0:0:0:
359,246,91756,5,0,0:0:0:0:
264,330,91873,5,0,0:0:0:0:
347,330,91874,5,0,0:0:0:0:
308,330,91874,5,0,0:0:0:0:
214,330,91874,5,0,0:0:0:0:
86,291,91931,5,0,0:0:0:0:
36,291,91932,5,0,0:0:0:0:
151,242,91990,5,0,0:0:0:0:
101,242,91991,5,0,0:0:0:0:
195,242,91991,5,0,0:0:0:0:
234,242,91991,5,0,0:0:0:0:
56,350,92048,5,0,0:0:0:0:
6,350,92049,5,0,0:0:0:0:
473,103,92108,5,0,0:0:0:0:
512,103,92108,5,0,0:0:0:0:
285,133,92166,5,0,0:0:0:0:
329,133,92167,5,0,0:0:0:0:
160,71,92224,5,0,0:0:0:0:
110,71,92225,5,0,0:0:0:0:
204,71,92225,5,0,0:0:0:0:
243,71,92225,5,0,0:0:0:0:
63,31,92341,5,0,0:0:0:0:
146,31,92342,5,0,0:0:0:0:
13,31,92342,5,0,0:0:0:0:
186,29,92342,5,0,0:0:0:0:
107,31,92342,5,0,0:0:0:0:
426,59,92400,5,0,0:0:0:0:
504,55,92400,5,0,0:0:0:0:
467,58,92400,5,0,0:0:0:0:
379,59,92401,5,0,0:0:0:0:
285,192,92459,5,0,0:0:0:0:
235,192,92460,5,0,0:0:0:0:
62,221,92576,5,0,0:0:0:0:
145,221,92577,5,0,0:0:0:0:
106,221,92577,5,0,0:0:0:0:
12,221,92577,5,0,0:0:0:0:
303,295,92635,5,0,0:0:0:0:
264,295,92635,5,0,0:0:0:0:
428,295,92693,5,0,0:0:0:0:
378,295,92694,5,0,0:0:0:0:
472,295,92694,5,0,0:0:0:0:
511,295,92694,5,0,0:0:0:0:
176,270,92751,5,0,0:0:0:0:
220,270,92752,5,0,0:0:0:0:
126,270,92752,5,0,0:0:0:0:
259,270,92752,5,0,0:0:0:0:
360,225,92811,5,0,0:0:0:0:
399,225,92811,5,0,0:0:0:0:
98,124,92869,5,0,0:0:0:0:
48,124,92870,5,0,0:0:0:0:
420,109,92927,5,0,0:0:0:0:
464,109,92928,5,0,0:0:0:0:
370,109,92928,5,0,0:0:0:0:
503,109,92928,5,0,0:0:0:0:
50,83,93044,5,0,0:0:0:0:
133,83,93045,5,0,0:0:0:0:
0,83,93045,5,0,0:0:0:0:
94,83,93045,5,0,0:0:0:0:
223,121,93103,5,0,0:0:0:0:
173,121,93104,5,0,0:0:0:0:
353,60,93162,5,0,0:0:0:0:
397,60,93163,5,0,0:0:0:0:
303,60,93163,5,0,0:0:0:0:
436,60,93163,5,0,0:0:0:0:
473,168,93221,5,0,0:0:0:0:
512,168,93221,5,0,0:0:0:0:
203,182,93279,5,0,0:0:0:0:
286,182,93280,5,0,0:0:0:0:
153,182,93280,5,0,0:0:0:0:
247,182,93280,5,0,0:0:0:0:
365,344,93338,5,0,0:0:0:0:
326,344,93338,5,0,0:0:0:0:
189,42,93396,5,0,0:0:0:0:
106,42,93397,5,0,0:0:0:0:
239,42,93397,5,0,0:0:0:0:
66,40,93397,5,0,0:0:0:0:
26,44,93397,5,0,0:0:0:0:
145,42,93397,5,0,0:0:0:0:
456,145,93514,5,0,0:0:0:0:
506,145,93515,5,0,0:0:0:0:
412,145,93515,5,0,0:0:0:0:
373,145,93515,5,0,0:0:0:0:
318,186,93573,5,0,0:0:0:0:
235,186,93574,5,0,0:0:0:0:
274,186,93574,5,0,0:0:0:0:
368,186,93574,5,0,0:0:0:0:
10,244,93630,5,0,0:0:0:0:
103,246,93631,5,0,0:0:0:0:
57,245,93631,5,0,0:0:0:0:
153,246,93632,5,0,0:0:0:0:
248,330,93749,5,0,0:0:0:0:
298,330,93750,5,0,0:0:0:0:
204,330,93750,5,0,0:0:0:0:
165,330,93750,5,0,0:0:0:0:
426,291,93807,5,0,0:0:0:0:
476,291,93808,5,0,0:0:0:0:
361,242,93866,5,0,0:0:0:0:
278,242,93867,5,0,0:0:0:0:
317,242,93867,5,0,0:0:0:0:
411,242,93867,5,0,0:0:0:0:
456,350,93924,5,0,0:0:0:0:
506,350,93925,5,0,0:0:0:0:
0,103,93984,5,0,0:0:0:0:
39,103,93984,5,0,0:0:0:0:
227,133,94042,5,0,0:0:0:0:
183,133,94043,5,0,0:0:0:0:
352,71,94100,5,0,0:0:0:0:
269,71,94101,5,0,0:0:0:0:
308,71,94101,5,0,0:0:0:0:
402,71,94101,5,0,0:0:0:0:
449,31,94217,5,0,0:0:0:0:
366,31,94218,5,0,0:0:0:0:
499,31,94218,5,0,0:0:0:0:
326,29,94218,5,0,0:0:0:0:
405,31,94218,5,0,0:0:0:0:
86,59,94276,5,0,0:0:0:0:
45,58,94276,5,0,0:0:0:0:
8,55,94276,5,0,0:0:0:0:
133,59,94277,5,0,0:0:0:0:
227,192,94335,5,0,0:0:0:0:
277,192,94336,5,0,0:0:0:0:
450,221,94452,5,0,0:0:0:0:
500,221,94453,5,0,0:0:0:0:
406,221,94453,5,0,0:0:0:0:
367,221,94453,5,0,0:0:0:0:
209,295,94511,5,0,0:0:0:0:
248,295,94511,5,0,0:0:0:0:
84,295,94569,5,0,0:0:0:0:
1,295,94570,5,0,0:0:0:0:
40,295,94570,5,0,0:0:0:0:
134,295,94570,5,0,0:0:0:0:
336,270,94627,5,0,0:0:0:0:
292,270,94628,5,0,0:0:0:0:
386,270,94628,5,0,0:0:0:0:
253,270,94628,5,0,0:0:0:0:
152,225,94687,5,0,0:0:0:0:
113,225,94687,5,0,0:0:0:0:
414,124,94745,5,0,0:0:0:0:
464,124,94746,5,0,0:0:0:0:
92,109,94803,5,0,0:0:0:0:
48,109,94804,5,0,0:0:0:0:
142,109,94804,5,0,0:0:0:0:
9,109,94804,5,0,0:0:0:0:
354,86,94920,5,0,0:0:0:0:
224,91,94921,5,0,0:0:0:0:
512,83,94921,5,0,0:0:0:0:
79,81,94921,5,0,0:0:0:0:
289,121,94979,5,0,0:0:0:0:
339,121,94980,5,0,0:0:0:0:
159,60,95038,5,0,0:0:0:0:
76,60,95039,5,0,0:0:0:0:
209,60,95039,5,0,0:0:0:0:
115,60,95039,5,0,0:0:0:0:
0,168,95097,5,0,0:0:0:0:
39,168,95097,5,0,0:0:0:0:
309,182,95155,5,0,0:0:0:0:
226,182,95156,5,0,0:0:0:0:
359,182,95156,5,0,0:0:0:0:
265,182,95156,5,0,0:0:0:0:
186,344,95214,5,0,0:0:0:0:
147,344,95214,5,0,0:0:0:0:
323,42,95271,5,0,0:0:0:0:
406,42,95272,5,0,0:0:0:0:
273,42,95272,5,0,0:0:0:0:
446,40,95272,5,0,0:0:0:0:
486,44,95272,5,0,0:0:0:0:
367,42,95272,5,0,0:0:0:0:
56,145,95389,5,0,0:0:0:0:
6,145,95390,5,0,0:0:0:0:
100,145,95390,5,0,0:0:0:0:
139,145,95390,5,0,0:0:0:0:
194,186,95448,5,0,0:0:0:0:
277,186,95449,5,0,0:0:0:0:
238,186,95449,5,0,0:0:0:0:
144,186,95449,5,0,0:0:0:0:
502,244,95505,5,0,0:0:0:0:
409,246,95506,5,0,0:0:0:0:
455,245,95506,5,0,0:0:0:0:
359,246,95507,5,0,0:0:0:0:
264,330,95624,5,0,0:0:0:0:
214,330,95625,5,0,0:0:0:0:
308,330,95625,5,0,0:0:0:0:
347,330,95625,5,0,0:0:0:0:
86,291,95682,5,0,0:0:0:0:
36,291,95683,5,0,0:0:0:0:
151,242,95741,5,0,0:0:0:0:
234,242,95742,5,0,0:0:0:0:
195,242,95742,5,0,0:0:0:0:
101,242,95742,5,0,0:0:0:0:
56,350,95799,5,0,0:0:0:0:
6,350,95800,5,0,0:0:0:0:
512,103,95859,5,0,0:0:0:0:
473,103,95859,5,0,0:0:0:0:
285,133,95917,5,0,0:0:0:0:
329,133,95918,5,0,0:0:0:0:
160,71,95975,5,0,0:0:0:0:
243,71,95976,5,0,0:0:0:0:
204,71,95976,5,0,0:0:0:0:
110,71,95976,5,0,0:0:0:0:
63,31,96092,5,0,0:0:0:0:
146,31,96093,5,0,0:0:0:0:
13,31,96093,5,0,0:0:0:0:
186,29,96093,5,0,0:0:0:0:
107,31,96093,5,0,0:0:0:0:
426,59,96151,5,0,0:0:0:0:
467,58,96151,5,0,0:0:0:0:
504,55,96151,5,0,0:0:0:0:
379,59,96152,5,0,0:0:0:0:
285,192,96210,5,0,0:0:0:0:
235,192,96211,5,0,0:0:0:0:
62,221,96327,5,0,0:0:0:0:
12,221,96328,5,0,0:0:0:0:
106,221,96328,5,0,0:0:0:0:
145,221,96328,5,0,0:0:0:0:
303,295,96386,5,0,0:0:0:0:
264,295,96386,5,0,0:0:0:0:
428,295,96444,5,0,0:0:0:0:
511,295,96445,5,0,0:0:0:0:
472,295,96445,5,0,0:0:0:0:
378,295,96445,5,0,0:0:0:0:
176,270,96502,5,0,0:0:0:0:
220,270,96503,5,0,0:0:0:0:
126,270,96503,5,0,0:0:0:0:
259,270,96503,5,0,0:0:0:0:
399,225,96562,5,0,0:0:0:0:
360,225,96562,5,0,0:0:0:0:
98,124,96620,5,0,0:0:0:0:
48,124,96621,5,0,0:0:0:0:
420,109,96678,5,0,0:0:0:0:
464,109,96679,5,0,0:0:0:0:
370,109,96679,5,0,0:0:0:0:
503,109,96679,5,0,0:0:0:0:
50,83,96795,5,0,0:0:0:0:
94,83,96796,5,0,0:0:0:0:
0,83,96796,5,0,0:0:0:0:
133,83,96796,5,0,0:0:0:0:
223,121,96854,5,0,0:0:0:0:
173,121,96855,5,0,0:0:0:0:
353,60,96913,5,0,0:0:0:0:
397,60,96914,5,0,0:0:0:0:
303,60,96914,5,0,0:0:0:0:
436,60,96914,5,0,0:0:0:0:
512,168,96972,5,0,0:0:0:0:
473,168,96972,5,0,0:0:0:0:
203,182,97030,5,0,0:0:0:0:
286,182,97031,5,0,0:0:0:0:
153,182,97031,5,0,0:0:0:0:
247,182,97031,5,0,0:0:0:0:
326,344,97089,5,0,0:0:0:0:
365,344,97089,5,0,0:0:0:0:
189,42,97147,5,0,0:0:0:0:
106,42,97148,5,0,0:0:0:0:
239,42,97148,5,0,0:0:0:0:
66,40,97148,5,0,0:0:0:0:
26,44,97148,5,0,0:0:0:0:
145,42,97148,5,0,0:0:0:0:
228,88,97321,5,0,0:0:0:0:
65,90,97322,5,0,0:0:0:0:
184,88,97322,5,0,0:0:0:0:
105,86,97322,5,0,0:0:0:0:
145,88,97322,5,0,0:0:0:0:
278,88,97322,5,0,0:0:0:0:
271,141,97498,5,0,0:0:0:0:
108,143,97499,5,0,0:0:0:0:
227,141,97499,5,0,0:0:0:0:
148,139,97499,5,0,0:0:0:0:
188,141,97499,5,0,0:0:0:0:
321,141,97499,5,0,0:0:0:0:
341,188,97615,5,0,0:0:0:0:
504,190,97616,5,0,0:0:0:0:
385,188,97616,5,0,0:0:0:0:
464,186,97616,5,0,0:0:0:0:
424,188,97616,5,0,0:0:0:0:
291,188,97616,5,0,0:0:0:0:
182,250,97791,5,0,0:0:0:0:
345,252,97792,5,0,0:0:0:0:
226,250,97792,5,0,0:0:0:0:
305,248,97792,5,0,0:0:0:0:
265,250,97792,5,0,0:0:0:0:
132,250,97792,5,0,0:0:0:0:
431,290,97966,5,0,0:0:0:0:
268,292,97967,5,0,0:0:0:0:
387,290,97967,5,0,0:0:0:0:
308,288,97967,5,0,0:0:0:0:
348,290,97967,5,0,0:0:0:0:
481,290,97967,5,0,0:0:0:0:
167,342,98084,5,0,0:0:0:0:
4,344,98085,5,0,0:0:0:0:
123,342,98085,5,0,0:0:0:0:
44,340,98085,5,0,0:0:0:0:
84,342,98085,5,0,0:0:0:0:
217,342,98085,5,0,0:0:0:0:
192,210,98142,5,0,0:0:0:0:
109,210,98143,5,0,0:0:0:0:
242,210,98143,5,0,0:0:0:0:
69,208,98143,5,0,0:0:0:0:
29,212,98143,5,0,0:0:0:0:
148,210,98143,5,0,0:0:0:0:
239,157,98201,5,0,0:0:0:0:
156,157,98202,5,0,0:0:0:0:
289,157,98202,5,0,0:0:0:0:
116,155,98202,5,0,0:0:0:0:
76,159,98202,5,0,0:0:0:0:
195,157,98202,5,0,0:0:0:0:
330,110,98259,5,0,0:0:0:0:
247,110,98260,5,0,0:0:0:0:
207,108,98260,5,0,0:0:0:0:
167,112,98260,5,0,0:0:0:0:
286,110,98260,5,0,0:0:0:0:
350,65,98318,5,0,0:0:0:0:
267,65,98319,5,0,0:0:0:0:
227,63,98319,5,0,0:0:0:0:
187,67,98319,5,0,0:0:0:0:
306,65,98319,5,0,0:0:0:0:
388,268,98435,5,0,0:0:0:0:
511,266,98436,5,0,0:0:0:0:
338,268,98436,5,0,0:0:0:0:
471,268,98436,5,0,0:0:0:0:
432,268,98436,5,0,0:0:0:0:
329,226,98494,5,0,0:0:0:0:
412,226,98495,5,0,0:0:0:0:
452,224,98495,5,0,0:0:0:0:
373,226,98495,5,0,0:0:0:0:
492,228,98495,5,0,0:0:0:0:
163,92,98611,5,0,0:0:0:0:
0,94,98612,5,0,0:0:0:0:
40,90,98612,5,0,0:0:0:0:
213,92,98612,5,0,0:0:0:0:
80,92,98612,5,0,0:0:0:0:
119,92,98612,5,0,0:0:0:0:
183,47,98670,5,0,0:0:0:0:
100,47,98671,5,0,0:0:0:0:
60,45,98671,5,0,0:0:0:0:
139,47,98671,5,0,0:0:0:0:
20,49,98671,5,0,0:0:0:0:
233,47,98671,5,0,0:0:0:0:
452,155,98787,5,0,0:0:0:0:
329,153,98788,5,0,0:0:0:0:
289,157,98788,5,0,0:0:0:0:
369,155,98788,5,0,0:0:0:0:
502,155,98788,5,0,0:0:0:0:
408,155,98788,5,0,0:0:0:0:
117,155,98904,6,0,P|140:97|215:18,2,172.5
299,170,98904,6,0,P|322:112|426:61,2,172.5
74,44,99254,5,0,0:0:0:0:
486,44,99255,5,0,0:0:0:0:
367,42,99255,5,0,0:0:0:0:
446,40,99255,5,0,0:0:0:0:
406,42,99255,5,0,0:0:0:0:
24,44,99255,5,0,0:0:0:0:
56,145,99372,5,0,0:0:0:0:
139,145,99373,5,0,0:0:0:0:
100,145,99373,5,0,0:0:0:0:
6,145,99373,5,0,0:0:0:0:
194,186,99431,5,0,0:0:0:0:
144,186,99432,5,0,0:0:0:0:
238,186,99432,5,0,0:0:0:0:
277,186,99432,5,0,0:0:0:0:
502,244,99488,5,0,0:0:0:0:
455,245,99489,5,0,0:0:0:0:
409,246,99489,5,0,0:0:0:0:
359,246,99490,5,0,0:0:0:0:
264,330,99607,5,0,0:0:0:0:
347,330,99608,5,0,0:0:0:0:
308,330,99608,5,0,0:0:0:0:
214,330,99608,5,0,0:0:0:0:
86,291,99665,5,0,0:0:0:0:
36,291,99666,5,0,0:0:0:0:
151,242,99724,5,0,0:0:0:0:
101,242,99725,5,0,0:0:0:0:
195,242,99725,5,0,0:0:0:0:
234,242,99725,5,0,0:0:0:0:
56,350,99782,5,0,0:0:0:0:
6,350,99783,5,0,0:0:0:0:
473,103,99842,5,0,0:0:0:0:
512,103,99842,5,0,0:0:0:0:
285,133,99900,5,0,0:0:0:0:
329,133,99901,5,0,0:0:0:0:
160,71,99958,5,0,0:0:0:0:
110,71,99959,5,0,0:0:0:0:
204,71,99959,5,0,0:0:0:0:
243,71,99959,5,0,0:0:0:0:
63,31,100075,5,0,0:0:0:0:
186,29,100076,5,0,0:0:0:0:
107,31,100076,5,0,0:0:0:0:
146,31,100076,5,0,0:0:0:0:
13,31,100076,5,0,0:0:0:0:
426,59,100134,5,0,0:0:0:0:
504,55,100134,5,0,0:0:0:0:
467,58,100134,5,0,0:0:0:0:
379,59,100135,5,0,0:0:0:0:
285,192,100193,5,0,0:0:0:0:
235,192,100194,5,0,0:0:0:0:
62,221,100310,5,0,0:0:0:0:
12,221,100311,5,0,0:0:0:0:
106,221,100311,5,0,0:0:0:0:
145,221,100311,5,0,0:0:0:0:
303,295,100369,5,0,0:0:0:0:
264,295,100369,5,0,0:0:0:0:
428,295,100427,5,0,0:0:0:0:
511,295,100428,5,0,0:0:0:0:
472,295,100428,5,0,0:0:0:0:
378,295,100428,5,0,0:0:0:0:
176,270,100485,5,0,0:0:0:0:
259,270,100486,5,0,0:0:0:0:
126,270,100486,5,0,0:0:0:0:
220,270,100486,5,0,0:0:0:0:
360,225,100545,5,0,0:0:0:0:
399,225,100545,5,0,0:0:0:0:
98,124,100603,5,0,0:0:0:0:
48,124,100604,5,0,0:0:0:0:
420,109,100661,5,0,0:0:0:0:
464,109,100662,5,0,0:0:0:0:
370,109,100662,5,0,0:0:0:0:
503,109,100662,5,0,0:0:0:0:
50,83,100778,5,0,0:0:0:0:
94,83,100779,5,0,0:0:0:0:
0,83,100779,5,0,0:0:0:0:
133,83,100779,5,0,0:0:0:0:
223,121,100837,5,0,0:0:0:0:
173,121,100838,5,0,0:0:0:0:
353,60,100896,5,0,0:0:0:0:
436,60,100897,5,0,0:0:0:0:
303,60,100897,5,0,0:0:0:0:
397,60,100897,5,0,0:0:0:0:
473,168,100955,5,0,0:0:0:0:
512,168,100955,5,0,0:0:0:0:
203,182,101013,5,0,0:0:0:0:
247,182,101014,5,0,0:0:0:0:
153,182,101014,5,0,0:0:0:0:
286,182,101014,5,0,0:0:0:0:
365,344,101072,5,0,0:0:0:0:
326,344,101072,5,0,0:0:0:0:
189,42,101130,5,0,0:0:0:0:
106,42,101131,5,0,0:0:0:0:
239,42,101131,5,0,0:0:0:0:
66,40,101131,5,0,0:0:0:0:
26,44,101131,5,0,0:0:0:0:
145,42,101131,5,0,0:0:0:0:
456,145,101248,5,0,0:0:0:0:
373,145,101249,5,0,0:0:0:0:
412,145,101249,5,0,0:0:0:0:
506,145,101249,5,0,0:0:0:0:
318,186,101307,5,0,0:0:0:0:
235,186,101308,5,0,0:0:0:0:
274,186,101308,5,0,0:0:0:0:
368,186,101308,5,0,0:0:0:0:
10,244,101364,5,0,0:0:0:0:
57,245,101365,5,0,0:0:0:0:
103,246,101365,5,0,0:0:0:0:
153,246,101366,5,0,0:0:0:0:
248,330,101483,5,0,0:0:0:0:
298,330,101484,5,0,0:0:0:0:
204,330,101484,5,0,0:0:0:0:
165,330,101484,5,0,0:0:0:0:
426,291,101541,5,0,0:0:0:0:
476,291,101542,5,0,0:0:0:0:
361,242,101600,5,0,0:0:0:0:
278,242,101601,5,0,0:0:0:0:
317,242,101601,5,0,0:0:0:0:
411,242,101601,5,0,0:0:0:0:
456,350,101658,5,0,0:0:0:0:
506,350,101659,5,0,0:0:0:0:
39,103,101718,5,0,0:0:0:0:
0,103,101718,5,0,0:0:0:0:
227,133,101776,5,0,0:0:0:0:
183,133,101777,5,0,0:0:0:0:
281,69,101834,6,0,L|284:193,1,115
342,68,101834,6,0,L|343:194,1,115
403,69,101834,6,0,L|405:198,1,115
462,66,101834,6,0,L|463:209,1,115
122,189,102009,6,0,L|124:318,1,115
181,186,102009,6,0,L|182:329,1,115
0,189,102009,6,0,L|3:313,1,115
61,188,102009,6,0,L|62:314,1,115
254,38,102185,6,0,L|256:167,1,115
313,35,102185,6,0,L|314:178,1,115
132,38,102185,6,0,L|135:162,1,115
193,37,102185,6,0,L|194:163,1,115
306,36,102419,6,0,L|375:146,1,115
367,35,102419,6,0,L|312:143,1,115
428,36,102419,6,0,L|486:152,1,115
486,33,102419,6,0,L|424:154,1,115
431,152,102595,6,0,L|357:260,1,115
489,149,102595,6,0,L|427:270,1,115
309,152,102595,6,0,L|378:262,1,115
368,147,102595,6,0,L|435:257,1,115
403,284,102771,5,0,0:0:0:0:
403,284,102786,5,0,0:0:0:0:
403,284,102800,5,0,0:0:0:0:
403,284,102815,5,0,0:0:0:0:
403,284,102830,5,0,0:0:0:0:
403,284,102844,5,0,0:0:0:0:
403,284,102859,5,0,0:0:0:0:
403,284,102874,5,0,0:0:0:0:
403,284,102888,5,0,0:0:0:0:
403,284,102903,5,0,0:0:0:0:
403,284,102917,5,0,0:0:0:0:
403,284,102932,5,0,0:0:0:0:
403,284,102947,5,0,0:0:0:0:
403,284,102976,5,0,0:0:0:0:
403,284,103034,5,0,0:0:0:0:
360,300,103093,5,0,0:0:0:0:
452,304,103093,5,0,0:0:0:0:
283,311,103152,5,0,0:0:0:0:
505,324,103152,5,0,0:0:0:0:
186,318,103210,5,0,0:0:0:0:
8,315,103210,5,0,0:0:0:0:
59,298,103283,5,0,0:0:0:0:
136,294,103283,5,0,0:0:0:0:
97,268,103328,5,0,0:0:0:0:
97,268,103357,5,0,0:0:0:0:
97,268,103386,5,0,0:0:0:0:
97,268,103401,5,0,0:0:0:0:
97,268,103416,5,0,0:0:0:0:
97,268,103430,5,0,0:0:0:0:
97,268,103445,5,0,0:0:0:0:
97,268,103459,5,0,0:0:0:0:
94,142,103474,5,0,0:0:0:0:
94,142,103489,5,0,0:0:0:0:
94,142,103503,5,0,0:0:0:0:
94,142,103518,5,0,0:0:0:0:
94,142,103533,5,0,0:0:0:0:
94,142,103547,5,0,0:0:0:0:
115,168,103577,5,0,0:0:0:0:
81,169,103577,5,0,0:0:0:0:
172,194,103621,5,0,0:0:0:0:
32,187,103621,5,0,0:0:0:0:
251,191,103679,5,0,0:0:0:0:
497,167,103723,5,0,0:0:0:0:
316,169,103723,5,0,0:0:0:0:
369,146,103767,5,0,0:0:0:0:
446,150,103767,5,0,0:0:0:0:
408,120,103812,5,0,0:0:0:0:
408,120,103841,5,0,0:0:0:0:
408,120,103870,5,0,0:0:0:0:
408,120,103885,5,0,0:0:0:0:
408,120,103900,5,0,0:0:0:0:
408,120,103914,5,0,0:0:0:0:
408,120,103929,5,0,0:0:0:0:
408,120,103943,5,0,0:0:0:0:
408,120,103958,5,0,0:0:0:0:
408,120,103972,5,0,0:0:0:0:
408,120,103987,5,0,0:0:0:0:
408,120,104001,5,0,0:0:0:0:
408,120,104016,5,0,0:0:0:0:
408,120,104031,5,0,0:0:0:0:
408,120,104045,5,0,0:0:0:0:
132,88,104177,5,0,0:0:0:0:
132,88,104236,5,0,0:0:0:0:
132,88,104294,5,0,0:0:0:0:
132,88,104412,5,0,0:0:0:0:
132,88,104529,5,0,0:0:0:0:
256,192,104646,12,0,105466,0:0:0:0:
465,288,104646,6,0,B|460:229|393:132|296:117|273:99|262:62|243:28|231:159|251:333|211:328|192:206|189:188|179:11|194:8|201:48|203:344,1,790.625
256,192,105584,12,0,106287,0:0:0:0:
20,288,105584,6,0,B|25:229|92:132|189:117|212:99|223:62|242:28|254:159|234:333|274:328|300:142|300:142|230:136|230:136|319:98,1,733.125
128,192,106520,5,0,0:0:0:0:
96,192,106521,5,0,0:0:0:0:
0,192,106521,5,0,0:0:0:0:
160,192,106521,5,0,0:0:0:0:
320,192,106521,5,0,0:0:0:0:
32,192,106521,5,0,0:0:0:0:
256,192,106521,5,0,0:0:0:0:
192,192,106521,5,0,0:0:0:0:
512,192,106521,5,0,0:0:0:0:
64,192,106521,5,0,0:0:0:0:
288,192,106521,5,0,0:0:0:0:
224,192,106521,5,0,0:0:0:0:
128,160,106580,5,0,0:0:0:0:
512,160,106581,5,0,0:0:0:0:
192,160,106581,5,0,0:0:0:0:
224,160,106581,5,0,0:0:0:0:
64,160,106581,5,0,0:0:0:0:
288,160,106581,5,0,0:0:0:0:
160,160,106581,5,0,0:0:0:0:
96,160,106581,5,0,0:0:0:0:
0,160,106581,5,0,0:0:0:0:
32,160,106581,5,0,0:0:0:0:
256,160,106581,5,0,0:0:0:0:
480,160,106581,5,0,0:0:0:0:
128,128,106638,5,0,0:0:0:0:
32,128,106639,5,0,0:0:0:0:
480,128,106639,5,0,0:0:0:0:
96,128,106639,5,0,0:0:0:0:
448,128,106639,5,0,0:0:0:0:
160,128,106639,5,0,0:0:0:0:
0,128,106639,5,0,0:0:0:0:
64,128,106639,5,0,0:0:0:0:
512,128,106639,5,0,0:0:0:0:
224,128,106639,5,0,0:0:0:0:
192,128,106639,5,0,0:0:0:0:
384,96,106699,5,0,0:0:0:0:
32,96,106699,5,0,0:0:0:0:
480,96,106699,5,0,0:0:0:0:
96,96,106699,5,0,0:0:0:0:
448,96,106699,5,0,0:0:0:0:
160,96,106699,5,0,0:0:0:0:
0,96,106699,5,0,0:0:0:0:
64,96,106699,5,0,0:0:0:0:
512,96,106699,5,0,0:0:0:0:
192,96,106699,5,0,0:0:0:0:
416,96,106699,5,0,0:0:0:0:
480,384,106699,5,0,0:0:0:0:
128,384,106753,5,0,0:0:0:0:
320,384,106754,5,0,0:0:0:0:
480,384,106754,5,0,0:0:0:0:
32,384,106754,5,0,0:0:0:0:
384,384,106754,5,0,0:0:0:0:
96,384,106754,5,0,0:0:0:0:
0,384,106754,5,0,0:0:0:0:
64,384,106754,5,0,0:0:0:0:
448,384,106754,5,0,0:0:0:0:
416,384,106754,5,0,0:0:0:0:
512,384,106754,5,0,0:0:0:0:
352,384,106754,5,0,0:0:0:0:
480,352,106814,5,0,0:0:0:0:
320,352,106814,5,0,0:0:0:0:
32,352,106814,5,0,0:0:0:0:
0,352,106814,5,0,0:0:0:0:
96,352,106814,5,0,0:0:0:0:
384,352,106814,5,0,0:0:0:0:
64,352,106814,5,0,0:0:0:0:
416,352,106814,5,0,0:0:0:0:
448,352,106814,5,0,0:0:0:0:
288,352,106814,5,0,0:0:0:0:
352,352,106814,5,0,0:0:0:0:
512,352,106814,5,0,0:0:0:0:
128,320,106871,5,0,0:0:0:0:
448,320,106872,5,0,0:0:0:0:
64,320,106872,5,0,0:0:0:0:
480,320,106872,5,0,0:0:0:0:
320,320,106872,5,0,0:0:0:0:
96,320,106872,5,0,0:0:0:0:
416,320,106872,5,0,0:0:0:0:
512,320,106872,5,0,0:0:0:0:
32,320,106872,5,0,0:0:0:0:
0,320,106872,5,0,0:0:0:0:
352,320,106872,5,0,0:0:0:0:
384,320,106872,5,0,0:0:0:0:
128,288,106931,5,0,0:0:0:0:
416,288,106932,5,0,0:0:0:0:
192,288,106932,5,0,0:0:0:0:
384,288,106932,5,0,0:0:0:0:
512,288,106932,5,0,0:0:0:0:
64,288,106932,5,0,0:0:0:0:
160,288,106932,5,0,0:0:0:0:
0,288,106932,5,0,0:0:0:0:
32,288,106932,5,0,0:0:0:0:
448,288,106932,5,0,0:0:0:0:
96,288,106932,5,0,0:0:0:0:
480,288,106932,5,0,0:0:0:0:
128,256,106990,5,0,0:0:0:0:
480,256,106991,5,0,0:0:0:0:
32,256,106991,5,0,0:0:0:0:
96,256,106991,5,0,0:0:0:0:
0,256,106991,5,0,0:0:0:0:
160,256,106991,5,0,0:0:0:0:
256,256,106991,5,0,0:0:0:0:
288,256,106991,5,0,0:0:0:0:
64,256,106991,5,0,0:0:0:0:
224,256,106991,5,0,0:0:0:0:
192,256,106991,5,0,0:0:0:0:
512,256,106991,5,0,0:0:0:0:
128,224,107050,5,0,0:0:0:0:
320,224,107051,5,0,0:0:0:0:
256,224,107051,5,0,0:0:0:0:
32,224,107051,5,0,0:0:0:0:
0,224,107051,5,0,0:0:0:0:
96,224,107051,5,0,0:0:0:0:
160,224,107051,5,0,0:0:0:0:
64,224,107051,5,0,0:0:0:0:
224,224,107051,5,0,0:0:0:0:
192,224,107051,5,0,0:0:0:0:
288,224,107051,5,0,0:0:0:0:
512,224,107051,5,0,0:0:0:0:
128,192,107108,5,0,0:0:0:0:
64,192,107109,5,0,0:0:0:0:
320,192,107109,5,0,0:0:0:0:
256,192,107109,5,0,0:0:0:0:
96,192,107109,5,0,0:0:0:0:
160,192,107109,5,0,0:0:0:0:
512,192,107109,5,0,0:0:0:0:
288,192,107109,5,0,0:0:0:0:
192,192,107109,5,0,0:0:0:0:
224,192,107109,5,0,0:0:0:0:
32,192,107109,5,0,0:0:0:0:
0,192,107109,5,0,0:0:0:0:
352,192,107109,5,0,0:0:0:0:
128,160,107168,5,0,0:0:0:0:
192,160,107169,5,0,0:0:0:0:
288,160,107169,5,0,0:0:0:0:
512,160,107169,5,0,0:0:0:0:
64,160,107169,5,0,0:0:0:0:
160,160,107169,5,0,0:0:0:0:
224,160,107169,5,0,0:0:0:0:
0,160,107169,5,0,0:0:0:0:
32,160,107169,5,0,0:0:0:0:
96,160,107169,5,0,0:0:0:0:
480,160,107169,5,0,0:0:0:0:
256,160,107169,5,0,0:0:0:0:
128,128,107224,5,0,0:0:0:0:
480,128,107225,5,0,0:0:0:0:
32,128,107225,5,0,0:0:0:0:
384,128,107225,5,0,0:0:0:0:
96,128,107225,5,0,0:0:0:0:
0,128,107225,5,0,0:0:0:0:
160,128,107225,5,0,0:0:0:0:
64,128,107225,5,0,0:0:0:0:
448,128,107225,5,0,0:0:0:0:
416,128,107225,5,0,0:0:0:0:
192,128,107225,5,0,0:0:0:0:
512,128,107225,5,0,0:0:0:0:
128,96,107284,5,0,0:0:0:0:
480,96,107285,5,0,0:0:0:0:
320,96,107285,5,0,0:0:0:0:
32,96,107285,5,0,0:0:0:0:
0,96,107285,5,0,0:0:0:0:
96,96,107285,5,0,0:0:0:0:
384,96,107285,5,0,0:0:0:0:
64,96,107285,5,0,0:0:0:0:
416,96,107285,5,0,0:0:0:0:
448,96,107285,5,0,0:0:0:0:
352,96,107285,5,0,0:0:0:0:
512,96,107285,5,0,0:0:0:0:
448,64,107343,5,0,0:0:0:0:
64,64,107343,5,0,0:0:0:0:
480,64,107343,5,0,0:0:0:0:
320,64,107343,5,0,0:0:0:0:
256,64,107343,5,0,0:0:0:0:
416,64,107343,5,0,0:0:0:0:
512,64,107343,5,0,0:0:0:0:
288,64,107343,5,0,0:0:0:0:
224,64,107343,5,0,0:0:0:0:
32,64,107343,5,0,0:0:0:0:
0,64,107343,5,0,0:0:0:0:
352,64,107343,5,0,0:0:0:0:
384,64,107343,5,0,0:0:0:0:
416,32,107403,5,0,0:0:0:0:
192,32,107403,5,0,0:0:0:0:
288,32,107403,5,0,0:0:0:0:
384,32,107403,5,0,0:0:0:0:
512,32,107403,5,0,0:0:0:0:
160,32,107403,5,0,0:0:0:0:
224,32,107403,5,0,0:0:0:0:
320,32,107403,5,0,0:0:0:0:
0,32,107403,5,0,0:0:0:0:
448,32,107403,5,0,0:0:0:0:
480,32,107403,5,0,0:0:0:0:
352,32,107403,5,0,0:0:0:0:
256,32,107403,5,0,0:0:0:0:
320,384,107460,5,0,0:0:0:0:
480,384,107460,5,0,0:0:0:0:
384,384,107460,5,0,0:0:0:0:
0,384,107460,5,0,0:0:0:0:
160,384,107460,5,0,0:0:0:0:
256,384,107460,5,0,0:0:0:0:
288,384,107460,5,0,0:0:0:0:
448,384,107460,5,0,0:0:0:0:
224,384,107460,5,0,0:0:0:0:
416,384,107460,5,0,0:0:0:0:
192,384,107460,5,0,0:0:0:0:
512,384,107460,5,0,0:0:0:0:
352,384,107460,5,0,0:0:0:0:
0,384,107517,6,0,B|8:216|8:200|16:168|28:156|276:140|288:128|280:80|296:20,1,517.5
160,384,107517,6,0,B|168:216|264:264|452:268|456:264|448:168|448:128|440:80|456:20,1,517.5
480,224,108396,5,0,0:0:0:0:
224,224,108396,5,0,0:0:0:0:
96,224,108396,5,0,0:0:0:0:
352,224,108397,5,0,0:0:0:0:
487,228,108411,5,0,0:0:0:0:
231,228,108411,5,0,0:0:0:0:
103,228,108411,5,0,0:0:0:0:
359,228,108412,5,0,0:0:0:0:
416,192,108513,5,0,0:0:0:0:
288,192,108513,5,0,0:0:0:0:
160,192,108513,5,0,0:0:0:0:
32,192,108513,5,0,0:0:0:0:
423,196,108528,5,0,0:0:0:0:
167,196,108528,5,0,0:0:0:0:
39,196,108528,5,0,0:0:0:0:
295,196,108528,5,0,0:0:0:0:
480,224,108630,5,0,0:0:0:0:
224,224,108630,5,0,0:0:0:0:
96,224,108630,5,0,0:0:0:0:
352,224,108631,5,0,0:0:0:0:
487,228,108645,5,0,0:0:0:0:
231,228,108645,5,0,0:0:0:0:
103,228,108645,5,0,0:0:0:0:
359,228,108646,5,0,0:0:0:0:
416,192,108747,5,0,0:0:0:0:
32,192,108747,5,0,0:0:0:0:
288,192,108747,5,0,0:0:0:0:
160,192,108747,5,0,0:0:0:0:
423,196,108762,5,0,0:0:0:0:
295,196,108762,5,0,0:0:0:0:
167,196,108762,5,0,0:0:0:0:
39,196,108762,5,0,0:0:0:0:
472,166,108865,5,0,0:0:0:0:
216,166,108865,5,0,0:0:0:0:
88,166,108865,5,0,0:0:0:0:
344,166,108866,5,0,0:0:0:0:
479,170,108880,5,0,0:0:0:0:
223,170,108880,5,0,0:0:0:0:
95,170,108880,5,0,0:0:0:0:
351,170,108881,5,0,0:0:0:0:
408,134,108982,5,0,0:0:0:0:
24,134,108982,5,0,0:0:0:0:
280,134,108982,5,0,0:0:0:0:
152,134,108982,5,0,0:0:0:0:
415,138,108997,5,0,0:0:0:0:
287,138,108997,5,0,0:0:0:0:
159,138,108997,5,0,0:0:0:0:
31,138,108997,5,0,0:0:0:0:
472,166,109099,5,0,0:0:0:0:
88,166,109099,5,0,0:0:0:0:
216,166,109099,5,0,0:0:0:0:
344,166,109100,5,0,0:0:0:0:
479,170,109114,5,0,0:0:0:0:
95,170,109114,5,0,0:0:0:0:
223,170,109114,5,0,0:0:0:0:
351,170,109115,5,0,0:0:0:0:
408,134,109216,5,0,0:0:0:0:
280,134,109216,5,0,0:0:0:0:
152,134,109216,5,0,0:0:0:0:
24,134,109216,5,0,0:0:0:0:
415,138,109231,5,0,0:0:0:0:
159,138,109231,5,0,0:0:0:0:
31,138,109231,5,0,0:0:0:0:
287,138,109231,5,0,0:0:0:0:
458,90,109334,5,0,0:0:0:0:
74,90,109334,5,0,0:0:0:0:
202,90,109334,5,0,0:0:0:0:
330,90,109335,5,0,0:0:0:0:
465,94,109349,5,0,0:0:0:0:
81,94,109349,5,0,0:0:0:0:
209,94,109349,5,0,0:0:0:0:
337,94,109350,5,0,0:0:0:0:
394,58,109451,5,0,0:0:0:0:
10,58,109451,5,0,0:0:0:0:
266,58,109451,5,0,0:0:0:0:
138,58,109451,5,0,0:0:0:0:
401,62,109466,5,0,0:0:0:0:
273,62,109466,5,0,0:0:0:0:
145,62,109466,5,0,0:0:0:0:
17,62,109466,5,0,0:0:0:0:
458,90,109568,5,0,0:0:0:0:
202,90,109568,5,0,0:0:0:0:
74,90,109568,5,0,0:0:0:0:
330,90,109569,5,0,0:0:0:0:
465,94,109583,5,0,0:0:0:0:
209,94,109583,5,0,0:0:0:0:
81,94,109583,5,0,0:0:0:0:
337,94,109584,5,0,0:0:0:0:
394,58,109685,5,0,0:0:0:0:
266,58,109685,5,0,0:0:0:0:
138,58,109685,5,0,0:0:0:0:
10,58,109685,5,0,0:0:0:0:
401,62,109700,5,0,0:0:0:0:
145,62,109700,5,0,0:0:0:0:
17,62,109700,5,0,0:0:0:0:
273,62,109700,5,0,0:0:0:0:
451,349,109802,5,0,0:0:0:0:
195,349,109802,5,0,0:0:0:0:
67,349,109802,5,0,0:0:0:0:
323,349,109803,5,0,0:0:0:0:
458,353,109817,5,0,0:0:0:0:
202,353,109817,5,0,0:0:0:0:
74,353,109817,5,0,0:0:0:0:
330,353,109818,5,0,0:0:0:0:
387,317,109919,5,0,0:0:0:0:
3,317,109919,5,0,0:0:0:0:
259,317,109919,5,0,0:0:0:0:
131,317,109919,5,0,0:0:0:0:
394,321,109934,5,0,0:0:0:0:
266,321,109934,5,0,0:0:0:0:
10,321,109934,5,0,0:0:0:0:
138,321,109934,5,0,0:0:0:0:
451,349,110036,5,0,0:0:0:0:
67,349,110036,5,0,0:0:0:0:
195,349,110036,5,0,0:0:0:0:
323,349,110037,5,0,0:0:0:0:
458,353,110051,5,0,0:0:0:0:
202,353,110051,5,0,0:0:0:0:
74,353,110051,5,0,0:0:0:0:
330,353,110052,5,0,0:0:0:0:
387,317,110153,5,0,0:0:0:0:
259,317,110153,5,0,0:0:0:0:
131,317,110153,5,0,0:0:0:0:
3,317,110153,5,0,0:0:0:0:
394,321,110168,5,0,0:0:0:0:
138,321,110168,5,0,0:0:0:0:
266,321,110168,5,0,0:0:0:0:
10,321,110168,5,0,0:0:0:0:
465,262,110271,5,0,0:0:0:0:
81,262,110271,5,0,0:0:0:0:
209,262,110271,5,0,0:0:0:0:
337,262,110272,5,0,0:0:0:0:
472,266,110286,5,0,0:0:0:0:
216,266,110286,5,0,0:0:0:0:
88,266,110286,5,0,0:0:0:0:
344,266,110287,5,0,0:0:0:0:
401,230,110388,5,0,0:0:0:0:
17,230,110388,5,0,0:0:0:0:
273,230,110388,5,0,0:0:0:0:
145,230,110388,5,0,0:0:0:0:
408,234,110403,5,0,0:0:0:0:
280,234,110403,5,0,0:0:0:0:
24,234,110403,5,0,0:0:0:0:
152,234,110403,5,0,0:0:0:0:
465,262,110505,5,0,0:0:0:0:
209,262,110505,5,0,0:0:0:0:
81,262,110505,5,0,0:0:0:0:
337,262,110506,5,0,0:0:0:0:
472,266,110520,5,0,0:0:0:0:
88,266,110520,5,0,0:0:0:0:
216,266,110520,5,0,0:0:0:0:
344,266,110521,5,0,0:0:0:0:
401,230,110622,5,0,0:0:0:0:
273,230,110622,5,0,0:0:0:0:
145,230,110622,5,0,0:0:0:0:
17,230,110622,5,0,0:0:0:0:
408,234,110637,5,0,0:0:0:0:
152,234,110637,5,0,0:0:0:0:
24,234,110637,5,0,0:0:0:0:
280,234,110637,5,0,0:0:0:0:
479,206,110740,5,0,0:0:0:0:
223,206,110740,5,0,0:0:0:0:
95,206,110740,5,0,0:0:0:0:
351,206,110741,5,0,0:0:0:0:
486,210,110755,5,0,0:0:0:0:
230,210,110755,5,0,0:0:0:0:
102,210,110755,5,0,0:0:0:0:
358,210,110756,5,0,0:0:0:0:
415,174,110857,5,0,0:0:0:0:
31,174,110857,5,0,0:0:0:0:
287,174,110857,5,0,0:0:0:0:
159,174,110857,5,0,0:0:0:0:
422,178,110872,5,0,0:0:0:0:
294,178,110872,5,0,0:0:0:0:
166,178,110872,5,0,0:0:0:0:
38,178,110872,5,0,0:0:0:0:
479,206,110974,5,0,0:0:0:0:
95,206,110974,5,0,0:0:0:0:
223,206,110974,5,0,0:0:0:0:
351,206,110975,5,0,0:0:0:0:
486,210,110989,5,0,0:0:0:0:
102,210,110989,5,0,0:0:0:0:
230,210,110989,5,0,0:0:0:0:
358,210,110990,5,0,0:0:0:0:
415,174,111091,5,0,0:0:0:0:
287,174,111091,5,0,0:0:0:0:
159,174,111091,5,0,0:0:0:0:
31,174,111091,5,0,0:0:0:0:
422,178,111106,5,0,0:0:0:0:
166,178,111106,5,0,0:0:0:0:
38,178,111106,5,0,0:0:0:0:
294,178,111106,5,0,0:0:0:0:
499,132,111209,5,0,0:0:0:0:
115,132,111209,5,0,0:0:0:0:
243,132,111209,5,0,0:0:0:0:
371,132,111210,5,0,0:0:0:0:
501,124,111238,5,0,0:0:0:0:
245,124,111238,5,0,0:0:0:0:
117,124,111238,5,0,0:0:0:0:
373,124,111239,5,0,0:0:0:0:
501,115,111267,5,0,0:0:0:0:
245,115,111267,5,0,0:0:0:0:
117,115,111267,5,0,0:0:0:0:
373,115,111268,5,0,0:0:0:0:
434,99,111443,5,0,0:0:0:0:
50,99,111443,5,0,0:0:0:0:
178,99,111443,5,0,0:0:0:0:
306,99,111444,5,0,0:0:0:0:
436,91,111472,5,0,0:0:0:0:
180,91,111472,5,0,0:0:0:0:
52,91,111472,5,0,0:0:0:0:
308,91,111473,5,0,0:0:0:0:
436,82,111501,5,0,0:0:0:0:
52,82,111501,5,0,0:0:0:0:
180,82,111501,5,0,0:0:0:0:
308,82,111502,5,0,0:0:0:0:
480,224,112146,5,0,0:0:0:0:
96,224,112146,5,0,0:0:0:0:
224,224,112146,5,0,0:0:0:0:
352,224,112147,5,0,0:0:0:0:
487,228,112161,5,0,0:0:0:0:
231,228,112161,5,0,0:0:0:0:
103,228,112161,5,0,0:0:0:0:
359,228,112162,5,0,0:0:0:0:
485,239,112263,5,0,0:0:0:0:
101,239,112263,5,0,0:0:0:0:
229,239,112263,5,0,0:0:0:0:
357,239,112264,5,0,0:0:0:0:
492,243,112278,5,0,0:0:0:0:
108,243,112278,5,0,0:0:0:0:
236,243,112278,5,0,0:0:0:0:
364,243,112279,5,0,0:0:0:0:
416,192,112380,5,0,0:0:0:0:
160,192,112380,5,0,0:0:0:0:
288,192,112380,5,0,0:0:0:0:
32,192,112380,5,0,0:0:0:0:
423,196,112395,5,0,0:0:0:0:
295,196,112395,5,0,0:0:0:0:
167,196,112395,5,0,0:0:0:0:
39,196,112395,5,0,0:0:0:0:
422,176,112498,5,0,0:0:0:0:
294,176,112498,5,0,0:0:0:0:
166,176,112498,5,0,0:0:0:0:
38,176,112498,5,0,0:0:0:0:
429,180,112513,5,0,0:0:0:0:
301,180,112513,5,0,0:0:0:0:
45,180,112513,5,0,0:0:0:0:
173,180,112513,5,0,0:0:0:0:
496,144,112615,5,0,0:0:0:0:
112,144,112615,5,0,0:0:0:0:
240,144,112615,5,0,0:0:0:0:
368,144,112616,5,0,0:0:0:0:
503,148,112630,5,0,0:0:0:0:
247,148,112630,5,0,0:0:0:0:
119,148,112630,5,0,0:0:0:0:
375,148,112631,5,0,0:0:0:0:
501,159,112732,5,0,0:0:0:0:
245,159,112732,5,0,0:0:0:0:
117,159,112732,5,0,0:0:0:0:
373,159,112733,5,0,0:0:0:0:
508,163,112747,5,0,0:0:0:0:
252,163,112747,5,0,0:0:0:0:
124,163,112747,5,0,0:0:0:0:
380,163,112748,5,0,0:0:0:0:
432,112,112849,5,0,0:0:0:0:
304,112,112849,5,0,0:0:0:0:
176,112,112849,5,0,0:0:0:0:
48,112,112849,5,0,0:0:0:0:
439,116,112864,5,0,0:0:0:0:
311,116,112864,5,0,0:0:0:0:
183,116,112864,5,0,0:0:0:0:
55,116,112864,5,0,0:0:0:0:
438,96,112967,5,0,0:0:0:0:
182,96,112967,5,0,0:0:0:0:
310,96,112967,5,0,0:0:0:0:
54,96,112967,5,0,0:0:0:0:
445,100,112982,5,0,0:0:0:0:
189,100,112982,5,0,0:0:0:0:
317,100,112982,5,0,0:0:0:0:
61,100,112982,5,0,0:0:0:0:
492,110,113084,5,0,0:0:0:0:
236,110,113084,5,0,0:0:0:0:
108,110,113084,5,0,0:0:0:0:
364,110,113085,5,0,0:0:0:0:
499,114,113099,5,0,0:0:0:0:
115,114,113099,5,0,0:0:0:0:
243,114,113099,5,0,0:0:0:0:
371,114,113100,5,0,0:0:0:0:
497,125,113201,5,0,0:0:0:0:
113,125,113201,5,0,0:0:0:0:
241,125,113201,5,0,0:0:0:0:
369,125,113202,5,0,0:0:0:0:
504,129,113216,5,0,0:0:0:0:
120,129,113216,5,0,0:0:0:0:
248,129,113216,5,0,0:0:0:0:
376,129,113217,5,0,0:0:0:0:
428,78,113318,5,0,0:0:0:0:
300,78,113318,5,0,0:0:0:0:
172,78,113318,5,0,0:0:0:0:
44,78,113318,5,0,0:0:0:0:
435,82,113333,5,0,0:0:0:0:
307,82,113333,5,0,0:0:0:0:
179,82,113333,5,0,0:0:0:0:
51,82,113333,5,0,0:0:0:0:
434,62,113436,5,0,0:0:0:0:
178,62,113436,5,0,0:0:0:0:
306,62,113436,5,0,0:0:0:0:
50,62,113436,5,0,0:0:0:0:
441,66,113451,5,0,0:0:0:0:
185,66,113451,5,0,0:0:0:0:
313,66,113451,5,0,0:0:0:0:
57,66,113451,5,0,0:0:0:0:
489,103,113552,5,0,0:0:0:0:
105,103,113552,5,0,0:0:0:0:
233,103,113552,5,0,0:0:0:0:
361,103,113553,5,0,0:0:0:0:
496,107,113567,5,0,0:0:0:0:
240,107,113567,5,0,0:0:0:0:
112,107,113567,5,0,0:0:0:0:
368,107,113568,5,0,0:0:0:0:
494,118,113669,5,0,0:0:0:0:
238,118,113669,5,0,0:0:0:0:
110,118,113669,5,0,0:0:0:0:
366,118,113670,5,0,0:0:0:0:
501,122,113684,5,0,0:0:0:0:
245,122,113684,5,0,0:0:0:0:
117,122,113684,5,0,0:0:0:0:
373,122,113685,5,0,0:0:0:0:
425,71,113786,5,0,0:0:0:0:
297,71,113786,5,0,0:0:0:0:
169,71,113786,5,0,0:0:0:0:
41,71,113786,5,0,0:0:0:0:
432,75,113801,5,0,0:0:0:0:
304,75,113801,5,0,0:0:0:0:
176,75,113801,5,0,0:0:0:0:
48,75,113801,5,0,0:0:0:0:
431,55,113904,5,0,0:0:0:0:
175,55,113904,5,0,0:0:0:0:
303,55,113904,5,0,0:0:0:0:
47,55,113904,5,0,0:0:0:0:
438,59,113919,5,0,0:0:0:0:
182,59,113919,5,0,0:0:0:0:
310,59,113919,5,0,0:0:0:0:
54,59,113919,5,0,0:0:0:0:
481,103,114021,5,0,0:0:0:0:
225,103,114021,5,0,0:0:0:0:
97,103,114021,5,0,0:0:0:0:
353,103,114022,5,0,0:0:0:0:
488,107,114036,5,0,0:0:0:0:
104,107,114036,5,0,0:0:0:0:
232,107,114036,5,0,0:0:0:0:
360,107,114037,5,0,0:0:0:0:
486,118,114138,5,0,0:0:0:0:
102,118,114138,5,0,0:0:0:0:
230,118,114138,5,0,0:0:0:0:
358,118,114139,5,0,0:0:0:0:
493,122,114153,5,0,0:0:0:0:
109,122,114153,5,0,0:0:0:0:
237,122,114153,5,0,0:0:0:0:
365,122,114154,5,0,0:0:0:0:
417,71,114255,5,0,0:0:0:0:
289,71,114255,5,0,0:0:0:0:
161,71,114255,5,0,0:0:0:0:
33,71,114255,5,0,0:0:0:0:
424,75,114270,5,0,0:0:0:0:
296,75,114270,5,0,0:0:0:0:
168,75,114270,5,0,0:0:0:0:
40,75,114270,5,0,0:0:0:0:
423,55,114373,5,0,0:0:0:0:
167,55,114373,5,0,0:0:0:0:
295,55,114373,5,0,0:0:0:0:
39,55,114373,5,0,0:0:0:0:
430,59,114388,5,0,0:0:0:0:
174,59,114388,5,0,0:0:0:0:
302,59,114388,5,0,0:0:0:0:
46,59,114388,5,0,0:0:0:0:
470,99,114490,5,0,0:0:0:0:
86,99,114490,5,0,0:0:0:0:
214,99,114490,5,0,0:0:0:0:
342,99,114491,5,0,0:0:0:0:
477,103,114505,5,0,0:0:0:0:
221,103,114505,5,0,0:0:0:0:
93,103,114505,5,0,0:0:0:0:
349,103,114506,5,0,0:0:0:0:
475,114,114607,5,0,0:0:0:0:
219,114,114607,5,0,0:0:0:0:
91,114,114607,5,0,0:0:0:0:
347,114,114608,5,0,0:0:0:0:
482,118,114622,5,0,0:0:0:0:
226,118,114622,5,0,0:0:0:0:
98,118,114622,5,0,0:0:0:0:
354,118,114623,5,0,0:0:0:0:
406,67,114724,5,0,0:0:0:0:
278,67,114724,5,0,0:0:0:0:
150,67,114724,5,0,0:0:0:0:
22,67,114724,5,0,0:0:0:0:
413,71,114739,5,0,0:0:0:0:
285,71,114739,5,0,0:0:0:0:
157,71,114739,5,0,0:0:0:0:
29,71,114739,5,0,0:0:0:0:
412,51,114842,5,0,0:0:0:0:
156,51,114842,5,0,0:0:0:0:
284,51,114842,5,0,0:0:0:0:
28,51,114842,5,0,0:0:0:0:
419,55,114857,5,0,0:0:0:0:
163,55,114857,5,0,0:0:0:0:
291,55,114857,5,0,0:0:0:0:
35,55,114857,5,0,0:0:0:0:
480,264,114959,5,0,0:0:0:0:
224,264,114959,5,0,0:0:0:0:
96,264,114959,5,0,0:0:0:0:
352,264,114960,5,0,0:0:0:0:
487,268,114974,5,0,0:0:0:0:
103,268,114974,5,0,0:0:0:0:
231,268,114974,5,0,0:0:0:0:
359,268,114975,5,0,0:0:0:0:
411,217,115076,5,0,0:0:0:0:
155,217,115076,5,0,0:0:0:0:
283,217,115076,5,0,0:0:0:0:
27,217,115076,5,0,0:0:0:0:
484,204,115193,5,0,0:0:0:0:
100,204,115193,5,0,0:0:0:0:
228,204,115193,5,0,0:0:0:0:
356,204,115194,5,0,0:0:0:0:
491,208,115208,5,0,0:0:0:0:
107,208,115208,5,0,0:0:0:0:
235,208,115208,5,0,0:0:0:0:
363,208,115209,5,0,0:0:0:0:
415,157,115310,5,0,0:0:0:0:
159,157,115310,5,0,0:0:0:0:
287,157,115310,5,0,0:0:0:0:
31,157,115310,5,0,0:0:0:0:
468,136,115427,5,0,0:0:0:0:
212,136,115427,5,0,0:0:0:0:
84,136,115427,5,0,0:0:0:0:
340,136,115428,5,0,0:0:0:0:
475,140,115442,5,0,0:0:0:0:
91,140,115442,5,0,0:0:0:0:
219,140,115442,5,0,0:0:0:0:
347,140,115443,5,0,0:0:0:0:
399,89,115544,5,0,0:0:0:0:
143,89,115544,5,0,0:0:0:0:
271,89,115544,5,0,0:0:0:0:
15,89,115544,5,0,0:0:0:0:
456,104,115662,5,0,0:0:0:0:
72,104,115662,5,0,0:0:0:0:
200,104,115662,5,0,0:0:0:0:
328,104,115663,5,0,0:0:0:0:
463,108,115677,5,0,0:0:0:0:
79,108,115677,5,0,0:0:0:0:
207,108,115677,5,0,0:0:0:0:
335,108,115678,5,0,0:0:0:0:
387,57,115779,5,0,0:0:0:0:
131,57,115779,5,0,0:0:0:0:
259,57,115779,5,0,0:0:0:0:
3,57,115779,5,0,0:0:0:0:
160,160,115896,5,0,0:0:0:0:
64,160,115896,5,0,0:0:0:0:
320,224,115896,5,0,0:0:0:0:
416,224,115896,5,0,0:0:0:0:
0,96,116013,5,0,0:0:0:0:
96,96,116013,5,0,0:0:0:0:
480,128,116130,5,0,0:0:0:0:
384,128,116130,5,0,0:0:0:0:
352,288,116247,5,0,0:0:0:0:
448,288,116247,5,0,0:0:0:0:
224,256,116247,5,0,0:0:0:0:
128,256,116247,5,0,0:0:0:0:
192,64,116364,5,0,0:0:0:0:
288,64,116364,5,0,0:0:0:0:
96,320,116481,5,0,0:0:0:0:
0,320,116481,5,0,0:0:0:0:
224,160,116599,5,0,0:0:0:0:
320,160,116599,5,0,0:0:0:0:
448,64,116657,5,0,0:0:0:0:
352,64,116657,5,0,0:0:0:0:
256,96,116716,5,0,0:0:0:0:
160,96,116716,5,0,0:0:0:0:
16,200,116833,5,0,0:0:0:0:
112,200,116833,5,0,0:0:0:0:
468,260,116950,5,0,0:0:0:0:
372,260,116950,5,0,0:0:0:0:
160,284,117067,5,0,0:0:0:0:
256,284,117067,5,0,0:0:0:0:
312,224,117185,5,0,0:0:0:0:
216,224,117185,5,0,0:0:0:0:
196,132,117302,5,0,0:0:0:0:
100,132,117302,5,0,0:0:0:0:
280,112,117419,5,0,0:0:0:0:
376,112,117419,5,0,0:0:0:0:
32,72,117536,5,0,0:0:0:0:
128,72,117536,5,0,0:0:0:0:
504,56,117653,5,0,0:0:0:0:
408,56,117653,5,0,0:0:0:0:
160,160,117771,5,0,0:0:0:0:
320,224,117771,5,0,0:0:0:0:
416,224,117771,5,0,0:0:0:0:
64,160,117771,5,0,0:0:0:0:
0,96,117888,5,0,0:0:0:0:
96,96,117888,5,0,0:0:0:0:
384,128,118005,5,0,0:0:0:0:
480,128,118005,5,0,0:0:0:0:
224,256,118122,5,0,0:0:0:0:
128,256,118122,5,0,0:0:0:0:
352,288,118122,5,0,0:0:0:0:
448,288,118122,5,0,0:0:0:0:
192,64,118239,5,0,0:0:0:0:
288,64,118239,5,0,0:0:0:0:
0,320,118356,5,0,0:0:0:0:
96,320,118356,5,0,0:0:0:0:
320,160,118474,5,0,0:0:0:0:
224,160,118474,5,0,0:0:0:0:
448,64,118532,5,0,0:0:0:0:
352,64,118532,5,0,0:0:0:0:
160,96,118591,5,0,0:0:0:0:
256,96,118591,5,0,0:0:0:0:
16,200,118708,5,0,0:0:0:0:
112,200,118708,5,0,0:0:0:0:
468,260,118825,5,0,0:0:0:0:
372,260,118825,5,0,0:0:0:0:
256,284,118942,5,0,0:0:0:0:
160,284,118942,5,0,0:0:0:0:
312,224,119060,5,0,0:0:0:0:
216,224,119060,5,0,0:0:0:0:
100,132,119177,5,0,0:0:0:0:
196,132,119177,5,0,0:0:0:0:
280,112,119294,5,0,0:0:0:0:
376,112,119294,5,0,0:0:0:0:
128,72,119411,5,0,0:0:0:0:
32,72,119411,5,0,0:0:0:0:
408,56,119528,5,0,0:0:0:0:
504,56,119528,5,0,0:0:0:0:
344,160,119646,5,0,0:0:0:0:
88,224,119646,5,0,0:0:0:0:
440,160,119646,5,0,0:0:0:0:
184,224,119646,5,0,0:0:0:0:
504,96,119763,5,0,0:0:0:0:
408,96,119763,5,0,0:0:0:0:
24,128,119880,5,0,0:0:0:0:
120,128,119880,5,0,0:0:0:0:
280,256,119997,5,0,0:0:0:0:
376,256,119997,5,0,0:0:0:0:
152,288,119997,5,0,0:0:0:0:
56,288,119997,5,0,0:0:0:0:
312,64,120114,5,0,0:0:0:0:
216,64,120114,5,0,0:0:0:0:
408,320,120231,5,0,0:0:0:0:
504,320,120231,5,0,0:0:0:0:
184,160,120349,5,0,0:0:0:0:
280,160,120349,5,0,0:0:0:0:
152,64,120407,5,0,0:0:0:0:
56,64,120407,5,0,0:0:0:0:
344,96,120466,5,0,0:0:0:0:
248,96,120466,5,0,0:0:0:0:
488,200,120583,5,0,0:0:0:0:
392,200,120583,5,0,0:0:0:0:
36,260,120700,5,0,0:0:0:0:
132,260,120700,5,0,0:0:0:0:
248,284,120817,5,0,0:0:0:0:
344,284,120817,5,0,0:0:0:0:
192,224,120935,5,0,0:0:0:0:
288,224,120935,5,0,0:0:0:0:
404,132,121052,5,0,0:0:0:0:
308,132,121052,5,0,0:0:0:0:
224,112,121169,5,0,0:0:0:0:
128,112,121169,5,0,0:0:0:0:
376,72,121286,5,0,0:0:0:0:
472,72,121286,5,0,0:0:0:0:
96,56,121403,5,0,0:0:0:0:
0,56,121403,5,0,0:0:0:0:
344,160,121521,5,0,0:0:0:0:
88,224,121521,5,0,0:0:0:0:
440,160,121521,5,0,0:0:0:0:
184,224,121521,5,0,0:0:0:0:
504,96,121638,5,0,0:0:0:0:
408,96,121638,5,0,0:0:0:0:
120,128,121755,5,0,0:0:0:0:
24,128,121755,5,0,0:0:0:0:
232,224,121813,5,0,0:0:0:0:
280,256,121872,5,0,0:0:0:0:
376,256,121872,5,0,0:0:0:0:
152,288,121872,5,0,0:0:0:0:
56,288,121872,5,0,0:0:0:0:
216,64,121989,5,0,0:0:0:0:
312,64,121989,5,0,0:0:0:0:
408,320,122106,5,0,0:0:0:0:
504,320,122106,5,0,0:0:0:0:
404,40,122165,5,0,0:0:0:0:
280,160,122224,5,0,0:0:0:0:
184,160,122224,5,0,0:0:0:0:
152,64,122282,5,0,0:0:0:0:
56,64,122282,5,0,0:0:0:0:
248,96,122341,5,0,0:0:0:0:
344,96,122341,5,0,0:0:0:0:
432,112,122399,5,0,0:0:0:0:
392,200,122458,5,0,0:0:0:0:
488,200,122458,5,0,0:0:0:0:
448,272,122517,5,0,0:0:0:0:
132,260,122575,5,0,0:0:0:0:
36,260,122575,5,0,0:0:0:0:
100,164,122634,5,0,0:0:0:0:
248,284,122692,5,0,0:0:0:0:
344,284,122692,5,0,0:0:0:0:
4,160,122810,5,0,0:0:0:0:
192,224,122810,5,0,0:0:0:0:
300,328,122868,5,0,0:0:0:0:
404,132,122927,5,0,0:0:0:0:
308,132,122927,5,0,0:0:0:0:
128,112,123044,5,0,0:0:0:0:
224,112,123044,5,0,0:0:0:0:
64,64,123103,5,0,0:0:0:0:
472,72,123161,5,0,0:0:0:0:
376,72,123161,5,0,0:0:0:0:
288,0,123395,5,0,0:0:0:0:
512,0,123395,5,0,0:0:0:0:
224,0,123395,5,0,0:0:0:0:
224,0,123395,5,0,0:0:0:0:
32,0,123395,5,0,0:0:0:0:
256,0,123395,5,0,0:0:0:0:
0,0,123396,5,0,0:0:0:0:
480,0,123396,5,0,0:0:0:0:
192,0,123396,5,0,0:0:0:0:
512,32,123455,5,0,0:0:0:0:
288,32,123455,5,0,0:0:0:0:
256,32,123455,5,0,0:0:0:0:
32,32,123455,5,0,0:0:0:0:
224,32,123455,5,0,0:0:0:0:
448,32,123456,5,0,0:0:0:0:
64,32,123456,5,0,0:0:0:0:
480,32,123456,5,0,0:0:0:0:
0,32,123456,5,0,0:0:0:0:
32,64,123514,5,0,0:0:0:0:
256,64,123514,5,0,0:0:0:0:
224,64,123514,5,0,0:0:0:0:
288,64,123514,5,0,0:0:0:0:
512,64,123514,5,0,0:0:0:0:
480,64,123515,5,0,0:0:0:0:
64,64,123515,5,0,0:0:0:0:
448,64,123515,5,0,0:0:0:0:
0,64,123515,5,0,0:0:0:0:
96,96,123573,5,0,0:0:0:0:
32,96,123574,5,0,0:0:0:0:
256,96,123574,5,0,0:0:0:0:
512,96,123574,5,0,0:0:0:0:
416,96,123575,5,0,0:0:0:0:
0,96,123575,5,0,0:0:0:0:
480,96,123575,5,0,0:0:0:0:
64,96,123575,5,0,0:0:0:0:
448,96,123575,5,0,0:0:0:0:
96,128,123630,5,0,0:0:0:0:
512,128,123631,5,0,0:0:0:0:
256,128,123631,5,0,0:0:0:0:
32,128,123631,5,0,0:0:0:0:
416,128,123632,5,0,0:0:0:0:
64,128,123632,5,0,0:0:0:0:
448,128,123632,5,0,0:0:0:0:
0,128,123632,5,0,0:0:0:0:
480,128,123632,5,0,0:0:0:0:
96,160,123690,5,0,0:0:0:0:
384,160,123690,5,0,0:0:0:0:
512,160,123691,5,0,0:0:0:0:
32,160,123691,5,0,0:0:0:0:
448,160,123692,5,0,0:0:0:0:
64,160,123692,5,0,0:0:0:0:
480,160,123692,5,0,0:0:0:0:
128,160,123692,5,0,0:0:0:0:
416,160,123692,5,0,0:0:0:0:
0,160,123692,5,0,0:0:0:0:
96,192,123749,5,0,0:0:0:0:
384,192,123749,5,0,0:0:0:0:
32,192,123750,5,0,0:0:0:0:
512,192,123750,5,0,0:0:0:0:
416,192,123751,5,0,0:0:0:0:
352,192,123751,5,0,0:0:0:0:
160,192,123751,5,0,0:0:0:0:
64,192,123751,5,0,0:0:0:0:
128,192,123751,5,0,0:0:0:0:
448,192,123751,5,0,0:0:0:0:
480,192,123751,5,0,0:0:0:0:
0,192,123751,5,0,0:0:0:0:
384,224,123809,5,0,0:0:0:0:
96,224,123809,5,0,0:0:0:0:
32,224,123810,5,0,0:0:0:0:
512,224,123810,5,0,0:0:0:0:
160,224,123811,5,0,0:0:0:0:
416,224,123811,5,0,0:0:0:0:
352,224,123811,5,0,0:0:0:0:
0,224,123811,5,0,0:0:0:0:
480,224,123811,5,0,0:0:0:0:
128,224,123811,5,0,0:0:0:0:
448,224,123811,5,0,0:0:0:0:
64,224,123811,5,0,0:0:0:0:
96,256,123864,5,0,0:0:0:0:
384,256,123864,5,0,0:0:0:0:
320,256,123865,5,0,0:0:0:0:
32,256,123865,5,0,0:0:0:0:
512,256,123865,5,0,0:0:0:0:
0,256,123866,5,0,0:0:0:0:
192,256,123866,5,0,0:0:0:0:
480,256,123866,5,0,0:0:0:0:
160,256,123866,5,0,0:0:0:0:
448,256,123866,5,0,0:0:0:0:
128,256,123866,5,0,0:0:0:0:
416,256,123866,5,0,0:0:0:0:
64,256,123866,5,0,0:0:0:0:
352,256,123866,5,0,0:0:0:0:
96,288,123924,5,0,0:0:0:0:
384,288,123924,5,0,0:0:0:0:
512,288,123925,5,0,0:0:0:0:
320,288,123925,5,0,0:0:0:0:
32,288,123925,5,0,0:0:0:0:
64,288,123926,5,0,0:0:0:0:
448,288,123926,5,0,0:0:0:0:
480,288,123926,5,0,0:0:0:0:
192,288,123926,5,0,0:0:0:0:
0,288,123926,5,0,0:0:0:0:
128,288,123926,5,0,0:0:0:0:
160,288,123926,5,0,0:0:0:0:
416,288,123926,5,0,0:0:0:0:
352,288,123926,5,0,0:0:0:0:
384,320,123983,5,0,0:0:0:0:
96,320,123983,5,0,0:0:0:0:
192,320,123984,5,0,0:0:0:0:
320,320,123984,5,0,0:0:0:0:
512,320,123984,5,0,0:0:0:0:
160,320,123984,5,0,0:0:0:0:
32,320,123984,5,0,0:0:0:0:
448,320,123985,5,0,0:0:0:0:
480,320,123985,5,0,0:0:0:0:
0,320,123985,5,0,0:0:0:0:
128,320,123985,5,0,0:0:0:0:
416,320,123985,5,0,0:0:0:0:
352,320,123985,5,0,0:0:0:0:
64,320,123985,5,0,0:0:0:0:
384,352,124043,5,0,0:0:0:0:
96,352,124043,5,0,0:0:0:0:
320,352,124044,5,0,0:0:0:0:
192,352,124044,5,0,0:0:0:0:
160,352,124044,5,0,0:0:0:0:
32,352,124044,5,0,0:0:0:0:
512,352,124044,5,0,0:0:0:0:
416,352,124045,5,0,0:0:0:0:
352,352,124045,5,0,0:0:0:0:
0,352,124045,5,0,0:0:0:0:
480,352,124045,5,0,0:0:0:0:
128,352,124045,5,0,0:0:0:0:
448,352,124045,5,0,0:0:0:0:
64,352,124045,5,0,0:0:0:0:
288,0,124099,5,0,0:0:0:0:
96,0,124099,5,0,0:0:0:0:
192,0,124100,5,0,0:0:0:0:
160,0,124100,5,0,0:0:0:0:
224,0,124100,5,0,0:0:0:0:
32,0,124100,5,0,0:0:0:0:
512,0,124100,5,0,0:0:0:0:
256,0,124101,5,0,0:0:0:0:
64,0,124101,5,0,0:0:0:0:
480,0,124101,5,0,0:0:0:0:
128,0,124101,5,0,0:0:0:0:
448,0,124101,5,0,0:0:0:0:
416,0,124101,5,0,0:0:0:0:
0,0,124101,5,0,0:0:0:0:
96,32,124157,5,0,0:0:0:0:
288,32,124157,5,0,0:0:0:0:
32,32,124158,5,0,0:0:0:0:
512,32,124158,5,0,0:0:0:0:
224,32,124158,5,0,0:0:0:0:
192,32,124158,5,0,0:0:0:0:
160,32,124158,5,0,0:0:0:0:
448,32,124159,5,0,0:0:0:0:
416,32,124159,5,0,0:0:0:0:
0,32,124159,5,0,0:0:0:0:
128,32,124159,5,0,0:0:0:0:
256,32,124159,5,0,0:0:0:0:
64,32,124159,5,0,0:0:0:0:
480,32,124159,5,0,0:0:0:0:
96,64,124216,5,0,0:0:0:0:
288,64,124216,5,0,0:0:0:0:
512,64,124217,5,0,0:0:0:0:
192,64,124217,5,0,0:0:0:0:
32,64,124217,5,0,0:0:0:0:
160,64,124217,5,0,0:0:0:0:
224,64,124217,5,0,0:0:0:0:
0,64,124218,5,0,0:0:0:0:
416,64,124218,5,0,0:0:0:0:
448,64,124218,5,0,0:0:0:0:
256,64,124218,5,0,0:0:0:0:
64,64,124218,5,0,0:0:0:0:
480,64,124218,5,0,0:0:0:0:
128,64,124218,5,0,0:0:0:0:
288,96,124274,5,0,0:0:0:0:
96,96,124274,5,0,0:0:0:0:
224,96,124275,5,0,0:0:0:0:
512,96,124275,5,0,0:0:0:0:
160,96,124275,5,0,0:0:0:0:
192,96,124275,5,0,0:0:0:0:
32,96,124275,5,0,0:0:0:0:
416,96,124276,5,0,0:0:0:0:
0,96,124276,5,0,0:0:0:0:
448,96,124276,5,0,0:0:0:0:
480,96,124276,5,0,0:0:0:0:
256,96,124276,5,0,0:0:0:0:
64,96,124276,5,0,0:0:0:0:
128,96,124276,5,0,0:0:0:0:
96,128,124333,5,0,0:0:0:0:
384,128,124333,5,0,0:0:0:0:
192,128,124334,5,0,0:0:0:0:
32,128,124334,5,0,0:0:0:0:
160,128,124334,5,0,0:0:0:0:
224,128,124334,5,0,0:0:0:0:
512,128,124334,5,0,0:0:0:0:
256,128,124335,5,0,0:0:0:0:
64,128,124335,5,0,0:0:0:0:
128,128,124335,5,0,0:0:0:0:
480,128,124335,5,0,0:0:0:0:
416,128,124335,5,0,0:0:0:0:
0,128,124335,5,0,0:0:0:0:
448,128,124335,5,0,0:0:0:0:
384,160,124392,5,0,0:0:0:0:
96,160,124392,5,0,0:0:0:0:
512,160,124393,5,0,0:0:0:0:
192,160,124393,5,0,0:0:0:0:
160,160,124393,5,0,0:0:0:0:
32,160,124393,5,0,0:0:0:0:
224,160,124393,5,0,0:0:0:0:
0,160,124394,5,0,0:0:0:0:
448,160,124394,5,0,0:0:0:0:
64,160,124394,5,0,0:0:0:0:
128,160,124394,5,0,0:0:0:0:
256,160,124394,5,0,0:0:0:0:
416,160,124394,5,0,0:0:0:0:
480,160,124394,5,0,0:0:0:0:
384,192,124450,5,0,0:0:0:0:
96,192,124450,5,0,0:0:0:0:
192,192,124451,5,0,0:0:0:0:
32,192,124451,5,0,0:0:0:0:
160,192,124451,5,0,0:0:0:0:
224,192,124451,5,0,0:0:0:0:
512,192,124451,5,0,0:0:0:0:
448,192,124452,5,0,0:0:0:0:
64,192,124452,5,0,0:0:0:0:
416,192,124452,5,0,0:0:0:0:
480,192,124452,5,0,0:0:0:0:
352,192,124452,5,0,0:0:0:0:
0,192,124452,5,0,0:0:0:0:
128,192,124452,5,0,0:0:0:0:
384,224,124509,5,0,0:0:0:0:
96,224,124509,5,0,0:0:0:0:
224,224,124510,5,0,0:0:0:0:
160,224,124510,5,0,0:0:0:0:
192,224,124510,5,0,0:0:0:0:
32,224,124510,5,0,0:0:0:0:
512,224,124510,5,0,0:0:0:0:
64,224,124511,5,0,0:0:0:0:
448,224,124511,5,0,0:0:0:0:
416,224,124511,5,0,0:0:0:0:
128,224,124511,5,0,0:0:0:0:
352,224,124511,5,0,0:0:0:0:
480,224,124511,5,0,0:0:0:0:
0,224,124511,5,0,0:0:0:0:
96,256,124567,5,0,0:0:0:0:
384,256,124567,5,0,0:0:0:0:
512,256,124568,5,0,0:0:0:0:
224,256,124568,5,0,0:0:0:0:
192,256,124568,5,0,0:0:0:0:
160,256,124568,5,0,0:0:0:0:
32,256,124568,5,0,0:0:0:0:
352,256,124569,5,0,0:0:0:0:
64,256,124569,5,0,0:0:0:0:
128,256,124569,5,0,0:0:0:0:
0,256,124569,5,0,0:0:0:0:
448,256,124569,5,0,0:0:0:0:
416,256,124569,5,0,0:0:0:0:
480,256,124569,5,0,0:0:0:0:
96,288,124626,5,0,0:0:0:0:
384,288,124626,5,0,0:0:0:0:
512,288,124627,5,0,0:0:0:0:
320,288,124627,5,0,0:0:0:0:
192,288,124627,5,0,0:0:0:0:
160,288,124627,5,0,0:0:0:0:
32,288,124627,5,0,0:0:0:0:
352,288,124628,5,0,0:0:0:0:
64,288,124628,5,0,0:0:0:0:
128,288,124628,5,0,0:0:0:0:
0,288,124628,5,0,0:0:0:0:
448,288,124628,5,0,0:0:0:0:
416,288,124628,5,0,0:0:0:0:
480,288,124628,5,0,0:0:0:0:
384,320,124685,5,0,0:0:0:0:
96,320,124685,5,0,0:0:0:0:
160,320,124686,5,0,0:0:0:0:
32,320,124686,5,0,0:0:0:0:
192,320,124686,5,0,0:0:0:0:
512,320,124686,5,0,0:0:0:0:
320,320,124686,5,0,0:0:0:0:
448,320,124687,5,0,0:0:0:0:
416,320,124687,5,0,0:0:0:0:
480,320,124687,5,0,0:0:0:0:
0,320,124687,5,0,0:0:0:0:
352,320,124687,5,0,0:0:0:0:
64,320,124687,5,0,0:0:0:0:
128,320,124687,5,0,0:0:0:0:
96,352,124743,5,0,0:0:0:0:
384,352,124743,5,0,0:0:0:0:
512,352,124744,5,0,0:0:0:0:
320,352,124744,5,0,0:0:0:0:
192,352,124744,5,0,0:0:0:0:
160,352,124744,5,0,0:0:0:0:
32,352,124744,5,0,0:0:0:0:
352,352,124745,5,0,0:0:0:0:
64,352,124745,5,0,0:0:0:0:
128,352,124745,5,0,0:0:0:0:
0,352,124745,5,0,0:0:0:0:
448,352,124745,5,0,0:0:0:0:
416,352,124745,5,0,0:0:0:0:
480,352,124745,5,0,0:0:0:0:
96,384,124802,5,0,0:0:0:0:
384,384,124802,5,0,0:0:0:0:
512,384,124803,5,0,0:0:0:0:
320,384,124803,5,0,0:0:0:0:
192,384,124803,5,0,0:0:0:0:
160,384,124803,5,0,0:0:0:0:
32,384,124803,5,0,0:0:0:0:
352,384,124804,5,0,0:0:0:0:
64,384,124804,5,0,0:0:0:0:
128,384,124804,5,0,0:0:0:0:
0,384,124804,5,0,0:0:0:0:
448,384,124804,5,0,0:0:0:0:
416,384,124804,5,0,0:0:0:0:
480,384,124804,5,0,0:0:0:0:
96,0,124860,5,0,0:0:0:0:
384,0,124860,5,0,0:0:0:0:
512,0,124861,5,0,0:0:0:0:
320,0,124861,5,0,0:0:0:0:
192,0,124861,5,0,0:0:0:0:
160,0,124861,5,0,0:0:0:0:
32,0,124861,5,0,0:0:0:0:
352,0,124862,5,0,0:0:0:0:
64,0,124862,5,0,0:0:0:0:
128,0,124862,5,0,0:0:0:0:
0,0,124862,5,0,0:0:0:0:
448,0,124862,5,0,0:0:0:0:
416,0,124862,5,0,0:0:0:0:
480,0,124862,5,0,0:0:0:0:
384,32,124919,5,0,0:0:0:0:
96,32,124919,5,0,0:0:0:0:
160,32,124920,5,0,0:0:0:0:
32,32,124920,5,0,0:0:0:0:
192,32,124920,5,0,0:0:0:0:
512,32,124920,5,0,0:0:0:0:
320,32,124920,5,0,0:0:0:0:
448,32,124921,5,0,0:0:0:0:
416,32,124921,5,0,0:0:0:0:
480,32,124921,5,0,0:0:0:0:
0,32,124921,5,0,0:0:0:0:
352,32,124921,5,0,0:0:0:0:
64,32,124921,5,0,0:0:0:0:
128,32,124921,5,0,0:0:0:0:
384,64,124978,5,0,0:0:0:0:
96,64,124978,5,0,0:0:0:0:
160,64,124979,5,0,0:0:0:0:
32,64,124979,5,0,0:0:0:0:
192,64,124979,5,0,0:0:0:0:
512,64,124979,5,0,0:0:0:0:
320,64,124979,5,0,0:0:0:0:
448,64,124980,5,0,0:0:0:0:
416,64,124980,5,0,0:0:0:0:
480,64,124980,5,0,0:0:0:0:
0,64,124980,5,0,0:0:0:0:
352,64,124980,5,0,0:0:0:0:
64,64,124980,5,0,0:0:0:0:
128,64,124980,5,0,0:0:0:0:
416,0,125036,5,0,0:0:0:0:
224,0,125036,5,0,0:0:0:0:
320,0,125037,5,0,0:0:0:0:
352,0,125037,5,0,0:0:0:0:
288,0,125037,5,0,0:0:0:0:
480,0,125037,5,0,0:0:0:0:
0,0,125037,5,0,0:0:0:0:
256,0,125038,5,0,0:0:0:0:
448,0,125038,5,0,0:0:0:0:
32,0,125038,5,0,0:0:0:0:
384,0,125038,5,0,0:0:0:0:
64,0,125038,5,0,0:0:0:0:
96,0,125038,5,0,0:0:0:0:
512,0,125038,5,0,0:0:0:0:
416,32,125094,5,0,0:0:0:0:
224,32,125094,5,0,0:0:0:0:
480,32,125095,5,0,0:0:0:0:
0,32,125095,5,0,0:0:0:0:
288,32,125095,5,0,0:0:0:0:
320,32,125095,5,0,0:0:0:0:
352,32,125095,5,0,0:0:0:0:
64,32,125096,5,0,0:0:0:0:
96,32,125096,5,0,0:0:0:0:
512,32,125096,5,0,0:0:0:0:
384,32,125096,5,0,0:0:0:0:
256,32,125096,5,0,0:0:0:0:
448,32,125096,5,0,0:0:0:0:
32,32,125096,5,0,0:0:0:0:
416,64,125153,5,0,0:0:0:0:
224,64,125153,5,0,0:0:0:0:
352,64,125154,5,0,0:0:0:0:
288,64,125154,5,0,0:0:0:0:
480,64,125154,5,0,0:0:0:0:
0,64,125154,5,0,0:0:0:0:
320,64,125154,5,0,0:0:0:0:
448,64,125155,5,0,0:0:0:0:
32,64,125155,5,0,0:0:0:0:
384,64,125155,5,0,0:0:0:0:
256,64,125155,5,0,0:0:0:0:
512,64,125155,5,0,0:0:0:0:
96,64,125155,5,0,0:0:0:0:
64,64,125155,5,0,0:0:0:0:
224,96,125211,5,0,0:0:0:0:
416,96,125211,5,0,0:0:0:0:
288,96,125212,5,0,0:0:0:0:
0,96,125212,5,0,0:0:0:0:
352,96,125212,5,0,0:0:0:0:
320,96,125212,5,0,0:0:0:0:
480,96,125212,5,0,0:0:0:0:
96,96,125213,5,0,0:0:0:0:
512,96,125213,5,0,0:0:0:0:
64,96,125213,5,0,0:0:0:0:
32,96,125213,5,0,0:0:0:0:
256,96,125213,5,0,0:0:0:0:
448,96,125213,5,0,0:0:0:0:
384,96,125213,5,0,0:0:0:0:
416,128,125270,5,0,0:0:0:0:
128,128,125270,5,0,0:0:0:0:
288,128,125271,5,0,0:0:0:0:
0,128,125271,5,0,0:0:0:0:
352,128,125271,5,0,0:0:0:0:
320,128,125271,5,0,0:0:0:0:
480,128,125271,5,0,0:0:0:0:
96,128,125272,5,0,0:0:0:0:
512,128,125272,5,0,0:0:0:0:
64,128,125272,5,0,0:0:0:0:
32,128,125272,5,0,0:0:0:0:
256,128,125272,5,0,0:0:0:0:
448,128,125272,5,0,0:0:0:0:
384,128,125272,5,0,0:0:0:0:
192,236,125505,5,0,0:0:0:0:
380,244,125505,5,0,0:0:0:0:
100,304,125740,5,0,0:0:0:0:
308,308,125740,5,0,0:0:0:0:
432,336,125974,5,0,0:0:0:0:
224,332,125974,5,0,0:0:0:0:
8,348,125974,5,0,0:0:0:0:
104,204,126209,5,0,0:0:0:0:
352,188,126209,5,0,0:0:0:0:
460,176,126209,5,0,0:0:0:0:
