osu file format v14

[General]
AudioFilename: Spider Dance.mp3
AudioLeadIn: 0
PreviewTime: 18154
Countdown: 0
SampleSet: Normal
StackLeniency: 0.7
Mode: 2
LetterboxInBreaks: 0
WidescreenStoryboard: 0

[Editor]
Bookmarks: 49989
DistanceSpacing: 2
BeatDivisor: 4
GridSize: 32
TimelineZoom: 1.5

[Metadata]
Title:[DTB] Bullet Hell Pack
TitleUnicode:[DTB] Bullet Hell Pack
Artist:Various Artists
ArtistUnicode:Various Artists
Creator:Staravia
Version:Spider Dance
Source:[[Score 10000 OR LESS]]
Tags:catch the beat ctb dodge avoid
BeatmapID:1284902
BeatmapSetID:608391

[Difficulty]
HPDrainRate:0
CircleSize:7
OverallDifficulty:10
ApproachRate:8.6
SliderMultiplier:1.4
SliderTickRate:3

[Events]
//Background and Video events
0,0,"Gabe.jpg",0,0
//Break Periods
//Storyboard Layer 0 (Background)
//Storyboard Layer 1 (Fail)
//Storyboard Layer 2 (Pass)
//Storyboard Layer 3 (Foreground)
//Storyboard Sound Samples

[TimingPoints]
672,521.875271810037,4,1,1,15,1,0
18154,-100,4,1,1,15,0,1
34854,-100,4,1,1,15,0,0

[HitObjects]
144,264,671,5,0,0:0:0:0:
112,200,672,5,0,0:0:0:0:
164,228,672,5,0,0:0:0:0:
204,276,672,5,0,0:0:0:0:
256,96,1454,5,0,0:0:0:0:
480,96,1454,5,0,0:0:0:0:
192,96,1454,5,0,0:0:0:0:
416,96,1454,5,0,0:0:0:0:
172,52,1715,5,0,0:0:0:0:
396,52,1715,5,0,0:0:0:0:
108,52,1715,5,0,0:0:0:0:
332,52,1715,5,0,0:0:0:0:
148,140,1976,5,0,0:0:0:0:
372,140,1976,5,0,0:0:0:0:
84,140,1976,5,0,0:0:0:0:
308,140,1976,5,0,0:0:0:0:
64,232,2237,5,0,0:0:0:0:
288,232,2237,5,0,0:0:0:0:
0,232,2237,5,0,0:0:0:0:
224,232,2237,5,0,0:0:0:0:
192,300,2629,5,0,0:0:0:0:
416,300,2629,5,0,0:0:0:0:
128,300,2629,5,0,0:0:0:0:
352,300,2629,5,0,0:0:0:0:
232,240,2759,5,0,0:0:0:0:
456,240,2759,5,0,0:0:0:0:
168,240,2759,5,0,0:0:0:0:
392,240,2759,5,0,0:0:0:0:
288,144,3020,5,0,0:0:0:0:
512,144,3020,5,0,0:0:0:0:
224,144,3020,5,0,0:0:0:0:
448,144,3020,5,0,0:0:0:0:
272,88,3150,5,0,0:0:0:0:
496,88,3150,5,0,0:0:0:0:
208,88,3150,5,0,0:0:0:0:
432,88,3150,5,0,0:0:0:0:
244,44,3281,5,0,0:0:0:0:
468,44,3281,5,0,0:0:0:0:
180,44,3281,5,0,0:0:0:0:
404,44,3281,5,0,0:0:0:0:
268,8,3411,5,0,0:0:0:0:
492,8,3411,5,0,0:0:0:0:
204,8,3411,5,0,0:0:0:0:
428,8,3411,5,0,0:0:0:0:
160,244,3672,5,0,0:0:0:0:
384,244,3672,5,0,0:0:0:0:
224,244,3672,5,0,0:0:0:0:
448,244,3672,5,0,0:0:0:0:
136,304,3803,5,0,0:0:0:0:
360,304,3803,5,0,0:0:0:0:
200,304,3803,5,0,0:0:0:0:
424,304,3803,5,0,0:0:0:0:
116,272,3933,5,0,0:0:0:0:
340,272,3933,5,0,0:0:0:0:
180,272,3933,5,0,0:0:0:0:
404,272,3933,5,0,0:0:0:0:
96,224,4064,5,0,0:0:0:0:
320,224,4064,5,0,0:0:0:0:
160,224,4064,5,0,0:0:0:0:
384,224,4064,5,0,0:0:0:0:
56,168,4194,5,0,0:0:0:0:
280,168,4194,5,0,0:0:0:0:
120,168,4194,5,0,0:0:0:0:
344,168,4194,5,0,0:0:0:0:
64,116,4325,5,0,0:0:0:0:
288,116,4325,5,0,0:0:0:0:
128,116,4325,5,0,0:0:0:0:
352,116,4325,5,0,0:0:0:0:
88,72,4455,5,0,0:0:0:0:
312,72,4455,5,0,0:0:0:0:
152,72,4455,5,0,0:0:0:0:
376,72,4455,5,0,0:0:0:0:
108,32,4586,5,0,0:0:0:0:
332,32,4586,5,0,0:0:0:0:
172,32,4586,5,0,0:0:0:0:
396,32,4586,5,0,0:0:0:0:
92,8,4716,5,0,0:0:0:0:
316,8,4716,5,0,0:0:0:0:
156,8,4716,5,0,0:0:0:0:
380,8,4716,5,0,0:0:0:0:
68,364,4847,5,0,0:0:0:0:
292,364,4847,5,0,0:0:0:0:
132,364,4847,5,0,0:0:0:0:
356,364,4847,5,0,0:0:0:0:
100,344,4977,5,0,0:0:0:0:
324,344,4977,5,0,0:0:0:0:
36,344,4977,5,0,0:0:0:0:
260,344,4977,5,0,0:0:0:0:
64,320,5042,5,0,0:0:0:0:
288,320,5042,5,0,0:0:0:0:
0,320,5042,5,0,0:0:0:0:
224,320,5042,5,0,0:0:0:0:
144,284,5238,5,0,0:0:0:0:
368,284,5238,5,0,0:0:0:0:
80,284,5238,5,0,0:0:0:0:
304,284,5238,5,0,0:0:0:0:
144,244,5368,5,0,0:0:0:0:
368,244,5368,5,0,0:0:0:0:
208,244,5368,5,0,0:0:0:0:
432,244,5368,5,0,0:0:0:0:
200,208,5434,5,0,0:0:0:0:
424,208,5434,5,0,0:0:0:0:
264,208,5434,5,0,0:0:0:0:
488,208,5434,5,0,0:0:0:0:
224,164,5499,5,0,0:0:0:0:
448,164,5499,5,0,0:0:0:0:
288,164,5499,5,0,0:0:0:0:
512,164,5499,5,0,0:0:0:0:
0,64,5629,5,0,0:0:0:0:
256,64,5629,5,0,0:0:0:0:
192,64,5629,5,0,0:0:0:0:
128,64,5630,5,0,0:0:0:0:
448,64,5630,5,0,0:0:0:0:
64,64,5630,5,0,0:0:0:0:
320,64,5630,5,0,0:0:0:0:
512,64,5630,5,0,0:0:0:0:
224,96,6150,5,0,0:0:0:0:
32,96,6151,5,0,0:0:0:0:
352,96,6151,5,0,0:0:0:0:
480,96,6151,5,0,0:0:0:0:
160,96,6151,5,0,0:0:0:0:
416,96,6151,5,0,0:0:0:0:
96,96,6151,5,0,0:0:0:0:
0,128,6673,5,0,0:0:0:0:
320,128,6673,5,0,0:0:0:0:
256,128,6673,5,0,0:0:0:0:
384,128,6674,5,0,0:0:0:0:
512,128,6674,5,0,0:0:0:0:
448,128,6674,5,0,0:0:0:0:
128,128,6674,5,0,0:0:0:0:
192,128,6674,5,0,0:0:0:0:
224,160,7194,5,0,0:0:0:0:
96,160,7195,5,0,0:0:0:0:
160,160,7195,5,0,0:0:0:0:
416,160,7195,5,0,0:0:0:0:
352,160,7195,5,0,0:0:0:0:
32,160,7195,5,0,0:0:0:0:
480,160,7195,5,0,0:0:0:0:
512,288,7717,6,0,L|416:288,3,70
304,288,7717,6,0,L|208:288,3,70
96,288,7717,6,0,L|0:288,3,70
160,208,8761,6,0,L|230:208,3,70
368,208,8761,6,0,L|438:208,3,70
96,192,9673,5,0,0:0:0:0:
32,192,9674,5,0,0:0:0:0:
224,192,9674,5,0,0:0:0:0:
160,192,9674,5,0,0:0:0:0:
448,192,9674,5,0,0:0:0:0:
512,192,9674,5,0,0:0:0:0:
64,64,9804,5,0,0:0:0:0:
192,64,9804,5,0,0:0:0:0:
320,64,9804,5,0,0:0:0:0:
448,64,9804,5,0,0:0:0:0:
352,96,10065,5,0,0:0:0:0:
480,96,10065,5,0,0:0:0:0:
96,96,10065,5,0,0:0:0:0:
224,96,10065,5,0,0:0:0:0:
128,128,10326,5,0,0:0:0:0:
256,128,10326,5,0,0:0:0:0:
384,128,10326,5,0,0:0:0:0:
512,128,10326,5,0,0:0:0:0:
32,0,10587,5,0,0:0:0:0:
160,0,10587,5,0,0:0:0:0:
288,0,10587,5,0,0:0:0:0:
416,0,10587,5,0,0:0:0:0:
64,32,10848,5,0,0:0:0:0:
192,32,10848,5,0,0:0:0:0:
320,32,10848,5,0,0:0:0:0:
448,32,10848,5,0,0:0:0:0:
96,64,11109,5,0,0:0:0:0:
224,64,11109,5,0,0:0:0:0:
352,64,11109,5,0,0:0:0:0:
480,64,11109,5,0,0:0:0:0:
128,128,11370,5,0,0:0:0:0:
256,128,11370,5,0,0:0:0:0:
384,128,11370,5,0,0:0:0:0:
512,128,11370,5,0,0:0:0:0:
96,96,11630,5,0,0:0:0:0:
0,96,11630,5,0,0:0:0:0:
480,96,11630,5,0,0:0:0:0:
128,96,11630,5,0,0:0:0:0:
384,96,11630,5,0,0:0:0:0:
64,96,11630,5,0,0:0:0:0:
416,96,11630,5,0,0:0:0:0:
192,96,11630,5,0,0:0:0:0:
32,96,11631,5,0,0:0:0:0:
224,96,11631,5,0,0:0:0:0:
160,96,11631,5,0,0:0:0:0:
448,96,11631,5,0,0:0:0:0:
512,96,11631,5,0,0:0:0:0:
320,224,11892,5,0,0:0:0:0:
448,224,11892,5,0,0:0:0:0:
64,224,11892,5,0,0:0:0:0:
192,224,11892,5,0,0:0:0:0:
32,256,12153,5,0,0:0:0:0:
160,256,12153,5,0,0:0:0:0:
288,256,12153,5,0,0:0:0:0:
416,256,12153,5,0,0:0:0:0:
128,288,12414,5,0,0:0:0:0:
256,288,12414,5,0,0:0:0:0:
384,288,12414,5,0,0:0:0:0:
0,288,12414,5,0,0:0:0:0:
480,160,12675,5,0,0:0:0:0:
96,160,12675,5,0,0:0:0:0:
224,160,12675,5,0,0:0:0:0:
352,160,12675,5,0,0:0:0:0:
448,192,12936,5,0,0:0:0:0:
192,192,12936,5,0,0:0:0:0:
320,192,12936,5,0,0:0:0:0:
64,192,12936,5,0,0:0:0:0:
160,224,13197,5,0,0:0:0:0:
32,224,13197,5,0,0:0:0:0:
416,224,13197,5,0,0:0:0:0:
288,224,13197,5,0,0:0:0:0:
0,288,13458,5,0,0:0:0:0:
384,288,13458,5,0,0:0:0:0:
128,288,13458,5,0,0:0:0:0:
256,288,13458,5,0,0:0:0:0:
224,320,13718,5,0,0:0:0:0:
352,320,13718,5,0,0:0:0:0:
96,320,13718,5,0,0:0:0:0:
480,320,13718,5,0,0:0:0:0:
128,32,13978,5,0,0:0:0:0:
480,32,13978,5,0,0:0:0:0:
320,32,13978,5,0,0:0:0:0:
416,32,13978,5,0,0:0:0:0:
64,32,13978,5,0,0:0:0:0:
384,32,13978,5,0,0:0:0:0:
0,32,13978,5,0,0:0:0:0:
96,32,13978,5,0,0:0:0:0:
512,32,13979,5,0,0:0:0:0:
448,32,13979,5,0,0:0:0:0:
352,32,13979,5,0,0:0:0:0:
32,32,13979,5,0,0:0:0:0:
288,32,13979,5,0,0:0:0:0:
96,32,14012,5,0,0:0:0:0:
416,32,14012,5,0,0:0:0:0:
384,32,14012,5,0,0:0:0:0:
64,32,14012,5,0,0:0:0:0:
128,32,14012,5,0,0:0:0:0:
0,32,14012,5,0,0:0:0:0:
320,32,14012,5,0,0:0:0:0:
480,32,14012,5,0,0:0:0:0:
352,32,14013,5,0,0:0:0:0:
32,32,14013,5,0,0:0:0:0:
448,32,14013,5,0,0:0:0:0:
288,32,14013,5,0,0:0:0:0:
512,32,14013,5,0,0:0:0:0:
0,32,14045,5,0,0:0:0:0:
128,32,14045,5,0,0:0:0:0:
480,32,14045,5,0,0:0:0:0:
320,32,14045,5,0,0:0:0:0:
416,32,14045,5,0,0:0:0:0:
96,32,14045,5,0,0:0:0:0:
64,32,14045,5,0,0:0:0:0:
384,32,14045,5,0,0:0:0:0:
288,32,14046,5,0,0:0:0:0:
512,32,14046,5,0,0:0:0:0:
448,32,14046,5,0,0:0:0:0:
352,32,14046,5,0,0:0:0:0:
32,32,14046,5,0,0:0:0:0:
96,32,14077,5,0,0:0:0:0:
416,32,14077,5,0,0:0:0:0:
384,32,14077,5,0,0:0:0:0:
64,32,14077,5,0,0:0:0:0:
128,32,14077,5,0,0:0:0:0:
0,32,14077,5,0,0:0:0:0:
320,32,14077,5,0,0:0:0:0:
480,32,14077,5,0,0:0:0:0:
352,32,14078,5,0,0:0:0:0:
32,32,14078,5,0,0:0:0:0:
448,32,14078,5,0,0:0:0:0:
288,32,14078,5,0,0:0:0:0:
512,32,14078,5,0,0:0:0:0:
416,64,14501,5,0,0:0:0:0:
192,64,14501,5,0,0:0:0:0:
96,64,14501,5,0,0:0:0:0:
0,64,14501,5,0,0:0:0:0:
224,64,14501,5,0,0:0:0:0:
64,64,14501,5,0,0:0:0:0:
480,64,14501,5,0,0:0:0:0:
128,64,14501,5,0,0:0:0:0:
160,64,14502,5,0,0:0:0:0:
32,64,14502,5,0,0:0:0:0:
448,64,14502,5,0,0:0:0:0:
512,64,14502,5,0,0:0:0:0:
256,64,14502,5,0,0:0:0:0:
128,64,14535,5,0,0:0:0:0:
0,64,14535,5,0,0:0:0:0:
96,64,14535,5,0,0:0:0:0:
64,64,14535,5,0,0:0:0:0:
416,64,14535,5,0,0:0:0:0:
480,64,14535,5,0,0:0:0:0:
192,64,14535,5,0,0:0:0:0:
224,64,14535,5,0,0:0:0:0:
256,64,14536,5,0,0:0:0:0:
448,64,14536,5,0,0:0:0:0:
512,64,14536,5,0,0:0:0:0:
32,64,14536,5,0,0:0:0:0:
160,64,14536,5,0,0:0:0:0:
480,64,14568,5,0,0:0:0:0:
416,64,14568,5,0,0:0:0:0:
224,64,14568,5,0,0:0:0:0:
192,64,14568,5,0,0:0:0:0:
0,64,14568,5,0,0:0:0:0:
128,64,14568,5,0,0:0:0:0:
64,64,14568,5,0,0:0:0:0:
96,64,14568,5,0,0:0:0:0:
32,64,14569,5,0,0:0:0:0:
160,64,14569,5,0,0:0:0:0:
512,64,14569,5,0,0:0:0:0:
256,64,14569,5,0,0:0:0:0:
448,64,14569,5,0,0:0:0:0:
128,64,14600,5,0,0:0:0:0:
0,64,14600,5,0,0:0:0:0:
96,64,14600,5,0,0:0:0:0:
64,64,14600,5,0,0:0:0:0:
416,64,14600,5,0,0:0:0:0:
480,64,14600,5,0,0:0:0:0:
192,64,14600,5,0,0:0:0:0:
224,64,14600,5,0,0:0:0:0:
256,64,14601,5,0,0:0:0:0:
448,64,14601,5,0,0:0:0:0:
512,64,14601,5,0,0:0:0:0:
32,64,14601,5,0,0:0:0:0:
160,64,14601,5,0,0:0:0:0:
64,128,15022,5,0,0:0:0:0:
352,128,15022,5,0,0:0:0:0:
256,128,15022,5,0,0:0:0:0:
480,128,15022,5,0,0:0:0:0:
320,128,15022,5,0,0:0:0:0:
416,128,15022,5,0,0:0:0:0:
0,128,15022,5,0,0:0:0:0:
224,128,15022,5,0,0:0:0:0:
512,128,15023,5,0,0:0:0:0:
384,128,15023,5,0,0:0:0:0:
448,128,15023,5,0,0:0:0:0:
288,128,15023,5,0,0:0:0:0:
32,128,15023,5,0,0:0:0:0:
416,128,15056,5,0,0:0:0:0:
320,128,15056,5,0,0:0:0:0:
0,128,15056,5,0,0:0:0:0:
352,128,15056,5,0,0:0:0:0:
64,128,15056,5,0,0:0:0:0:
256,128,15056,5,0,0:0:0:0:
224,128,15056,5,0,0:0:0:0:
480,128,15056,5,0,0:0:0:0:
448,128,15057,5,0,0:0:0:0:
384,128,15057,5,0,0:0:0:0:
512,128,15057,5,0,0:0:0:0:
32,128,15057,5,0,0:0:0:0:
288,128,15057,5,0,0:0:0:0:
256,128,15089,5,0,0:0:0:0:
64,128,15089,5,0,0:0:0:0:
480,128,15089,5,0,0:0:0:0:
224,128,15089,5,0,0:0:0:0:
320,128,15089,5,0,0:0:0:0:
416,128,15089,5,0,0:0:0:0:
352,128,15089,5,0,0:0:0:0:
0,128,15089,5,0,0:0:0:0:
32,128,15090,5,0,0:0:0:0:
288,128,15090,5,0,0:0:0:0:
512,128,15090,5,0,0:0:0:0:
448,128,15090,5,0,0:0:0:0:
384,128,15090,5,0,0:0:0:0:
416,128,15121,5,0,0:0:0:0:
320,128,15121,5,0,0:0:0:0:
0,128,15121,5,0,0:0:0:0:
352,128,15121,5,0,0:0:0:0:
64,128,15121,5,0,0:0:0:0:
256,128,15121,5,0,0:0:0:0:
224,128,15121,5,0,0:0:0:0:
480,128,15121,5,0,0:0:0:0:
448,128,15122,5,0,0:0:0:0:
384,128,15122,5,0,0:0:0:0:
512,128,15122,5,0,0:0:0:0:
32,128,15122,5,0,0:0:0:0:
288,128,15122,5,0,0:0:0:0:
288,192,15545,5,0,0:0:0:0:
192,192,15545,5,0,0:0:0:0:
96,192,15545,5,0,0:0:0:0:
0,192,15545,5,0,0:0:0:0:
224,192,15545,5,0,0:0:0:0:
64,192,15545,5,0,0:0:0:0:
480,192,15545,5,0,0:0:0:0:
128,192,15545,5,0,0:0:0:0:
160,192,15546,5,0,0:0:0:0:
32,192,15546,5,0,0:0:0:0:
320,192,15546,5,0,0:0:0:0:
512,192,15546,5,0,0:0:0:0:
256,192,15546,5,0,0:0:0:0:
0,192,15579,5,0,0:0:0:0:
480,192,15579,5,0,0:0:0:0:
192,192,15579,5,0,0:0:0:0:
128,192,15579,5,0,0:0:0:0:
288,192,15579,5,0,0:0:0:0:
64,192,15579,5,0,0:0:0:0:
96,192,15579,5,0,0:0:0:0:
224,192,15579,5,0,0:0:0:0:
160,192,15580,5,0,0:0:0:0:
512,192,15580,5,0,0:0:0:0:
32,192,15580,5,0,0:0:0:0:
256,192,15580,5,0,0:0:0:0:
320,192,15580,5,0,0:0:0:0:
64,192,15612,5,0,0:0:0:0:
288,192,15612,5,0,0:0:0:0:
224,192,15612,5,0,0:0:0:0:
96,192,15612,5,0,0:0:0:0:
480,192,15612,5,0,0:0:0:0:
0,192,15612,5,0,0:0:0:0:
128,192,15612,5,0,0:0:0:0:
192,192,15612,5,0,0:0:0:0:
256,192,15613,5,0,0:0:0:0:
320,192,15613,5,0,0:0:0:0:
32,192,15613,5,0,0:0:0:0:
160,192,15613,5,0,0:0:0:0:
512,192,15613,5,0,0:0:0:0:
320,192,15643,5,0,0:0:0:0:
480,192,15643,5,0,0:0:0:0:
0,192,15644,5,0,0:0:0:0:
480,192,15644,5,0,0:0:0:0:
192,192,15644,5,0,0:0:0:0:
128,192,15644,5,0,0:0:0:0:
288,192,15644,5,0,0:0:0:0:
64,192,15644,5,0,0:0:0:0:
96,192,15644,5,0,0:0:0:0:
224,192,15644,5,0,0:0:0:0:
160,192,15645,5,0,0:0:0:0:
512,192,15645,5,0,0:0:0:0:
32,192,15645,5,0,0:0:0:0:
256,192,15645,5,0,0:0:0:0:
320,192,15645,5,0,0:0:0:0:
264,200,15675,5,0,0:0:0:0:
312,207,15708,5,0,0:0:0:0:
472,207,15708,5,0,0:0:0:0:
144,188,15740,5,0,0:0:0:0:
302,222,15773,5,0,0:0:0:0:
462,222,15773,5,0,0:0:0:0:
208,228,15805,5,0,0:0:0:0:
290,235,15838,5,0,0:0:0:0:
450,235,15838,5,0,0:0:0:0:
88,240,15871,5,0,0:0:0:0:
278,247,15903,5,0,0:0:0:0:
438,247,15903,5,0,0:0:0:0:
152,268,15936,5,0,0:0:0:0:
265,259,15969,5,0,0:0:0:0:
425,259,15969,5,0,0:0:0:0:
488,256,16002,5,0,0:0:0:0:
251,270,16034,5,0,0:0:0:0:
411,270,16034,5,0,0:0:0:0:
192,256,16066,5,0,0:0:0:0:
444,304,16067,5,0,0:0:0:0:
237,280,16099,5,0,0:0:0:0:
397,280,16099,5,0,0:0:0:0:
488,356,16132,5,0,0:0:0:0:
136,224,16132,5,0,0:0:0:0:
222,290,16164,5,0,0:0:0:0:
382,290,16164,5,0,0:0:0:0:
416,368,16197,5,0,0:0:0:0:
164,160,16197,5,0,0:0:0:0:
207,299,16230,5,0,0:0:0:0:
367,299,16230,5,0,0:0:0:0:
80,172,16262,5,0,0:0:0:0:
480,352,16263,5,0,0:0:0:0:
192,307,16295,5,0,0:0:0:0:
352,307,16295,5,0,0:0:0:0:
100,296,16327,5,0,0:0:0:0:
428,328,16328,5,0,0:0:0:0:
177,316,16360,5,0,0:0:0:0:
337,316,16360,5,0,0:0:0:0:
476,296,16393,5,0,0:0:0:0:
161,324,16425,5,0,0:0:0:0:
321,324,16425,5,0,0:0:0:0:
364,308,16458,5,0,0:0:0:0:
146,331,16491,5,0,0:0:0:0:
306,331,16491,5,0,0:0:0:0:
420,356,16523,5,0,0:0:0:0:
88,264,16523,5,0,0:0:0:0:
130,339,16556,5,0,0:0:0:0:
290,339,16556,5,0,0:0:0:0:
64,108,16588,5,0,0:0:0:0:
328,368,16589,5,0,0:0:0:0:
114,333,16621,5,0,0:0:0:0:
274,333,16621,5,0,0:0:0:0:
368,304,16654,5,0,0:0:0:0:
98,325,16686,5,0,0:0:0:0:
258,325,16686,5,0,0:0:0:0:
308,256,16719,5,0,0:0:0:0:
83,316,16751,5,0,0:0:0:0:
243,316,16751,5,0,0:0:0:0:
360,196,16784,5,0,0:0:0:0:
40,60,16784,5,0,0:0:0:0:
69,306,16817,5,0,0:0:0:0:
229,306,16817,5,0,0:0:0:0:
12,192,16849,5,0,0:0:0:0:
416,216,16850,5,0,0:0:0:0:
55,295,16882,5,0,0:0:0:0:
215,295,16882,5,0,0:0:0:0:
40,40,16914,5,0,0:0:0:0:
304,180,16915,5,0,0:0:0:0:
43,283,16947,5,0,0:0:0:0:
203,283,16947,5,0,0:0:0:0:
376,120,16980,5,0,0:0:0:0:
20,152,16980,5,0,0:0:0:0:
32,269,17012,5,0,0:0:0:0:
192,269,17012,5,0,0:0:0:0:
256,236,17045,5,0,0:0:0:0:
44,28,17045,5,0,0:0:0:0:
23,254,17078,5,0,0:0:0:0:
183,254,17078,5,0,0:0:0:0:
368,264,17111,5,0,0:0:0:0:
22,238,17143,5,0,0:0:0:0:
182,238,17143,5,0,0:0:0:0:
448,156,17176,5,0,0:0:0:0:
30,222,17208,5,0,0:0:0:0:
190,222,17208,5,0,0:0:0:0:
272,284,17241,5,0,0:0:0:0:
40,208,17273,5,0,0:0:0:0:
200,208,17273,5,0,0:0:0:0:
32,144,17306,5,0,0:0:0:0:
51,194,17339,5,0,0:0:0:0:
211,194,17339,5,0,0:0:0:0:
63,182,17404,5,0,0:0:0:0:
223,182,17404,5,0,0:0:0:0:
52,96,17436,5,0,0:0:0:0:
76,170,17469,5,0,0:0:0:0:
236,170,17469,5,0,0:0:0:0:
52,144,17502,5,0,0:0:0:0:
90,160,17534,5,0,0:0:0:0:
250,160,17534,5,0,0:0:0:0:
32,72,17599,5,0,0:0:0:0:
105,150,17600,5,0,0:0:0:0:
265,150,17600,5,0,0:0:0:0:
121,142,17665,5,0,0:0:0:0:
281,142,17665,5,0,0:0:0:0:
76,48,17665,5,0,0:0:0:0:
137,135,17730,5,0,0:0:0:0:
116,88,17730,5,0,0:0:0:0:
153,129,17795,5,0,0:0:0:0:
170,125,17860,5,0,0:0:0:0:
170,125,17893,5,0,0:0:0:0:
170,125,17959,5,0,0:0:0:0:
170,125,18024,5,0,0:0:0:0:
164,112,18089,5,0,0:0:0:0:
352,32,18154,5,0,0:0:0:0:
160,32,18154,5,0,0:0:0:0:
128,20,18154,6,0,L|28:68,8,105
20,16,18154,6,0,L|120:64,8,105
352,32,18220,5,0,0:0:0:0:
160,32,18220,5,0,0:0:0:0:
352,32,18285,5,0,0:0:0:0:
160,32,18285,5,0,0:0:0:0:
352,32,18350,5,0,0:0:0:0:
160,32,18350,5,0,0:0:0:0:
352,32,18415,5,0,0:0:0:0:
160,32,18415,5,0,0:0:0:0:
352,32,18480,5,0,0:0:0:0:
160,32,18480,5,0,0:0:0:0:
212,36,18513,5,0,0:0:0:0:
352,32,18546,5,0,0:0:0:0:
160,32,18546,5,0,0:0:0:0:
352,32,18611,5,0,0:0:0:0:
160,32,18611,5,0,0:0:0:0:
352,32,18676,5,0,0:0:0:0:
160,32,18676,5,0,0:0:0:0:
304,68,18709,5,0,0:0:0:0:
352,32,18742,5,0,0:0:0:0:
160,32,18742,5,0,0:0:0:0:
352,32,18807,5,0,0:0:0:0:
160,32,18807,5,0,0:0:0:0:
484,72,18839,5,0,0:0:0:0:
352,32,18872,5,0,0:0:0:0:
160,32,18872,5,0,0:0:0:0:
352,32,18937,5,0,0:0:0:0:
160,32,18937,5,0,0:0:0:0:
212,116,18970,5,0,0:0:0:0:
352,32,19002,5,0,0:0:0:0:
160,32,19002,5,0,0:0:0:0:
352,32,19068,5,0,0:0:0:0:
160,32,19068,5,0,0:0:0:0:
296,100,19100,5,0,0:0:0:0:
352,32,19133,5,0,0:0:0:0:
160,32,19133,5,0,0:0:0:0:
396,132,19165,5,0,0:0:0:0:
352,32,19198,5,0,0:0:0:0:
160,32,19198,5,0,0:0:0:0:
352,32,19264,5,0,0:0:0:0:
160,32,19264,5,0,0:0:0:0:
160,32,19329,5,0,0:0:0:0:
352,32,19329,5,0,0:0:0:0:
316,132,19361,5,0,0:0:0:0:
160,32,19394,5,0,0:0:0:0:
352,32,19394,5,0,0:0:0:0:
160,32,19459,5,0,0:0:0:0:
352,32,19459,5,0,0:0:0:0:
240,152,19492,5,0,0:0:0:0:
160,32,19524,5,0,0:0:0:0:
352,32,19524,5,0,0:0:0:0:
160,32,19590,5,0,0:0:0:0:
352,32,19590,5,0,0:0:0:0:
352,32,19655,5,0,0:0:0:0:
160,32,19655,5,0,0:0:0:0:
204,172,19687,5,0,0:0:0:0:
160,32,19720,5,0,0:0:0:0:
352,32,19720,5,0,0:0:0:0:
352,32,19786,5,0,0:0:0:0:
160,32,19786,5,0,0:0:0:0:
352,32,19851,5,0,0:0:0:0:
160,32,19851,5,0,0:0:0:0:
352,32,19916,5,0,0:0:0:0:
160,32,19916,5,0,0:0:0:0:
464,160,19948,5,0,0:0:0:0:
352,32,19981,5,0,0:0:0:0:
160,32,19981,5,0,0:0:0:0:
352,32,20046,5,0,0:0:0:0:
160,32,20046,5,0,0:0:0:0:
320,200,20079,5,0,0:0:0:0:
160,32,20111,5,0,0:0:0:0:
352,32,20111,5,0,0:0:0:0:
288,172,20144,5,0,0:0:0:0:
160,32,20176,5,0,0:0:0:0:
352,32,20176,5,0,0:0:0:0:
160,32,20241,5,0,0:0:0:0:
352,32,20241,5,0,0:0:0:0:
400,200,20274,5,0,0:0:0:0:
160,32,20307,5,0,0:0:0:0:
352,32,20307,5,0,0:0:0:0:
352,32,20372,5,0,0:0:0:0:
160,32,20372,5,0,0:0:0:0:
228,192,20405,5,0,0:0:0:0:
160,32,20437,5,0,0:0:0:0:
352,32,20437,5,0,0:0:0:0:
352,32,20503,5,0,0:0:0:0:
160,32,20503,5,0,0:0:0:0:
280,224,20535,5,0,0:0:0:0:
352,32,20568,5,0,0:0:0:0:
160,32,20568,5,0,0:0:0:0:
160,32,20633,5,0,0:0:0:0:
352,32,20633,5,0,0:0:0:0:
160,32,20698,5,0,0:0:0:0:
352,32,20698,5,0,0:0:0:0:
208,228,20731,5,0,0:0:0:0:
160,32,20763,5,0,0:0:0:0:
352,32,20763,5,0,0:0:0:0:
160,32,20829,5,0,0:0:0:0:
352,32,20829,5,0,0:0:0:0:
160,32,20894,5,0,0:0:0:0:
352,32,20894,5,0,0:0:0:0:
308,272,20927,5,0,0:0:0:0:
352,32,20959,5,0,0:0:0:0:
160,32,20959,5,0,0:0:0:0:
352,32,21025,5,0,0:0:0:0:
160,32,21025,5,0,0:0:0:0:
484,76,21057,5,0,0:0:0:0:
352,32,21090,5,0,0:0:0:0:
160,32,21090,5,0,0:0:0:0:
352,32,21155,5,0,0:0:0:0:
160,32,21155,5,0,0:0:0:0:
200,280,21188,5,0,0:0:0:0:
160,32,21220,5,0,0:0:0:0:
352,32,21220,5,0,0:0:0:0:
160,32,21285,5,0,0:0:0:0:
352,32,21285,5,0,0:0:0:0:
160,32,22329,5,0,0:0:0:0:
290,32,22329,6,0,L|354:32,13,61.25
160,32,22329,6,0,L|224:32,13,61.25
160,32,22395,5,0,0:0:0:0:
352,32,22395,5,0,0:0:0:0:
128,80,22427,5,0,0:0:0:0:
352,32,22460,5,0,0:0:0:0:
160,32,22460,5,0,0:0:0:0:
160,32,22525,5,0,0:0:0:0:
352,32,22525,5,0,0:0:0:0:
352,32,22590,5,0,0:0:0:0:
160,32,22590,5,0,0:0:0:0:
160,32,22655,5,0,0:0:0:0:
352,32,22655,5,0,0:0:0:0:
352,32,22721,5,0,0:0:0:0:
160,32,22721,5,0,0:0:0:0:
352,32,22786,5,0,0:0:0:0:
28,96,22819,5,0,0:0:0:0:
352,32,22851,5,0,0:0:0:0:
160,32,22851,5,0,0:0:0:0:
384,96,22883,5,0,0:0:0:0:
416,96,22884,5,0,0:0:0:0:
160,32,22917,5,0,0:0:0:0:
352,32,22917,5,0,0:0:0:0:
352,32,22982,5,0,0:0:0:0:
160,32,22982,5,0,0:0:0:0:
160,32,23047,5,0,0:0:0:0:
352,32,23047,5,0,0:0:0:0:
480,160,23080,5,0,0:0:0:0:
512,160,23081,5,0,0:0:0:0:
160,32,23112,5,0,0:0:0:0:
352,32,23112,5,0,0:0:0:0:
116,144,23145,5,0,0:0:0:0:
352,32,23177,5,0,0:0:0:0:
160,32,23177,5,0,0:0:0:0:
160,32,23243,5,0,0:0:0:0:
352,32,23243,5,0,0:0:0:0:
32,216,23275,5,0,0:0:0:0:
352,32,23308,5,0,0:0:0:0:
160,32,23308,5,0,0:0:0:0:
160,32,23373,5,0,0:0:0:0:
352,32,23373,5,0,0:0:0:0:
384,224,23406,5,0,0:0:0:0:
512,224,23407,5,0,0:0:0:0:
160,32,23439,5,0,0:0:0:0:
352,32,23504,5,0,0:0:0:0:
160,32,23504,5,0,0:0:0:0:
132,236,23536,5,0,0:0:0:0:
160,32,23569,5,0,0:0:0:0:
352,32,23569,5,0,0:0:0:0:
352,32,23634,5,0,0:0:0:0:
160,32,23634,5,0,0:0:0:0:
160,32,23699,5,0,0:0:0:0:
352,32,23699,5,0,0:0:0:0:
384,160,23732,5,0,0:0:0:0:
416,160,23733,5,0,0:0:0:0:
352,32,23765,5,0,0:0:0:0:
160,32,23765,5,0,0:0:0:0:
352,32,23830,5,0,0:0:0:0:
160,32,23830,5,0,0:0:0:0:
32,172,23862,5,0,0:0:0:0:
352,32,23895,5,0,0:0:0:0:
160,32,23895,5,0,0:0:0:0:
352,32,23961,5,0,0:0:0:0:
160,32,23961,5,0,0:0:0:0:
124,80,23993,5,0,0:0:0:0:
160,32,24026,5,0,0:0:0:0:
352,32,24026,5,0,0:0:0:0:
352,32,24091,5,0,0:0:0:0:
160,32,24091,5,0,0:0:0:0:
160,32,24156,5,0,0:0:0:0:
352,32,24156,5,0,0:0:0:0:
480,224,24189,5,0,0:0:0:0:
512,224,24190,5,0,0:0:0:0:
352,32,24221,5,0,0:0:0:0:
160,32,24221,5,0,0:0:0:0:
8,116,24254,5,0,0:0:0:0:
352,32,24286,5,0,0:0:0:0:
160,32,24286,5,0,0:0:0:0:
160,32,24351,5,0,0:0:0:0:
352,32,24351,5,0,0:0:0:0:
384,160,24384,5,0,0:0:0:0:
512,160,24385,5,0,0:0:0:0:
352,32,24416,5,0,0:0:0:0:
160,32,24416,5,0,0:0:0:0:
104,136,24449,5,0,0:0:0:0:
160,32,24482,5,0,0:0:0:0:
352,32,24482,5,0,0:0:0:0:
124,188,24515,5,0,0:0:0:0:
160,32,24547,5,0,0:0:0:0:
352,32,24547,5,0,0:0:0:0:
160,32,24612,5,0,0:0:0:0:
352,32,24612,5,0,0:0:0:0:
384,192,24645,5,0,0:0:0:0:
416,192,24646,5,0,0:0:0:0:
160,32,24678,5,0,0:0:0:0:
352,32,24678,5,0,0:0:0:0:
32,212,24710,5,0,0:0:0:0:
352,32,24743,5,0,0:0:0:0:
160,32,24743,5,0,0:0:0:0:
352,32,24808,5,0,0:0:0:0:
160,32,24808,5,0,0:0:0:0:
160,32,24873,5,0,0:0:0:0:
352,32,24873,5,0,0:0:0:0:
352,32,24938,5,0,0:0:0:0:
160,32,24938,5,0,0:0:0:0:
480,288,24939,5,0,0:0:0:0:
512,288,24940,5,0,0:0:0:0:
120,252,24971,5,0,0:0:0:0:
160,32,25004,5,0,0:0:0:0:
352,32,25004,5,0,0:0:0:0:
352,32,25069,5,0,0:0:0:0:
160,32,25069,5,0,0:0:0:0:
20,268,25102,5,0,0:0:0:0:
352,32,25134,5,0,0:0:0:0:
160,32,25134,5,0,0:0:0:0:
384,128,25167,5,0,0:0:0:0:
512,128,25168,5,0,0:0:0:0:
160,32,25200,5,0,0:0:0:0:
352,32,25200,5,0,0:0:0:0:
352,32,25265,5,0,0:0:0:0:
160,32,25265,5,0,0:0:0:0:
160,32,25330,5,0,0:0:0:0:
352,32,25330,5,0,0:0:0:0:
112,200,25363,5,0,0:0:0:0:
160,32,25395,5,0,0:0:0:0:
352,32,25395,5,0,0:0:0:0:
384,160,25428,5,0,0:0:0:0:
416,160,25429,5,0,0:0:0:0:
352,32,25460,5,0,0:0:0:0:
160,32,25460,5,0,0:0:0:0:
352,32,26504,5,0,0:0:0:0:
0,88,26504,6,0,L|48:16,12,70
121,90,26504,6,0,L|161:30,12,70
160,32,26570,5,0,0:0:0:0:
352,32,26570,5,0,0:0:0:0:
384,80,26602,5,0,0:0:0:0:
352,32,26635,5,0,0:0:0:0:
160,32,26635,5,0,0:0:0:0:
352,32,26700,5,0,0:0:0:0:
160,32,26700,5,0,0:0:0:0:
352,32,26765,5,0,0:0:0:0:
160,32,26765,5,0,0:0:0:0:
352,32,26830,5,0,0:0:0:0:
160,32,26830,5,0,0:0:0:0:
352,32,26896,5,0,0:0:0:0:
160,32,26896,5,0,0:0:0:0:
160,32,26961,5,0,0:0:0:0:
484,96,26994,5,0,0:0:0:0:
160,32,27026,5,0,0:0:0:0:
352,32,27026,5,0,0:0:0:0:
320,128,27058,5,0,0:0:0:0:
288,128,27059,5,0,0:0:0:0:
352,32,27092,5,0,0:0:0:0:
160,32,27092,5,0,0:0:0:0:
352,32,27157,5,0,0:0:0:0:
160,32,27157,5,0,0:0:0:0:
352,32,27222,5,0,0:0:0:0:
160,32,27222,5,0,0:0:0:0:
224,192,27255,5,0,0:0:0:0:
192,192,27256,5,0,0:0:0:0:
352,32,27287,5,0,0:0:0:0:
160,32,27287,5,0,0:0:0:0:
396,144,27320,5,0,0:0:0:0:
160,32,27352,5,0,0:0:0:0:
352,32,27352,5,0,0:0:0:0:
160,32,27418,5,0,0:0:0:0:
352,32,27418,5,0,0:0:0:0:
480,216,27450,5,0,0:0:0:0:
352,32,27483,5,0,0:0:0:0:
160,32,27483,5,0,0:0:0:0:
352,32,27548,5,0,0:0:0:0:
160,32,27548,5,0,0:0:0:0:
320,256,27581,5,0,0:0:0:0:
192,256,27582,5,0,0:0:0:0:
352,32,27614,5,0,0:0:0:0:
160,32,27679,5,0,0:0:0:0:
352,32,27679,5,0,0:0:0:0:
380,236,27711,5,0,0:0:0:0:
160,32,27744,5,0,0:0:0:0:
352,32,27744,5,0,0:0:0:0:
160,32,27809,5,0,0:0:0:0:
352,32,27809,5,0,0:0:0:0:
160,32,27874,5,0,0:0:0:0:
352,32,27874,5,0,0:0:0:0:
320,192,27907,5,0,0:0:0:0:
288,192,27908,5,0,0:0:0:0:
352,32,27940,5,0,0:0:0:0:
160,32,27940,5,0,0:0:0:0:
160,32,28005,5,0,0:0:0:0:
352,32,28005,5,0,0:0:0:0:
480,172,28037,5,0,0:0:0:0:
352,32,28070,5,0,0:0:0:0:
160,32,28070,5,0,0:0:0:0:
160,32,28136,5,0,0:0:0:0:
352,32,28136,5,0,0:0:0:0:
388,80,28168,5,0,0:0:0:0:
160,32,28201,5,0,0:0:0:0:
352,32,28201,5,0,0:0:0:0:
160,32,28266,5,0,0:0:0:0:
352,32,28266,5,0,0:0:0:0:
160,32,28331,5,0,0:0:0:0:
352,32,28331,5,0,0:0:0:0:
224,224,28364,5,0,0:0:0:0:
192,224,28365,5,0,0:0:0:0:
352,32,28396,5,0,0:0:0:0:
160,32,28396,5,0,0:0:0:0:
504,116,28429,5,0,0:0:0:0:
160,32,28461,5,0,0:0:0:0:
352,32,28461,5,0,0:0:0:0:
160,32,28526,5,0,0:0:0:0:
352,32,28526,5,0,0:0:0:0:
320,160,28559,5,0,0:0:0:0:
192,160,28560,5,0,0:0:0:0:
160,32,28591,5,0,0:0:0:0:
352,32,28591,5,0,0:0:0:0:
408,136,28624,5,0,0:0:0:0:
160,32,28657,5,0,0:0:0:0:
352,32,28657,5,0,0:0:0:0:
388,188,28690,5,0,0:0:0:0:
352,32,28722,5,0,0:0:0:0:
160,32,28722,5,0,0:0:0:0:
160,32,28787,5,0,0:0:0:0:
352,32,28787,5,0,0:0:0:0:
320,192,28820,5,0,0:0:0:0:
288,192,28821,5,0,0:0:0:0:
352,32,28853,5,0,0:0:0:0:
160,32,28853,5,0,0:0:0:0:
480,212,28885,5,0,0:0:0:0:
160,32,28918,5,0,0:0:0:0:
352,32,28918,5,0,0:0:0:0:
352,32,28983,5,0,0:0:0:0:
160,32,28983,5,0,0:0:0:0:
352,32,29048,5,0,0:0:0:0:
160,32,29048,5,0,0:0:0:0:
352,32,29113,5,0,0:0:0:0:
160,32,29113,5,0,0:0:0:0:
224,288,29114,5,0,0:0:0:0:
192,288,29115,5,0,0:0:0:0:
392,252,29146,5,0,0:0:0:0:
352,32,29179,5,0,0:0:0:0:
160,32,29179,5,0,0:0:0:0:
352,32,29244,5,0,0:0:0:0:
160,32,29244,5,0,0:0:0:0:
492,268,29277,5,0,0:0:0:0:
160,32,29309,5,0,0:0:0:0:
352,32,29309,5,0,0:0:0:0:
320,128,29342,5,0,0:0:0:0:
192,128,29343,5,0,0:0:0:0:
160,32,29375,5,0,0:0:0:0:
352,32,29375,5,0,0:0:0:0:
160,32,29440,5,0,0:0:0:0:
352,32,29440,5,0,0:0:0:0:
160,32,29505,5,0,0:0:0:0:
352,32,29505,5,0,0:0:0:0:
400,200,29538,5,0,0:0:0:0:
352,32,29570,5,0,0:0:0:0:
160,32,29570,5,0,0:0:0:0:
320,160,29603,5,0,0:0:0:0:
288,160,29604,5,0,0:0:0:0:
352,32,29635,5,0,0:0:0:0:
160,32,29635,5,0,0:0:0:0:
160,32,30679,5,0,0:0:0:0:
512,88,30679,6,0,L|464:16,12,70
391,90,30679,6,0,L|351:30,12,70
160,32,30745,5,0,0:0:0:0:
352,32,30745,5,0,0:0:0:0:
128,80,30777,5,0,0:0:0:0:
160,32,30810,5,0,0:0:0:0:
352,32,30810,5,0,0:0:0:0:
352,32,30875,5,0,0:0:0:0:
160,32,30875,5,0,0:0:0:0:
160,32,30940,5,0,0:0:0:0:
352,32,30940,5,0,0:0:0:0:
352,32,31005,5,0,0:0:0:0:
160,32,31005,5,0,0:0:0:0:
160,32,31071,5,0,0:0:0:0:
352,32,31071,5,0,0:0:0:0:
352,32,31136,5,0,0:0:0:0:
28,96,31169,5,0,0:0:0:0:
160,32,31201,5,0,0:0:0:0:
352,32,31201,5,0,0:0:0:0:
192,128,31233,5,0,0:0:0:0:
224,128,31234,5,0,0:0:0:0:
160,32,31267,5,0,0:0:0:0:
352,32,31267,5,0,0:0:0:0:
160,32,31332,5,0,0:0:0:0:
352,32,31332,5,0,0:0:0:0:
352,32,31397,5,0,0:0:0:0:
160,32,31397,5,0,0:0:0:0:
288,192,31430,5,0,0:0:0:0:
320,192,31431,5,0,0:0:0:0:
160,32,31462,5,0,0:0:0:0:
352,32,31462,5,0,0:0:0:0:
116,144,31495,5,0,0:0:0:0:
160,32,31527,5,0,0:0:0:0:
352,32,31527,5,0,0:0:0:0:
352,32,31593,5,0,0:0:0:0:
160,32,31593,5,0,0:0:0:0:
32,216,31625,5,0,0:0:0:0:
352,32,31658,5,0,0:0:0:0:
160,32,31658,5,0,0:0:0:0:
352,32,31723,5,0,0:0:0:0:
160,32,31723,5,0,0:0:0:0:
192,256,31756,5,0,0:0:0:0:
320,256,31757,5,0,0:0:0:0:
160,32,31789,5,0,0:0:0:0:
160,32,31854,5,0,0:0:0:0:
352,32,31854,5,0,0:0:0:0:
132,236,31886,5,0,0:0:0:0:
352,32,31919,5,0,0:0:0:0:
160,32,31919,5,0,0:0:0:0:
352,32,31984,5,0,0:0:0:0:
160,32,31984,5,0,0:0:0:0:
160,32,32049,5,0,0:0:0:0:
352,32,32049,5,0,0:0:0:0:
192,192,32082,5,0,0:0:0:0:
224,192,32083,5,0,0:0:0:0:
160,32,32115,5,0,0:0:0:0:
352,32,32115,5,0,0:0:0:0:
352,32,32180,5,0,0:0:0:0:
160,32,32180,5,0,0:0:0:0:
32,172,32212,5,0,0:0:0:0:
352,32,32245,5,0,0:0:0:0:
160,32,32245,5,0,0:0:0:0:
352,32,32311,5,0,0:0:0:0:
160,32,32311,5,0,0:0:0:0:
124,80,32343,5,0,0:0:0:0:
160,32,32376,5,0,0:0:0:0:
352,32,32376,5,0,0:0:0:0:
160,32,32441,5,0,0:0:0:0:
352,32,32441,5,0,0:0:0:0:
352,32,32506,5,0,0:0:0:0:
160,32,32506,5,0,0:0:0:0:
288,224,32539,5,0,0:0:0:0:
320,224,32540,5,0,0:0:0:0:
160,32,32571,5,0,0:0:0:0:
352,32,32571,5,0,0:0:0:0:
8,116,32604,5,0,0:0:0:0:
160,32,32636,5,0,0:0:0:0:
352,32,32636,5,0,0:0:0:0:
160,32,32701,5,0,0:0:0:0:
352,32,32701,5,0,0:0:0:0:
192,160,32734,5,0,0:0:0:0:
320,160,32735,5,0,0:0:0:0:
352,32,32766,5,0,0:0:0:0:
160,32,32766,5,0,0:0:0:0:
104,136,32799,5,0,0:0:0:0:
160,32,32832,5,0,0:0:0:0:
352,32,32832,5,0,0:0:0:0:
124,188,32865,5,0,0:0:0:0:
160,32,32897,5,0,0:0:0:0:
352,32,32897,5,0,0:0:0:0:
352,32,32962,5,0,0:0:0:0:
160,32,32962,5,0,0:0:0:0:
192,192,32995,5,0,0:0:0:0:
224,192,32996,5,0,0:0:0:0:
352,32,33028,5,0,0:0:0:0:
160,32,33028,5,0,0:0:0:0:
32,212,33060,5,0,0:0:0:0:
352,32,33093,5,0,0:0:0:0:
160,32,33093,5,0,0:0:0:0:
352,32,33158,5,0,0:0:0:0:
160,32,33158,5,0,0:0:0:0:
160,32,33223,5,0,0:0:0:0:
352,32,33223,5,0,0:0:0:0:
352,32,33288,5,0,0:0:0:0:
160,32,33288,5,0,0:0:0:0:
288,288,33289,5,0,0:0:0:0:
320,288,33290,5,0,0:0:0:0:
120,252,33321,5,0,0:0:0:0:
160,32,33354,5,0,0:0:0:0:
352,32,33354,5,0,0:0:0:0:
352,32,33419,5,0,0:0:0:0:
160,32,33419,5,0,0:0:0:0:
20,268,33452,5,0,0:0:0:0:
352,32,33484,5,0,0:0:0:0:
160,32,33484,5,0,0:0:0:0:
192,128,33517,5,0,0:0:0:0:
320,128,33518,5,0,0:0:0:0:
160,32,33550,5,0,0:0:0:0:
352,32,33550,5,0,0:0:0:0:
352,32,33615,5,0,0:0:0:0:
160,32,33615,5,0,0:0:0:0:
352,32,33680,5,0,0:0:0:0:
160,32,33680,5,0,0:0:0:0:
112,200,33713,5,0,0:0:0:0:
160,32,33745,5,0,0:0:0:0:
352,32,33745,5,0,0:0:0:0:
192,160,33778,5,0,0:0:0:0:
224,160,33779,5,0,0:0:0:0:
352,32,33810,5,0,0:0:0:0:
160,32,33810,5,0,0:0:0:0:
32,44,34854,5,0,0:0:0:0:
320,44,34854,5,0,0:0:0:0:
256,44,34854,5,0,0:0:0:0:
96,44,34854,5,0,0:0:0:0:
60,108,35115,5,0,0:0:0:0:
348,108,35115,5,0,0:0:0:0:
284,108,35115,5,0,0:0:0:0:
124,108,35115,5,0,0:0:0:0:
136,176,35376,5,0,0:0:0:0:
424,176,35376,5,0,0:0:0:0:
360,176,35376,5,0,0:0:0:0:
200,176,35376,5,0,0:0:0:0:
112,224,35507,5,0,0:0:0:0:
400,224,35507,5,0,0:0:0:0:
336,224,35507,5,0,0:0:0:0:
176,224,35507,5,0,0:0:0:0:
44,268,35637,5,0,0:0:0:0:
332,268,35637,5,0,0:0:0:0:
268,268,35637,5,0,0:0:0:0:
108,268,35637,5,0,0:0:0:0:
52,316,35768,5,0,0:0:0:0:
340,316,35768,5,0,0:0:0:0:
276,316,35768,5,0,0:0:0:0:
116,316,35768,5,0,0:0:0:0:
72,360,35898,5,0,0:0:0:0:
360,360,35898,5,0,0:0:0:0:
296,360,35898,5,0,0:0:0:0:
136,360,35898,5,0,0:0:0:0:
156,8,36159,5,0,0:0:0:0:
444,8,36159,5,0,0:0:0:0:
380,8,36159,5,0,0:0:0:0:
220,8,36159,5,0,0:0:0:0:
128,48,36289,5,0,0:0:0:0:
416,48,36289,5,0,0:0:0:0:
352,48,36289,5,0,0:0:0:0:
192,48,36289,5,0,0:0:0:0:
116,140,36420,5,0,0:0:0:0:
52,140,36420,5,0,0:0:0:0:
340,140,36420,5,0,0:0:0:0:
276,140,36420,5,0,0:0:0:0:
364,188,36551,5,0,0:0:0:0:
300,188,36551,5,0,0:0:0:0:
140,188,36551,5,0,0:0:0:0:
76,188,36551,5,0,0:0:0:0:
432,232,36681,5,0,0:0:0:0:
208,232,36681,5,0,0:0:0:0:
144,232,36681,5,0,0:0:0:0:
368,232,36681,5,0,0:0:0:0:
200,280,36812,5,0,0:0:0:0:
360,280,36812,5,0,0:0:0:0:
424,280,36812,5,0,0:0:0:0:
136,280,36812,5,0,0:0:0:0:
340,324,36942,5,0,0:0:0:0:
404,324,36942,5,0,0:0:0:0:
180,324,36942,5,0,0:0:0:0:
116,324,36942,5,0,0:0:0:0:
40,18,37072,5,0,0:0:0:0:
104,18,37072,5,0,0:0:0:0:
264,18,37072,5,0,0:0:0:0:
328,18,37072,5,0,0:0:0:0:
288,48,37203,5,0,0:0:0:0:
128,48,37203,5,0,0:0:0:0:
64,48,37203,5,0,0:0:0:0:
352,48,37203,5,0,0:0:0:0:
132,76,37333,5,0,0:0:0:0:
196,76,37333,5,0,0:0:0:0:
420,76,37333,5,0,0:0:0:0:
356,76,37333,5,0,0:0:0:0:
188,106,37464,5,0,0:0:0:0:
124,106,37464,5,0,0:0:0:0:
412,106,37464,5,0,0:0:0:0:
348,106,37464,5,0,0:0:0:0:
392,134,37594,5,0,0:0:0:0:
168,134,37594,5,0,0:0:0:0:
328,134,37594,5,0,0:0:0:0:
104,134,37594,5,0,0:0:0:0:
196,180,37725,5,0,0:0:0:0:
132,180,37725,5,0,0:0:0:0:
420,180,37725,5,0,0:0:0:0:
356,180,37725,5,0,0:0:0:0:
220,210,37856,5,0,0:0:0:0:
156,210,37856,5,0,0:0:0:0:
444,210,37856,5,0,0:0:0:0:
380,210,37856,5,0,0:0:0:0:
512,238,37986,5,0,0:0:0:0:
288,238,37986,5,0,0:0:0:0:
224,238,37986,5,0,0:0:0:0:
448,238,37986,5,0,0:0:0:0:
280,268,38117,5,0,0:0:0:0:
440,268,38117,5,0,0:0:0:0:
504,268,38117,5,0,0:0:0:0:
216,268,38117,5,0,0:0:0:0:
260,296,38247,5,0,0:0:0:0:
420,296,38247,5,0,0:0:0:0:
484,296,38247,5,0,0:0:0:0:
196,296,38247,5,0,0:0:0:0:
204,280,38377,5,0,0:0:0:0:
428,280,38377,5,0,0:0:0:0:
364,280,38377,5,0,0:0:0:0:
140,280,38377,5,0,0:0:0:0:
356,310,38508,5,0,0:0:0:0:
196,310,38508,5,0,0:0:0:0:
420,310,38508,5,0,0:0:0:0:
132,310,38508,5,0,0:0:0:0:
112,338,38638,5,0,0:0:0:0:
176,338,38638,5,0,0:0:0:0:
336,338,38638,5,0,0:0:0:0:
400,338,38638,5,0,0:0:0:0:
112,284,38768,5,0,0:0:0:0:
336,284,38768,5,0,0:0:0:0:
272,284,38768,5,0,0:0:0:0:
48,284,38768,5,0,0:0:0:0:
264,314,38899,5,0,0:0:0:0:
104,314,38899,5,0,0:0:0:0:
328,314,38899,5,0,0:0:0:0:
40,314,38899,5,0,0:0:0:0:
20,342,39029,5,0,0:0:0:0:
84,342,39029,5,0,0:0:0:0:
244,342,39029,5,0,0:0:0:0:
308,342,39029,5,0,0:0:0:0:
328,44,39160,5,0,0:0:0:0:
104,44,39160,5,0,0:0:0:0:
168,44,39160,5,0,0:0:0:0:
392,44,39160,5,0,0:0:0:0:
176,74,39291,5,0,0:0:0:0:
336,74,39291,5,0,0:0:0:0:
112,74,39291,5,0,0:0:0:0:
400,74,39291,5,0,0:0:0:0:
420,102,39421,5,0,0:0:0:0:
356,102,39421,5,0,0:0:0:0:
196,102,39421,5,0,0:0:0:0:
132,102,39421,5,0,0:0:0:0:
260,140,39551,5,0,0:0:0:0:
196,140,39551,5,0,0:0:0:0:
484,140,39551,5,0,0:0:0:0:
420,140,39551,5,0,0:0:0:0:
280,176,39682,5,0,0:0:0:0:
216,176,39682,5,0,0:0:0:0:
504,176,39682,5,0,0:0:0:0:
440,176,39682,5,0,0:0:0:0:
280,216,39812,5,0,0:0:0:0:
216,216,39812,5,0,0:0:0:0:
504,216,39812,5,0,0:0:0:0:
440,216,39812,5,0,0:0:0:0:
256,256,39943,5,0,0:0:0:0:
192,256,39943,5,0,0:0:0:0:
480,256,39943,5,0,0:0:0:0:
416,256,39943,5,0,0:0:0:0:
244,288,40073,5,0,0:0:0:0:
180,288,40073,5,0,0:0:0:0:
468,288,40073,5,0,0:0:0:0:
404,288,40073,5,0,0:0:0:0:
200,308,40204,5,0,0:0:0:0:
136,308,40204,5,0,0:0:0:0:
424,308,40204,5,0,0:0:0:0:
360,308,40204,5,0,0:0:0:0:
140,320,40334,5,0,0:0:0:0:
76,320,40334,5,0,0:0:0:0:
364,320,40334,5,0,0:0:0:0:
300,320,40334,5,0,0:0:0:0:
120,344,40464,5,0,0:0:0:0:
56,344,40464,5,0,0:0:0:0:
344,344,40464,5,0,0:0:0:0:
280,344,40464,5,0,0:0:0:0:
108,364,40595,5,0,0:0:0:0:
44,364,40595,5,0,0:0:0:0:
332,364,40595,5,0,0:0:0:0:
268,364,40595,5,0,0:0:0:0:
120,376,40725,5,0,0:0:0:0:
56,376,40725,5,0,0:0:0:0:
344,376,40725,5,0,0:0:0:0:
280,376,40725,5,0,0:0:0:0:
148,256,40856,5,0,0:0:0:0:
84,256,40856,5,0,0:0:0:0:
372,256,40856,5,0,0:0:0:0:
308,256,40856,5,0,0:0:0:0:
160,224,40986,5,0,0:0:0:0:
96,224,40986,5,0,0:0:0:0:
384,224,40986,5,0,0:0:0:0:
320,224,40986,5,0,0:0:0:0:
208,184,41117,5,0,0:0:0:0:
144,184,41117,5,0,0:0:0:0:
432,184,41117,5,0,0:0:0:0:
368,184,41117,5,0,0:0:0:0:
216,144,41247,5,0,0:0:0:0:
152,144,41247,5,0,0:0:0:0:
440,144,41247,5,0,0:0:0:0:
376,144,41247,5,0,0:0:0:0:
284,104,41378,5,0,0:0:0:0:
220,104,41378,5,0,0:0:0:0:
508,104,41378,5,0,0:0:0:0:
444,104,41378,5,0,0:0:0:0:
288,64,41508,5,0,0:0:0:0:
224,64,41508,5,0,0:0:0:0:
512,64,41508,5,0,0:0:0:0:
448,64,41508,5,0,0:0:0:0:
492,28,41639,5,0,0:0:0:0:
428,28,41639,5,0,0:0:0:0:
268,28,41639,5,0,0:0:0:0:
204,28,41639,5,0,0:0:0:0:
456,4,41769,5,0,0:0:0:0:
392,4,41769,5,0,0:0:0:0:
232,4,41769,5,0,0:0:0:0:
168,4,41769,5,0,0:0:0:0:
424,188,41900,5,0,0:0:0:0:
360,188,41900,5,0,0:0:0:0:
200,188,41900,5,0,0:0:0:0:
136,188,41900,5,0,0:0:0:0:
408,224,42030,5,0,0:0:0:0:
344,224,42030,5,0,0:0:0:0:
184,224,42030,5,0,0:0:0:0:
120,224,42030,5,0,0:0:0:0:
340,260,42161,5,0,0:0:0:0:
276,260,42161,5,0,0:0:0:0:
116,260,42161,5,0,0:0:0:0:
52,260,42161,5,0,0:0:0:0:
324,296,42291,5,0,0:0:0:0:
260,296,42291,5,0,0:0:0:0:
100,296,42291,5,0,0:0:0:0:
36,296,42291,5,0,0:0:0:0:
336,332,42422,5,0,0:0:0:0:
272,332,42422,5,0,0:0:0:0:
112,332,42422,5,0,0:0:0:0:
48,332,42422,5,0,0:0:0:0:
408,352,42552,5,0,0:0:0:0:
344,352,42552,5,0,0:0:0:0:
184,352,42552,5,0,0:0:0:0:
120,352,42552,5,0,0:0:0:0:
432,168,42682,5,0,0:0:0:0:
368,168,42682,5,0,0:0:0:0:
208,168,42682,5,0,0:0:0:0:
144,168,42682,5,0,0:0:0:0:
416,64,43203,5,0,0:0:0:0:
352,64,43203,5,0,0:0:0:0:
480,64,43203,5,0,0:0:0:0:
320,64,43203,5,0,0:0:0:0:
448,64,43203,5,0,0:0:0:0:
384,64,43203,5,0,0:0:0:0:
512,64,43203,5,0,0:0:0:0:
0,64,43204,5,0,0:0:0:0:
288,64,43204,5,0,0:0:0:0:
64,64,43204,5,0,0:0:0:0:
32,64,43204,5,0,0:0:0:0:
256,64,43204,5,0,0:0:0:0:
224,64,43204,5,0,0:0:0:0:
416,96,43725,5,0,0:0:0:0:
480,96,43725,5,0,0:0:0:0:
448,96,43725,5,0,0:0:0:0:
384,96,43725,5,0,0:0:0:0:
512,96,43725,5,0,0:0:0:0:
0,96,43726,5,0,0:0:0:0:
128,96,43726,5,0,0:0:0:0:
64,96,43726,5,0,0:0:0:0:
192,96,43726,5,0,0:0:0:0:
32,96,43726,5,0,0:0:0:0:
160,96,43726,5,0,0:0:0:0:
96,96,43726,5,0,0:0:0:0:
224,96,43726,5,0,0:0:0:0:
416,128,44247,5,0,0:0:0:0:
352,128,44247,5,0,0:0:0:0:
480,128,44247,5,0,0:0:0:0:
320,128,44247,5,0,0:0:0:0:
448,128,44247,5,0,0:0:0:0:
384,128,44247,5,0,0:0:0:0:
512,128,44247,5,0,0:0:0:0:
0,128,44248,5,0,0:0:0:0:
128,128,44248,5,0,0:0:0:0:
64,128,44248,5,0,0:0:0:0:
32,128,44248,5,0,0:0:0:0:
160,128,44248,5,0,0:0:0:0:
96,128,44248,5,0,0:0:0:0:
480,160,44769,5,0,0:0:0:0:
320,160,44769,5,0,0:0:0:0:
512,160,44769,5,0,0:0:0:0:
0,160,44770,5,0,0:0:0:0:
288,160,44770,5,0,0:0:0:0:
128,160,44770,5,0,0:0:0:0:
64,160,44770,5,0,0:0:0:0:
192,160,44770,5,0,0:0:0:0:
32,160,44770,5,0,0:0:0:0:
160,160,44770,5,0,0:0:0:0:
96,160,44770,5,0,0:0:0:0:
256,160,44770,5,0,0:0:0:0:
224,160,44770,5,0,0:0:0:0:
416,192,45291,5,0,0:0:0:0:
352,192,45291,5,0,0:0:0:0:
480,192,45291,5,0,0:0:0:0:
320,192,45291,5,0,0:0:0:0:
448,192,45291,5,0,0:0:0:0:
384,192,45291,5,0,0:0:0:0:
512,192,45291,5,0,0:0:0:0:
0,192,45292,5,0,0:0:0:0:
288,192,45292,5,0,0:0:0:0:
192,192,45292,5,0,0:0:0:0:
32,192,45292,5,0,0:0:0:0:
256,192,45292,5,0,0:0:0:0:
224,192,45292,5,0,0:0:0:0:
416,224,45813,5,0,0:0:0:0:
352,224,45813,5,0,0:0:0:0:
480,224,45813,5,0,0:0:0:0:
320,224,45813,5,0,0:0:0:0:
448,224,45813,5,0,0:0:0:0:
384,224,45813,5,0,0:0:0:0:
512,224,45813,5,0,0:0:0:0:
0,224,45814,5,0,0:0:0:0:
288,224,45814,5,0,0:0:0:0:
192,224,45814,5,0,0:0:0:0:
160,224,45814,5,0,0:0:0:0:
256,224,45814,5,0,0:0:0:0:
224,224,45814,5,0,0:0:0:0:
448,256,46335,5,0,0:0:0:0:
512,256,46335,5,0,0:0:0:0:
480,256,46335,5,0,0:0:0:0:
160,256,46336,5,0,0:0:0:0:
32,256,46336,5,0,0:0:0:0:
96,256,46336,5,0,0:0:0:0:
224,256,46336,5,0,0:0:0:0:
256,256,46336,5,0,0:0:0:0:
288,256,46336,5,0,0:0:0:0:
0,256,46336,5,0,0:0:0:0:
128,256,46336,5,0,0:0:0:0:
192,256,46336,5,0,0:0:0:0:
64,256,46336,5,0,0:0:0:0:
512,288,46857,5,0,0:0:0:0:
320,288,46857,5,0,0:0:0:0:
352,288,46857,5,0,0:0:0:0:
160,288,46858,5,0,0:0:0:0:
32,288,46858,5,0,0:0:0:0:
96,288,46858,5,0,0:0:0:0:
224,288,46858,5,0,0:0:0:0:
256,288,46858,5,0,0:0:0:0:
288,288,46858,5,0,0:0:0:0:
0,288,46858,5,0,0:0:0:0:
128,288,46858,5,0,0:0:0:0:
192,288,46858,5,0,0:0:0:0:
64,288,46858,5,0,0:0:0:0:
448,320,47378,5,0,0:0:0:0:
384,320,47378,5,0,0:0:0:0:
512,320,47378,5,0,0:0:0:0:
416,320,47378,5,0,0:0:0:0:
352,320,47378,5,0,0:0:0:0:
480,320,47378,5,0,0:0:0:0:
160,320,47379,5,0,0:0:0:0:
32,320,47379,5,0,0:0:0:0:
96,320,47379,5,0,0:0:0:0:
0,320,47379,5,0,0:0:0:0:
128,320,47379,5,0,0:0:0:0:
192,320,47379,5,0,0:0:0:0:
64,320,47379,5,0,0:0:0:0:
448,352,47900,5,0,0:0:0:0:
384,352,47900,5,0,0:0:0:0:
512,352,47900,5,0,0:0:0:0:
320,352,47900,5,0,0:0:0:0:
416,352,47900,5,0,0:0:0:0:
352,352,47900,5,0,0:0:0:0:
480,352,47900,5,0,0:0:0:0:
32,352,47901,5,0,0:0:0:0:
96,352,47901,5,0,0:0:0:0:
256,352,47901,5,0,0:0:0:0:
288,352,47901,5,0,0:0:0:0:
0,352,47901,5,0,0:0:0:0:
64,352,47901,5,0,0:0:0:0:
448,384,48422,5,0,0:0:0:0:
384,384,48422,5,0,0:0:0:0:
512,384,48422,5,0,0:0:0:0:
416,384,48422,5,0,0:0:0:0:
480,384,48422,5,0,0:0:0:0:
160,384,48423,5,0,0:0:0:0:
32,384,48423,5,0,0:0:0:0:
96,384,48423,5,0,0:0:0:0:
224,384,48423,5,0,0:0:0:0:
0,384,48423,5,0,0:0:0:0:
128,384,48423,5,0,0:0:0:0:
192,384,48423,5,0,0:0:0:0:
64,384,48423,5,0,0:0:0:0:
416,32,48944,5,0,0:0:0:0:
352,32,48944,5,0,0:0:0:0:
480,32,48944,5,0,0:0:0:0:
320,32,48944,5,0,0:0:0:0:
448,32,48944,5,0,0:0:0:0:
384,32,48944,5,0,0:0:0:0:
512,32,48944,5,0,0:0:0:0:
0,32,48945,5,0,0:0:0:0:
288,32,48945,5,0,0:0:0:0:
192,32,48945,5,0,0:0:0:0:
32,32,48945,5,0,0:0:0:0:
256,32,48945,5,0,0:0:0:0:
224,32,48945,5,0,0:0:0:0:
448,64,49467,5,0,0:0:0:0:
384,64,49467,5,0,0:0:0:0:
512,64,49467,5,0,0:0:0:0:
320,64,49467,5,0,0:0:0:0:
416,64,49467,5,0,0:0:0:0:
352,64,49467,5,0,0:0:0:0:
480,64,49467,5,0,0:0:0:0:
32,64,49468,5,0,0:0:0:0:
96,64,49468,5,0,0:0:0:0:
256,64,49468,5,0,0:0:0:0:
288,64,49468,5,0,0:0:0:0:
0,64,49468,5,0,0:0:0:0:
64,64,49468,5,0,0:0:0:0:
448,96,49989,5,0,0:0:0:0:
512,96,49989,5,0,0:0:0:0:
480,96,49989,5,0,0:0:0:0:
160,96,49990,5,0,0:0:0:0:
32,96,49990,5,0,0:0:0:0:
96,96,49990,5,0,0:0:0:0:
224,96,49990,5,0,0:0:0:0:
256,96,49990,5,0,0:0:0:0:
288,96,49990,5,0,0:0:0:0:
0,96,49990,5,0,0:0:0:0:
128,96,49990,5,0,0:0:0:0:
192,96,49990,5,0,0:0:0:0:
64,96,49990,5,0,0:0:0:0:
448,128,50511,5,0,0:0:0:0:
384,128,50511,5,0,0:0:0:0:
512,128,50511,5,0,0:0:0:0:
416,128,50511,5,0,0:0:0:0:
480,128,50511,5,0,0:0:0:0:
160,128,50512,5,0,0:0:0:0:
32,128,50512,5,0,0:0:0:0:
96,128,50512,5,0,0:0:0:0:
224,128,50512,5,0,0:0:0:0:
0,128,50512,5,0,0:0:0:0:
128,128,50512,5,0,0:0:0:0:
192,128,50512,5,0,0:0:0:0:
64,128,50512,5,0,0:0:0:0:
448,160,51032,5,0,0:0:0:0:
384,160,51032,5,0,0:0:0:0:
512,160,51032,5,0,0:0:0:0:
320,160,51032,5,0,0:0:0:0:
416,160,51032,5,0,0:0:0:0:
352,160,51032,5,0,0:0:0:0:
480,160,51032,5,0,0:0:0:0:
32,160,51033,5,0,0:0:0:0:
96,160,51033,5,0,0:0:0:0:
288,160,51033,5,0,0:0:0:0:
0,160,51033,5,0,0:0:0:0:
128,160,51033,5,0,0:0:0:0:
64,160,51033,5,0,0:0:0:0:
288,32,51554,5,0,0:0:0:0:
512,32,51554,5,0,0:0:0:0:
224,32,51554,5,0,0:0:0:0:
448,32,51554,5,0,0:0:0:0:
224,64,51685,5,0,0:0:0:0:
448,64,51685,5,0,0:0:0:0:
160,64,51685,5,0,0:0:0:0:
384,64,51685,5,0,0:0:0:0:
160,96,51815,5,0,0:0:0:0:
384,96,51815,5,0,0:0:0:0:
96,96,51815,5,0,0:0:0:0:
320,96,51815,5,0,0:0:0:0:
64,128,51946,5,0,0:0:0:0:
288,128,51946,5,0,0:0:0:0:
128,128,51946,5,0,0:0:0:0:
352,128,51946,5,0,0:0:0:0:
160,160,52076,5,0,0:0:0:0:
384,160,52076,5,0,0:0:0:0:
96,160,52076,5,0,0:0:0:0:
320,160,52076,5,0,0:0:0:0:
192,192,52207,5,0,0:0:0:0:
416,192,52207,5,0,0:0:0:0:
128,192,52207,5,0,0:0:0:0:
352,192,52207,5,0,0:0:0:0:
256,224,52337,5,0,0:0:0:0:
480,224,52337,5,0,0:0:0:0:
192,224,52337,5,0,0:0:0:0:
416,224,52337,5,0,0:0:0:0:
288,256,52468,5,0,0:0:0:0:
512,256,52468,5,0,0:0:0:0:
224,256,52468,5,0,0:0:0:0:
448,256,52468,5,0,0:0:0:0:
480,32,52598,5,0,0:0:0:0:
256,32,52598,5,0,0:0:0:0:
416,32,52598,5,0,0:0:0:0:
192,32,52598,5,0,0:0:0:0:
416,64,52729,5,0,0:0:0:0:
352,64,52729,5,0,0:0:0:0:
128,64,52729,5,0,0:0:0:0:
192,64,52729,5,0,0:0:0:0:
128,96,52859,5,0,0:0:0:0:
288,96,52859,5,0,0:0:0:0:
64,96,52859,5,0,0:0:0:0:
352,96,52859,5,0,0:0:0:0:
256,128,52990,5,0,0:0:0:0:
96,128,52990,5,0,0:0:0:0:
320,128,52990,5,0,0:0:0:0:
32,128,52990,5,0,0:0:0:0:
352,160,53120,5,0,0:0:0:0:
64,160,53120,5,0,0:0:0:0:
288,160,53120,5,0,0:0:0:0:
128,160,53120,5,0,0:0:0:0:
384,192,53251,5,0,0:0:0:0:
160,192,53251,5,0,0:0:0:0:
96,192,53251,5,0,0:0:0:0:
320,192,53251,5,0,0:0:0:0:
384,224,53381,5,0,0:0:0:0:
448,224,53381,5,0,0:0:0:0:
224,224,53381,5,0,0:0:0:0:
160,224,53381,5,0,0:0:0:0:
416,256,53512,5,0,0:0:0:0:
256,256,53512,5,0,0:0:0:0:
192,256,53512,5,0,0:0:0:0:
480,256,53512,5,0,0:0:0:0:
128,288,53642,5,0,0:0:0:0:
416,288,53642,5,0,0:0:0:0:
352,288,53642,5,0,0:0:0:0:
192,288,53642,5,0,0:0:0:0:
32,320,53772,5,0,0:0:0:0:
320,320,53772,5,0,0:0:0:0:
256,320,53772,5,0,0:0:0:0:
96,320,53772,5,0,0:0:0:0:
288,352,53903,5,0,0:0:0:0:
128,352,53903,5,0,0:0:0:0:
64,352,53903,5,0,0:0:0:0:
352,352,53903,5,0,0:0:0:0:
320,384,54033,5,0,0:0:0:0:
160,384,54033,5,0,0:0:0:0:
96,384,54033,5,0,0:0:0:0:
384,384,54033,5,0,0:0:0:0:
128,32,54164,5,0,0:0:0:0:
416,32,54164,5,0,0:0:0:0:
352,32,54164,5,0,0:0:0:0:
192,32,54164,5,0,0:0:0:0:
224,64,54294,5,0,0:0:0:0:
288,64,54294,5,0,0:0:0:0:
448,64,54294,5,0,0:0:0:0:
512,64,54294,5,0,0:0:0:0:
192,96,54425,5,0,0:0:0:0:
256,96,54425,5,0,0:0:0:0:
480,96,54425,5,0,0:0:0:0:
416,96,54425,5,0,0:0:0:0:
384,128,54555,5,0,0:0:0:0:
160,128,54555,5,0,0:0:0:0:
448,128,54555,5,0,0:0:0:0:
224,128,54555,5,0,0:0:0:0:
320,160,54686,5,0,0:0:0:0:
160,160,54686,5,0,0:0:0:0:
96,160,54686,5,0,0:0:0:0:
384,160,54686,5,0,0:0:0:0:
416,192,54816,5,0,0:0:0:0:
480,192,54816,5,0,0:0:0:0:
192,192,54816,5,0,0:0:0:0:
256,192,54816,5,0,0:0:0:0:
448,224,54947,5,0,0:0:0:0:
384,224,54947,5,0,0:0:0:0:
160,224,54947,5,0,0:0:0:0:
224,224,54947,5,0,0:0:0:0:
416,256,55077,5,0,0:0:0:0:
192,256,55077,5,0,0:0:0:0:
352,256,55077,5,0,0:0:0:0:
128,256,55077,5,0,0:0:0:0:
288,288,55207,5,0,0:0:0:0:
128,288,55207,5,0,0:0:0:0:
64,288,55207,5,0,0:0:0:0:
352,288,55207,5,0,0:0:0:0:
384,320,55337,5,0,0:0:0:0:
448,320,55337,5,0,0:0:0:0:
160,320,55337,5,0,0:0:0:0:
224,320,55337,5,0,0:0:0:0:
416,352,55468,5,0,0:0:0:0:
352,352,55468,5,0,0:0:0:0:
128,352,55468,5,0,0:0:0:0:
192,352,55468,5,0,0:0:0:0:
384,384,55598,5,0,0:0:0:0:
160,384,55598,5,0,0:0:0:0:
320,384,55598,5,0,0:0:0:0:
96,384,55598,5,0,0:0:0:0:
288,0,55729,5,0,0:0:0:0:
128,0,55729,5,0,0:0:0:0:
160,32,55860,5,0,0:0:0:0:
320,32,55860,5,0,0:0:0:0:
192,64,55990,5,0,0:0:0:0:
352,64,55990,5,0,0:0:0:0:
256,96,56121,5,0,0:0:0:0:
416,96,56121,5,0,0:0:0:0:
448,128,56251,5,0,0:0:0:0:
288,128,56251,5,0,0:0:0:0:
512,160,56382,5,0,0:0:0:0:
352,160,56382,5,0,0:0:0:0:
480,192,56512,5,0,0:0:0:0:
320,192,56512,5,0,0:0:0:0:
416,224,56643,5,0,0:0:0:0:
256,224,56643,5,0,0:0:0:0:
320,256,56773,5,0,0:0:0:0:
160,256,56773,5,0,0:0:0:0:
128,288,56904,5,0,0:0:0:0:
288,288,56904,5,0,0:0:0:0:
64,320,57034,5,0,0:0:0:0:
224,320,57034,5,0,0:0:0:0:
32,352,57164,5,0,0:0:0:0:
192,352,57164,5,0,0:0:0:0:
0,384,57295,5,0,0:0:0:0:
160,384,57295,5,0,0:0:0:0:
