osu file format v14

[General]
AudioFilename: miracle_5ympho_x.mp3
AudioLeadIn: 0
PreviewTime: 20495
Countdown: 0
SampleSet: None
StackLeniency: 0.7
Mode: 2
LetterboxInBreaks: 0
WidescreenStoryboard: 1

[Editor]
Bookmarks: 34914,35092,57592,64717,70789
DistanceSpacing: 0.6
BeatDivisor: 16
GridSize: 32
TimelineZoom: 4.699998

[Metadata]
Title:[DTB] Bullet Hell Pack
TitleUnicode:[DTB] Bullet Hell Pack
Artist:Various Artists
ArtistUnicode:Various Artists
Creator:Staravia
Version:Miracle 5ympho X
Source:[[Score 10000 OR LESS]]
Tags:catch the beat ctb dodge avoid
BeatmapID:1284901
BeatmapSetID:608391

[Difficulty]
HPDrainRate:0
CircleSize:7
OverallDifficulty:10
ApproachRate:9.2
SliderMultiplier:2
SliderTickRate:3

[Events]
//Background and Video events
0,0,"symphano.png",0,0
//Break Periods
//Storyboard Layer 0 (Background)
//Storyboard Layer 1 (Fail)
//Storyboard Layer 2 (Pass)
//Storyboard Layer 3 (Foreground)
//Storyboard Sound Samples

[TimingPoints]
1069,285.714285714286,4,3,0,41,1,0
61640,-50,4,3,0,41,0,0
79926,-100,4,3,0,41,0,1
98211,-100,4,3,0,41,0,0

[HitObjects]
64,160,1069,5,0,0:0:0:0:
0,160,1069,5,0,0:0:0:0:
32,160,1069,5,0,0:0:0:0:
96,160,1069,5,0,0:0:0:0:
128,160,1070,5,0,0:0:0:0:
256,224,1783,5,0,0:0:0:0:
192,224,1783,5,0,0:0:0:0:
224,224,1783,5,0,0:0:0:0:
288,224,1783,5,0,0:0:0:0:
320,160,1854,5,0,0:0:0:0:
256,160,1854,5,0,0:0:0:0:
288,160,1854,5,0,0:0:0:0:
352,160,1854,5,0,0:0:0:0:
128,96,1926,5,0,0:0:0:0:
192,96,1926,5,0,0:0:0:0:
160,96,1926,5,0,0:0:0:0:
224,96,1927,5,0,0:0:0:0:
448,256,2069,5,0,0:0:0:0:
384,256,2069,5,0,0:0:0:0:
416,256,2069,5,0,0:0:0:0:
480,256,2069,5,0,0:0:0:0:
512,256,2070,5,0,0:0:0:0:
32,256,2211,5,0,0:0:0:0:
96,256,2211,5,0,0:0:0:0:
64,256,2211,5,0,0:0:0:0:
0,256,2211,5,0,0:0:0:0:
160,256,2211,5,0,0:0:0:0:
128,256,2212,5,0,0:0:0:0:
224,96,2640,5,0,0:0:0:0:
160,96,2640,5,0,0:0:0:0:
192,96,2640,5,0,0:0:0:0:
256,96,2640,5,0,0:0:0:0:
288,96,2641,5,0,0:0:0:0:
384,224,3069,5,0,0:0:0:0:
448,224,3069,5,0,0:0:0:0:
416,224,3069,5,0,0:0:0:0:
352,224,3069,5,0,0:0:0:0:
480,224,3070,5,0,0:0:0:0:
32,256,3354,5,0,0:0:0:0:
192,256,3354,5,0,0:0:0:0:
96,256,3354,5,0,0:0:0:0:
64,256,3354,5,0,0:0:0:0:
128,256,3354,5,0,0:0:0:0:
160,256,3355,5,0,0:0:0:0:
448,192,3783,5,0,0:0:0:0:
384,192,3783,5,0,0:0:0:0:
416,192,3783,5,0,0:0:0:0:
480,192,3783,5,0,0:0:0:0:
512,192,3784,5,0,0:0:0:0:
224,96,4211,5,0,0:0:0:0:
288,96,4211,5,0,0:0:0:0:
256,96,4211,5,0,0:0:0:0:
192,96,4211,5,0,0:0:0:0:
320,96,4212,5,0,0:0:0:0:
32,256,4497,5,0,0:0:0:0:
192,256,4497,5,0,0:0:0:0:
64,256,4497,5,0,0:0:0:0:
96,256,4497,5,0,0:0:0:0:
128,256,4497,5,0,0:0:0:0:
160,256,4498,5,0,0:0:0:0:
192,192,4926,5,0,0:0:0:0:
224,192,4926,5,0,0:0:0:0:
160,192,4926,5,0,0:0:0:0:
128,192,4926,5,0,0:0:0:0:
256,192,4927,5,0,0:0:0:0:
384,128,5354,5,0,0:0:0:0:
416,128,5354,5,0,0:0:0:0:
352,128,5354,5,0,0:0:0:0:
320,128,5354,5,0,0:0:0:0:
448,128,5355,5,0,0:0:0:0:
256,64,5639,5,0,0:0:0:0:
320,64,5639,5,0,0:0:0:0:
480,64,5639,5,0,0:0:0:0:
32,64,5640,5,0,0:0:0:0:
416,64,5640,5,0,0:0:0:0:
96,64,5640,5,0,0:0:0:0:
352,64,5640,5,0,0:0:0:0:
512,64,5640,5,0,0:0:0:0:
0,64,5640,5,0,0:0:0:0:
288,64,5640,5,0,0:0:0:0:
448,64,5640,5,0,0:0:0:0:
384,64,5640,5,0,0:0:0:0:
64,64,5640,5,0,0:0:0:0:
480,96,5926,5,0,0:0:0:0:
448,96,5927,5,0,0:0:0:0:
0,96,5927,5,0,0:0:0:0:
64,96,5927,5,0,0:0:0:0:
384,96,5927,5,0,0:0:0:0:
416,96,5927,5,0,0:0:0:0:
160,96,5927,5,0,0:0:0:0:
32,96,5927,5,0,0:0:0:0:
512,96,5927,5,0,0:0:0:0:
352,96,5927,5,0,0:0:0:0:
96,96,5927,5,0,0:0:0:0:
128,96,5928,5,0,0:0:0:0:
192,96,5928,5,0,0:0:0:0:
480,128,6211,5,0,0:0:0:0:
320,128,6211,5,0,0:0:0:0:
96,128,6212,5,0,0:0:0:0:
352,128,6212,5,0,0:0:0:0:
416,128,6212,5,0,0:0:0:0:
32,128,6212,5,0,0:0:0:0:
512,128,6212,5,0,0:0:0:0:
384,128,6212,5,0,0:0:0:0:
64,128,6212,5,0,0:0:0:0:
0,128,6212,5,0,0:0:0:0:
288,128,6212,5,0,0:0:0:0:
448,128,6212,5,0,0:0:0:0:
128,128,6213,5,0,0:0:0:0:
480,160,6498,5,0,0:0:0:0:
512,160,6499,5,0,0:0:0:0:
384,160,6499,5,0,0:0:0:0:
160,160,6499,5,0,0:0:0:0:
416,160,6499,5,0,0:0:0:0:
32,160,6499,5,0,0:0:0:0:
96,160,6499,5,0,0:0:0:0:
0,160,6499,5,0,0:0:0:0:
64,160,6499,5,0,0:0:0:0:
448,160,6499,5,0,0:0:0:0:
224,160,6499,5,0,0:0:0:0:
128,160,6500,5,0,0:0:0:0:
192,160,6500,5,0,0:0:0:0:
480,192,6783,5,0,0:0:0:0:
320,192,6783,5,0,0:0:0:0:
256,192,6783,5,0,0:0:0:0:
416,192,6784,5,0,0:0:0:0:
32,192,6784,5,0,0:0:0:0:
352,192,6784,5,0,0:0:0:0:
384,192,6784,5,0,0:0:0:0:
224,192,6784,5,0,0:0:0:0:
448,192,6784,5,0,0:0:0:0:
512,192,6784,5,0,0:0:0:0:
0,192,6784,5,0,0:0:0:0:
288,192,6784,5,0,0:0:0:0:
192,192,6785,5,0,0:0:0:0:
320,224,7070,5,0,0:0:0:0:
480,224,7070,5,0,0:0:0:0:
0,224,7071,5,0,0:0:0:0:
448,224,7071,5,0,0:0:0:0:
352,224,7071,5,0,0:0:0:0:
96,224,7071,5,0,0:0:0:0:
288,224,7071,5,0,0:0:0:0:
512,224,7071,5,0,0:0:0:0:
416,224,7071,5,0,0:0:0:0:
64,224,7071,5,0,0:0:0:0:
384,224,7071,5,0,0:0:0:0:
32,224,7071,5,0,0:0:0:0:
128,224,7072,5,0,0:0:0:0:
320,256,7355,5,0,0:0:0:0:
480,256,7355,5,0,0:0:0:0:
256,256,7355,5,0,0:0:0:0:
64,256,7356,5,0,0:0:0:0:
32,256,7356,5,0,0:0:0:0:
352,256,7356,5,0,0:0:0:0:
416,256,7356,5,0,0:0:0:0:
0,256,7356,5,0,0:0:0:0:
448,256,7356,5,0,0:0:0:0:
96,256,7356,5,0,0:0:0:0:
512,256,7356,5,0,0:0:0:0:
384,256,7356,5,0,0:0:0:0:
288,256,7356,5,0,0:0:0:0:
256,288,7642,5,0,0:0:0:0:
320,288,7642,5,0,0:0:0:0:
480,288,7642,5,0,0:0:0:0:
32,288,7643,5,0,0:0:0:0:
96,288,7643,5,0,0:0:0:0:
0,288,7643,5,0,0:0:0:0:
288,288,7643,5,0,0:0:0:0:
64,288,7643,5,0,0:0:0:0:
160,288,7643,5,0,0:0:0:0:
224,288,7643,5,0,0:0:0:0:
512,288,7643,5,0,0:0:0:0:
128,288,7644,5,0,0:0:0:0:
192,288,7644,5,0,0:0:0:0:
480,64,7926,5,0,0:0:0:0:
416,64,7927,5,0,0:0:0:0:
96,64,7927,5,0,0:0:0:0:
32,64,7927,5,0,0:0:0:0:
160,64,7927,5,0,0:0:0:0:
384,64,7927,5,0,0:0:0:0:
64,64,7927,5,0,0:0:0:0:
224,64,7927,5,0,0:0:0:0:
448,64,7927,5,0,0:0:0:0:
512,64,7927,5,0,0:0:0:0:
0,64,7927,5,0,0:0:0:0:
192,64,7928,5,0,0:0:0:0:
128,64,7928,5,0,0:0:0:0:
320,96,8213,5,0,0:0:0:0:
256,96,8213,5,0,0:0:0:0:
480,96,8213,5,0,0:0:0:0:
0,96,8214,5,0,0:0:0:0:
448,96,8214,5,0,0:0:0:0:
352,96,8214,5,0,0:0:0:0:
96,96,8214,5,0,0:0:0:0:
288,96,8214,5,0,0:0:0:0:
512,96,8214,5,0,0:0:0:0:
416,96,8214,5,0,0:0:0:0:
64,96,8214,5,0,0:0:0:0:
384,96,8214,5,0,0:0:0:0:
32,96,8214,5,0,0:0:0:0:
320,128,8498,5,0,0:0:0:0:
480,128,8498,5,0,0:0:0:0:
160,128,8499,5,0,0:0:0:0:
64,128,8499,5,0,0:0:0:0:
32,128,8499,5,0,0:0:0:0:
352,128,8499,5,0,0:0:0:0:
416,128,8499,5,0,0:0:0:0:
0,128,8499,5,0,0:0:0:0:
448,128,8499,5,0,0:0:0:0:
96,128,8499,5,0,0:0:0:0:
512,128,8499,5,0,0:0:0:0:
384,128,8499,5,0,0:0:0:0:
128,128,8500,5,0,0:0:0:0:
256,160,8785,5,0,0:0:0:0:
320,160,8785,5,0,0:0:0:0:
480,160,8785,5,0,0:0:0:0:
32,160,8786,5,0,0:0:0:0:
0,160,8786,5,0,0:0:0:0:
288,160,8786,5,0,0:0:0:0:
64,160,8786,5,0,0:0:0:0:
384,160,8786,5,0,0:0:0:0:
416,160,8786,5,0,0:0:0:0:
448,160,8786,5,0,0:0:0:0:
352,160,8786,5,0,0:0:0:0:
224,160,8786,5,0,0:0:0:0:
512,160,8786,5,0,0:0:0:0:
108,320,8926,5,0,0:0:0:0:
84,304,8944,5,0,0:0:0:0:
64,292,8961,5,0,0:0:0:0:
44,280,8979,5,0,0:0:0:0:
116,276,8979,5,0,0:0:0:0:
208,276,8979,5,0,0:0:0:0:
96,276,8979,5,0,0:0:0:0:
180,276,8980,5,0,0:0:0:0:
152,276,8980,5,0,0:0:0:0:
68,256,8997,5,0,0:0:0:0:
88,240,9015,5,0,0:0:0:0:
108,228,9033,5,0,0:0:0:0:
480,192,9069,5,0,0:0:0:0:
192,192,9069,5,0,0:0:0:0:
320,192,9070,5,0,0:0:0:0:
160,192,9070,5,0,0:0:0:0:
288,192,9070,5,0,0:0:0:0:
512,192,9070,5,0,0:0:0:0:
224,192,9070,5,0,0:0:0:0:
0,192,9070,5,0,0:0:0:0:
96,192,9070,5,0,0:0:0:0:
32,192,9070,5,0,0:0:0:0:
256,192,9070,5,0,0:0:0:0:
64,192,9070,5,0,0:0:0:0:
128,192,9071,5,0,0:0:0:0:
340,300,9355,5,0,0:0:0:0:
220,304,9356,5,0,0:0:0:0:
496,304,9356,5,0,0:0:0:0:
496,280,9373,5,0,0:0:0:0:
428,300,9373,5,0,0:0:0:0:
264,292,9374,5,0,0:0:0:0:
188,284,9391,5,0,0:0:0:0:
496,248,9391,5,0,0:0:0:0:
344,272,9391,5,0,0:0:0:0:
424,264,9408,5,0,0:0:0:0:
276,260,9409,5,0,0:0:0:0:
496,216,9409,5,0,0:0:0:0:
344,244,9426,5,0,0:0:0:0:
184,248,9427,5,0,0:0:0:0:
412,232,9444,5,0,0:0:0:0:
264,228,9445,5,0,0:0:0:0:
496,188,9445,5,0,0:0:0:0:
380,224,9462,5,0,0:0:0:0:
204,216,9463,5,0,0:0:0:0:
340,220,9480,5,0,0:0:0:0:
236,204,9481,5,0,0:0:0:0:
340,196,9498,5,0,0:0:0:0:
496,132,9552,5,0,0:0:0:0:
128,340,9694,5,0,0:0:0:0:
152,324,9712,5,0,0:0:0:0:
172,312,9729,5,0,0:0:0:0:
120,296,9747,5,0,0:0:0:0:
28,296,9747,5,0,0:0:0:0:
140,296,9747,5,0,0:0:0:0:
192,300,9747,5,0,0:0:0:0:
56,296,9748,5,0,0:0:0:0:
84,296,9748,5,0,0:0:0:0:
168,276,9765,5,0,0:0:0:0:
148,260,9783,5,0,0:0:0:0:
51,172,9872,5,0,0:0:0:0:
72,172,9872,5,0,0:0:0:0:
388,156,9872,5,0,0:0:0:0:
288,160,9873,5,0,0:0:0:0:
134,168,9873,5,0,0:0:0:0:
23,168,9890,5,0,0:0:0:0:
338,160,9890,5,0,0:0:0:0:
271,145,9890,5,0,0:0:0:0:
460,156,9890,5,0,0:0:0:0:
219,168,9890,5,0,0:0:0:0:
8,150,9908,5,0,0:0:0:0:
338,145,9908,5,0,0:0:0:0:
307,151,9908,5,0,0:0:0:0:
391,132,9908,5,0,0:0:0:0:
134,144,9908,5,0,0:0:0:0:
457,126,9925,5,0,0:0:0:0:
2,129,9926,5,0,0:0:0:0:
341,131,9926,5,0,0:0:0:0:
254,131,9926,5,0,0:0:0:0:
213,138,9926,5,0,0:0:0:0:
8,101,9943,5,0,0:0:0:0:
391,109,9943,5,0,0:0:0:0:
344,114,9944,5,0,0:0:0:0:
324,143,9944,5,0,0:0:0:0:
137,114,9944,5,0,0:0:0:0:
29,86,9961,5,0,0:0:0:0:
447,100,9961,5,0,0:0:0:0:
344,97,9962,5,0,0:0:0:0:
256,109,9962,5,0,0:0:0:0:
198,107,9962,5,0,0:0:0:0:
51,86,9979,5,0,0:0:0:0:
273,95,9979,5,0,0:0:0:0:
316,106,9979,5,0,0:0:0:0:
420,93,9979,5,0,0:0:0:0:
338,100,9980,5,0,0:0:0:0:
131,92,9980,5,0,0:0:0:0:
179,92,9980,5,0,0:0:0:0:
78,89,9997,5,0,0:0:0:0:
299,89,9997,5,0,0:0:0:0:
388,90,9997,5,0,0:0:0:0:
131,68,9997,5,0,0:0:0:0:
158,92,9997,5,0,0:0:0:0:
338,100,9998,5,0,0:0:0:0:
338,100,10015,5,0,0:0:0:0:
388,70,10015,5,0,0:0:0:0:
128,43,10033,5,0,0:0:0:0:
134,59,10051,5,0,0:0:0:0:
134,59,10069,5,0,0:0:0:0:
134,59,10087,5,0,0:0:0:0:
134,59,10105,5,0,0:0:0:0:
408,352,10194,5,0,0:0:0:0:
384,336,10212,5,0,0:0:0:0:
364,324,10229,5,0,0:0:0:0:
396,308,10247,5,0,0:0:0:0:
344,312,10247,5,0,0:0:0:0:
416,308,10247,5,0,0:0:0:0:
508,308,10247,5,0,0:0:0:0:
452,308,10248,5,0,0:0:0:0:
480,308,10248,5,0,0:0:0:0:
368,288,10265,5,0,0:0:0:0:
388,272,10283,5,0,0:0:0:0:
352,224,10353,5,0,0:0:0:0:
416,224,10353,5,0,0:0:0:0:
288,224,10353,5,0,0:0:0:0:
320,224,10353,5,0,0:0:0:0:
384,224,10353,5,0,0:0:0:0:
256,224,10353,5,0,0:0:0:0:
448,224,10354,5,0,0:0:0:0:
512,224,10354,5,0,0:0:0:0:
0,224,10354,5,0,0:0:0:0:
32,224,10354,5,0,0:0:0:0:
192,224,10354,5,0,0:0:0:0:
480,224,10354,5,0,0:0:0:0:
224,224,10355,5,0,0:0:0:0:
288,192,10497,5,0,0:0:0:0:
416,192,10497,5,0,0:0:0:0:
352,192,10497,5,0,0:0:0:0:
320,192,10497,5,0,0:0:0:0:
256,192,10497,5,0,0:0:0:0:
384,192,10497,5,0,0:0:0:0:
512,192,10498,5,0,0:0:0:0:
480,192,10498,5,0,0:0:0:0:
0,192,10498,5,0,0:0:0:0:
32,192,10498,5,0,0:0:0:0:
96,192,10498,5,0,0:0:0:0:
64,192,10498,5,0,0:0:0:0:
448,192,10498,5,0,0:0:0:0:
416,160,10782,5,0,0:0:0:0:
352,160,10782,5,0,0:0:0:0:
384,160,10782,5,0,0:0:0:0:
512,160,10783,5,0,0:0:0:0:
192,160,10783,5,0,0:0:0:0:
480,160,10783,5,0,0:0:0:0:
0,160,10783,5,0,0:0:0:0:
32,160,10783,5,0,0:0:0:0:
96,160,10783,5,0,0:0:0:0:
64,160,10783,5,0,0:0:0:0:
128,160,10783,5,0,0:0:0:0:
448,160,10783,5,0,0:0:0:0:
160,160,10784,5,0,0:0:0:0:
288,128,11069,5,0,0:0:0:0:
416,128,11069,5,0,0:0:0:0:
352,128,11069,5,0,0:0:0:0:
320,128,11069,5,0,0:0:0:0:
384,128,11069,5,0,0:0:0:0:
512,128,11070,5,0,0:0:0:0:
480,128,11070,5,0,0:0:0:0:
0,128,11070,5,0,0:0:0:0:
32,128,11070,5,0,0:0:0:0:
96,128,11070,5,0,0:0:0:0:
64,128,11070,5,0,0:0:0:0:
128,128,11070,5,0,0:0:0:0:
448,128,11070,5,0,0:0:0:0:
416,96,11354,5,0,0:0:0:0:
256,96,11354,5,0,0:0:0:0:
512,96,11355,5,0,0:0:0:0:
192,96,11355,5,0,0:0:0:0:
480,96,11355,5,0,0:0:0:0:
0,96,11355,5,0,0:0:0:0:
32,96,11355,5,0,0:0:0:0:
96,96,11355,5,0,0:0:0:0:
64,96,11355,5,0,0:0:0:0:
128,96,11355,5,0,0:0:0:0:
448,96,11355,5,0,0:0:0:0:
160,96,11356,5,0,0:0:0:0:
224,96,11356,5,0,0:0:0:0:
320,64,11640,5,0,0:0:0:0:
256,64,11640,5,0,0:0:0:0:
288,64,11640,5,0,0:0:0:0:
64,64,11641,5,0,0:0:0:0:
96,64,11641,5,0,0:0:0:0:
128,64,11641,5,0,0:0:0:0:
32,64,11641,5,0,0:0:0:0:
192,64,11641,5,0,0:0:0:0:
512,64,11641,5,0,0:0:0:0:
0,64,11641,5,0,0:0:0:0:
480,64,11641,5,0,0:0:0:0:
224,64,11642,5,0,0:0:0:0:
160,64,11642,5,0,0:0:0:0:
320,32,11926,5,0,0:0:0:0:
256,32,11926,5,0,0:0:0:0:
384,32,11926,5,0,0:0:0:0:
288,32,11926,5,0,0:0:0:0:
416,32,11926,5,0,0:0:0:0:
352,32,11926,5,0,0:0:0:0:
64,32,11927,5,0,0:0:0:0:
96,32,11927,5,0,0:0:0:0:
448,32,11927,5,0,0:0:0:0:
32,32,11927,5,0,0:0:0:0:
512,32,11927,5,0,0:0:0:0:
0,32,11927,5,0,0:0:0:0:
480,32,11927,5,0,0:0:0:0:
320,0,12211,5,0,0:0:0:0:
256,0,12211,5,0,0:0:0:0:
384,0,12211,5,0,0:0:0:0:
288,0,12211,5,0,0:0:0:0:
416,0,12211,5,0,0:0:0:0:
352,0,12211,5,0,0:0:0:0:
448,0,12212,5,0,0:0:0:0:
32,0,12212,5,0,0:0:0:0:
192,0,12212,5,0,0:0:0:0:
512,0,12212,5,0,0:0:0:0:
0,0,12212,5,0,0:0:0:0:
480,0,12212,5,0,0:0:0:0:
224,0,12213,5,0,0:0:0:0:
256,384,12497,5,0,0:0:0:0:
288,384,12497,5,0,0:0:0:0:
64,384,12498,5,0,0:0:0:0:
96,384,12498,5,0,0:0:0:0:
448,384,12498,5,0,0:0:0:0:
128,384,12498,5,0,0:0:0:0:
32,384,12498,5,0,0:0:0:0:
192,384,12498,5,0,0:0:0:0:
512,384,12498,5,0,0:0:0:0:
0,384,12498,5,0,0:0:0:0:
480,384,12498,5,0,0:0:0:0:
224,384,12499,5,0,0:0:0:0:
160,384,12499,5,0,0:0:0:0:
256,352,12639,5,0,0:0:0:0:
352,352,12639,5,0,0:0:0:0:
288,352,12639,5,0,0:0:0:0:
320,352,12639,5,0,0:0:0:0:
128,352,12640,5,0,0:0:0:0:
0,352,12640,5,0,0:0:0:0:
32,352,12640,5,0,0:0:0:0:
512,352,12640,5,0,0:0:0:0:
96,352,12640,5,0,0:0:0:0:
64,352,12640,5,0,0:0:0:0:
192,352,12640,5,0,0:0:0:0:
224,352,12641,5,0,0:0:0:0:
160,352,12641,5,0,0:0:0:0:
256,320,12783,5,0,0:0:0:0:
288,320,12783,5,0,0:0:0:0:
320,320,12783,5,0,0:0:0:0:
0,320,12784,5,0,0:0:0:0:
128,320,12784,5,0,0:0:0:0:
512,320,12784,5,0,0:0:0:0:
96,320,12784,5,0,0:0:0:0:
64,320,12784,5,0,0:0:0:0:
192,320,12784,5,0,0:0:0:0:
480,320,12784,5,0,0:0:0:0:
32,320,12784,5,0,0:0:0:0:
224,320,12785,5,0,0:0:0:0:
160,320,12785,5,0,0:0:0:0:
384,288,13068,5,0,0:0:0:0:
416,288,13068,5,0,0:0:0:0:
352,288,13068,5,0,0:0:0:0:
480,288,13069,5,0,0:0:0:0:
512,288,13069,5,0,0:0:0:0:
0,288,13069,5,0,0:0:0:0:
64,288,13069,5,0,0:0:0:0:
32,288,13069,5,0,0:0:0:0:
128,288,13069,5,0,0:0:0:0:
448,288,13069,5,0,0:0:0:0:
96,288,13069,5,0,0:0:0:0:
192,288,13069,5,0,0:0:0:0:
160,288,13070,5,0,0:0:0:0:
288,256,13355,5,0,0:0:0:0:
384,256,13355,5,0,0:0:0:0:
352,256,13355,5,0,0:0:0:0:
416,256,13355,5,0,0:0:0:0:
320,256,13355,5,0,0:0:0:0:
256,256,13355,5,0,0:0:0:0:
480,256,13356,5,0,0:0:0:0:
0,256,13356,5,0,0:0:0:0:
512,256,13356,5,0,0:0:0:0:
448,256,13356,5,0,0:0:0:0:
192,256,13356,5,0,0:0:0:0:
160,256,13357,5,0,0:0:0:0:
224,256,13357,5,0,0:0:0:0:
416,224,13496,5,0,0:0:0:0:
256,224,13496,5,0,0:0:0:0:
384,224,13496,5,0,0:0:0:0:
352,224,13496,5,0,0:0:0:0:
320,224,13496,5,0,0:0:0:0:
288,224,13496,5,0,0:0:0:0:
480,224,13497,5,0,0:0:0:0:
32,224,13497,5,0,0:0:0:0:
0,224,13497,5,0,0:0:0:0:
512,224,13497,5,0,0:0:0:0:
448,224,13497,5,0,0:0:0:0:
64,224,13497,5,0,0:0:0:0:
224,224,13498,5,0,0:0:0:0:
256,192,13639,5,0,0:0:0:0:
320,192,13639,5,0,0:0:0:0:
288,192,13639,5,0,0:0:0:0:
416,192,13639,5,0,0:0:0:0:
384,192,13639,5,0,0:0:0:0:
352,192,13639,5,0,0:0:0:0:
512,192,13640,5,0,0:0:0:0:
32,192,13640,5,0,0:0:0:0:
0,192,13640,5,0,0:0:0:0:
96,192,13640,5,0,0:0:0:0:
64,192,13640,5,0,0:0:0:0:
480,192,13640,5,0,0:0:0:0:
448,192,13640,5,0,0:0:0:0:
384,160,13925,5,0,0:0:0:0:
416,160,13925,5,0,0:0:0:0:
128,160,13926,5,0,0:0:0:0:
448,160,13926,5,0,0:0:0:0:
0,160,13926,5,0,0:0:0:0:
512,160,13926,5,0,0:0:0:0:
64,160,13926,5,0,0:0:0:0:
192,160,13926,5,0,0:0:0:0:
32,160,13926,5,0,0:0:0:0:
96,160,13926,5,0,0:0:0:0:
480,160,13926,5,0,0:0:0:0:
160,160,13927,5,0,0:0:0:0:
224,160,13927,5,0,0:0:0:0:
384,128,14210,5,0,0:0:0:0:
320,128,14210,5,0,0:0:0:0:
416,128,14210,5,0,0:0:0:0:
352,128,14210,5,0,0:0:0:0:
288,128,14210,5,0,0:0:0:0:
96,128,14211,5,0,0:0:0:0:
32,128,14211,5,0,0:0:0:0:
128,128,14211,5,0,0:0:0:0:
512,128,14211,5,0,0:0:0:0:
64,128,14211,5,0,0:0:0:0:
0,128,14211,5,0,0:0:0:0:
448,128,14211,5,0,0:0:0:0:
480,128,14211,5,0,0:0:0:0:
352,96,14283,5,0,0:0:0:0:
288,96,14283,5,0,0:0:0:0:
256,96,14283,5,0,0:0:0:0:
384,96,14283,5,0,0:0:0:0:
320,96,14283,5,0,0:0:0:0:
416,96,14283,5,0,0:0:0:0:
448,96,14284,5,0,0:0:0:0:
0,96,14284,5,0,0:0:0:0:
480,96,14284,5,0,0:0:0:0:
64,96,14284,5,0,0:0:0:0:
32,96,14284,5,0,0:0:0:0:
512,96,14284,5,0,0:0:0:0:
224,96,14285,5,0,0:0:0:0:
352,64,14354,5,0,0:0:0:0:
288,64,14354,5,0,0:0:0:0:
256,64,14354,5,0,0:0:0:0:
384,64,14354,5,0,0:0:0:0:
320,64,14354,5,0,0:0:0:0:
416,64,14354,5,0,0:0:0:0:
448,64,14355,5,0,0:0:0:0:
0,64,14355,5,0,0:0:0:0:
192,64,14355,5,0,0:0:0:0:
480,64,14355,5,0,0:0:0:0:
32,64,14355,5,0,0:0:0:0:
512,64,14355,5,0,0:0:0:0:
224,64,14356,5,0,0:0:0:0:
352,32,14496,5,0,0:0:0:0:
288,32,14496,5,0,0:0:0:0:
256,32,14496,5,0,0:0:0:0:
384,32,14496,5,0,0:0:0:0:
320,32,14496,5,0,0:0:0:0:
416,32,14496,5,0,0:0:0:0:
448,32,14497,5,0,0:0:0:0:
0,32,14497,5,0,0:0:0:0:
480,32,14497,5,0,0:0:0:0:
64,32,14497,5,0,0:0:0:0:
32,32,14497,5,0,0:0:0:0:
96,32,14497,5,0,0:0:0:0:
512,32,14497,5,0,0:0:0:0:
384,0,14638,5,0,0:0:0:0:
416,0,14638,5,0,0:0:0:0:
448,0,14639,5,0,0:0:0:0:
0,0,14639,5,0,0:0:0:0:
192,0,14639,5,0,0:0:0:0:
480,0,14639,5,0,0:0:0:0:
64,0,14639,5,0,0:0:0:0:
32,0,14639,5,0,0:0:0:0:
96,0,14639,5,0,0:0:0:0:
512,0,14639,5,0,0:0:0:0:
128,0,14639,5,0,0:0:0:0:
160,0,14640,5,0,0:0:0:0:
224,0,14640,5,0,0:0:0:0:
288,384,14711,5,0,0:0:0:0:
256,384,14711,5,0,0:0:0:0:
96,384,14712,5,0,0:0:0:0:
32,384,14712,5,0,0:0:0:0:
128,384,14712,5,0,0:0:0:0:
512,384,14712,5,0,0:0:0:0:
64,384,14712,5,0,0:0:0:0:
0,384,14712,5,0,0:0:0:0:
448,384,14712,5,0,0:0:0:0:
480,384,14712,5,0,0:0:0:0:
192,384,14712,5,0,0:0:0:0:
224,384,14713,5,0,0:0:0:0:
160,384,14713,5,0,0:0:0:0:
320,352,14783,5,0,0:0:0:0:
288,352,14783,5,0,0:0:0:0:
256,352,14783,5,0,0:0:0:0:
96,352,14784,5,0,0:0:0:0:
32,352,14784,5,0,0:0:0:0:
128,352,14784,5,0,0:0:0:0:
512,352,14784,5,0,0:0:0:0:
64,352,14784,5,0,0:0:0:0:
0,352,14784,5,0,0:0:0:0:
480,352,14784,5,0,0:0:0:0:
192,352,14784,5,0,0:0:0:0:
224,352,14785,5,0,0:0:0:0:
160,352,14785,5,0,0:0:0:0:
320,320,14926,5,0,0:0:0:0:
352,320,14926,5,0,0:0:0:0:
288,320,14926,5,0,0:0:0:0:
256,320,14926,5,0,0:0:0:0:
96,320,14927,5,0,0:0:0:0:
32,320,14927,5,0,0:0:0:0:
128,320,14927,5,0,0:0:0:0:
512,320,14927,5,0,0:0:0:0:
64,320,14927,5,0,0:0:0:0:
0,320,14927,5,0,0:0:0:0:
192,320,14927,5,0,0:0:0:0:
224,320,14928,5,0,0:0:0:0:
160,320,14928,5,0,0:0:0:0:
352,288,15069,5,0,0:0:0:0:
384,288,15069,5,0,0:0:0:0:
320,288,15069,5,0,0:0:0:0:
416,288,15069,5,0,0:0:0:0:
448,288,15070,5,0,0:0:0:0:
0,288,15070,5,0,0:0:0:0:
480,288,15070,5,0,0:0:0:0:
64,288,15070,5,0,0:0:0:0:
32,288,15070,5,0,0:0:0:0:
96,288,15070,5,0,0:0:0:0:
512,288,15070,5,0,0:0:0:0:
128,288,15070,5,0,0:0:0:0:
160,288,15071,5,0,0:0:0:0:
352,256,15354,5,0,0:0:0:0:
288,256,15354,5,0,0:0:0:0:
256,256,15354,5,0,0:0:0:0:
384,256,15354,5,0,0:0:0:0:
320,256,15354,5,0,0:0:0:0:
416,256,15354,5,0,0:0:0:0:
448,256,15355,5,0,0:0:0:0:
0,256,15355,5,0,0:0:0:0:
192,256,15355,5,0,0:0:0:0:
480,256,15355,5,0,0:0:0:0:
32,256,15355,5,0,0:0:0:0:
512,256,15355,5,0,0:0:0:0:
224,256,15356,5,0,0:0:0:0:
352,224,15640,5,0,0:0:0:0:
288,224,15640,5,0,0:0:0:0:
128,224,15640,5,0,0:0:0:0:
384,224,15640,5,0,0:0:0:0:
320,224,15640,5,0,0:0:0:0:
416,224,15640,5,0,0:0:0:0:
448,224,15641,5,0,0:0:0:0:
0,224,15641,5,0,0:0:0:0:
64,224,15641,5,0,0:0:0:0:
480,224,15641,5,0,0:0:0:0:
32,224,15641,5,0,0:0:0:0:
512,224,15641,5,0,0:0:0:0:
96,224,15642,5,0,0:0:0:0:
288,192,15926,5,0,0:0:0:0:
256,192,15926,5,0,0:0:0:0:
416,192,15926,5,0,0:0:0:0:
448,192,15927,5,0,0:0:0:0:
0,192,15927,5,0,0:0:0:0:
480,192,15927,5,0,0:0:0:0:
64,192,15927,5,0,0:0:0:0:
32,192,15927,5,0,0:0:0:0:
96,192,15927,5,0,0:0:0:0:
512,192,15927,5,0,0:0:0:0:
224,192,15928,5,0,0:0:0:0:
352,160,16211,5,0,0:0:0:0:
320,160,16211,5,0,0:0:0:0:
0,160,16212,5,0,0:0:0:0:
288,160,16212,5,0,0:0:0:0:
480,160,16212,5,0,0:0:0:0:
160,160,16212,5,0,0:0:0:0:
128,160,16212,5,0,0:0:0:0:
192,160,16212,5,0,0:0:0:0:
512,160,16212,5,0,0:0:0:0:
224,160,16212,5,0,0:0:0:0:
256,160,16213,5,0,0:0:0:0:
64,96,16496,5,0,0:0:0:0:
320,96,16497,5,0,0:0:0:0:
352,96,16497,5,0,0:0:0:0:
32,96,16497,5,0,0:0:0:0:
384,96,16497,5,0,0:0:0:0:
416,96,16497,5,0,0:0:0:0:
96,96,16497,5,0,0:0:0:0:
448,96,16497,5,0,0:0:0:0:
128,96,16498,5,0,0:0:0:0:
512,96,16498,5,0,0:0:0:0:
0,96,16498,5,0,0:0:0:0:
160,96,16498,5,0,0:0:0:0:
480,96,16498,5,0,0:0:0:0:
64,64,16783,5,0,0:0:0:0:
32,64,16784,5,0,0:0:0:0:
416,64,16784,5,0,0:0:0:0:
96,64,16784,5,0,0:0:0:0:
448,64,16784,5,0,0:0:0:0:
512,64,16785,5,0,0:0:0:0:
192,64,16785,5,0,0:0:0:0:
224,64,16785,5,0,0:0:0:0:
480,64,16785,5,0,0:0:0:0:
0,64,16785,5,0,0:0:0:0:
128,64,16785,5,0,0:0:0:0:
160,64,16785,5,0,0:0:0:0:
256,64,16786,5,0,0:0:0:0:
96,288,17068,5,0,0:0:0:0:
352,288,17068,5,0,0:0:0:0:
128,288,17068,5,0,0:0:0:0:
64,288,17069,5,0,0:0:0:0:
320,288,17069,5,0,0:0:0:0:
384,288,17069,5,0,0:0:0:0:
96,256,17211,5,0,0:0:0:0:
320,256,17211,5,0,0:0:0:0:
64,256,17211,5,0,0:0:0:0:
352,256,17212,5,0,0:0:0:0:
288,256,17212,5,0,0:0:0:0:
32,256,17212,5,0,0:0:0:0:
64,224,17354,5,0,0:0:0:0:
288,224,17354,5,0,0:0:0:0:
32,224,17354,5,0,0:0:0:0:
512,224,17354,5,0,0:0:0:0:
320,224,17355,5,0,0:0:0:0:
256,224,17355,5,0,0:0:0:0:
0,224,17355,5,0,0:0:0:0:
512,192,17497,5,0,0:0:0:0:
256,192,17497,5,0,0:0:0:0:
32,192,17497,5,0,0:0:0:0:
480,192,17497,5,0,0:0:0:0:
288,192,17498,5,0,0:0:0:0:
224,192,17498,5,0,0:0:0:0:
0,192,17498,5,0,0:0:0:0:
0,160,17640,5,0,0:0:0:0:
480,160,17640,5,0,0:0:0:0:
512,160,17640,5,0,0:0:0:0:
224,160,17640,5,0,0:0:0:0:
448,160,17641,5,0,0:0:0:0:
192,160,17641,5,0,0:0:0:0:
256,160,17641,5,0,0:0:0:0:
224,128,17782,5,0,0:0:0:0:
448,128,17782,5,0,0:0:0:0:
192,128,17782,5,0,0:0:0:0:
480,128,17783,5,0,0:0:0:0:
416,128,17783,5,0,0:0:0:0:
160,128,17783,5,0,0:0:0:0:
192,96,17926,5,0,0:0:0:0:
416,96,17926,5,0,0:0:0:0:
160,96,17926,5,0,0:0:0:0:
448,96,17927,5,0,0:0:0:0:
384,96,17927,5,0,0:0:0:0:
128,96,17927,5,0,0:0:0:0:
128,64,18069,5,0,0:0:0:0:
384,64,18069,5,0,0:0:0:0:
160,64,18069,5,0,0:0:0:0:
96,64,18070,5,0,0:0:0:0:
352,64,18070,5,0,0:0:0:0:
416,64,18070,5,0,0:0:0:0:
352,288,18211,5,0,0:0:0:0:
96,288,18211,5,0,0:0:0:0:
128,288,18211,5,0,0:0:0:0:
384,288,18212,5,0,0:0:0:0:
320,288,18212,5,0,0:0:0:0:
64,288,18212,5,0,0:0:0:0:
320,256,18354,5,0,0:0:0:0:
96,256,18354,5,0,0:0:0:0:
64,256,18354,5,0,0:0:0:0:
352,256,18355,5,0,0:0:0:0:
288,256,18355,5,0,0:0:0:0:
32,256,18355,5,0,0:0:0:0:
64,224,18497,5,0,0:0:0:0:
288,224,18497,5,0,0:0:0:0:
32,224,18497,5,0,0:0:0:0:
512,224,18497,5,0,0:0:0:0:
320,224,18498,5,0,0:0:0:0:
0,224,18498,5,0,0:0:0:0:
256,224,18498,5,0,0:0:0:0:
512,192,18640,5,0,0:0:0:0:
480,192,18640,5,0,0:0:0:0:
32,192,18640,5,0,0:0:0:0:
256,192,18640,5,0,0:0:0:0:
0,192,18641,5,0,0:0:0:0:
288,192,18641,5,0,0:0:0:0:
224,192,18641,5,0,0:0:0:0:
480,160,18783,5,0,0:0:0:0:
512,160,18783,5,0,0:0:0:0:
224,160,18783,5,0,0:0:0:0:
0,160,18783,5,0,0:0:0:0:
192,160,18784,5,0,0:0:0:0:
448,160,18784,5,0,0:0:0:0:
256,160,18784,5,0,0:0:0:0:
448,128,18925,5,0,0:0:0:0:
224,128,18925,5,0,0:0:0:0:
192,128,18925,5,0,0:0:0:0:
416,128,18926,5,0,0:0:0:0:
160,128,18926,5,0,0:0:0:0:
480,128,18926,5,0,0:0:0:0:
160,96,19069,5,0,0:0:0:0:
192,96,19069,5,0,0:0:0:0:
416,96,19069,5,0,0:0:0:0:
128,96,19070,5,0,0:0:0:0:
384,96,19070,5,0,0:0:0:0:
448,96,19070,5,0,0:0:0:0:
128,64,19212,5,0,0:0:0:0:
384,64,19212,5,0,0:0:0:0:
160,64,19212,5,0,0:0:0:0:
352,64,19213,5,0,0:0:0:0:
96,64,19213,5,0,0:0:0:0:
416,64,19213,5,0,0:0:0:0:
96,32,19354,5,0,0:0:0:0:
64,32,19354,5,0,0:0:0:0:
480,32,19354,5,0,0:0:0:0:
0,32,19354,5,0,0:0:0:0:
448,32,19354,5,0,0:0:0:0:
512,32,19354,5,0,0:0:0:0:
224,32,19354,5,0,0:0:0:0:
256,32,19354,5,0,0:0:0:0:
416,32,19355,5,0,0:0:0:0:
32,32,19355,5,0,0:0:0:0:
384,32,19355,5,0,0:0:0:0:
52,296,19462,5,0,0:0:0:0:
116,296,19462,5,0,0:0:0:0:
84,296,19462,5,0,0:0:0:0:
148,296,19462,5,0,0:0:0:0:
180,296,19462,5,0,0:0:0:0:
52,200,19498,5,0,0:0:0:0:
180,200,19498,5,0,0:0:0:0:
52,264,19533,5,0,0:0:0:0:
180,264,19533,5,0,0:0:0:0:
52,200,19569,5,0,0:0:0:0:
180,200,19569,5,0,0:0:0:0:
424,276,19604,5,0,0:0:0:0:
360,276,19604,5,0,0:0:0:0:
392,276,19604,5,0,0:0:0:0:
488,276,19604,5,0,0:0:0:0:
456,276,19604,5,0,0:0:0:0:
52,232,19605,5,0,0:0:0:0:
180,232,19605,5,0,0:0:0:0:
360,180,19640,5,0,0:0:0:0:
488,180,19640,5,0,0:0:0:0:
52,200,19641,5,0,0:0:0:0:
180,200,19641,5,0,0:0:0:0:
488,244,19675,5,0,0:0:0:0:
360,244,19675,5,0,0:0:0:0:
148,168,19676,5,0,0:0:0:0:
180,168,19676,5,0,0:0:0:0:
84,168,19676,5,0,0:0:0:0:
52,168,19676,5,0,0:0:0:0:
116,168,19676,5,0,0:0:0:0:
360,180,19711,5,0,0:0:0:0:
488,180,19711,5,0,0:0:0:0:
488,212,19747,5,0,0:0:0:0:
360,212,19747,5,0,0:0:0:0:
488,180,19783,5,0,0:0:0:0:
360,180,19783,5,0,0:0:0:0:
328,184,19783,5,0,0:0:0:0:
264,184,19783,5,0,0:0:0:0:
296,184,19783,5,0,0:0:0:0:
392,184,19783,5,0,0:0:0:0:
360,184,19783,5,0,0:0:0:0:
360,148,19818,5,0,0:0:0:0:
392,148,19818,5,0,0:0:0:0:
424,148,19818,5,0,0:0:0:0:
456,148,19818,5,0,0:0:0:0:
488,148,19818,5,0,0:0:0:0:
392,88,19819,5,0,0:0:0:0:
264,88,19819,5,0,0:0:0:0:
392,152,19854,5,0,0:0:0:0:
264,152,19854,5,0,0:0:0:0:
392,88,19890,5,0,0:0:0:0:
264,88,19890,5,0,0:0:0:0:
392,120,19926,5,0,0:0:0:0:
264,120,19926,5,0,0:0:0:0:
264,88,19962,5,0,0:0:0:0:
392,88,19962,5,0,0:0:0:0:
264,56,19997,5,0,0:0:0:0:
296,56,19997,5,0,0:0:0:0:
328,56,19997,5,0,0:0:0:0:
360,56,19997,5,0,0:0:0:0:
392,56,19997,5,0,0:0:0:0:
132,212,20068,5,0,0:0:0:0:
100,212,20068,5,0,0:0:0:0:
36,212,20068,5,0,0:0:0:0:
68,212,20068,5,0,0:0:0:0:
4,212,20068,5,0,0:0:0:0:
132,116,20104,5,0,0:0:0:0:
4,116,20104,5,0,0:0:0:0:
4,180,20139,5,0,0:0:0:0:
132,180,20139,5,0,0:0:0:0:
132,116,20175,5,0,0:0:0:0:
4,116,20175,5,0,0:0:0:0:
4,148,20211,5,0,0:0:0:0:
132,148,20211,5,0,0:0:0:0:
4,116,20247,5,0,0:0:0:0:
132,116,20247,5,0,0:0:0:0:
100,84,20282,5,0,0:0:0:0:
132,84,20282,5,0,0:0:0:0:
68,84,20282,5,0,0:0:0:0:
4,84,20282,5,0,0:0:0:0:
36,84,20282,5,0,0:0:0:0:
484,352,20497,5,0,0:0:0:0:
264,360,20497,5,0,0:0:0:0:
192,352,20515,5,0,0:0:0:0:
160,352,20533,5,0,0:0:0:0:
128,352,20551,5,0,0:0:0:0:
481,334,20568,5,0,0:0:0:0:
261,342,20568,5,0,0:0:0:0:
444,296,20569,5,0,0:0:0:0:
96,352,20586,5,0,0:0:0:0:
64,352,20604,5,0,0:0:0:0:
32,352,20622,5,0,0:0:0:0:
479,317,20639,5,0,0:0:0:0:
259,325,20639,5,0,0:0:0:0:
192,352,20658,5,0,0:0:0:0:
160,352,20676,5,0,0:0:0:0:
128,352,20694,5,0,0:0:0:0:
477,299,20711,5,0,0:0:0:0:
257,307,20711,5,0,0:0:0:0:
96,352,20729,5,0,0:0:0:0:
64,352,20747,5,0,0:0:0:0:
32,352,20765,5,0,0:0:0:0:
474,282,20782,5,0,0:0:0:0:
254,290,20782,5,0,0:0:0:0:
192,352,20801,5,0,0:0:0:0:
160,352,20819,5,0,0:0:0:0:
128,352,20837,5,0,0:0:0:0:
472,265,20854,5,0,0:0:0:0:
252,273,20854,5,0,0:0:0:0:
96,352,20872,5,0,0:0:0:0:
64,352,20890,5,0,0:0:0:0:
32,352,20908,5,0,0:0:0:0:
470,247,20925,5,0,0:0:0:0:
250,255,20925,5,0,0:0:0:0:
192,352,20944,5,0,0:0:0:0:
160,352,20962,5,0,0:0:0:0:
128,352,20980,5,0,0:0:0:0:
468,230,20997,5,0,0:0:0:0:
248,238,20997,5,0,0:0:0:0:
96,352,21015,5,0,0:0:0:0:
64,352,21033,5,0,0:0:0:0:
32,352,21051,5,0,0:0:0:0:
465,213,21068,5,0,0:0:0:0:
245,221,21068,5,0,0:0:0:0:
296,236,21069,5,0,0:0:0:0:
192,352,21086,5,0,0:0:0:0:
160,352,21104,5,0,0:0:0:0:
128,352,21122,5,0,0:0:0:0:
463,195,21139,5,0,0:0:0:0:
243,203,21139,5,0,0:0:0:0:
96,352,21157,5,0,0:0:0:0:
64,352,21175,5,0,0:0:0:0:
32,352,21193,5,0,0:0:0:0:
461,178,21211,5,0,0:0:0:0:
241,186,21211,5,0,0:0:0:0:
192,352,21229,5,0,0:0:0:0:
160,352,21247,5,0,0:0:0:0:
128,352,21265,5,0,0:0:0:0:
459,161,21282,5,0,0:0:0:0:
239,169,21282,5,0,0:0:0:0:
96,352,21300,5,0,0:0:0:0:
64,352,21318,5,0,0:0:0:0:
32,352,21336,5,0,0:0:0:0:
456,143,21354,5,0,0:0:0:0:
236,151,21354,5,0,0:0:0:0:
192,352,21372,5,0,0:0:0:0:
160,352,21390,5,0,0:0:0:0:
128,352,21408,5,0,0:0:0:0:
454,126,21425,5,0,0:0:0:0:
234,134,21425,5,0,0:0:0:0:
96,352,21443,5,0,0:0:0:0:
64,352,21461,5,0,0:0:0:0:
32,352,21479,5,0,0:0:0:0:
452,109,21497,5,0,0:0:0:0:
232,117,21497,5,0,0:0:0:0:
160,288,21533,5,0,0:0:0:0:
128,288,21551,5,0,0:0:0:0:
449,91,21568,5,0,0:0:0:0:
229,99,21568,5,0,0:0:0:0:
96,288,21586,5,0,0:0:0:0:
64,288,21604,5,0,0:0:0:0:
32,288,21622,5,0,0:0:0:0:
447,74,21639,5,0,0:0:0:0:
227,82,21639,5,0,0:0:0:0:
304,72,21640,5,0,0:0:0:0:
160,288,21676,5,0,0:0:0:0:
128,288,21694,5,0,0:0:0:0:
445,57,21711,5,0,0:0:0:0:
225,65,21711,5,0,0:0:0:0:
96,288,21729,5,0,0:0:0:0:
64,288,21747,5,0,0:0:0:0:
32,288,21765,5,0,0:0:0:0:
443,39,21782,5,0,0:0:0:0:
223,47,21782,5,0,0:0:0:0:
160,288,21819,5,0,0:0:0:0:
128,288,21837,5,0,0:0:0:0:
440,22,21854,5,0,0:0:0:0:
220,30,21854,5,0,0:0:0:0:
96,288,21872,5,0,0:0:0:0:
64,288,21890,5,0,0:0:0:0:
32,288,21908,5,0,0:0:0:0:
376,140,21908,5,0,0:0:0:0:
439,27,21925,5,0,0:0:0:0:
219,35,21925,5,0,0:0:0:0:
160,288,21962,5,0,0:0:0:0:
128,288,21980,5,0,0:0:0:0:
437,44,21997,5,0,0:0:0:0:
217,52,21997,5,0,0:0:0:0:
96,288,22015,5,0,0:0:0:0:
64,288,22033,5,0,0:0:0:0:
32,288,22051,5,0,0:0:0:0:
436,61,22068,5,0,0:0:0:0:
216,69,22068,5,0,0:0:0:0:
160,288,22104,5,0,0:0:0:0:
128,288,22122,5,0,0:0:0:0:
435,79,22139,5,0,0:0:0:0:
215,87,22139,5,0,0:0:0:0:
96,288,22157,5,0,0:0:0:0:
64,288,22175,5,0,0:0:0:0:
32,288,22193,5,0,0:0:0:0:
433,96,22211,5,0,0:0:0:0:
213,104,22211,5,0,0:0:0:0:
160,288,22247,5,0,0:0:0:0:
252,200,22265,5,0,0:0:0:0:
432,114,22282,5,0,0:0:0:0:
212,122,22282,5,0,0:0:0:0:
96,288,22300,5,0,0:0:0:0:
64,288,22318,5,0,0:0:0:0:
32,288,22336,5,0,0:0:0:0:
430,131,22354,5,0,0:0:0:0:
210,139,22354,5,0,0:0:0:0:
160,288,22390,5,0,0:0:0:0:
128,288,22408,5,0,0:0:0:0:
429,149,22425,5,0,0:0:0:0:
209,157,22425,5,0,0:0:0:0:
96,288,22443,5,0,0:0:0:0:
64,288,22461,5,0,0:0:0:0:
32,288,22479,5,0,0:0:0:0:
428,166,22497,5,0,0:0:0:0:
208,174,22497,5,0,0:0:0:0:
206,192,22568,5,0,0:0:0:0:
426,184,22568,5,0,0:0:0:0:
128,256,22622,5,0,0:0:0:0:
425,201,22639,5,0,0:0:0:0:
205,209,22639,5,0,0:0:0:0:
96,256,22657,5,0,0:0:0:0:
64,256,22675,5,0,0:0:0:0:
32,256,22693,5,0,0:0:0:0:
204,227,22711,5,0,0:0:0:0:
424,219,22711,5,0,0:0:0:0:
128,256,22764,5,0,0:0:0:0:
422,236,22782,5,0,0:0:0:0:
202,244,22782,5,0,0:0:0:0:
96,256,22799,5,0,0:0:0:0:
64,256,22817,5,0,0:0:0:0:
380,224,22819,5,0,0:0:0:0:
32,256,22835,5,0,0:0:0:0:
201,261,22854,5,0,0:0:0:0:
421,253,22854,5,0,0:0:0:0:
128,256,22907,5,0,0:0:0:0:
419,271,22925,5,0,0:0:0:0:
199,279,22925,5,0,0:0:0:0:
96,256,22942,5,0,0:0:0:0:
64,256,22960,5,0,0:0:0:0:
300,300,22961,5,0,0:0:0:0:
32,256,22978,5,0,0:0:0:0:
198,296,22997,5,0,0:0:0:0:
418,288,22997,5,0,0:0:0:0:
128,256,23050,5,0,0:0:0:0:
417,306,23068,5,0,0:0:0:0:
197,314,23068,5,0,0:0:0:0:
96,256,23085,5,0,0:0:0:0:
64,256,23103,5,0,0:0:0:0:
32,256,23121,5,0,0:0:0:0:
195,331,23139,5,0,0:0:0:0:
415,323,23139,5,0,0:0:0:0:
96,224,23176,5,0,0:0:0:0:
64,224,23194,5,0,0:0:0:0:
194,349,23211,5,0,0:0:0:0:
64,224,23211,5,0,0:0:0:0:
32,224,23229,5,0,0:0:0:0:
232,320,23247,5,0,0:0:0:0:
96,224,23265,5,0,0:0:0:0:
193,366,23282,5,0,0:0:0:0:
413,358,23282,5,0,0:0:0:0:
64,224,23283,5,0,0:0:0:0:
32,224,23301,5,0,0:0:0:0:
182,355,23354,5,0,0:0:0:0:
402,347,23354,5,0,0:0:0:0:
96,224,23372,5,0,0:0:0:0:
64,224,23390,5,0,0:0:0:0:
64,224,23407,5,0,0:0:0:0:
171,342,23425,5,0,0:0:0:0:
32,224,23425,5,0,0:0:0:0:
96,224,23461,5,0,0:0:0:0:
64,224,23479,5,0,0:0:0:0:
161,327,23497,5,0,0:0:0:0:
32,224,23497,5,0,0:0:0:0:
356,344,23532,5,0,0:0:0:0:
96,224,23551,5,0,0:0:0:0:
480,352,23551,5,0,0:0:0:0:
371,305,23568,5,0,0:0:0:0:
151,313,23568,5,0,0:0:0:0:
64,224,23569,5,0,0:0:0:0:
448,352,23569,5,0,0:0:0:0:
64,224,23586,5,0,0:0:0:0:
416,352,23587,5,0,0:0:0:0:
32,224,23604,5,0,0:0:0:0:
384,352,23622,5,0,0:0:0:0:
362,290,23639,5,0,0:0:0:0:
142,298,23639,5,0,0:0:0:0:
96,224,23640,5,0,0:0:0:0:
64,224,23658,5,0,0:0:0:0:
32,224,23676,5,0,0:0:0:0:
480,352,23694,5,0,0:0:0:0:
354,274,23711,5,0,0:0:0:0:
134,282,23711,5,0,0:0:0:0:
448,352,23712,5,0,0:0:0:0:
416,352,23730,5,0,0:0:0:0:
232,256,23747,5,0,0:0:0:0:
384,352,23765,5,0,0:0:0:0:
347,258,23782,5,0,0:0:0:0:
127,266,23782,5,0,0:0:0:0:
32,192,23819,5,0,0:0:0:0:
480,352,23837,5,0,0:0:0:0:
341,242,23854,5,0,0:0:0:0:
121,250,23854,5,0,0:0:0:0:
448,352,23855,5,0,0:0:0:0:
416,352,23873,5,0,0:0:0:0:
32,160,23890,5,0,0:0:0:0:
384,352,23908,5,0,0:0:0:0:
336,225,23925,5,0,0:0:0:0:
116,233,23925,5,0,0:0:0:0:
32,128,23961,5,0,0:0:0:0:
480,352,23980,5,0,0:0:0:0:
333,208,23997,5,0,0:0:0:0:
113,216,23997,5,0,0:0:0:0:
448,352,23998,5,0,0:0:0:0:
416,352,24016,5,0,0:0:0:0:
32,192,24033,5,0,0:0:0:0:
384,352,24051,5,0,0:0:0:0:
331,190,24068,5,0,0:0:0:0:
111,198,24068,5,0,0:0:0:0:
32,160,24104,5,0,0:0:0:0:
480,352,24122,5,0,0:0:0:0:
330,173,24139,5,0,0:0:0:0:
110,181,24139,5,0,0:0:0:0:
448,352,24140,5,0,0:0:0:0:
416,352,24158,5,0,0:0:0:0:
32,128,24175,5,0,0:0:0:0:
224,196,24176,5,0,0:0:0:0:
384,352,24193,5,0,0:0:0:0:
331,156,24211,5,0,0:0:0:0:
111,164,24211,5,0,0:0:0:0:
32,192,24247,5,0,0:0:0:0:
480,352,24265,5,0,0:0:0:0:
334,138,24282,5,0,0:0:0:0:
114,146,24282,5,0,0:0:0:0:
448,352,24283,5,0,0:0:0:0:
416,352,24301,5,0,0:0:0:0:
32,160,24318,5,0,0:0:0:0:
384,352,24336,5,0,0:0:0:0:
338,121,24354,5,0,0:0:0:0:
118,129,24354,5,0,0:0:0:0:
32,128,24389,5,0,0:0:0:0:
344,105,24425,5,0,0:0:0:0:
124,113,24425,5,0,0:0:0:0:
480,352,24425,5,0,0:0:0:0:
448,352,24443,5,0,0:0:0:0:
32,192,24461,5,0,0:0:0:0:
416,352,24461,5,0,0:0:0:0:
352,89,24497,5,0,0:0:0:0:
132,97,24497,5,0,0:0:0:0:
32,160,24532,5,0,0:0:0:0:
361,74,24568,5,0,0:0:0:0:
141,82,24568,5,0,0:0:0:0:
480,352,24568,5,0,0:0:0:0:
448,352,24586,5,0,0:0:0:0:
32,128,24603,5,0,0:0:0:0:
416,352,24604,5,0,0:0:0:0:
371,60,24639,5,0,0:0:0:0:
151,68,24639,5,0,0:0:0:0:
192,116,24676,5,0,0:0:0:0:
383,47,24711,5,0,0:0:0:0:
163,55,24711,5,0,0:0:0:0:
480,352,24711,5,0,0:0:0:0:
448,352,24729,5,0,0:0:0:0:
416,352,24747,5,0,0:0:0:0:
192,352,24747,5,0,0:0:0:0:
160,352,24765,5,0,0:0:0:0:
395,34,24782,5,0,0:0:0:0:
175,42,24782,5,0,0:0:0:0:
128,352,24783,5,0,0:0:0:0:
96,352,24818,5,0,0:0:0:0:
64,352,24836,5,0,0:0:0:0:
407,25,24854,5,0,0:0:0:0:
187,33,24854,5,0,0:0:0:0:
480,352,24854,5,0,0:0:0:0:
32,352,24854,5,0,0:0:0:0:
448,352,24872,5,0,0:0:0:0:
352,160,24890,5,0,0:0:0:0:
416,352,24890,5,0,0:0:0:0:
192,352,24890,5,0,0:0:0:0:
160,352,24908,5,0,0:0:0:0:
414,41,24925,5,0,0:0:0:0:
194,49,24925,5,0,0:0:0:0:
128,352,24926,5,0,0:0:0:0:
96,352,24961,5,0,0:0:0:0:
64,352,24979,5,0,0:0:0:0:
420,58,24997,5,0,0:0:0:0:
200,66,24997,5,0,0:0:0:0:
32,352,24997,5,0,0:0:0:0:
192,352,25033,5,0,0:0:0:0:
160,352,25051,5,0,0:0:0:0:
425,74,25068,5,0,0:0:0:0:
205,82,25068,5,0,0:0:0:0:
128,352,25069,5,0,0:0:0:0:
96,352,25104,5,0,0:0:0:0:
64,352,25122,5,0,0:0:0:0:
429,91,25139,5,0,0:0:0:0:
209,99,25139,5,0,0:0:0:0:
32,352,25140,5,0,0:0:0:0:
192,352,25176,5,0,0:0:0:0:
160,352,25194,5,0,0:0:0:0:
431,109,25211,5,0,0:0:0:0:
211,117,25211,5,0,0:0:0:0:
128,352,25212,5,0,0:0:0:0:
96,352,25247,5,0,0:0:0:0:
64,352,25265,5,0,0:0:0:0:
433,126,25282,5,0,0:0:0:0:
213,134,25282,5,0,0:0:0:0:
32,352,25283,5,0,0:0:0:0:
192,352,25318,5,0,0:0:0:0:
312,184,25319,5,0,0:0:0:0:
160,352,25336,5,0,0:0:0:0:
434,144,25354,5,0,0:0:0:0:
214,152,25354,5,0,0:0:0:0:
128,352,25354,5,0,0:0:0:0:
96,352,25389,5,0,0:0:0:0:
64,352,25407,5,0,0:0:0:0:
434,161,25425,5,0,0:0:0:0:
214,169,25425,5,0,0:0:0:0:
32,352,25425,5,0,0:0:0:0:
432,179,25497,5,0,0:0:0:0:
212,187,25497,5,0,0:0:0:0:
272,236,25533,5,0,0:0:0:0:
430,196,25568,5,0,0:0:0:0:
210,204,25568,5,0,0:0:0:0:
427,213,25639,5,0,0:0:0:0:
207,221,25639,5,0,0:0:0:0:
423,230,25711,5,0,0:0:0:0:
203,238,25711,5,0,0:0:0:0:
418,247,25782,5,0,0:0:0:0:
198,255,25782,5,0,0:0:0:0:
413,264,25854,5,0,0:0:0:0:
193,272,25854,5,0,0:0:0:0:
407,280,25925,5,0,0:0:0:0:
187,288,25925,5,0,0:0:0:0:
388,276,25961,5,0,0:0:0:0:
400,296,25997,5,0,0:0:0:0:
180,304,25997,5,0,0:0:0:0:
392,312,26068,5,0,0:0:0:0:
172,320,26068,5,0,0:0:0:0:
384,327,26139,5,0,0:0:0:0:
164,335,26139,5,0,0:0:0:0:
260,300,26176,5,0,0:0:0:0:
374,342,26211,5,0,0:0:0:0:
154,350,26211,5,0,0:0:0:0:
64,352,26211,5,0,0:0:0:0:
0,352,26211,5,0,0:0:0:0:
480,352,26211,5,0,0:0:0:0:
32,352,26211,5,0,0:0:0:0:
448,352,26211,5,0,0:0:0:0:
416,352,26211,5,0,0:0:0:0:
512,352,26211,5,0,0:0:0:0:
128,352,26211,5,0,0:0:0:0:
96,352,26211,5,0,0:0:0:0:
164,32,26211,6,0,B|168:240|200:320|200:320|244:144|244:144|292:256,1,587.5
364,32,26211,6,0,B|368:240|400:320|400:320|424:24|424:24,1,587.5
0,288,27069,5,0,0:0:0:0:
224,288,27069,5,0,0:0:0:0:
96,288,27069,5,0,0:0:0:0:
448,288,27069,5,0,0:0:0:0:
192,288,27069,5,0,0:0:0:0:
64,288,27069,5,0,0:0:0:0:
32,288,27069,5,0,0:0:0:0:
256,288,27069,5,0,0:0:0:0:
512,288,27069,5,0,0:0:0:0:
128,288,27069,5,0,0:0:0:0:
288,256,27069,5,0,0:0:0:0:
480,288,27070,5,0,0:0:0:0:
160,288,27070,5,0,0:0:0:0:
263,256,27104,5,0,0:0:0:0:
416,192,27105,5,0,0:0:0:0:
391,192,27140,5,0,0:0:0:0:
238,256,27140,5,0,0:0:0:0:
366,192,27176,5,0,0:0:0:0:
213,256,27176,5,0,0:0:0:0:
188,256,27211,5,0,0:0:0:0:
341,192,27212,5,0,0:0:0:0:
316,192,27247,5,0,0:0:0:0:
163,256,27247,5,0,0:0:0:0:
291,192,27283,5,0,0:0:0:0:
138,256,27283,5,0,0:0:0:0:
266,192,27319,5,0,0:0:0:0:
113,256,27319,5,0,0:0:0:0:
88,256,27354,5,0,0:0:0:0:
241,192,27355,5,0,0:0:0:0:
216,192,27390,5,0,0:0:0:0:
32,320,27390,5,0,0:0:0:0:
64,320,27390,5,0,0:0:0:0:
416,320,27390,5,0,0:0:0:0:
288,320,27390,5,0,0:0:0:0:
512,320,27390,5,0,0:0:0:0:
384,320,27390,5,0,0:0:0:0:
0,320,27390,5,0,0:0:0:0:
256,320,27390,5,0,0:0:0:0:
352,320,27390,5,0,0:0:0:0:
448,320,27390,5,0,0:0:0:0:
320,320,27391,5,0,0:0:0:0:
480,320,27391,5,0,0:0:0:0:
185,160,27639,5,0,0:0:0:0:
32,96,27640,5,0,0:0:0:0:
384,32,27640,5,0,0:0:0:0:
512,32,27640,5,0,0:0:0:0:
448,32,27640,5,0,0:0:0:0:
256,32,27640,5,0,0:0:0:0:
224,32,27640,5,0,0:0:0:0:
352,32,27640,5,0,0:0:0:0:
288,32,27640,5,0,0:0:0:0:
416,32,27640,5,0,0:0:0:0:
0,32,27640,5,0,0:0:0:0:
320,32,27641,5,0,0:0:0:0:
480,32,27641,5,0,0:0:0:0:
57,96,27675,5,0,0:0:0:0:
210,160,27675,5,0,0:0:0:0:
82,96,27711,5,0,0:0:0:0:
235,160,27711,5,0,0:0:0:0:
260,160,27746,5,0,0:0:0:0:
107,96,27747,5,0,0:0:0:0:
285,160,27782,5,0,0:0:0:0:
132,96,27782,5,0,0:0:0:0:
157,96,27818,5,0,0:0:0:0:
310,160,27818,5,0,0:0:0:0:
335,160,27854,5,0,0:0:0:0:
182,96,27854,5,0,0:0:0:0:
360,160,27889,5,0,0:0:0:0:
207,96,27890,5,0,0:0:0:0:
232,96,27925,5,0,0:0:0:0:
128,64,27926,5,0,0:0:0:0:
0,64,27926,5,0,0:0:0:0:
64,64,27926,5,0,0:0:0:0:
160,64,27926,5,0,0:0:0:0:
480,64,27926,5,0,0:0:0:0:
96,64,27926,5,0,0:0:0:0:
512,64,27926,5,0,0:0:0:0:
448,64,27926,5,0,0:0:0:0:
416,64,27926,5,0,0:0:0:0:
384,64,27926,5,0,0:0:0:0:
192,64,27927,5,0,0:0:0:0:
32,64,27927,5,0,0:0:0:0:
128,352,28211,5,0,0:0:0:0:
0,352,28211,5,0,0:0:0:0:
64,352,28211,5,0,0:0:0:0:
160,352,28211,5,0,0:0:0:0:
320,352,28211,5,0,0:0:0:0:
96,352,28211,5,0,0:0:0:0:
512,352,28211,5,0,0:0:0:0:
288,352,28211,5,0,0:0:0:0:
256,352,28211,5,0,0:0:0:0:
224,352,28211,5,0,0:0:0:0:
352,288,28211,5,0,0:0:0:0:
192,352,28212,5,0,0:0:0:0:
32,352,28212,5,0,0:0:0:0:
327,288,28246,5,0,0:0:0:0:
480,224,28247,5,0,0:0:0:0:
455,224,28282,5,0,0:0:0:0:
302,288,28282,5,0,0:0:0:0:
430,224,28318,5,0,0:0:0:0:
277,288,28318,5,0,0:0:0:0:
252,288,28353,5,0,0:0:0:0:
405,224,28354,5,0,0:0:0:0:
380,224,28389,5,0,0:0:0:0:
227,288,28389,5,0,0:0:0:0:
355,224,28425,5,0,0:0:0:0:
202,288,28425,5,0,0:0:0:0:
330,224,28461,5,0,0:0:0:0:
177,288,28461,5,0,0:0:0:0:
152,288,28496,5,0,0:0:0:0:
305,224,28497,5,0,0:0:0:0:
0,320,28497,5,0,0:0:0:0:
416,320,28497,5,0,0:0:0:0:
64,320,28497,5,0,0:0:0:0:
128,320,28497,5,0,0:0:0:0:
96,320,28497,5,0,0:0:0:0:
512,320,28497,5,0,0:0:0:0:
448,320,28497,5,0,0:0:0:0:
32,320,28497,5,0,0:0:0:0:
384,320,28497,5,0,0:0:0:0:
352,320,28497,5,0,0:0:0:0:
480,320,28498,5,0,0:0:0:0:
480,316,28694,5,0,0:0:0:0:
480,292,28711,5,0,0:0:0:0:
480,260,28729,5,0,0:0:0:0:
480,228,28747,5,0,0:0:0:0:
480,200,28783,5,0,0:0:0:0:
480,144,28890,5,0,0:0:0:0:
128,340,28908,5,0,0:0:0:0:
152,324,28926,5,0,0:0:0:0:
172,312,28943,5,0,0:0:0:0:
120,296,28961,5,0,0:0:0:0:
140,296,28961,5,0,0:0:0:0:
28,296,28961,5,0,0:0:0:0:
192,300,28961,5,0,0:0:0:0:
84,296,28962,5,0,0:0:0:0:
56,296,28962,5,0,0:0:0:0:
168,276,28979,5,0,0:0:0:0:
148,260,28997,5,0,0:0:0:0:
208,168,29068,5,0,0:0:0:0:
44,176,29069,5,0,0:0:0:0:
61,176,29069,5,0,0:0:0:0:
396,176,29069,5,0,0:0:0:0:
413,176,29069,5,0,0:0:0:0:
126,172,29069,5,0,0:0:0:0:
267,168,29086,5,0,0:0:0:0:
167,172,29086,5,0,0:0:0:0:
112,157,29086,5,0,0:0:0:0:
21,172,29087,5,0,0:0:0:0:
373,172,29087,5,0,0:0:0:0:
316,168,29104,5,0,0:0:0:0:
210,144,29104,5,0,0:0:0:0:
167,157,29104,5,0,0:0:0:0:
142,163,29104,5,0,0:0:0:0:
9,154,29105,5,0,0:0:0:0:
361,154,29105,5,0,0:0:0:0:
264,138,29121,5,0,0:0:0:0:
98,143,29122,5,0,0:0:0:0:
169,143,29122,5,0,0:0:0:0:
392,128,29122,5,0,0:0:0:0:
4,133,29123,5,0,0:0:0:0:
356,133,29123,5,0,0:0:0:0:
408,124,29123,5,0,0:0:0:0:
380,128,29123,5,0,0:0:0:0:
313,138,29139,5,0,0:0:0:0:
210,121,29139,5,0,0:0:0:0:
9,105,29140,5,0,0:0:0:0:
361,105,29140,5,0,0:0:0:0:
155,155,29140,5,0,0:0:0:0:
172,126,29140,5,0,0:0:0:0:
256,112,29157,5,0,0:0:0:0:
378,90,29158,5,0,0:0:0:0:
100,121,29158,5,0,0:0:0:0:
172,109,29158,5,0,0:0:0:0:
424,108,29158,5,0,0:0:0:0:
305,112,29175,5,0,0:0:0:0:
149,118,29175,5,0,0:0:0:0:
234,105,29175,5,0,0:0:0:0:
26,90,29176,5,0,0:0:0:0:
396,90,29176,5,0,0:0:0:0:
167,112,29176,5,0,0:0:0:0:
283,105,29193,5,0,0:0:0:0:
208,102,29193,5,0,0:0:0:0:
135,101,29193,5,0,0:0:0:0:
114,107,29194,5,0,0:0:0:0:
44,90,29194,5,0,0:0:0:0:
66,93,29194,5,0,0:0:0:0:
418,93,29194,5,0,0:0:0:0:
167,112,29194,5,0,0:0:0:0:
167,112,29211,5,0,0:0:0:0:
208,82,29211,5,0,0:0:0:0:
336,356,29390,5,0,0:0:0:0:
452,356,29391,5,0,0:0:0:0:
496,344,29409,5,0,0:0:0:0:
336,332,29426,5,0,0:0:0:0:
420,336,29426,5,0,0:0:0:0:
508,312,29444,5,0,0:0:0:0:
416,300,29462,5,0,0:0:0:0:
336,304,29463,5,0,0:0:0:0:
496,280,29480,5,0,0:0:0:0:
436,268,29498,5,0,0:0:0:0:
468,256,29516,5,0,0:0:0:0:
336,276,29517,5,0,0:0:0:0:
368,264,29550,5,0,0:0:0:0:
336,256,29551,5,0,0:0:0:0:
304,264,29551,5,0,0:0:0:0:
272,264,29551,5,0,0:0:0:0:
400,264,29551,5,0,0:0:0:0:
336,236,29587,5,0,0:0:0:0:
336,216,29623,5,0,0:0:0:0:
369,152,29694,5,0,0:0:0:0:
345,136,29712,5,0,0:0:0:0:
325,124,29729,5,0,0:0:0:0:
357,108,29747,5,0,0:0:0:0:
469,108,29747,5,0,0:0:0:0:
377,108,29747,5,0,0:0:0:0:
305,112,29747,5,0,0:0:0:0:
441,108,29748,5,0,0:0:0:0:
413,108,29748,5,0,0:0:0:0:
329,88,29765,5,0,0:0:0:0:
349,72,29783,5,0,0:0:0:0:
48,272,29801,5,0,0:0:0:0:
204,272,29801,5,0,0:0:0:0:
16,276,29819,5,0,0:0:0:0:
49,247,29836,5,0,0:0:0:0:
205,247,29836,5,0,0:0:0:0:
244,276,29854,5,0,0:0:0:0:
51,222,29872,5,0,0:0:0:0:
207,222,29872,5,0,0:0:0:0:
292,268,29890,5,0,0:0:0:0:
53,197,29908,5,0,0:0:0:0:
209,197,29908,5,0,0:0:0:0:
340,256,29926,5,0,0:0:0:0:
55,172,29943,5,0,0:0:0:0:
211,172,29943,5,0,0:0:0:0:
376,252,29961,5,0,0:0:0:0:
61,147,29979,5,0,0:0:0:0:
217,147,29979,5,0,0:0:0:0:
424,240,29997,5,0,0:0:0:0:
69,124,30015,5,0,0:0:0:0:
225,124,30015,5,0,0:0:0:0:
476,224,30033,5,0,0:0:0:0:
81,102,30051,5,0,0:0:0:0:
237,102,30051,5,0,0:0:0:0:
12,220,30069,5,0,0:0:0:0:
94,81,30086,5,0,0:0:0:0:
250,81,30086,5,0,0:0:0:0:
244,224,30104,5,0,0:0:0:0:
110,62,30122,5,0,0:0:0:0:
266,62,30122,5,0,0:0:0:0:
288,216,30140,5,0,0:0:0:0:
284,44,30158,5,0,0:0:0:0:
332,200,30158,5,0,0:0:0:0:
147,28,30193,5,0,0:0:0:0:
303,28,30193,5,0,0:0:0:0:
376,196,30194,5,0,0:0:0:0:
424,188,30211,5,0,0:0:0:0:
167,13,30229,5,0,0:0:0:0:
323,13,30229,5,0,0:0:0:0:
480,172,30247,5,0,0:0:0:0:
187,18,30265,5,0,0:0:0:0:
343,18,30265,5,0,0:0:0:0:
20,76,30265,5,0,0:0:0:0:
20,160,30283,5,0,0:0:0:0:
204,36,30301,5,0,0:0:0:0:
360,36,30301,5,0,0:0:0:0:
428,128,30319,5,0,0:0:0:0:
220,55,30336,5,0,0:0:0:0:
376,55,30336,5,0,0:0:0:0:
136,40,30336,5,0,0:0:0:0:
472,120,30354,5,0,0:0:0:0:
235,75,30372,5,0,0:0:0:0:
391,75,30372,5,0,0:0:0:0:
184,56,30372,5,0,0:0:0:0:
24,104,30390,5,0,0:0:0:0:
72,48,30390,5,0,0:0:0:0:
249,95,30408,5,0,0:0:0:0:
405,95,30408,5,0,0:0:0:0:
476,60,30426,5,0,0:0:0:0:
262,117,30443,5,0,0:0:0:0:
418,117,30443,5,0,0:0:0:0:
20,76,30444,5,0,0:0:0:0:
80,92,30461,5,0,0:0:0:0:
274,139,30479,5,0,0:0:0:0:
430,139,30479,5,0,0:0:0:0:
472,88,30497,5,0,0:0:0:0:
285,161,30515,5,0,0:0:0:0:
441,161,30515,5,0,0:0:0:0:
136,40,30515,5,0,0:0:0:0:
295,184,30551,5,0,0:0:0:0:
451,184,30551,5,0,0:0:0:0:
184,56,30551,5,0,0:0:0:0:
72,48,30569,5,0,0:0:0:0:
304,207,30586,5,0,0:0:0:0:
460,207,30586,5,0,0:0:0:0:
312,231,30622,5,0,0:0:0:0:
468,231,30622,5,0,0:0:0:0:
319,255,30658,5,0,0:0:0:0:
475,255,30658,5,0,0:0:0:0:
244,72,30676,5,0,0:0:0:0:
325,279,30693,5,0,0:0:0:0:
481,279,30693,5,0,0:0:0:0:
32,176,30711,5,0,0:0:0:0:
331,304,30729,5,0,0:0:0:0:
487,304,30729,5,0,0:0:0:0:
88,168,30747,5,0,0:0:0:0:
336,328,30765,5,0,0:0:0:0:
492,328,30765,5,0,0:0:0:0:
384,288,31068,5,0,0:0:0:0:
160,288,31068,5,0,0:0:0:0:
416,288,31068,5,0,0:0:0:0:
128,288,31069,5,0,0:0:0:0:
192,288,31069,5,0,0:0:0:0:
448,288,31069,5,0,0:0:0:0:
416,256,31211,5,0,0:0:0:0:
192,256,31211,5,0,0:0:0:0:
448,256,31211,5,0,0:0:0:0:
160,256,31212,5,0,0:0:0:0:
224,256,31212,5,0,0:0:0:0:
480,256,31212,5,0,0:0:0:0:
480,224,31354,5,0,0:0:0:0:
0,224,31354,5,0,0:0:0:0:
448,224,31354,5,0,0:0:0:0:
224,224,31354,5,0,0:0:0:0:
512,224,31355,5,0,0:0:0:0:
256,224,31355,5,0,0:0:0:0:
192,224,31355,5,0,0:0:0:0:
0,192,31497,5,0,0:0:0:0:
256,192,31497,5,0,0:0:0:0:
480,192,31497,5,0,0:0:0:0:
32,192,31497,5,0,0:0:0:0:
224,192,31498,5,0,0:0:0:0:
288,192,31498,5,0,0:0:0:0:
512,192,31498,5,0,0:0:0:0:
0,160,31640,5,0,0:0:0:0:
288,160,31640,5,0,0:0:0:0:
512,160,31640,5,0,0:0:0:0:
32,160,31640,5,0,0:0:0:0:
256,160,31641,5,0,0:0:0:0:
320,160,31641,5,0,0:0:0:0:
64,160,31641,5,0,0:0:0:0:
288,128,31782,5,0,0:0:0:0:
64,128,31782,5,0,0:0:0:0:
320,128,31782,5,0,0:0:0:0:
32,128,31783,5,0,0:0:0:0:
96,128,31783,5,0,0:0:0:0:
352,128,31783,5,0,0:0:0:0:
352,96,31926,5,0,0:0:0:0:
96,96,31926,5,0,0:0:0:0:
320,96,31926,5,0,0:0:0:0:
384,96,31927,5,0,0:0:0:0:
128,96,31927,5,0,0:0:0:0:
64,96,31927,5,0,0:0:0:0:
384,64,32069,5,0,0:0:0:0:
128,64,32069,5,0,0:0:0:0:
352,64,32069,5,0,0:0:0:0:
416,64,32070,5,0,0:0:0:0:
160,64,32070,5,0,0:0:0:0:
96,64,32070,5,0,0:0:0:0:
384,288,32211,5,0,0:0:0:0:
416,288,32211,5,0,0:0:0:0:
160,288,32211,5,0,0:0:0:0:
448,288,32212,5,0,0:0:0:0:
192,288,32212,5,0,0:0:0:0:
128,288,32212,5,0,0:0:0:0:
192,256,32354,5,0,0:0:0:0:
416,256,32354,5,0,0:0:0:0:
448,256,32354,5,0,0:0:0:0:
160,256,32355,5,0,0:0:0:0:
224,256,32355,5,0,0:0:0:0:
480,256,32355,5,0,0:0:0:0:
480,224,32497,5,0,0:0:0:0:
0,224,32497,5,0,0:0:0:0:
448,224,32497,5,0,0:0:0:0:
224,224,32497,5,0,0:0:0:0:
256,224,32498,5,0,0:0:0:0:
512,224,32498,5,0,0:0:0:0:
192,224,32498,5,0,0:0:0:0:
0,192,32640,5,0,0:0:0:0:
32,192,32640,5,0,0:0:0:0:
480,192,32640,5,0,0:0:0:0:
256,192,32640,5,0,0:0:0:0:
512,192,32641,5,0,0:0:0:0:
224,192,32641,5,0,0:0:0:0:
288,192,32641,5,0,0:0:0:0:
288,160,32783,5,0,0:0:0:0:
512,160,32783,5,0,0:0:0:0:
32,160,32783,5,0,0:0:0:0:
0,160,32783,5,0,0:0:0:0:
256,160,32784,5,0,0:0:0:0:
64,160,32784,5,0,0:0:0:0:
320,160,32784,5,0,0:0:0:0:
64,128,32925,5,0,0:0:0:0:
288,128,32925,5,0,0:0:0:0:
320,128,32925,5,0,0:0:0:0:
96,128,32926,5,0,0:0:0:0:
352,128,32926,5,0,0:0:0:0:
32,128,32926,5,0,0:0:0:0:
96,96,33069,5,0,0:0:0:0:
320,96,33069,5,0,0:0:0:0:
352,96,33069,5,0,0:0:0:0:
64,96,33070,5,0,0:0:0:0:
128,96,33070,5,0,0:0:0:0:
384,96,33070,5,0,0:0:0:0:
32,96,33354,5,0,0:0:0:0:
480,96,33355,5,0,0:0:0:0:
352,96,33355,5,0,0:0:0:0:
0,96,33355,5,0,0:0:0:0:
416,96,33355,5,0,0:0:0:0:
160,96,33355,5,0,0:0:0:0:
512,96,33355,5,0,0:0:0:0:
64,96,33355,5,0,0:0:0:0:
448,96,33355,5,0,0:0:0:0:
96,96,33355,5,0,0:0:0:0:
128,96,33355,5,0,0:0:0:0:
320,96,33356,5,0,0:0:0:0:
384,96,33356,5,0,0:0:0:0:
32,128,33639,5,0,0:0:0:0:
192,128,33639,5,0,0:0:0:0:
416,128,33640,5,0,0:0:0:0:
160,128,33640,5,0,0:0:0:0:
96,128,33640,5,0,0:0:0:0:
480,128,33640,5,0,0:0:0:0:
0,128,33640,5,0,0:0:0:0:
128,128,33640,5,0,0:0:0:0:
448,128,33640,5,0,0:0:0:0:
512,128,33640,5,0,0:0:0:0:
224,128,33640,5,0,0:0:0:0:
64,128,33640,5,0,0:0:0:0:
384,128,33641,5,0,0:0:0:0:
32,160,33926,5,0,0:0:0:0:
512,160,33927,5,0,0:0:0:0:
416,160,33927,5,0,0:0:0:0:
448,160,33927,5,0,0:0:0:0:
288,160,33927,5,0,0:0:0:0:
64,160,33927,5,0,0:0:0:0:
128,160,33927,5,0,0:0:0:0:
0,160,33927,5,0,0:0:0:0:
352,160,33927,5,0,0:0:0:0:
480,160,33927,5,0,0:0:0:0:
96,160,33927,5,0,0:0:0:0:
320,160,33928,5,0,0:0:0:0:
384,160,33928,5,0,0:0:0:0:
32,192,34211,5,0,0:0:0:0:
192,192,34211,5,0,0:0:0:0:
256,192,34211,5,0,0:0:0:0:
96,192,34212,5,0,0:0:0:0:
480,192,34212,5,0,0:0:0:0:
160,192,34212,5,0,0:0:0:0:
128,192,34212,5,0,0:0:0:0:
288,192,34212,5,0,0:0:0:0:
64,192,34212,5,0,0:0:0:0:
0,192,34212,5,0,0:0:0:0:
512,192,34212,5,0,0:0:0:0:
224,192,34212,5,0,0:0:0:0:
480,184,34212,5,0,0:0:0:0:
320,192,34212,5,0,0:0:0:0:
320,192,34213,5,0,0:0:0:0:
472,207,34247,5,0,0:0:0:0:
312,215,34247,5,0,0:0:0:0:
464,231,34283,5,0,0:0:0:0:
304,239,34283,5,0,0:0:0:0:
457,255,34319,5,0,0:0:0:0:
297,263,34319,5,0,0:0:0:0:
449,279,34354,5,0,0:0:0:0:
289,287,34354,5,0,0:0:0:0:
442,303,34390,5,0,0:0:0:0:
282,311,34390,5,0,0:0:0:0:
192,192,34408,5,0,0:0:0:0:
32,192,34408,5,0,0:0:0:0:
128,192,34409,5,0,0:0:0:0:
64,192,34409,5,0,0:0:0:0:
96,192,34409,5,0,0:0:0:0:
160,192,34409,5,0,0:0:0:0:
0,192,34409,5,0,0:0:0:0:
224,192,34409,5,0,0:0:0:0:
434,326,34426,5,0,0:0:0:0:
274,334,34426,5,0,0:0:0:0:
427,345,34461,5,0,0:0:0:0:
267,353,34461,5,0,0:0:0:0:
420,321,34497,5,0,0:0:0:0:
260,329,34497,5,0,0:0:0:0:
413,297,34533,5,0,0:0:0:0:
253,305,34533,5,0,0:0:0:0:
406,273,34569,5,0,0:0:0:0:
246,281,34569,5,0,0:0:0:0:
32,192,34586,5,0,0:0:0:0:
192,192,34586,5,0,0:0:0:0:
160,192,34587,5,0,0:0:0:0:
0,192,34587,5,0,0:0:0:0:
224,192,34587,5,0,0:0:0:0:
128,192,34587,5,0,0:0:0:0:
64,192,34587,5,0,0:0:0:0:
96,192,34587,5,0,0:0:0:0:
398,249,34604,5,0,0:0:0:0:
238,257,34604,5,0,0:0:0:0:
389,226,34640,5,0,0:0:0:0:
229,234,34640,5,0,0:0:0:0:
379,202,34676,5,0,0:0:0:0:
219,210,34676,5,0,0:0:0:0:
369,180,34711,5,0,0:0:0:0:
209,188,34711,5,0,0:0:0:0:
32,160,34729,5,0,0:0:0:0:
128,160,34730,5,0,0:0:0:0:
64,160,34730,5,0,0:0:0:0:
96,160,34730,5,0,0:0:0:0:
0,160,34730,5,0,0:0:0:0:
358,157,34747,5,0,0:0:0:0:
198,165,34747,5,0,0:0:0:0:
346,135,34783,5,0,0:0:0:0:
186,143,34783,5,0,0:0:0:0:
333,114,34819,5,0,0:0:0:0:
173,122,34819,5,0,0:0:0:0:
319,93,34854,5,0,0:0:0:0:
159,101,34854,5,0,0:0:0:0:
304,73,34890,5,0,0:0:0:0:
144,81,34890,5,0,0:0:0:0:
480,128,34908,5,0,0:0:0:0:
352,128,34909,5,0,0:0:0:0:
512,128,34909,5,0,0:0:0:0:
384,128,34909,5,0,0:0:0:0:
448,128,34909,5,0,0:0:0:0:
416,128,34909,5,0,0:0:0:0:
287,55,34926,5,0,0:0:0:0:
127,63,34926,5,0,0:0:0:0:
269,38,34961,5,0,0:0:0:0:
109,46,34961,5,0,0:0:0:0:
250,22,34997,5,0,0:0:0:0:
90,30,34997,5,0,0:0:0:0:
229,8,35033,5,0,0:0:0:0:
69,16,35033,5,0,0:0:0:0:
217,28,35069,5,0,0:0:0:0:
57,36,35069,5,0,0:0:0:0:
320,192,35086,5,0,0:0:0:0:
480,192,35086,5,0,0:0:0:0:
288,192,35087,5,0,0:0:0:0:
352,192,35087,5,0,0:0:0:0:
448,192,35087,5,0,0:0:0:0:
384,192,35087,5,0,0:0:0:0:
416,192,35087,5,0,0:0:0:0:
512,192,35087,5,0,0:0:0:0:
207,51,35104,5,0,0:0:0:0:
47,59,35104,5,0,0:0:0:0:
199,75,35140,5,0,0:0:0:0:
39,83,35140,5,0,0:0:0:0:
193,100,35176,5,0,0:0:0:0:
33,108,35176,5,0,0:0:0:0:
190,124,35211,5,0,0:0:0:0:
30,132,35211,5,0,0:0:0:0:
189,149,35247,5,0,0:0:0:0:
29,157,35247,5,0,0:0:0:0:
480,192,35265,5,0,0:0:0:0:
320,192,35265,5,0,0:0:0:0:
384,192,35266,5,0,0:0:0:0:
416,192,35266,5,0,0:0:0:0:
512,192,35266,5,0,0:0:0:0:
288,192,35266,5,0,0:0:0:0:
352,192,35266,5,0,0:0:0:0:
448,192,35266,5,0,0:0:0:0:
191,174,35283,5,0,0:0:0:0:
31,182,35283,5,0,0:0:0:0:
196,199,35319,5,0,0:0:0:0:
36,207,35319,5,0,0:0:0:0:
32,296,35353,5,0,0:0:0:0:
320,288,35353,5,0,0:0:0:0:
384,288,35353,5,0,0:0:0:0:
204,222,35354,5,0,0:0:0:0:
44,230,35354,5,0,0:0:0:0:
512,296,35354,5,0,0:0:0:0:
0,296,35354,5,0,0:0:0:0:
352,288,35354,5,0,0:0:0:0:
448,288,35354,5,0,0:0:0:0:
480,288,35354,5,0,0:0:0:0:
288,288,35354,5,0,0:0:0:0:
416,288,35354,5,0,0:0:0:0:
256,288,35354,5,0,0:0:0:0:
448,288,35355,5,0,0:0:0:0:
320,128,35640,5,0,0:0:0:0:
480,128,35640,5,0,0:0:0:0:
64,128,35641,5,0,0:0:0:0:
384,128,35641,5,0,0:0:0:0:
0,128,35641,5,0,0:0:0:0:
448,128,35641,5,0,0:0:0:0:
288,128,35641,5,0,0:0:0:0:
352,128,35641,5,0,0:0:0:0:
96,128,35641,5,0,0:0:0:0:
416,128,35641,5,0,0:0:0:0:
512,128,35641,5,0,0:0:0:0:
32,128,35641,5,0,0:0:0:0:
128,128,35642,5,0,0:0:0:0:
480,160,35927,5,0,0:0:0:0:
512,160,35928,5,0,0:0:0:0:
384,160,35928,5,0,0:0:0:0:
160,160,35928,5,0,0:0:0:0:
416,160,35928,5,0,0:0:0:0:
32,160,35928,5,0,0:0:0:0:
96,160,35928,5,0,0:0:0:0:
0,160,35928,5,0,0:0:0:0:
64,160,35928,5,0,0:0:0:0:
448,160,35928,5,0,0:0:0:0:
224,160,35928,5,0,0:0:0:0:
128,160,35929,5,0,0:0:0:0:
192,160,35929,5,0,0:0:0:0:
256,192,36212,5,0,0:0:0:0:
320,192,36212,5,0,0:0:0:0:
480,192,36212,5,0,0:0:0:0:
512,192,36213,5,0,0:0:0:0:
448,192,36213,5,0,0:0:0:0:
288,192,36213,5,0,0:0:0:0:
0,192,36213,5,0,0:0:0:0:
224,192,36213,5,0,0:0:0:0:
32,192,36213,5,0,0:0:0:0:
416,192,36213,5,0,0:0:0:0:
384,192,36213,5,0,0:0:0:0:
352,192,36213,5,0,0:0:0:0:
192,192,36214,5,0,0:0:0:0:
320,224,36499,5,0,0:0:0:0:
480,224,36499,5,0,0:0:0:0:
0,224,36500,5,0,0:0:0:0:
448,224,36500,5,0,0:0:0:0:
352,224,36500,5,0,0:0:0:0:
96,224,36500,5,0,0:0:0:0:
288,224,36500,5,0,0:0:0:0:
512,224,36500,5,0,0:0:0:0:
416,224,36500,5,0,0:0:0:0:
64,224,36500,5,0,0:0:0:0:
384,224,36500,5,0,0:0:0:0:
32,224,36500,5,0,0:0:0:0:
128,224,36501,5,0,0:0:0:0:
256,256,36784,5,0,0:0:0:0:
480,256,36784,5,0,0:0:0:0:
320,256,36784,5,0,0:0:0:0:
96,256,36785,5,0,0:0:0:0:
448,256,36785,5,0,0:0:0:0:
512,256,36785,5,0,0:0:0:0:
288,256,36785,5,0,0:0:0:0:
384,256,36785,5,0,0:0:0:0:
32,256,36785,5,0,0:0:0:0:
64,256,36785,5,0,0:0:0:0:
352,256,36785,5,0,0:0:0:0:
0,256,36785,5,0,0:0:0:0:
416,256,36785,5,0,0:0:0:0:
480,32,37069,5,0,0:0:0:0:
192,32,37069,5,0,0:0:0:0:
96,32,37070,5,0,0:0:0:0:
224,32,37070,5,0,0:0:0:0:
288,32,37070,5,0,0:0:0:0:
32,32,37070,5,0,0:0:0:0:
512,32,37070,5,0,0:0:0:0:
256,32,37070,5,0,0:0:0:0:
64,32,37070,5,0,0:0:0:0:
0,32,37070,5,0,0:0:0:0:
160,32,37070,5,0,0:0:0:0:
320,32,37070,5,0,0:0:0:0:
128,32,37071,5,0,0:0:0:0:
480,64,37356,5,0,0:0:0:0:
0,64,37357,5,0,0:0:0:0:
96,64,37357,5,0,0:0:0:0:
64,64,37357,5,0,0:0:0:0:
224,64,37357,5,0,0:0:0:0:
448,64,37357,5,0,0:0:0:0:
256,64,37357,5,0,0:0:0:0:
512,64,37357,5,0,0:0:0:0:
160,64,37357,5,0,0:0:0:0:
32,64,37357,5,0,0:0:0:0:
416,64,37357,5,0,0:0:0:0:
192,64,37358,5,0,0:0:0:0:
128,64,37358,5,0,0:0:0:0:
480,96,37641,5,0,0:0:0:0:
320,96,37641,5,0,0:0:0:0:
256,96,37641,5,0,0:0:0:0:
416,96,37642,5,0,0:0:0:0:
160,96,37642,5,0,0:0:0:0:
352,96,37642,5,0,0:0:0:0:
384,96,37642,5,0,0:0:0:0:
224,96,37642,5,0,0:0:0:0:
448,96,37642,5,0,0:0:0:0:
512,96,37642,5,0,0:0:0:0:
0,96,37642,5,0,0:0:0:0:
288,96,37642,5,0,0:0:0:0:
192,96,37643,5,0,0:0:0:0:
96,192,38711,5,0,0:0:0:0:
32,192,38711,5,0,0:0:0:0:
64,192,38711,5,0,0:0:0:0:
160,192,38711,5,0,0:0:0:0:
128,192,38711,5,0,0:0:0:0:
160,128,38747,5,0,0:0:0:0:
32,128,38747,5,0,0:0:0:0:
160,160,38782,5,0,0:0:0:0:
32,160,38782,5,0,0:0:0:0:
160,128,38818,5,0,0:0:0:0:
32,128,38818,5,0,0:0:0:0:
64,96,38854,5,0,0:0:0:0:
96,96,38854,5,0,0:0:0:0:
160,96,38854,5,0,0:0:0:0:
128,96,38854,5,0,0:0:0:0:
32,96,38854,5,0,0:0:0:0:
308,192,38926,5,0,0:0:0:0:
372,192,38926,5,0,0:0:0:0:
340,192,38926,5,0,0:0:0:0:
404,192,38926,5,0,0:0:0:0:
436,192,38926,5,0,0:0:0:0:
436,128,38962,5,0,0:0:0:0:
308,128,38962,5,0,0:0:0:0:
436,160,38997,5,0,0:0:0:0:
308,160,38997,5,0,0:0:0:0:
308,128,39033,5,0,0:0:0:0:
436,128,39033,5,0,0:0:0:0:
308,96,39069,5,0,0:0:0:0:
340,96,39069,5,0,0:0:0:0:
436,96,39069,5,0,0:0:0:0:
372,96,39069,5,0,0:0:0:0:
404,96,39069,5,0,0:0:0:0:
176,332,39104,5,0,0:0:0:0:
240,332,39104,5,0,0:0:0:0:
208,332,39104,5,0,0:0:0:0:
272,332,39104,5,0,0:0:0:0:
304,332,39104,5,0,0:0:0:0:
304,268,39140,5,0,0:0:0:0:
176,268,39140,5,0,0:0:0:0:
176,300,39175,5,0,0:0:0:0:
304,300,39175,5,0,0:0:0:0:
304,268,39211,5,0,0:0:0:0:
176,268,39211,5,0,0:0:0:0:
304,236,39247,5,0,0:0:0:0:
272,236,39247,5,0,0:0:0:0:
208,236,39247,5,0,0:0:0:0:
240,236,39247,5,0,0:0:0:0:
176,236,39247,5,0,0:0:0:0:
384,328,39319,5,0,0:0:0:0:
480,328,39319,5,0,0:0:0:0:
416,328,39319,5,0,0:0:0:0:
448,328,39319,5,0,0:0:0:0:
512,328,39319,5,0,0:0:0:0:
512,264,39355,5,0,0:0:0:0:
384,264,39355,5,0,0:0:0:0:
384,296,39390,5,0,0:0:0:0:
512,296,39390,5,0,0:0:0:0:
512,264,39426,5,0,0:0:0:0:
384,264,39426,5,0,0:0:0:0:
448,232,39462,5,0,0:0:0:0:
384,232,39462,5,0,0:0:0:0:
512,232,39462,5,0,0:0:0:0:
416,232,39462,5,0,0:0:0:0:
480,232,39462,5,0,0:0:0:0:
408,140,39497,5,0,0:0:0:0:
344,140,39497,5,0,0:0:0:0:
376,140,39497,5,0,0:0:0:0:
312,140,39497,5,0,0:0:0:0:
280,140,39497,5,0,0:0:0:0:
280,76,39533,5,0,0:0:0:0:
408,76,39533,5,0,0:0:0:0:
408,108,39568,5,0,0:0:0:0:
280,108,39568,5,0,0:0:0:0:
408,76,39604,5,0,0:0:0:0:
280,76,39604,5,0,0:0:0:0:
280,44,39640,5,0,0:0:0:0:
312,44,39640,5,0,0:0:0:0:
376,44,39640,5,0,0:0:0:0:
344,44,39640,5,0,0:0:0:0:
408,44,39640,5,0,0:0:0:0:
204,144,39712,5,0,0:0:0:0:
76,144,39712,5,0,0:0:0:0:
108,144,39712,5,0,0:0:0:0:
140,144,39712,5,0,0:0:0:0:
172,144,39712,5,0,0:0:0:0:
204,80,39748,5,0,0:0:0:0:
76,80,39748,5,0,0:0:0:0:
204,112,39783,5,0,0:0:0:0:
76,112,39783,5,0,0:0:0:0:
76,80,39819,5,0,0:0:0:0:
204,80,39819,5,0,0:0:0:0:
204,48,39855,5,0,0:0:0:0:
76,48,39855,5,0,0:0:0:0:
140,48,39855,5,0,0:0:0:0:
172,48,39855,5,0,0:0:0:0:
108,48,39855,5,0,0:0:0:0:
364,332,39890,5,0,0:0:0:0:
332,332,39890,5,0,0:0:0:0:
236,332,39890,5,0,0:0:0:0:
268,332,39890,5,0,0:0:0:0:
300,332,39890,5,0,0:0:0:0:
236,268,39926,5,0,0:0:0:0:
364,268,39926,5,0,0:0:0:0:
236,300,39961,5,0,0:0:0:0:
364,300,39961,5,0,0:0:0:0:
364,268,39997,5,0,0:0:0:0:
236,268,39997,5,0,0:0:0:0:
300,236,40033,5,0,0:0:0:0:
236,236,40033,5,0,0:0:0:0:
364,236,40033,5,0,0:0:0:0:
332,236,40033,5,0,0:0:0:0:
268,236,40033,5,0,0:0:0:0:
64,280,40105,5,0,0:0:0:0:
32,280,40105,5,0,0:0:0:0:
128,280,40105,5,0,0:0:0:0:
0,280,40105,5,0,0:0:0:0:
96,280,40105,5,0,0:0:0:0:
0,216,40141,5,0,0:0:0:0:
128,216,40141,5,0,0:0:0:0:
128,248,40176,5,0,0:0:0:0:
0,248,40176,5,0,0:0:0:0:
128,216,40212,5,0,0:0:0:0:
0,216,40212,5,0,0:0:0:0:
128,184,40248,5,0,0:0:0:0:
0,184,40248,5,0,0:0:0:0:
96,184,40248,5,0,0:0:0:0:
32,184,40248,5,0,0:0:0:0:
64,184,40248,5,0,0:0:0:0:
232,336,40319,5,0,0:0:0:0:
200,336,40319,5,0,0:0:0:0:
136,336,40319,5,0,0:0:0:0:
168,336,40319,5,0,0:0:0:0:
104,336,40319,5,0,0:0:0:0:
232,272,40355,5,0,0:0:0:0:
104,272,40355,5,0,0:0:0:0:
104,304,40390,5,0,0:0:0:0:
232,304,40390,5,0,0:0:0:0:
232,272,40426,5,0,0:0:0:0:
104,272,40426,5,0,0:0:0:0:
200,240,40462,5,0,0:0:0:0:
104,240,40462,5,0,0:0:0:0:
232,240,40462,5,0,0:0:0:0:
136,240,40462,5,0,0:0:0:0:
168,240,40462,5,0,0:0:0:0:
512,192,40497,5,0,0:0:0:0:
480,192,40497,5,0,0:0:0:0:
416,192,40497,5,0,0:0:0:0:
448,192,40497,5,0,0:0:0:0:
384,192,40497,5,0,0:0:0:0:
512,128,40533,5,0,0:0:0:0:
384,128,40533,5,0,0:0:0:0:
384,160,40568,5,0,0:0:0:0:
512,160,40568,5,0,0:0:0:0:
512,128,40604,5,0,0:0:0:0:
384,128,40604,5,0,0:0:0:0:
480,96,40640,5,0,0:0:0:0:
384,96,40640,5,0,0:0:0:0:
512,96,40640,5,0,0:0:0:0:
416,96,40640,5,0,0:0:0:0:
448,96,40640,5,0,0:0:0:0:
364,332,40658,5,0,0:0:0:0:
332,332,40658,5,0,0:0:0:0:
268,332,40658,5,0,0:0:0:0:
300,332,40658,5,0,0:0:0:0:
236,332,40658,5,0,0:0:0:0:
364,268,40694,5,0,0:0:0:0:
236,268,40694,5,0,0:0:0:0:
236,300,40729,5,0,0:0:0:0:
364,300,40729,5,0,0:0:0:0:
364,268,40765,5,0,0:0:0:0:
236,268,40765,5,0,0:0:0:0:
332,236,40801,5,0,0:0:0:0:
236,236,40801,5,0,0:0:0:0:
364,236,40801,5,0,0:0:0:0:
268,236,40801,5,0,0:0:0:0:
300,236,40801,5,0,0:0:0:0:
200,184,41068,5,0,0:0:0:0:
168,184,41068,5,0,0:0:0:0:
104,184,41068,5,0,0:0:0:0:
136,184,41068,5,0,0:0:0:0:
72,184,41068,5,0,0:0:0:0:
200,120,41104,5,0,0:0:0:0:
72,120,41104,5,0,0:0:0:0:
72,152,41139,5,0,0:0:0:0:
200,152,41139,5,0,0:0:0:0:
200,120,41175,5,0,0:0:0:0:
72,120,41175,5,0,0:0:0:0:
168,88,41211,5,0,0:0:0:0:
72,88,41211,5,0,0:0:0:0:
200,88,41211,5,0,0:0:0:0:
104,88,41211,5,0,0:0:0:0:
136,88,41211,5,0,0:0:0:0:
440,200,41247,5,0,0:0:0:0:
472,200,41247,5,0,0:0:0:0:
376,200,41247,5,0,0:0:0:0:
344,200,41247,5,0,0:0:0:0:
408,200,41247,5,0,0:0:0:0:
472,136,41283,5,0,0:0:0:0:
344,136,41283,5,0,0:0:0:0:
344,168,41318,5,0,0:0:0:0:
472,168,41318,5,0,0:0:0:0:
344,136,41354,5,0,0:0:0:0:
472,136,41354,5,0,0:0:0:0:
408,104,41390,5,0,0:0:0:0:
440,104,41390,5,0,0:0:0:0:
472,104,41390,5,0,0:0:0:0:
344,104,41390,5,0,0:0:0:0:
376,104,41390,5,0,0:0:0:0:
320,272,41426,5,0,0:0:0:0:
352,272,41426,5,0,0:0:0:0:
256,272,41426,5,0,0:0:0:0:
224,272,41426,5,0,0:0:0:0:
288,272,41426,5,0,0:0:0:0:
352,208,41462,5,0,0:0:0:0:
224,208,41462,5,0,0:0:0:0:
224,240,41497,5,0,0:0:0:0:
352,240,41497,5,0,0:0:0:0:
224,208,41533,5,0,0:0:0:0:
352,208,41533,5,0,0:0:0:0:
288,176,41569,5,0,0:0:0:0:
320,176,41569,5,0,0:0:0:0:
352,176,41569,5,0,0:0:0:0:
224,176,41569,5,0,0:0:0:0:
256,176,41569,5,0,0:0:0:0:
276,200,41640,5,0,0:0:0:0:
308,200,41640,5,0,0:0:0:0:
212,200,41640,5,0,0:0:0:0:
180,200,41640,5,0,0:0:0:0:
244,200,41640,5,0,0:0:0:0:
308,136,41676,5,0,0:0:0:0:
180,136,41676,5,0,0:0:0:0:
180,168,41711,5,0,0:0:0:0:
308,168,41711,5,0,0:0:0:0:
180,136,41747,5,0,0:0:0:0:
308,136,41747,5,0,0:0:0:0:
244,104,41783,5,0,0:0:0:0:
276,104,41783,5,0,0:0:0:0:
308,104,41783,5,0,0:0:0:0:
180,104,41783,5,0,0:0:0:0:
212,104,41783,5,0,0:0:0:0:
96,348,41836,5,0,0:0:0:0:
128,348,41836,5,0,0:0:0:0:
32,348,41836,5,0,0:0:0:0:
0,348,41836,5,0,0:0:0:0:
64,348,41836,5,0,0:0:0:0:
128,284,41872,5,0,0:0:0:0:
0,284,41872,5,0,0:0:0:0:
0,316,41907,5,0,0:0:0:0:
128,316,41907,5,0,0:0:0:0:
0,284,41943,5,0,0:0:0:0:
128,284,41943,5,0,0:0:0:0:
64,252,41979,5,0,0:0:0:0:
96,252,41979,5,0,0:0:0:0:
128,252,41979,5,0,0:0:0:0:
0,252,41979,5,0,0:0:0:0:
32,252,41979,5,0,0:0:0:0:
156,200,42033,5,0,0:0:0:0:
188,200,42033,5,0,0:0:0:0:
92,200,42033,5,0,0:0:0:0:
60,200,42033,5,0,0:0:0:0:
124,200,42033,5,0,0:0:0:0:
188,136,42069,5,0,0:0:0:0:
60,136,42069,5,0,0:0:0:0:
60,168,42104,5,0,0:0:0:0:
188,168,42104,5,0,0:0:0:0:
60,136,42140,5,0,0:0:0:0:
188,136,42140,5,0,0:0:0:0:
124,104,42176,5,0,0:0:0:0:
156,104,42176,5,0,0:0:0:0:
188,104,42176,5,0,0:0:0:0:
60,104,42176,5,0,0:0:0:0:
92,104,42176,5,0,0:0:0:0:
480,328,42211,5,0,0:0:0:0:
512,328,42211,5,0,0:0:0:0:
416,328,42211,5,0,0:0:0:0:
384,328,42211,5,0,0:0:0:0:
448,328,42211,5,0,0:0:0:0:
512,264,42247,5,0,0:0:0:0:
384,264,42247,5,0,0:0:0:0:
384,296,42282,5,0,0:0:0:0:
512,296,42282,5,0,0:0:0:0:
384,264,42318,5,0,0:0:0:0:
512,264,42318,5,0,0:0:0:0:
448,232,42354,5,0,0:0:0:0:
480,232,42354,5,0,0:0:0:0:
512,232,42354,5,0,0:0:0:0:
384,232,42354,5,0,0:0:0:0:
416,232,42354,5,0,0:0:0:0:
252,216,42479,5,0,0:0:0:0:
284,216,42479,5,0,0:0:0:0:
188,216,42479,5,0,0:0:0:0:
156,216,42479,5,0,0:0:0:0:
220,216,42479,5,0,0:0:0:0:
284,152,42515,5,0,0:0:0:0:
156,152,42515,5,0,0:0:0:0:
156,184,42550,5,0,0:0:0:0:
284,184,42550,5,0,0:0:0:0:
156,152,42586,5,0,0:0:0:0:
284,152,42586,5,0,0:0:0:0:
220,120,42622,5,0,0:0:0:0:
252,120,42622,5,0,0:0:0:0:
284,120,42622,5,0,0:0:0:0:
156,120,42622,5,0,0:0:0:0:
188,120,42622,5,0,0:0:0:0:
352,312,42676,5,0,0:0:0:0:
384,312,42676,5,0,0:0:0:0:
288,312,42676,5,0,0:0:0:0:
256,312,42676,5,0,0:0:0:0:
320,312,42676,5,0,0:0:0:0:
384,248,42712,5,0,0:0:0:0:
256,248,42712,5,0,0:0:0:0:
256,280,42747,5,0,0:0:0:0:
384,280,42747,5,0,0:0:0:0:
256,248,42783,5,0,0:0:0:0:
384,248,42783,5,0,0:0:0:0:
320,216,42819,5,0,0:0:0:0:
352,216,42819,5,0,0:0:0:0:
384,216,42819,5,0,0:0:0:0:
256,216,42819,5,0,0:0:0:0:
288,216,42819,5,0,0:0:0:0:
176,156,42997,5,0,0:0:0:0:
144,156,42997,5,0,0:0:0:0:
80,156,42997,5,0,0:0:0:0:
112,156,42997,5,0,0:0:0:0:
48,156,42997,5,0,0:0:0:0:
176,92,43033,5,0,0:0:0:0:
48,92,43033,5,0,0:0:0:0:
48,124,43068,5,0,0:0:0:0:
176,124,43068,5,0,0:0:0:0:
176,92,43104,5,0,0:0:0:0:
48,92,43104,5,0,0:0:0:0:
80,60,43140,5,0,0:0:0:0:
112,60,43140,5,0,0:0:0:0:
176,60,43140,5,0,0:0:0:0:
144,60,43140,5,0,0:0:0:0:
48,60,43140,5,0,0:0:0:0:
96,352,43353,1,0,0:0:0:0:
192,352,43353,1,0,0:0:0:0:
460,364,43354,1,0,0:0:0:0:
280,364,43354,1,0,0:0:0:0:
224,352,43354,1,0,0:0:0:0:
64,352,43354,1,0,0:0:0:0:
160,352,43354,1,0,0:0:0:0:
128,352,43354,1,0,0:0:0:0:
32,352,43354,1,0,0:0:0:0:
277,339,43389,1,0,0:0:0:0:
457,339,43390,1,0,0:0:0:0:
449,315,43425,1,0,0:0:0:0:
269,315,43425,1,0,0:0:0:0:
439,292,43461,1,0,0:0:0:0:
259,292,43461,1,0,0:0:0:0:
426,271,43496,1,0,0:0:0:0:
246,271,43496,1,0,0:0:0:0:
411,251,43532,1,0,0:0:0:0:
231,251,43532,1,0,0:0:0:0:
395,231,43568,1,0,0:0:0:0:
215,231,43568,1,0,0:0:0:0:
379,213,43603,1,0,0:0:0:0:
199,213,43603,1,0,0:0:0:0:
96,288,43622,1,0,0:0:0:0:
416,288,43622,1,0,0:0:0:0:
32,288,43623,1,0,0:0:0:0:
128,288,43623,1,0,0:0:0:0:
64,288,43623,1,0,0:0:0:0:
160,288,43623,1,0,0:0:0:0:
480,288,43623,1,0,0:0:0:0:
448,288,43623,1,0,0:0:0:0:
361,195,43639,1,0,0:0:0:0:
181,195,43639,1,0,0:0:0:0:
343,178,43675,1,0,0:0:0:0:
163,178,43675,1,0,0:0:0:0:
325,161,43711,1,0,0:0:0:0:
145,161,43711,1,0,0:0:0:0:
308,142,43746,1,0,0:0:0:0:
128,142,43746,1,0,0:0:0:0:
292,123,43782,1,0,0:0:0:0:
112,123,43782,1,0,0:0:0:0:
278,103,43818,1,0,0:0:0:0:
98,103,43818,1,0,0:0:0:0:
264,81,43853,1,0,0:0:0:0:
84,81,43853,1,0,0:0:0:0:
252,59,43889,1,0,0:0:0:0:
72,59,43889,1,0,0:0:0:0:
416,224,43908,1,0,0:0:0:0:
32,224,43909,1,0,0:0:0:0:
384,224,43909,1,0,0:0:0:0:
352,224,43909,1,0,0:0:0:0:
448,224,43909,1,0,0:0:0:0:
480,224,43909,1,0,0:0:0:0:
320,224,43909,1,0,0:0:0:0:
242,36,43925,1,0,0:0:0:0:
62,36,43925,1,0,0:0:0:0:
235,26,43961,1,0,0:0:0:0:
55,26,43961,1,0,0:0:0:0:
229,51,43996,1,0,0:0:0:0:
49,51,43996,1,0,0:0:0:0:
224,75,44032,1,0,0:0:0:0:
44,75,44032,1,0,0:0:0:0:
219,100,44068,1,0,0:0:0:0:
39,100,44068,1,0,0:0:0:0:
214,124,44103,1,0,0:0:0:0:
34,124,44103,1,0,0:0:0:0:
210,149,44139,1,0,0:0:0:0:
30,149,44139,1,0,0:0:0:0:
207,174,44175,1,0,0:0:0:0:
27,174,44175,1,0,0:0:0:0:
416,0,44194,1,0,0:0:0:0:
288,0,44194,1,0,0:0:0:0:
448,0,44195,1,0,0:0:0:0:
480,0,44195,1,0,0:0:0:0:
320,0,44195,1,0,0:0:0:0:
384,0,44195,1,0,0:0:0:0:
352,0,44195,1,0,0:0:0:0:
203,198,44211,1,0,0:0:0:0:
23,198,44211,1,0,0:0:0:0:
201,223,44246,1,0,0:0:0:0:
21,223,44246,1,0,0:0:0:0:
198,248,44282,1,0,0:0:0:0:
18,248,44282,1,0,0:0:0:0:
196,273,44318,1,0,0:0:0:0:
16,273,44318,1,0,0:0:0:0:
195,298,44353,1,0,0:0:0:0:
15,298,44353,1,0,0:0:0:0:
193,323,44389,1,0,0:0:0:0:
13,323,44389,1,0,0:0:0:0:
193,348,44425,1,0,0:0:0:0:
13,348,44425,1,0,0:0:0:0:
191,330,44461,1,0,0:0:0:0:
11,330,44461,1,0,0:0:0:0:
416,352,44479,1,0,0:0:0:0:
288,352,44479,1,0,0:0:0:0:
384,352,44480,1,0,0:0:0:0:
352,352,44480,1,0,0:0:0:0:
320,352,44480,1,0,0:0:0:0:
448,352,44480,1,0,0:0:0:0:
480,352,44480,1,0,0:0:0:0:
256,352,44480,1,0,0:0:0:0:
192,305,44496,1,0,0:0:0:0:
12,305,44496,1,0,0:0:0:0:
196,281,44532,1,0,0:0:0:0:
16,281,44532,1,0,0:0:0:0:
201,256,44568,1,0,0:0:0:0:
21,256,44568,1,0,0:0:0:0:
208,232,44603,1,0,0:0:0:0:
28,232,44603,1,0,0:0:0:0:
216,208,44639,1,0,0:0:0:0:
36,208,44639,1,0,0:0:0:0:
224,185,44675,1,0,0:0:0:0:
44,185,44675,1,0,0:0:0:0:
234,162,44711,1,0,0:0:0:0:
54,162,44711,1,0,0:0:0:0:
243,139,44746,1,0,0:0:0:0:
63,139,44746,1,0,0:0:0:0:
253,116,44782,1,0,0:0:0:0:
73,116,44782,1,0,0:0:0:0:
416,0,44801,1,0,0:0:0:0:
32,0,44802,1,0,0:0:0:0:
384,0,44802,1,0,0:0:0:0:
352,0,44802,1,0,0:0:0:0:
448,0,44802,1,0,0:0:0:0:
64,0,44802,1,0,0:0:0:0:
480,0,44802,1,0,0:0:0:0:
320,0,44802,1,0,0:0:0:0:
264,93,44818,1,0,0:0:0:0:
84,93,44818,1,0,0:0:0:0:
275,70,44853,1,0,0:0:0:0:
95,70,44853,1,0,0:0:0:0:
286,48,44889,1,0,0:0:0:0:
106,48,44889,1,0,0:0:0:0:
298,29,44925,1,0,0:0:0:0:
118,29,44925,1,0,0:0:0:0:
316,46,44961,1,0,0:0:0:0:
136,46,44961,1,0,0:0:0:0:
333,64,44996,1,0,0:0:0:0:
153,64,44996,1,0,0:0:0:0:
347,85,45032,1,0,0:0:0:0:
167,85,45032,1,0,0:0:0:0:
359,107,45068,1,0,0:0:0:0:
179,107,45068,1,0,0:0:0:0:
368,130,45103,1,0,0:0:0:0:
188,130,45103,1,0,0:0:0:0:
375,154,45139,1,0,0:0:0:0:
195,154,45139,1,0,0:0:0:0:
416,320,45158,1,0,0:0:0:0:
96,320,45158,1,0,0:0:0:0:
64,320,45159,1,0,0:0:0:0:
448,320,45159,1,0,0:0:0:0:
480,320,45159,1,0,0:0:0:0:
160,320,45159,1,0,0:0:0:0:
32,320,45159,1,0,0:0:0:0:
128,320,45159,1,0,0:0:0:0:
379,179,45175,1,0,0:0:0:0:
199,179,45175,1,0,0:0:0:0:
380,204,45211,1,0,0:0:0:0:
200,204,45211,1,0,0:0:0:0:
380,229,45246,1,0,0:0:0:0:
200,229,45246,1,0,0:0:0:0:
378,254,45282,1,0,0:0:0:0:
198,254,45282,1,0,0:0:0:0:
374,279,45318,1,0,0:0:0:0:
194,279,45318,1,0,0:0:0:0:
369,303,45353,1,0,0:0:0:0:
189,303,45353,1,0,0:0:0:0:
96,352,45372,1,0,0:0:0:0:
416,352,45372,1,0,0:0:0:0:
32,352,45373,1,0,0:0:0:0:
128,352,45373,1,0,0:0:0:0:
448,352,45373,1,0,0:0:0:0:
64,352,45373,1,0,0:0:0:0:
160,352,45373,1,0,0:0:0:0:
480,352,45373,1,0,0:0:0:0:
364,285,45389,1,0,0:0:0:0:
184,285,45389,1,0,0:0:0:0:
363,260,45425,1,0,0:0:0:0:
183,260,45425,1,0,0:0:0:0:
368,236,45461,1,0,0:0:0:0:
188,236,45461,1,0,0:0:0:0:
379,213,45496,1,0,0:0:0:0:
199,213,45496,1,0,0:0:0:0:
396,195,45532,1,0,0:0:0:0:
216,195,45532,1,0,0:0:0:0:
416,180,45568,1,0,0:0:0:0:
236,180,45568,1,0,0:0:0:0:
437,167,45603,1,0,0:0:0:0:
257,167,45603,1,0,0:0:0:0:
424,148,45640,1,0,0:0:0:0:
288,152,45640,1,0,0:0:0:0:
192,384,45658,1,0,0:0:0:0:
96,384,45658,1,0,0:0:0:0:
64,384,45659,1,0,0:0:0:0:
448,384,45659,1,0,0:0:0:0:
480,384,45659,1,0,0:0:0:0:
160,384,45659,1,0,0:0:0:0:
224,384,45659,1,0,0:0:0:0:
32,384,45659,1,0,0:0:0:0:
128,384,45659,1,0,0:0:0:0:
401,136,45675,1,0,0:0:0:0:
265,140,45675,1,0,0:0:0:0:
379,124,45711,1,0,0:0:0:0:
243,128,45711,1,0,0:0:0:0:
357,112,45747,1,0,0:0:0:0:
221,116,45747,1,0,0:0:0:0:
335,100,45782,1,0,0:0:0:0:
199,104,45782,1,0,0:0:0:0:
313,89,45818,1,0,0:0:0:0:
177,93,45818,1,0,0:0:0:0:
290,82,45854,1,0,0:0:0:0:
154,86,45854,1,0,0:0:0:0:
265,78,45889,1,0,0:0:0:0:
129,82,45889,1,0,0:0:0:0:
240,75,45925,1,0,0:0:0:0:
104,79,45925,1,0,0:0:0:0:
215,71,45961,1,0,0:0:0:0:
79,75,45961,1,0,0:0:0:0:
352,320,45979,1,0,0:0:0:0:
480,320,45980,1,0,0:0:0:0:
32,320,45980,1,0,0:0:0:0:
448,320,45980,1,0,0:0:0:0:
64,320,45980,1,0,0:0:0:0:
384,320,45980,1,0,0:0:0:0:
416,320,45980,1,0,0:0:0:0:
191,68,45997,1,0,0:0:0:0:
55,72,45997,1,0,0:0:0:0:
166,64,46032,1,0,0:0:0:0:
30,68,46032,1,0,0:0:0:0:
172,52,46068,1,0,0:0:0:0:
36,56,46068,1,0,0:0:0:0:
196,36,46104,1,0,0:0:0:0:
60,40,46104,1,0,0:0:0:0:
220,28,46139,1,0,0:0:0:0:
84,32,46139,1,0,0:0:0:0:
320,0,46158,1,0,0:0:0:0:
416,0,46158,1,0,0:0:0:0:
32,0,46159,1,0,0:0:0:0:
448,0,46159,1,0,0:0:0:0:
288,0,46159,1,0,0:0:0:0:
480,0,46159,1,0,0:0:0:0:
352,0,46159,1,0,0:0:0:0:
384,0,46159,1,0,0:0:0:0:
248,24,46175,1,0,0:0:0:0:
112,28,46175,1,0,0:0:0:0:
280,16,46211,1,0,0:0:0:0:
144,20,46211,1,0,0:0:0:0:
300,34,46247,1,0,0:0:0:0:
164,38,46247,1,0,0:0:0:0:
319,43,46282,1,0,0:0:0:0:
183,47,46282,1,0,0:0:0:0:
332,64,46318,1,0,0:0:0:0:
196,68,46318,1,0,0:0:0:0:
345,85,46354,1,0,0:0:0:0:
209,89,46354,1,0,0:0:0:0:
342,104,46389,1,0,0:0:0:0:
206,108,46389,1,0,0:0:0:0:
384,352,46408,1,0,0:0:0:0:
96,352,46408,1,0,0:0:0:0:
32,352,46409,1,0,0:0:0:0:
352,352,46409,1,0,0:0:0:0:
448,352,46409,1,0,0:0:0:0:
128,352,46409,1,0,0:0:0:0:
416,352,46409,1,0,0:0:0:0:
64,352,46409,1,0,0:0:0:0:
480,352,46409,1,0,0:0:0:0:
324,121,46425,1,0,0:0:0:0:
188,125,46425,1,0,0:0:0:0:
305,138,46461,1,0,0:0:0:0:
169,142,46461,1,0,0:0:0:0:
299,162,46497,1,0,0:0:0:0:
163,166,46497,1,0,0:0:0:0:
294,186,46532,1,0,0:0:0:0:
158,190,46532,1,0,0:0:0:0:
96,320,46551,1,0,0:0:0:0:
384,320,46551,1,0,0:0:0:0:
416,320,46552,1,0,0:0:0:0:
64,320,46552,1,0,0:0:0:0:
480,320,46552,1,0,0:0:0:0:
320,320,46552,1,0,0:0:0:0:
32,320,46552,1,0,0:0:0:0:
352,320,46552,1,0,0:0:0:0:
448,320,46552,1,0,0:0:0:0:
282,206,46568,1,0,0:0:0:0:
146,210,46568,1,0,0:0:0:0:
262,221,46604,1,0,0:0:0:0:
126,225,46604,1,0,0:0:0:0:
242,235,46639,1,0,0:0:0:0:
106,239,46639,1,0,0:0:0:0:
221,250,46675,1,0,0:0:0:0:
85,254,46675,1,0,0:0:0:0:
201,265,46711,1,0,0:0:0:0:
65,269,46711,1,0,0:0:0:0:
181,279,46747,1,0,0:0:0:0:
45,283,46747,1,0,0:0:0:0:
384,288,46783,1,0,0:0:0:0:
288,288,46783,1,0,0:0:0:0:
224,288,46783,1,0,0:0:0:0:
192,288,46783,1,0,0:0:0:0:
32,288,46784,1,0,0:0:0:0:
352,288,46784,1,0,0:0:0:0:
448,288,46784,1,0,0:0:0:0:
320,288,46784,1,0,0:0:0:0:
416,288,46784,1,0,0:0:0:0:
256,288,46784,1,0,0:0:0:0:
480,288,46784,1,0,0:0:0:0:
256,64,47354,5,0,0:0:0:0:
256,64,47426,5,0,0:0:0:0:
256,64,47497,5,0,0:0:0:0:
256,64,47569,5,0,0:0:0:0:
256,64,47640,5,0,0:0:0:0:
256,64,47711,5,0,0:0:0:0:
256,64,47783,5,0,0:0:0:0:
256,64,47854,5,0,0:0:0:0:
256,64,47926,5,0,0:0:0:0:
32,64,47944,1,0,0:0:0:0:
64,64,47961,1,0,0:0:0:0:
96,64,47979,1,0,0:0:0:0:
256,64,47997,1,0,0:0:0:0:
416,96,48033,1,0,0:0:0:0:
256,64,48069,1,0,0:0:0:0:
192,160,48087,1,0,0:0:0:0:
160,160,48104,1,0,0:0:0:0:
128,160,48122,1,0,0:0:0:0:
256,64,48140,1,0,0:0:0:0:
352,256,48176,1,0,0:0:0:0:
256,64,48211,1,0,0:0:0:0:
256,64,48283,1,0,0:0:0:0:
320,96,48318,1,0,0:0:0:0:
256,64,48354,1,0,0:0:0:0:
192,160,48372,1,0,0:0:0:0:
160,160,48389,1,0,0:0:0:0:
128,160,48407,1,0,0:0:0:0:
256,64,48426,1,0,0:0:0:0:
480,192,48461,1,0,0:0:0:0:
256,64,48497,1,0,0:0:0:0:
32,64,48515,1,0,0:0:0:0:
64,64,48532,1,0,0:0:0:0:
96,64,48550,1,0,0:0:0:0:
256,64,48569,1,0,0:0:0:0:
320,96,48604,1,0,0:0:0:0:
256,64,48640,1,0,0:0:0:0:
256,64,48711,1,0,0:0:0:0:
448,288,48747,1,0,0:0:0:0:
256,64,48783,5,0,0:0:0:0:
32,64,48801,1,0,0:0:0:0:
64,64,48818,1,0,0:0:0:0:
96,64,48836,1,0,0:0:0:0:
256,64,48854,1,0,0:0:0:0:
448,64,48890,1,0,0:0:0:0:
256,64,48926,1,0,0:0:0:0:
192,160,48944,1,0,0:0:0:0:
160,160,48961,1,0,0:0:0:0:
128,160,48979,1,0,0:0:0:0:
256,64,48997,1,0,0:0:0:0:
352,192,49033,1,0,0:0:0:0:
256,64,49068,1,0,0:0:0:0:
256,64,49640,5,0,0:0:0:0:
256,64,49712,5,0,0:0:0:0:
256,64,49783,5,0,0:0:0:0:
256,64,49926,5,0,0:0:0:0:
256,64,49997,5,0,0:0:0:0:
256,64,50069,5,0,0:0:0:0:
256,64,50140,5,0,0:0:0:0:
256,64,50212,5,0,0:0:0:0:
256,64,50283,1,0,0:0:0:0:
352,192,50319,1,0,0:0:0:0:
256,64,50355,1,0,0:0:0:0:
0,64,50390,1,0,0:0:0:0:
32,64,50390,1,0,0:0:0:0:
64,64,50390,1,0,0:0:0:0:
224,64,50390,1,0,0:0:0:0:
192,64,50390,1,0,0:0:0:0:
160,64,50390,1,0,0:0:0:0:
256,64,50426,1,0,0:0:0:0:
448,256,50462,1,0,0:0:0:0:
256,64,50497,1,0,0:0:0:0:
224,96,50533,1,0,0:0:0:0:
128,96,50533,1,0,0:0:0:0:
96,96,50533,1,0,0:0:0:0:
0,96,50533,1,0,0:0:0:0:
32,96,50533,1,0,0:0:0:0:
64,96,50533,1,0,0:0:0:0:
256,64,50569,1,0,0:0:0:0:
512,96,50604,1,0,0:0:0:0:
256,64,50640,1,0,0:0:0:0:
224,128,50676,1,0,0:0:0:0:
192,128,50676,1,0,0:0:0:0:
160,128,50676,1,0,0:0:0:0:
0,128,50676,1,0,0:0:0:0:
32,128,50676,1,0,0:0:0:0:
64,128,50676,1,0,0:0:0:0:
256,64,50712,1,0,0:0:0:0:
416,192,50747,1,0,0:0:0:0:
256,64,50783,1,0,0:0:0:0:
224,160,50819,1,0,0:0:0:0:
192,160,50819,1,0,0:0:0:0:
96,160,50819,1,0,0:0:0:0:
0,160,50819,1,0,0:0:0:0:
32,160,50819,1,0,0:0:0:0:
64,160,50819,1,0,0:0:0:0:
256,64,50855,1,0,0:0:0:0:
320,96,50890,1,0,0:0:0:0:
256,64,50926,1,0,0:0:0:0:
224,192,50961,1,0,0:0:0:0:
192,192,50961,1,0,0:0:0:0:
160,192,50961,1,0,0:0:0:0:
0,192,50961,1,0,0:0:0:0:
32,192,50961,1,0,0:0:0:0:
64,192,50961,1,0,0:0:0:0:
256,64,50997,1,0,0:0:0:0:
320,288,51033,1,0,0:0:0:0:
256,64,51069,5,0,0:0:0:0:
256,64,51140,1,0,0:0:0:0:
448,64,51176,1,0,0:0:0:0:
256,64,51212,1,0,0:0:0:0:
256,64,51283,1,0,0:0:0:0:
352,192,51319,1,0,0:0:0:0:
256,64,51354,1,0,0:0:0:0:
256,64,51925,5,0,0:0:0:0:
256,64,51997,5,0,0:0:0:0:
256,64,52068,5,0,0:0:0:0:
256,64,52140,5,0,0:0:0:0:
256,64,52211,5,0,0:0:0:0:
256,64,52282,5,0,0:0:0:0:
256,64,52354,5,0,0:0:0:0:
256,64,52425,5,0,0:0:0:0:
256,64,52497,5,0,0:0:0:0:
480,64,52515,1,0,0:0:0:0:
448,64,52532,1,0,0:0:0:0:
416,64,52550,1,0,0:0:0:0:
256,64,52568,1,0,0:0:0:0:
96,96,52604,1,0,0:0:0:0:
256,64,52640,1,0,0:0:0:0:
320,160,52658,1,0,0:0:0:0:
352,160,52675,1,0,0:0:0:0:
384,160,52693,1,0,0:0:0:0:
256,64,52711,1,0,0:0:0:0:
160,256,52747,1,0,0:0:0:0:
256,64,52782,1,0,0:0:0:0:
256,64,52854,1,0,0:0:0:0:
192,96,52889,1,0,0:0:0:0:
256,64,52925,1,0,0:0:0:0:
320,160,52943,1,0,0:0:0:0:
352,160,52960,1,0,0:0:0:0:
384,160,52978,1,0,0:0:0:0:
256,64,52997,1,0,0:0:0:0:
32,192,53032,1,0,0:0:0:0:
256,64,53068,1,0,0:0:0:0:
480,64,53086,1,0,0:0:0:0:
448,64,53103,1,0,0:0:0:0:
416,64,53121,1,0,0:0:0:0:
256,64,53140,1,0,0:0:0:0:
192,96,53175,1,0,0:0:0:0:
256,64,53211,1,0,0:0:0:0:
256,64,53282,1,0,0:0:0:0:
64,288,53318,1,0,0:0:0:0:
256,64,53354,5,0,0:0:0:0:
480,64,53372,1,0,0:0:0:0:
448,64,53389,1,0,0:0:0:0:
416,64,53407,1,0,0:0:0:0:
256,64,53425,1,0,0:0:0:0:
64,64,53461,1,0,0:0:0:0:
256,64,53497,1,0,0:0:0:0:
320,160,53515,1,0,0:0:0:0:
352,160,53532,1,0,0:0:0:0:
384,160,53550,1,0,0:0:0:0:
256,64,53568,1,0,0:0:0:0:
160,192,53604,1,0,0:0:0:0:
256,64,53639,1,0,0:0:0:0:
256,64,54211,5,0,0:0:0:0:
256,64,54283,5,0,0:0:0:0:
256,64,54354,5,0,0:0:0:0:
256,64,54426,5,0,0:0:0:0:
256,64,54497,5,0,0:0:0:0:
256,64,54568,5,0,0:0:0:0:
256,64,54640,5,0,0:0:0:0:
256,64,54711,5,0,0:0:0:0:
256,64,54783,5,0,0:0:0:0:
256,64,54854,1,0,0:0:0:0:
352,192,54890,1,0,0:0:0:0:
256,64,54926,1,0,0:0:0:0:
0,64,54961,1,0,0:0:0:0:
32,64,54961,1,0,0:0:0:0:
64,64,54961,1,0,0:0:0:0:
224,64,54961,1,0,0:0:0:0:
192,64,54961,1,0,0:0:0:0:
96,64,54961,1,0,0:0:0:0:
256,64,54997,1,0,0:0:0:0:
448,256,55033,1,0,0:0:0:0:
256,64,55068,1,0,0:0:0:0:
224,96,55104,1,0,0:0:0:0:
192,96,55104,1,0,0:0:0:0:
160,96,55104,1,0,0:0:0:0:
0,96,55104,1,0,0:0:0:0:
32,96,55104,1,0,0:0:0:0:
64,96,55104,1,0,0:0:0:0:
256,64,55140,1,0,0:0:0:0:
512,96,55175,1,0,0:0:0:0:
256,64,55211,1,0,0:0:0:0:
224,128,55247,1,0,0:0:0:0:
192,128,55247,1,0,0:0:0:0:
160,128,55247,1,0,0:0:0:0:
0,128,55247,1,0,0:0:0:0:
32,128,55247,1,0,0:0:0:0:
128,128,55247,1,0,0:0:0:0:
256,64,55283,1,0,0:0:0:0:
416,192,55318,1,0,0:0:0:0:
256,64,55354,1,0,0:0:0:0:
224,160,55390,1,0,0:0:0:0:
192,160,55390,1,0,0:0:0:0:
96,160,55390,1,0,0:0:0:0:
0,160,55390,1,0,0:0:0:0:
32,160,55390,1,0,0:0:0:0:
64,160,55390,1,0,0:0:0:0:
256,64,55426,1,0,0:0:0:0:
320,96,55461,1,0,0:0:0:0:
256,64,55497,1,0,0:0:0:0:
224,192,55532,1,0,0:0:0:0:
192,192,55532,1,0,0:0:0:0:
160,192,55532,1,0,0:0:0:0:
0,192,55532,1,0,0:0:0:0:
32,192,55532,1,0,0:0:0:0:
64,192,55532,1,0,0:0:0:0:
256,64,55568,1,0,0:0:0:0:
320,288,55604,1,0,0:0:0:0:
256,64,55640,5,0,0:0:0:0:
256,64,55711,1,0,0:0:0:0:
448,64,55747,1,0,0:0:0:0:
256,64,55783,1,0,0:0:0:0:
256,64,55854,1,0,0:0:0:0:
352,192,55890,1,0,0:0:0:0:
256,64,55925,1,0,0:0:0:0:
152,264,55979,1,0,0:0:0:0:
444,252,56069,1,0,0:0:0:0:
264,256,56086,1,0,0:0:0:0:
92,156,56122,1,0,0:0:0:0:
168,104,56158,1,0,0:0:0:0:
408,256,56194,1,0,0:0:0:0:
472,120,56229,1,0,0:0:0:0:
72,272,56265,1,0,0:0:0:0:
232,216,56319,1,0,0:0:0:0:
432,144,56444,1,0,0:0:0:0:
344,224,56497,1,0,0:0:0:0:
56,272,56533,1,0,0:0:0:0:
416,308,56640,1,0,0:0:0:0:
328,184,56765,1,0,0:0:0:0:
168,272,56872,1,0,0:0:0:0:
104,184,57051,1,0,0:0:0:0:
344,112,57354,1,0,0:0:0:0:
168,328,58570,1,0,0:0:0:0:
168,308,58588,1,0,0:0:0:0:
168,289,58606,1,0,0:0:0:0:
171,270,58624,1,0,0:0:0:0:
244,261,58642,1,0,0:0:0:0:
190,255,58642,1,0,0:0:0:0:
215,245,58659,1,0,0:0:0:0:
164,236,58677,1,0,0:0:0:0:
432,348,58765,1,0,0:0:0:0:
460,340,58783,1,0,0:0:0:0:
404,332,58783,1,0,0:0:0:0:
484,316,58819,1,0,0:0:0:0:
380,316,58856,1,0,0:0:0:0:
484,280,58873,1,0,0:0:0:0:
372,284,58891,1,0,0:0:0:0:
316,288,59142,1,0,0:0:0:0:
323,269,59177,1,0,0:0:0:0:
334,244,59213,1,0,0:0:0:0:
344,219,59249,1,0,0:0:0:0:
44,192,59249,1,0,0:0:0:0:
212,200,59249,1,0,0:0:0:0:
243,206,59249,1,0,0:0:0:0:
323,190,59267,1,0,0:0:0:0:
44,172,59267,1,0,0:0:0:0:
189,194,59267,1,0,0:0:0:0:
226,185,59267,1,0,0:0:0:0:
243,185,59267,1,0,0:0:0:0:
359,183,59285,1,0,0:0:0:0:
44,153,59285,1,0,0:0:0:0:
172,177,59285,1,0,0:0:0:0:
308,157,59303,1,0,0:0:0:0:
47,134,59303,1,0,0:0:0:0:
163,157,59303,1,0,0:0:0:0:
243,149,59303,1,0,0:0:0:0:
370,143,59320,1,0,0:0:0:0:
66,119,59321,1,0,0:0:0:0:
120,125,59321,1,0,0:0:0:0:
172,132,59321,1,0,0:0:0:0:
290,118,59338,1,0,0:0:0:0:
91,109,59338,1,0,0:0:0:0:
240,106,59338,1,0,0:0:0:0:
189,115,59339,1,0,0:0:0:0:
377,107,59356,1,0,0:0:0:0:
40,100,59356,1,0,0:0:0:0:
209,115,59357,1,0,0:0:0:0:
237,69,59374,1,0,0:0:0:0:
237,72,59410,1,0,0:0:0:0:
237,72,59445,1,0,0:0:0:0:
468,228,59498,1,0,0:0:0:0:
451,216,59516,1,0,0:0:0:0:
487,214,59534,1,0,0:0:0:0:
454,200,59552,1,0,0:0:0:0:
476,197,59569,1,0,0:0:0:0:
456,160,59658,1,0,0:0:0:0:
459,135,59694,1,0,0:0:0:0:
479,113,59729,1,0,0:0:0:0:
501,93,59765,1,0,0:0:0:0:
507,62,59801,1,0,0:0:0:0:
423,68,59819,1,0,0:0:0:0:
434,51,59837,1,0,0:0:0:0:
487,46,59854,1,0,0:0:0:0:
440,32,59872,1,0,0:0:0:0:
473,29,59890,1,0,0:0:0:0:
462,23,59908,1,0,0:0:0:0:
292,236,60426,1,0,0:0:0:0:
308,224,60444,1,0,0:0:0:0:
252,233,60444,1,0,0:0:0:0:
244,213,60461,1,0,0:0:0:0:
320,204,60461,1,0,0:0:0:0:
80,148,60479,5,0,0:0:0:0:
320,179,60479,1,0,0:0:0:0:
139,148,60497,5,0,0:0:0:0:
292,150,60497,1,0,0:0:0:0:
323,155,60497,1,0,0:0:0:0:
188,148,60515,5,0,0:0:0:0:
82,124,60515,5,0,0:0:0:0:
384,148,60515,1,0,0:0:0:0:
323,140,60515,1,0,0:0:0:0:
269,146,60515,1,0,0:0:0:0:
306,140,60515,1,0,0:0:0:0:
136,118,60532,5,0,0:0:0:0:
252,134,60533,1,0,0:0:0:0:
82,101,60550,5,0,0:0:0:0:
185,118,60550,5,0,0:0:0:0:
243,120,60551,1,0,0:0:0:0:
323,114,60551,1,0,0:0:0:0:
128,92,60568,5,0,0:0:0:0:
252,102,60569,1,0,0:0:0:0:
106,85,60586,5,0,0:0:0:0:
177,92,60586,5,0,0:0:0:0:
320,93,60586,1,0,0:0:0:0:
269,90,60587,1,0,0:0:0:0:
80,82,60604,5,0,0:0:0:0:
155,85,60604,5,0,0:0:0:0:
289,90,60605,1,0,0:0:0:0:
80,62,60622,5,0,0:0:0:0:
177,92,61051,5,0,0:0:0:0:
160,0,61639,5,0,0:0:0:0:
192,0,61639,5,0,0:0:0:0:
448,0,61639,5,0,0:0:0:0:
224,0,61639,5,0,0:0:0:0:
480,0,61639,5,0,0:0:0:0:
416,0,61640,5,0,0:0:0:0:
0,0,61640,5,0,0:0:0:0:
256,0,61640,5,0,0:0:0:0:
512,0,61640,5,0,0:0:0:0:
288,0,61640,5,0,0:0:0:0:
384,0,61640,5,0,0:0:0:0:
320,0,61640,5,0,0:0:0:0:
352,0,61641,5,0,0:0:0:0:
32,32,61711,5,0,0:0:0:0:
192,32,61711,5,0,0:0:0:0:
448,32,61711,5,0,0:0:0:0:
224,32,61711,5,0,0:0:0:0:
480,32,61711,5,0,0:0:0:0:
416,32,61712,5,0,0:0:0:0:
0,32,61712,5,0,0:0:0:0:
256,32,61712,5,0,0:0:0:0:
512,32,61712,5,0,0:0:0:0:
288,32,61712,5,0,0:0:0:0:
384,32,61712,5,0,0:0:0:0:
320,32,61712,5,0,0:0:0:0:
352,32,61713,5,0,0:0:0:0:
224,64,61783,5,0,0:0:0:0:
480,64,61783,5,0,0:0:0:0:
32,64,61783,5,0,0:0:0:0:
448,64,61783,5,0,0:0:0:0:
288,64,61784,5,0,0:0:0:0:
384,64,61784,5,0,0:0:0:0:
320,64,61784,5,0,0:0:0:0:
64,64,61784,5,0,0:0:0:0:
0,64,61784,5,0,0:0:0:0:
416,64,61784,5,0,0:0:0:0:
256,64,61784,5,0,0:0:0:0:
512,64,61784,5,0,0:0:0:0:
352,64,61785,5,0,0:0:0:0:
32,96,61854,5,0,0:0:0:0:
448,96,61854,5,0,0:0:0:0:
480,96,61854,5,0,0:0:0:0:
416,96,61855,5,0,0:0:0:0:
0,96,61855,5,0,0:0:0:0:
256,96,61855,5,0,0:0:0:0:
512,96,61855,5,0,0:0:0:0:
96,96,61855,5,0,0:0:0:0:
288,96,61855,5,0,0:0:0:0:
384,96,61855,5,0,0:0:0:0:
64,96,61855,5,0,0:0:0:0:
320,96,61855,5,0,0:0:0:0:
352,96,61856,5,0,0:0:0:0:
448,128,61926,5,0,0:0:0:0:
32,128,61926,5,0,0:0:0:0:
480,128,61926,5,0,0:0:0:0:
416,128,61927,5,0,0:0:0:0:
0,128,61927,5,0,0:0:0:0:
256,128,61927,5,0,0:0:0:0:
512,128,61927,5,0,0:0:0:0:
96,128,61927,5,0,0:0:0:0:
288,128,61927,5,0,0:0:0:0:
384,128,61927,5,0,0:0:0:0:
64,128,61927,5,0,0:0:0:0:
320,128,61927,5,0,0:0:0:0:
352,128,61928,5,0,0:0:0:0:
32,160,61998,5,0,0:0:0:0:
224,160,61998,5,0,0:0:0:0:
480,160,61998,5,0,0:0:0:0:
448,160,61998,5,0,0:0:0:0:
288,160,61999,5,0,0:0:0:0:
384,160,61999,5,0,0:0:0:0:
320,160,61999,5,0,0:0:0:0:
64,160,61999,5,0,0:0:0:0:
0,160,61999,5,0,0:0:0:0:
416,160,61999,5,0,0:0:0:0:
256,160,61999,5,0,0:0:0:0:
512,160,61999,5,0,0:0:0:0:
352,160,62000,5,0,0:0:0:0:
32,192,62069,5,0,0:0:0:0:
448,192,62069,5,0,0:0:0:0:
224,192,62069,5,0,0:0:0:0:
480,192,62069,5,0,0:0:0:0:
416,192,62070,5,0,0:0:0:0:
0,192,62070,5,0,0:0:0:0:
256,192,62070,5,0,0:0:0:0:
512,192,62070,5,0,0:0:0:0:
288,192,62070,5,0,0:0:0:0:
384,192,62070,5,0,0:0:0:0:
64,192,62070,5,0,0:0:0:0:
320,192,62070,5,0,0:0:0:0:
352,192,62071,5,0,0:0:0:0:
448,224,62141,5,0,0:0:0:0:
32,224,62141,5,0,0:0:0:0:
480,224,62141,5,0,0:0:0:0:
416,224,62142,5,0,0:0:0:0:
0,224,62142,5,0,0:0:0:0:
256,224,62142,5,0,0:0:0:0:
512,224,62142,5,0,0:0:0:0:
96,224,62142,5,0,0:0:0:0:
288,224,62142,5,0,0:0:0:0:
384,224,62142,5,0,0:0:0:0:
64,224,62142,5,0,0:0:0:0:
320,224,62142,5,0,0:0:0:0:
352,224,62143,5,0,0:0:0:0:
160,256,62213,5,0,0:0:0:0:
32,256,62213,5,0,0:0:0:0:
480,256,62213,5,0,0:0:0:0:
448,256,62213,5,0,0:0:0:0:
128,256,62214,5,0,0:0:0:0:
384,256,62214,5,0,0:0:0:0:
320,256,62214,5,0,0:0:0:0:
64,256,62214,5,0,0:0:0:0:
0,256,62214,5,0,0:0:0:0:
416,256,62214,5,0,0:0:0:0:
96,256,62214,5,0,0:0:0:0:
512,256,62214,5,0,0:0:0:0:
352,256,62215,5,0,0:0:0:0:
160,288,62284,5,0,0:0:0:0:
448,288,62284,5,0,0:0:0:0:
32,288,62284,5,0,0:0:0:0:
192,288,62284,5,0,0:0:0:0:
480,288,62284,5,0,0:0:0:0:
416,288,62285,5,0,0:0:0:0:
0,288,62285,5,0,0:0:0:0:
512,288,62285,5,0,0:0:0:0:
96,288,62285,5,0,0:0:0:0:
128,288,62285,5,0,0:0:0:0:
384,288,62285,5,0,0:0:0:0:
64,288,62285,5,0,0:0:0:0:
352,288,62286,5,0,0:0:0:0:
160,320,62356,5,0,0:0:0:0:
192,320,62356,5,0,0:0:0:0:
448,320,62356,5,0,0:0:0:0:
32,320,62356,5,0,0:0:0:0:
224,320,62356,5,0,0:0:0:0:
480,320,62356,5,0,0:0:0:0:
416,320,62357,5,0,0:0:0:0:
0,320,62357,5,0,0:0:0:0:
512,320,62357,5,0,0:0:0:0:
96,320,62357,5,0,0:0:0:0:
128,320,62357,5,0,0:0:0:0:
384,320,62357,5,0,0:0:0:0:
64,320,62357,5,0,0:0:0:0:
160,352,62428,5,0,0:0:0:0:
480,352,62428,5,0,0:0:0:0:
32,352,62428,5,0,0:0:0:0:
224,352,62428,5,0,0:0:0:0:
192,352,62428,5,0,0:0:0:0:
448,352,62428,5,0,0:0:0:0:
128,352,62429,5,0,0:0:0:0:
64,352,62429,5,0,0:0:0:0:
0,352,62429,5,0,0:0:0:0:
416,352,62429,5,0,0:0:0:0:
256,352,62429,5,0,0:0:0:0:
96,352,62429,5,0,0:0:0:0:
512,352,62429,5,0,0:0:0:0:
512,0,62497,5,0,0:0:0:0:
448,0,62497,5,0,0:0:0:0:
64,0,62497,5,0,0:0:0:0:
32,0,62497,5,0,0:0:0:0:
288,0,62497,5,0,0:0:0:0:
96,0,62498,5,0,0:0:0:0:
480,0,62498,5,0,0:0:0:0:
256,0,62498,5,0,0:0:0:0:
0,0,62498,5,0,0:0:0:0:
224,0,62498,5,0,0:0:0:0:
128,0,62498,5,0,0:0:0:0:
192,0,62498,5,0,0:0:0:0:
160,0,62499,5,0,0:0:0:0:
480,32,62569,5,0,0:0:0:0:
320,32,62569,5,0,0:0:0:0:
64,32,62569,5,0,0:0:0:0:
288,32,62569,5,0,0:0:0:0:
32,32,62569,5,0,0:0:0:0:
96,32,62570,5,0,0:0:0:0:
512,32,62570,5,0,0:0:0:0:
256,32,62570,5,0,0:0:0:0:
0,32,62570,5,0,0:0:0:0:
224,32,62570,5,0,0:0:0:0:
128,32,62570,5,0,0:0:0:0:
192,32,62570,5,0,0:0:0:0:
160,32,62571,5,0,0:0:0:0:
288,64,62641,5,0,0:0:0:0:
32,64,62641,5,0,0:0:0:0:
480,64,62641,5,0,0:0:0:0:
64,64,62641,5,0,0:0:0:0:
224,64,62642,5,0,0:0:0:0:
128,64,62642,5,0,0:0:0:0:
192,64,62642,5,0,0:0:0:0:
448,64,62642,5,0,0:0:0:0:
512,64,62642,5,0,0:0:0:0:
96,64,62642,5,0,0:0:0:0:
256,64,62642,5,0,0:0:0:0:
0,64,62642,5,0,0:0:0:0:
160,64,62643,5,0,0:0:0:0:
480,96,62712,5,0,0:0:0:0:
64,96,62712,5,0,0:0:0:0:
32,96,62712,5,0,0:0:0:0:
96,96,62713,5,0,0:0:0:0:
512,96,62713,5,0,0:0:0:0:
256,96,62713,5,0,0:0:0:0:
0,96,62713,5,0,0:0:0:0:
416,96,62713,5,0,0:0:0:0:
224,96,62713,5,0,0:0:0:0:
128,96,62713,5,0,0:0:0:0:
448,96,62713,5,0,0:0:0:0:
192,96,62713,5,0,0:0:0:0:
160,96,62714,5,0,0:0:0:0:
64,128,62784,5,0,0:0:0:0:
480,128,62784,5,0,0:0:0:0:
32,128,62784,5,0,0:0:0:0:
96,128,62785,5,0,0:0:0:0:
512,128,62785,5,0,0:0:0:0:
256,128,62785,5,0,0:0:0:0:
0,128,62785,5,0,0:0:0:0:
416,128,62785,5,0,0:0:0:0:
224,128,62785,5,0,0:0:0:0:
128,128,62785,5,0,0:0:0:0:
448,128,62785,5,0,0:0:0:0:
192,128,62785,5,0,0:0:0:0:
160,128,62786,5,0,0:0:0:0:
480,160,62856,5,0,0:0:0:0:
288,160,62856,5,0,0:0:0:0:
32,160,62856,5,0,0:0:0:0:
64,160,62856,5,0,0:0:0:0:
224,160,62857,5,0,0:0:0:0:
128,160,62857,5,0,0:0:0:0:
192,160,62857,5,0,0:0:0:0:
448,160,62857,5,0,0:0:0:0:
512,160,62857,5,0,0:0:0:0:
96,160,62857,5,0,0:0:0:0:
256,160,62857,5,0,0:0:0:0:
0,160,62857,5,0,0:0:0:0:
160,160,62858,5,0,0:0:0:0:
480,192,62927,5,0,0:0:0:0:
64,192,62927,5,0,0:0:0:0:
288,192,62927,5,0,0:0:0:0:
32,192,62927,5,0,0:0:0:0:
96,192,62928,5,0,0:0:0:0:
512,192,62928,5,0,0:0:0:0:
256,192,62928,5,0,0:0:0:0:
0,192,62928,5,0,0:0:0:0:
224,192,62928,5,0,0:0:0:0:
128,192,62928,5,0,0:0:0:0:
448,192,62928,5,0,0:0:0:0:
192,192,62928,5,0,0:0:0:0:
160,192,62929,5,0,0:0:0:0:
64,224,62999,5,0,0:0:0:0:
480,224,62999,5,0,0:0:0:0:
32,224,62999,5,0,0:0:0:0:
96,224,63000,5,0,0:0:0:0:
512,224,63000,5,0,0:0:0:0:
256,224,63000,5,0,0:0:0:0:
0,224,63000,5,0,0:0:0:0:
416,224,63000,5,0,0:0:0:0:
224,224,63000,5,0,0:0:0:0:
128,224,63000,5,0,0:0:0:0:
448,224,63000,5,0,0:0:0:0:
192,224,63000,5,0,0:0:0:0:
160,224,63001,5,0,0:0:0:0:
352,256,63071,5,0,0:0:0:0:
32,256,63071,5,0,0:0:0:0:
480,256,63071,5,0,0:0:0:0:
64,256,63071,5,0,0:0:0:0:
384,256,63072,5,0,0:0:0:0:
128,256,63072,5,0,0:0:0:0:
192,256,63072,5,0,0:0:0:0:
448,256,63072,5,0,0:0:0:0:
512,256,63072,5,0,0:0:0:0:
96,256,63072,5,0,0:0:0:0:
416,256,63072,5,0,0:0:0:0:
0,256,63072,5,0,0:0:0:0:
160,256,63073,5,0,0:0:0:0:
352,288,63142,5,0,0:0:0:0:
64,288,63142,5,0,0:0:0:0:
480,288,63142,5,0,0:0:0:0:
32,288,63142,5,0,0:0:0:0:
320,288,63142,5,0,0:0:0:0:
96,288,63143,5,0,0:0:0:0:
512,288,63143,5,0,0:0:0:0:
0,288,63143,5,0,0:0:0:0:
416,288,63143,5,0,0:0:0:0:
384,288,63143,5,0,0:0:0:0:
128,288,63143,5,0,0:0:0:0:
448,288,63143,5,0,0:0:0:0:
160,288,63144,5,0,0:0:0:0:
352,320,63214,5,0,0:0:0:0:
480,320,63214,5,0,0:0:0:0:
320,320,63214,5,0,0:0:0:0:
64,320,63214,5,0,0:0:0:0:
288,320,63214,5,0,0:0:0:0:
32,320,63214,5,0,0:0:0:0:
96,320,63215,5,0,0:0:0:0:
512,320,63215,5,0,0:0:0:0:
0,320,63215,5,0,0:0:0:0:
416,320,63215,5,0,0:0:0:0:
384,320,63215,5,0,0:0:0:0:
128,320,63215,5,0,0:0:0:0:
448,320,63215,5,0,0:0:0:0:
352,352,63286,5,0,0:0:0:0:
288,352,63286,5,0,0:0:0:0:
32,352,63286,5,0,0:0:0:0:
480,352,63286,5,0,0:0:0:0:
320,352,63286,5,0,0:0:0:0:
64,352,63286,5,0,0:0:0:0:
384,352,63287,5,0,0:0:0:0:
448,352,63287,5,0,0:0:0:0:
512,352,63287,5,0,0:0:0:0:
96,352,63287,5,0,0:0:0:0:
256,352,63287,5,0,0:0:0:0:
416,352,63287,5,0,0:0:0:0:
0,352,63287,5,0,0:0:0:0:
288,352,63354,5,0,0:0:0:0:
96,352,63354,5,0,0:0:0:0:
64,352,63354,5,0,0:0:0:0:
256,352,63354,5,0,0:0:0:0:
192,352,63569,5,0,0:0:0:0:
384,352,63569,5,0,0:0:0:0:
416,352,63569,5,0,0:0:0:0:
224,352,63569,5,0,0:0:0:0:
96,352,63783,5,0,0:0:0:0:
288,352,63783,5,0,0:0:0:0:
320,352,63783,5,0,0:0:0:0:
128,352,63783,5,0,0:0:0:0:
352,256,63924,5,0,0:0:0:0:
32,256,63924,5,0,0:0:0:0:
64,256,63924,5,0,0:0:0:0:
480,256,63924,5,0,0:0:0:0:
96,256,63925,5,0,0:0:0:0:
512,256,63925,5,0,0:0:0:0:
0,256,63925,5,0,0:0:0:0:
416,256,63925,5,0,0:0:0:0:
128,256,63925,5,0,0:0:0:0:
384,256,63925,5,0,0:0:0:0:
448,256,63925,5,0,0:0:0:0:
192,256,63925,5,0,0:0:0:0:
160,256,63926,5,0,0:0:0:0:
352,288,63995,5,0,0:0:0:0:
64,288,63995,5,0,0:0:0:0:
480,288,63995,5,0,0:0:0:0:
32,288,63995,5,0,0:0:0:0:
320,288,63995,5,0,0:0:0:0:
96,288,63996,5,0,0:0:0:0:
512,288,63996,5,0,0:0:0:0:
0,288,63996,5,0,0:0:0:0:
416,288,63996,5,0,0:0:0:0:
384,288,63996,5,0,0:0:0:0:
128,288,63996,5,0,0:0:0:0:
448,288,63996,5,0,0:0:0:0:
160,288,63997,5,0,0:0:0:0:
352,320,64067,5,0,0:0:0:0:
480,320,64067,5,0,0:0:0:0:
320,320,64067,5,0,0:0:0:0:
64,320,64067,5,0,0:0:0:0:
288,320,64067,5,0,0:0:0:0:
32,320,64067,5,0,0:0:0:0:
96,320,64068,5,0,0:0:0:0:
512,320,64068,5,0,0:0:0:0:
0,320,64068,5,0,0:0:0:0:
416,320,64068,5,0,0:0:0:0:
384,320,64068,5,0,0:0:0:0:
128,320,64068,5,0,0:0:0:0:
448,320,64068,5,0,0:0:0:0:
352,352,64139,5,0,0:0:0:0:
288,352,64139,5,0,0:0:0:0:
320,352,64139,5,0,0:0:0:0:
64,352,64139,5,0,0:0:0:0:
32,352,64139,5,0,0:0:0:0:
480,352,64139,5,0,0:0:0:0:
256,352,64140,5,0,0:0:0:0:
416,352,64140,5,0,0:0:0:0:
0,352,64140,5,0,0:0:0:0:
96,352,64140,5,0,0:0:0:0:
384,352,64140,5,0,0:0:0:0:
448,352,64140,5,0,0:0:0:0:
512,352,64140,5,0,0:0:0:0:
0,0,64208,5,0,0:0:0:0:
64,0,64208,5,0,0:0:0:0:
448,0,64208,5,0,0:0:0:0:
224,0,64208,5,0,0:0:0:0:
480,0,64208,5,0,0:0:0:0:
416,0,64209,5,0,0:0:0:0:
32,0,64209,5,0,0:0:0:0:
256,0,64209,5,0,0:0:0:0:
512,0,64209,5,0,0:0:0:0:
288,0,64209,5,0,0:0:0:0:
384,0,64209,5,0,0:0:0:0:
320,0,64209,5,0,0:0:0:0:
352,0,64210,5,0,0:0:0:0:
224,32,64280,5,0,0:0:0:0:
480,32,64280,5,0,0:0:0:0:
448,32,64280,5,0,0:0:0:0:
32,32,64280,5,0,0:0:0:0:
192,32,64280,5,0,0:0:0:0:
288,32,64281,5,0,0:0:0:0:
384,32,64281,5,0,0:0:0:0:
320,32,64281,5,0,0:0:0:0:
512,32,64281,5,0,0:0:0:0:
416,32,64281,5,0,0:0:0:0:
0,32,64281,5,0,0:0:0:0:
256,32,64281,5,0,0:0:0:0:
352,32,64282,5,0,0:0:0:0:
224,64,64352,5,0,0:0:0:0:
480,64,64352,5,0,0:0:0:0:
32,64,64352,5,0,0:0:0:0:
448,64,64352,5,0,0:0:0:0:
288,64,64353,5,0,0:0:0:0:
384,64,64353,5,0,0:0:0:0:
320,64,64353,5,0,0:0:0:0:
64,64,64353,5,0,0:0:0:0:
0,64,64353,5,0,0:0:0:0:
416,64,64353,5,0,0:0:0:0:
256,64,64353,5,0,0:0:0:0:
512,64,64353,5,0,0:0:0:0:
352,64,64354,5,0,0:0:0:0:
480,96,64423,5,0,0:0:0:0:
448,96,64423,5,0,0:0:0:0:
32,96,64423,5,0,0:0:0:0:
384,96,64424,5,0,0:0:0:0:
288,96,64424,5,0,0:0:0:0:
320,96,64424,5,0,0:0:0:0:
64,96,64424,5,0,0:0:0:0:
96,96,64424,5,0,0:0:0:0:
0,96,64424,5,0,0:0:0:0:
416,96,64424,5,0,0:0:0:0:
512,96,64424,5,0,0:0:0:0:
256,96,64424,5,0,0:0:0:0:
352,96,64425,5,0,0:0:0:0:
448,128,64495,5,0,0:0:0:0:
32,128,64495,5,0,0:0:0:0:
480,128,64495,5,0,0:0:0:0:
416,128,64496,5,0,0:0:0:0:
0,128,64496,5,0,0:0:0:0:
256,128,64496,5,0,0:0:0:0:
512,128,64496,5,0,0:0:0:0:
96,128,64496,5,0,0:0:0:0:
288,128,64496,5,0,0:0:0:0:
384,128,64496,5,0,0:0:0:0:
64,128,64496,5,0,0:0:0:0:
320,128,64496,5,0,0:0:0:0:
352,128,64497,5,0,0:0:0:0:
480,160,64567,5,0,0:0:0:0:
448,160,64567,5,0,0:0:0:0:
32,160,64567,5,0,0:0:0:0:
224,160,64567,5,0,0:0:0:0:
416,160,64568,5,0,0:0:0:0:
0,160,64568,5,0,0:0:0:0:
512,160,64568,5,0,0:0:0:0:
256,160,64568,5,0,0:0:0:0:
384,160,64568,5,0,0:0:0:0:
288,160,64568,5,0,0:0:0:0:
64,160,64568,5,0,0:0:0:0:
320,160,64568,5,0,0:0:0:0:
352,160,64569,5,0,0:0:0:0:
32,192,64638,5,0,0:0:0:0:
448,192,64638,5,0,0:0:0:0:
224,192,64638,5,0,0:0:0:0:
480,192,64638,5,0,0:0:0:0:
416,192,64639,5,0,0:0:0:0:
0,192,64639,5,0,0:0:0:0:
256,192,64639,5,0,0:0:0:0:
512,192,64639,5,0,0:0:0:0:
288,192,64639,5,0,0:0:0:0:
384,192,64639,5,0,0:0:0:0:
64,192,64639,5,0,0:0:0:0:
320,192,64639,5,0,0:0:0:0:
352,192,64640,5,0,0:0:0:0:
480,224,64710,5,0,0:0:0:0:
32,224,64710,5,0,0:0:0:0:
448,224,64710,5,0,0:0:0:0:
384,224,64711,5,0,0:0:0:0:
288,224,64711,5,0,0:0:0:0:
320,224,64711,5,0,0:0:0:0:
64,224,64711,5,0,0:0:0:0:
96,224,64711,5,0,0:0:0:0:
0,224,64711,5,0,0:0:0:0:
416,224,64711,5,0,0:0:0:0:
512,224,64711,5,0,0:0:0:0:
256,224,64711,5,0,0:0:0:0:
352,224,64712,5,0,0:0:0:0:
160,256,64782,5,0,0:0:0:0:
32,256,64782,5,0,0:0:0:0:
480,256,64782,5,0,0:0:0:0:
448,256,64782,5,0,0:0:0:0:
128,256,64783,5,0,0:0:0:0:
384,256,64783,5,0,0:0:0:0:
320,256,64783,5,0,0:0:0:0:
64,256,64783,5,0,0:0:0:0:
0,256,64783,5,0,0:0:0:0:
416,256,64783,5,0,0:0:0:0:
96,256,64783,5,0,0:0:0:0:
512,256,64783,5,0,0:0:0:0:
352,256,64784,5,0,0:0:0:0:
160,288,64853,5,0,0:0:0:0:
480,288,64853,5,0,0:0:0:0:
192,288,64853,5,0,0:0:0:0:
32,288,64853,5,0,0:0:0:0:
448,288,64853,5,0,0:0:0:0:
128,288,64854,5,0,0:0:0:0:
384,288,64854,5,0,0:0:0:0:
64,288,64854,5,0,0:0:0:0:
96,288,64854,5,0,0:0:0:0:
416,288,64854,5,0,0:0:0:0:
0,288,64854,5,0,0:0:0:0:
512,288,64854,5,0,0:0:0:0:
352,288,64855,5,0,0:0:0:0:
160,320,64925,5,0,0:0:0:0:
448,320,64925,5,0,0:0:0:0:
32,320,64925,5,0,0:0:0:0:
192,320,64925,5,0,0:0:0:0:
224,320,64925,5,0,0:0:0:0:
480,320,64925,5,0,0:0:0:0:
416,320,64926,5,0,0:0:0:0:
0,320,64926,5,0,0:0:0:0:
512,320,64926,5,0,0:0:0:0:
96,320,64926,5,0,0:0:0:0:
128,320,64926,5,0,0:0:0:0:
384,320,64926,5,0,0:0:0:0:
64,320,64926,5,0,0:0:0:0:
160,352,64997,5,0,0:0:0:0:
32,352,64997,5,0,0:0:0:0:
192,352,64997,5,0,0:0:0:0:
448,352,64997,5,0,0:0:0:0:
224,352,64997,5,0,0:0:0:0:
480,352,64997,5,0,0:0:0:0:
256,352,64998,5,0,0:0:0:0:
96,352,64998,5,0,0:0:0:0:
512,352,64998,5,0,0:0:0:0:
416,352,64998,5,0,0:0:0:0:
128,352,64998,5,0,0:0:0:0:
64,352,64998,5,0,0:0:0:0:
0,352,64998,5,0,0:0:0:0:
224,64,65068,5,0,0:0:0:0:
192,64,65068,5,0,0:0:0:0:
96,64,65069,5,0,0:0:0:0:
64,64,65069,5,0,0:0:0:0:
128,64,65069,5,0,0:0:0:0:
448,64,65069,5,0,0:0:0:0:
32,64,65069,5,0,0:0:0:0:
384,64,65069,5,0,0:0:0:0:
480,64,65069,5,0,0:0:0:0:
0,64,65069,5,0,0:0:0:0:
160,64,65069,5,0,0:0:0:0:
512,64,65069,5,0,0:0:0:0:
416,64,65070,5,0,0:0:0:0:
320,160,65354,5,0,0:0:0:0:
192,160,65355,5,0,0:0:0:0:
224,160,65355,5,0,0:0:0:0:
480,160,65356,5,0,0:0:0:0:
384,160,65356,5,0,0:0:0:0:
32,160,65356,5,0,0:0:0:0:
512,160,65356,5,0,0:0:0:0:
0,160,65356,5,0,0:0:0:0:
256,160,65356,5,0,0:0:0:0:
288,160,65356,5,0,0:0:0:0:
448,160,65356,5,0,0:0:0:0:
416,160,65357,5,0,0:0:0:0:
352,160,65357,5,0,0:0:0:0:
192,256,65641,5,0,0:0:0:0:
224,256,65641,5,0,0:0:0:0:
480,256,65642,5,0,0:0:0:0:
32,256,65642,5,0,0:0:0:0:
512,256,65642,5,0,0:0:0:0:
160,256,65642,5,0,0:0:0:0:
0,256,65642,5,0,0:0:0:0:
256,256,65642,5,0,0:0:0:0:
96,256,65642,5,0,0:0:0:0:
448,256,65642,5,0,0:0:0:0:
128,256,65642,5,0,0:0:0:0:
64,256,65642,5,0,0:0:0:0:
416,256,65643,5,0,0:0:0:0:
320,352,65926,5,0,0:0:0:0:
480,352,65928,5,0,0:0:0:0:
384,352,65928,5,0,0:0:0:0:
32,352,65928,5,0,0:0:0:0:
512,352,65928,5,0,0:0:0:0:
0,352,65928,5,0,0:0:0:0:
288,352,65928,5,0,0:0:0:0:
96,352,65928,5,0,0:0:0:0:
448,352,65928,5,0,0:0:0:0:
128,352,65928,5,0,0:0:0:0:
64,352,65928,5,0,0:0:0:0:
416,352,65929,5,0,0:0:0:0:
352,352,65929,5,0,0:0:0:0:
352,0,66211,5,0,0:0:0:0:
320,0,66211,5,0,0:0:0:0:
64,0,66211,5,0,0:0:0:0:
32,0,66211,5,0,0:0:0:0:
288,0,66211,5,0,0:0:0:0:
96,0,66212,5,0,0:0:0:0:
512,0,66212,5,0,0:0:0:0:
256,0,66212,5,0,0:0:0:0:
0,0,66212,5,0,0:0:0:0:
224,0,66212,5,0,0:0:0:0:
128,0,66212,5,0,0:0:0:0:
192,0,66212,5,0,0:0:0:0:
160,0,66213,5,0,0:0:0:0:
480,32,66283,5,0,0:0:0:0:
320,32,66283,5,0,0:0:0:0:
64,32,66283,5,0,0:0:0:0:
288,32,66283,5,0,0:0:0:0:
32,32,66283,5,0,0:0:0:0:
96,32,66284,5,0,0:0:0:0:
512,32,66284,5,0,0:0:0:0:
256,32,66284,5,0,0:0:0:0:
0,32,66284,5,0,0:0:0:0:
224,32,66284,5,0,0:0:0:0:
128,32,66284,5,0,0:0:0:0:
192,32,66284,5,0,0:0:0:0:
160,32,66285,5,0,0:0:0:0:
288,64,66355,5,0,0:0:0:0:
32,64,66355,5,0,0:0:0:0:
480,64,66355,5,0,0:0:0:0:
64,64,66355,5,0,0:0:0:0:
224,64,66356,5,0,0:0:0:0:
128,64,66356,5,0,0:0:0:0:
192,64,66356,5,0,0:0:0:0:
448,64,66356,5,0,0:0:0:0:
512,64,66356,5,0,0:0:0:0:
96,64,66356,5,0,0:0:0:0:
256,64,66356,5,0,0:0:0:0:
0,64,66356,5,0,0:0:0:0:
160,64,66357,5,0,0:0:0:0:
480,96,66426,5,0,0:0:0:0:
64,96,66426,5,0,0:0:0:0:
32,96,66426,5,0,0:0:0:0:
96,96,66427,5,0,0:0:0:0:
512,96,66427,5,0,0:0:0:0:
256,96,66427,5,0,0:0:0:0:
0,96,66427,5,0,0:0:0:0:
416,96,66427,5,0,0:0:0:0:
224,96,66427,5,0,0:0:0:0:
128,96,66427,5,0,0:0:0:0:
448,96,66427,5,0,0:0:0:0:
192,96,66427,5,0,0:0:0:0:
160,96,66428,5,0,0:0:0:0:
64,128,66498,5,0,0:0:0:0:
480,128,66498,5,0,0:0:0:0:
32,128,66498,5,0,0:0:0:0:
96,128,66499,5,0,0:0:0:0:
512,128,66499,5,0,0:0:0:0:
256,128,66499,5,0,0:0:0:0:
0,128,66499,5,0,0:0:0:0:
416,128,66499,5,0,0:0:0:0:
224,128,66499,5,0,0:0:0:0:
128,128,66499,5,0,0:0:0:0:
448,128,66499,5,0,0:0:0:0:
192,128,66499,5,0,0:0:0:0:
160,128,66500,5,0,0:0:0:0:
480,160,66570,5,0,0:0:0:0:
288,160,66570,5,0,0:0:0:0:
32,160,66570,5,0,0:0:0:0:
64,160,66570,5,0,0:0:0:0:
224,160,66571,5,0,0:0:0:0:
128,160,66571,5,0,0:0:0:0:
192,160,66571,5,0,0:0:0:0:
448,160,66571,5,0,0:0:0:0:
512,160,66571,5,0,0:0:0:0:
96,160,66571,5,0,0:0:0:0:
256,160,66571,5,0,0:0:0:0:
0,160,66571,5,0,0:0:0:0:
160,160,66572,5,0,0:0:0:0:
480,192,66641,5,0,0:0:0:0:
64,192,66641,5,0,0:0:0:0:
288,192,66641,5,0,0:0:0:0:
32,192,66641,5,0,0:0:0:0:
96,192,66642,5,0,0:0:0:0:
512,192,66642,5,0,0:0:0:0:
256,192,66642,5,0,0:0:0:0:
0,192,66642,5,0,0:0:0:0:
224,192,66642,5,0,0:0:0:0:
128,192,66642,5,0,0:0:0:0:
448,192,66642,5,0,0:0:0:0:
192,192,66642,5,0,0:0:0:0:
160,192,66643,5,0,0:0:0:0:
64,224,66713,5,0,0:0:0:0:
480,224,66713,5,0,0:0:0:0:
32,224,66713,5,0,0:0:0:0:
96,224,66714,5,0,0:0:0:0:
512,224,66714,5,0,0:0:0:0:
256,224,66714,5,0,0:0:0:0:
0,224,66714,5,0,0:0:0:0:
416,224,66714,5,0,0:0:0:0:
224,224,66714,5,0,0:0:0:0:
128,224,66714,5,0,0:0:0:0:
448,224,66714,5,0,0:0:0:0:
192,224,66714,5,0,0:0:0:0:
160,224,66715,5,0,0:0:0:0:
352,256,66785,5,0,0:0:0:0:
32,256,66785,5,0,0:0:0:0:
480,256,66785,5,0,0:0:0:0:
64,256,66785,5,0,0:0:0:0:
384,256,66786,5,0,0:0:0:0:
128,256,66786,5,0,0:0:0:0:
192,256,66786,5,0,0:0:0:0:
448,256,66786,5,0,0:0:0:0:
512,256,66786,5,0,0:0:0:0:
96,256,66786,5,0,0:0:0:0:
416,256,66786,5,0,0:0:0:0:
0,256,66786,5,0,0:0:0:0:
160,256,66787,5,0,0:0:0:0:
352,288,66856,5,0,0:0:0:0:
64,288,66856,5,0,0:0:0:0:
480,288,66856,5,0,0:0:0:0:
32,288,66856,5,0,0:0:0:0:
320,288,66856,5,0,0:0:0:0:
96,288,66857,5,0,0:0:0:0:
512,288,66857,5,0,0:0:0:0:
0,288,66857,5,0,0:0:0:0:
416,288,66857,5,0,0:0:0:0:
384,288,66857,5,0,0:0:0:0:
128,288,66857,5,0,0:0:0:0:
448,288,66857,5,0,0:0:0:0:
160,288,66858,5,0,0:0:0:0:
352,320,66928,5,0,0:0:0:0:
480,320,66928,5,0,0:0:0:0:
320,320,66928,5,0,0:0:0:0:
64,320,66928,5,0,0:0:0:0:
288,320,66928,5,0,0:0:0:0:
32,320,66928,5,0,0:0:0:0:
96,320,66929,5,0,0:0:0:0:
512,320,66929,5,0,0:0:0:0:
0,320,66929,5,0,0:0:0:0:
416,320,66929,5,0,0:0:0:0:
384,320,66929,5,0,0:0:0:0:
128,320,66929,5,0,0:0:0:0:
448,320,66929,5,0,0:0:0:0:
352,352,67000,5,0,0:0:0:0:
288,352,67000,5,0,0:0:0:0:
32,352,67000,5,0,0:0:0:0:
480,352,67000,5,0,0:0:0:0:
320,352,67000,5,0,0:0:0:0:
64,352,67000,5,0,0:0:0:0:
384,352,67001,5,0,0:0:0:0:
448,352,67001,5,0,0:0:0:0:
512,352,67001,5,0,0:0:0:0:
96,352,67001,5,0,0:0:0:0:
256,352,67001,5,0,0:0:0:0:
416,352,67001,5,0,0:0:0:0:
0,352,67001,5,0,0:0:0:0:
0,0,67069,5,0,0:0:0:0:
64,0,67069,5,0,0:0:0:0:
448,0,67069,5,0,0:0:0:0:
224,0,67069,5,0,0:0:0:0:
480,0,67069,5,0,0:0:0:0:
416,0,67070,5,0,0:0:0:0:
32,0,67070,5,0,0:0:0:0:
256,0,67070,5,0,0:0:0:0:
512,0,67070,5,0,0:0:0:0:
288,0,67070,5,0,0:0:0:0:
384,0,67070,5,0,0:0:0:0:
320,0,67070,5,0,0:0:0:0:
352,0,67071,5,0,0:0:0:0:
32,32,67141,5,0,0:0:0:0:
192,32,67141,5,0,0:0:0:0:
448,32,67141,5,0,0:0:0:0:
224,32,67141,5,0,0:0:0:0:
480,32,67141,5,0,0:0:0:0:
416,32,67142,5,0,0:0:0:0:
0,32,67142,5,0,0:0:0:0:
256,32,67142,5,0,0:0:0:0:
512,32,67142,5,0,0:0:0:0:
288,32,67142,5,0,0:0:0:0:
384,32,67142,5,0,0:0:0:0:
320,32,67142,5,0,0:0:0:0:
352,32,67143,5,0,0:0:0:0:
224,64,67213,5,0,0:0:0:0:
480,64,67213,5,0,0:0:0:0:
32,64,67213,5,0,0:0:0:0:
448,64,67213,5,0,0:0:0:0:
288,64,67214,5,0,0:0:0:0:
384,64,67214,5,0,0:0:0:0:
320,64,67214,5,0,0:0:0:0:
64,64,67214,5,0,0:0:0:0:
0,64,67214,5,0,0:0:0:0:
416,64,67214,5,0,0:0:0:0:
256,64,67214,5,0,0:0:0:0:
512,64,67214,5,0,0:0:0:0:
352,64,67215,5,0,0:0:0:0:
32,96,67284,5,0,0:0:0:0:
448,96,67284,5,0,0:0:0:0:
480,96,67284,5,0,0:0:0:0:
416,96,67285,5,0,0:0:0:0:
0,96,67285,5,0,0:0:0:0:
256,96,67285,5,0,0:0:0:0:
512,96,67285,5,0,0:0:0:0:
96,96,67285,5,0,0:0:0:0:
288,96,67285,5,0,0:0:0:0:
384,96,67285,5,0,0:0:0:0:
64,96,67285,5,0,0:0:0:0:
320,96,67285,5,0,0:0:0:0:
352,96,67286,5,0,0:0:0:0:
448,128,67356,5,0,0:0:0:0:
32,128,67356,5,0,0:0:0:0:
480,128,67356,5,0,0:0:0:0:
416,128,67357,5,0,0:0:0:0:
0,128,67357,5,0,0:0:0:0:
256,128,67357,5,0,0:0:0:0:
512,128,67357,5,0,0:0:0:0:
96,128,67357,5,0,0:0:0:0:
288,128,67357,5,0,0:0:0:0:
384,128,67357,5,0,0:0:0:0:
64,128,67357,5,0,0:0:0:0:
320,128,67357,5,0,0:0:0:0:
352,128,67358,5,0,0:0:0:0:
32,160,67428,5,0,0:0:0:0:
224,160,67428,5,0,0:0:0:0:
480,160,67428,5,0,0:0:0:0:
448,160,67428,5,0,0:0:0:0:
288,160,67429,5,0,0:0:0:0:
384,160,67429,5,0,0:0:0:0:
320,160,67429,5,0,0:0:0:0:
64,160,67429,5,0,0:0:0:0:
0,160,67429,5,0,0:0:0:0:
416,160,67429,5,0,0:0:0:0:
256,160,67429,5,0,0:0:0:0:
512,160,67429,5,0,0:0:0:0:
352,160,67430,5,0,0:0:0:0:
32,192,67499,5,0,0:0:0:0:
448,192,67499,5,0,0:0:0:0:
224,192,67499,5,0,0:0:0:0:
480,192,67499,5,0,0:0:0:0:
416,192,67500,5,0,0:0:0:0:
0,192,67500,5,0,0:0:0:0:
256,192,67500,5,0,0:0:0:0:
512,192,67500,5,0,0:0:0:0:
288,192,67500,5,0,0:0:0:0:
384,192,67500,5,0,0:0:0:0:
64,192,67500,5,0,0:0:0:0:
320,192,67500,5,0,0:0:0:0:
352,192,67501,5,0,0:0:0:0:
448,224,67571,5,0,0:0:0:0:
32,224,67571,5,0,0:0:0:0:
480,224,67571,5,0,0:0:0:0:
416,224,67572,5,0,0:0:0:0:
0,224,67572,5,0,0:0:0:0:
256,224,67572,5,0,0:0:0:0:
512,224,67572,5,0,0:0:0:0:
96,224,67572,5,0,0:0:0:0:
288,224,67572,5,0,0:0:0:0:
384,224,67572,5,0,0:0:0:0:
64,224,67572,5,0,0:0:0:0:
320,224,67572,5,0,0:0:0:0:
352,224,67573,5,0,0:0:0:0:
160,256,67643,5,0,0:0:0:0:
32,256,67643,5,0,0:0:0:0:
480,256,67643,5,0,0:0:0:0:
448,256,67643,5,0,0:0:0:0:
128,256,67644,5,0,0:0:0:0:
384,256,67644,5,0,0:0:0:0:
320,256,67644,5,0,0:0:0:0:
64,256,67644,5,0,0:0:0:0:
0,256,67644,5,0,0:0:0:0:
416,256,67644,5,0,0:0:0:0:
96,256,67644,5,0,0:0:0:0:
512,256,67644,5,0,0:0:0:0:
352,256,67645,5,0,0:0:0:0:
160,288,67714,5,0,0:0:0:0:
448,288,67714,5,0,0:0:0:0:
32,288,67714,5,0,0:0:0:0:
192,288,67714,5,0,0:0:0:0:
480,288,67714,5,0,0:0:0:0:
416,288,67715,5,0,0:0:0:0:
0,288,67715,5,0,0:0:0:0:
512,288,67715,5,0,0:0:0:0:
96,288,67715,5,0,0:0:0:0:
128,288,67715,5,0,0:0:0:0:
384,288,67715,5,0,0:0:0:0:
64,288,67715,5,0,0:0:0:0:
352,288,67716,5,0,0:0:0:0:
160,320,67786,5,0,0:0:0:0:
448,320,67786,5,0,0:0:0:0:
32,320,67786,5,0,0:0:0:0:
192,320,67786,5,0,0:0:0:0:
224,320,67786,5,0,0:0:0:0:
480,320,67786,5,0,0:0:0:0:
416,320,67787,5,0,0:0:0:0:
0,320,67787,5,0,0:0:0:0:
512,320,67787,5,0,0:0:0:0:
96,320,67787,5,0,0:0:0:0:
128,320,67787,5,0,0:0:0:0:
384,320,67787,5,0,0:0:0:0:
64,320,67787,5,0,0:0:0:0:
160,352,67858,5,0,0:0:0:0:
32,352,67858,5,0,0:0:0:0:
224,352,67858,5,0,0:0:0:0:
480,352,67858,5,0,0:0:0:0:
192,352,67858,5,0,0:0:0:0:
448,352,67858,5,0,0:0:0:0:
128,352,67859,5,0,0:0:0:0:
64,352,67859,5,0,0:0:0:0:
0,352,67859,5,0,0:0:0:0:
416,352,67859,5,0,0:0:0:0:
256,352,67859,5,0,0:0:0:0:
96,352,67859,5,0,0:0:0:0:
512,352,67859,5,0,0:0:0:0:
224,352,67926,5,0,0:0:0:0:
416,352,67926,5,0,0:0:0:0:
448,352,67926,5,0,0:0:0:0:
256,352,67926,5,0,0:0:0:0:
320,352,68141,5,0,0:0:0:0:
128,352,68141,5,0,0:0:0:0:
96,352,68141,5,0,0:0:0:0:
288,352,68141,5,0,0:0:0:0:
448,352,68355,5,0,0:0:0:0:
256,352,68355,5,0,0:0:0:0:
224,352,68355,5,0,0:0:0:0:
416,352,68355,5,0,0:0:0:0:
160,256,68496,5,0,0:0:0:0:
448,256,68496,5,0,0:0:0:0:
480,256,68496,5,0,0:0:0:0:
32,256,68496,5,0,0:0:0:0:
416,256,68497,5,0,0:0:0:0:
0,256,68497,5,0,0:0:0:0:
512,256,68497,5,0,0:0:0:0:
96,256,68497,5,0,0:0:0:0:
384,256,68497,5,0,0:0:0:0:
128,256,68497,5,0,0:0:0:0:
64,256,68497,5,0,0:0:0:0:
320,256,68497,5,0,0:0:0:0:
352,256,68498,5,0,0:0:0:0:
160,288,68567,5,0,0:0:0:0:
448,288,68567,5,0,0:0:0:0:
32,288,68567,5,0,0:0:0:0:
192,288,68567,5,0,0:0:0:0:
480,288,68567,5,0,0:0:0:0:
416,288,68568,5,0,0:0:0:0:
0,288,68568,5,0,0:0:0:0:
512,288,68568,5,0,0:0:0:0:
96,288,68568,5,0,0:0:0:0:
128,288,68568,5,0,0:0:0:0:
384,288,68568,5,0,0:0:0:0:
64,288,68568,5,0,0:0:0:0:
352,288,68569,5,0,0:0:0:0:
160,320,68639,5,0,0:0:0:0:
448,320,68639,5,0,0:0:0:0:
32,320,68639,5,0,0:0:0:0:
192,320,68639,5,0,0:0:0:0:
224,320,68639,5,0,0:0:0:0:
480,320,68639,5,0,0:0:0:0:
416,320,68640,5,0,0:0:0:0:
0,320,68640,5,0,0:0:0:0:
512,320,68640,5,0,0:0:0:0:
96,320,68640,5,0,0:0:0:0:
128,320,68640,5,0,0:0:0:0:
384,320,68640,5,0,0:0:0:0:
64,320,68640,5,0,0:0:0:0:
160,352,68711,5,0,0:0:0:0:
448,352,68711,5,0,0:0:0:0:
224,352,68711,5,0,0:0:0:0:
192,352,68711,5,0,0:0:0:0:
480,352,68711,5,0,0:0:0:0:
32,352,68711,5,0,0:0:0:0:
256,352,68712,5,0,0:0:0:0:
96,352,68712,5,0,0:0:0:0:
512,352,68712,5,0,0:0:0:0:
416,352,68712,5,0,0:0:0:0:
128,352,68712,5,0,0:0:0:0:
64,352,68712,5,0,0:0:0:0:
0,352,68712,5,0,0:0:0:0:
512,0,68780,5,0,0:0:0:0:
448,0,68780,5,0,0:0:0:0:
64,0,68780,5,0,0:0:0:0:
32,0,68780,5,0,0:0:0:0:
288,0,68780,5,0,0:0:0:0:
96,0,68781,5,0,0:0:0:0:
480,0,68781,5,0,0:0:0:0:
256,0,68781,5,0,0:0:0:0:
0,0,68781,5,0,0:0:0:0:
224,0,68781,5,0,0:0:0:0:
128,0,68781,5,0,0:0:0:0:
192,0,68781,5,0,0:0:0:0:
160,0,68782,5,0,0:0:0:0:
288,32,68852,5,0,0:0:0:0:
32,32,68852,5,0,0:0:0:0:
64,32,68852,5,0,0:0:0:0:
480,32,68852,5,0,0:0:0:0:
320,32,68852,5,0,0:0:0:0:
224,32,68853,5,0,0:0:0:0:
128,32,68853,5,0,0:0:0:0:
192,32,68853,5,0,0:0:0:0:
0,32,68853,5,0,0:0:0:0:
96,32,68853,5,0,0:0:0:0:
512,32,68853,5,0,0:0:0:0:
256,32,68853,5,0,0:0:0:0:
160,32,68854,5,0,0:0:0:0:
288,64,68924,5,0,0:0:0:0:
32,64,68924,5,0,0:0:0:0:
64,64,68924,5,0,0:0:0:0:
224,64,68925,5,0,0:0:0:0:
128,64,68925,5,0,0:0:0:0:
192,64,68925,5,0,0:0:0:0:
96,64,68925,5,0,0:0:0:0:
256,64,68925,5,0,0:0:0:0:
0,64,68925,5,0,0:0:0:0:
160,64,68926,5,0,0:0:0:0:
32,96,68995,5,0,0:0:0:0:
64,96,68995,5,0,0:0:0:0:
480,96,68995,5,0,0:0:0:0:
128,96,68996,5,0,0:0:0:0:
224,96,68996,5,0,0:0:0:0:
192,96,68996,5,0,0:0:0:0:
448,96,68996,5,0,0:0:0:0:
416,96,68996,5,0,0:0:0:0:
512,96,68996,5,0,0:0:0:0:
96,96,68996,5,0,0:0:0:0:
0,96,68996,5,0,0:0:0:0:
256,96,68996,5,0,0:0:0:0:
160,96,68997,5,0,0:0:0:0:
64,128,69067,5,0,0:0:0:0:
480,128,69067,5,0,0:0:0:0:
32,128,69067,5,0,0:0:0:0:
96,128,69068,5,0,0:0:0:0:
512,128,69068,5,0,0:0:0:0:
256,128,69068,5,0,0:0:0:0:
0,128,69068,5,0,0:0:0:0:
416,128,69068,5,0,0:0:0:0:
224,128,69068,5,0,0:0:0:0:
128,128,69068,5,0,0:0:0:0:
448,128,69068,5,0,0:0:0:0:
192,128,69068,5,0,0:0:0:0:
160,128,69069,5,0,0:0:0:0:
32,160,69139,5,0,0:0:0:0:
64,160,69139,5,0,0:0:0:0:
480,160,69139,5,0,0:0:0:0:
288,160,69139,5,0,0:0:0:0:
96,160,69140,5,0,0:0:0:0:
512,160,69140,5,0,0:0:0:0:
0,160,69140,5,0,0:0:0:0:
256,160,69140,5,0,0:0:0:0:
128,160,69140,5,0,0:0:0:0:
224,160,69140,5,0,0:0:0:0:
448,160,69140,5,0,0:0:0:0:
192,160,69140,5,0,0:0:0:0:
160,160,69141,5,0,0:0:0:0:
480,192,69210,5,0,0:0:0:0:
64,192,69210,5,0,0:0:0:0:
288,192,69210,5,0,0:0:0:0:
32,192,69210,5,0,0:0:0:0:
96,192,69211,5,0,0:0:0:0:
512,192,69211,5,0,0:0:0:0:
256,192,69211,5,0,0:0:0:0:
0,192,69211,5,0,0:0:0:0:
224,192,69211,5,0,0:0:0:0:
128,192,69211,5,0,0:0:0:0:
448,192,69211,5,0,0:0:0:0:
192,192,69211,5,0,0:0:0:0:
160,192,69212,5,0,0:0:0:0:
32,224,69282,5,0,0:0:0:0:
480,224,69282,5,0,0:0:0:0:
64,224,69282,5,0,0:0:0:0:
128,224,69283,5,0,0:0:0:0:
224,224,69283,5,0,0:0:0:0:
192,224,69283,5,0,0:0:0:0:
448,224,69283,5,0,0:0:0:0:
416,224,69283,5,0,0:0:0:0:
512,224,69283,5,0,0:0:0:0:
96,224,69283,5,0,0:0:0:0:
0,224,69283,5,0,0:0:0:0:
256,224,69283,5,0,0:0:0:0:
160,224,69284,5,0,0:0:0:0:
352,256,69354,5,0,0:0:0:0:
32,256,69354,5,0,0:0:0:0:
480,256,69354,5,0,0:0:0:0:
64,256,69354,5,0,0:0:0:0:
384,256,69355,5,0,0:0:0:0:
128,256,69355,5,0,0:0:0:0:
192,256,69355,5,0,0:0:0:0:
448,256,69355,5,0,0:0:0:0:
512,256,69355,5,0,0:0:0:0:
96,256,69355,5,0,0:0:0:0:
416,256,69355,5,0,0:0:0:0:
0,256,69355,5,0,0:0:0:0:
160,256,69356,5,0,0:0:0:0:
352,288,69425,5,0,0:0:0:0:
32,288,69425,5,0,0:0:0:0:
320,288,69425,5,0,0:0:0:0:
64,288,69425,5,0,0:0:0:0:
480,288,69425,5,0,0:0:0:0:
384,288,69426,5,0,0:0:0:0:
128,288,69426,5,0,0:0:0:0:
448,288,69426,5,0,0:0:0:0:
416,288,69426,5,0,0:0:0:0:
96,288,69426,5,0,0:0:0:0:
512,288,69426,5,0,0:0:0:0:
0,288,69426,5,0,0:0:0:0:
160,288,69427,5,0,0:0:0:0:
352,320,69497,5,0,0:0:0:0:
320,320,69497,5,0,0:0:0:0:
64,320,69497,5,0,0:0:0:0:
480,320,69497,5,0,0:0:0:0:
288,320,69497,5,0,0:0:0:0:
32,320,69497,5,0,0:0:0:0:
96,320,69498,5,0,0:0:0:0:
512,320,69498,5,0,0:0:0:0:
0,320,69498,5,0,0:0:0:0:
416,320,69498,5,0,0:0:0:0:
384,320,69498,5,0,0:0:0:0:
128,320,69498,5,0,0:0:0:0:
448,320,69498,5,0,0:0:0:0:
352,352,69569,5,0,0:0:0:0:
64,352,69569,5,0,0:0:0:0:
480,352,69569,5,0,0:0:0:0:
320,352,69569,5,0,0:0:0:0:
288,352,69569,5,0,0:0:0:0:
32,352,69569,5,0,0:0:0:0:
256,352,69570,5,0,0:0:0:0:
416,352,69570,5,0,0:0:0:0:
0,352,69570,5,0,0:0:0:0:
96,352,69570,5,0,0:0:0:0:
384,352,69570,5,0,0:0:0:0:
448,352,69570,5,0,0:0:0:0:
512,352,69570,5,0,0:0:0:0:
320,64,69640,5,0,0:0:0:0:
128,64,69640,6,0,L|176:208,1,150
288,64,69640,6,0,L|336:207,1,150
384,64,69641,5,0,0:0:0:0:
64,64,69641,5,0,0:0:0:0:
32,64,69641,5,0,0:0:0:0:
352,64,69641,5,0,0:0:0:0:
0,64,69641,5,0,0:0:0:0:
96,64,69642,5,0,0:0:0:0:
448,64,69926,5,0,0:0:0:0:
256,64,69926,6,0,L|208:208,1,150
416,64,69926,6,0,L|368:208,1,150
160,64,69927,5,0,0:0:0:0:
128,64,69927,5,0,0:0:0:0:
480,64,69927,5,0,0:0:0:0:
192,64,69927,5,0,0:0:0:0:
512,64,69927,5,0,0:0:0:0:
224,64,69928,5,0,0:0:0:0:
384,224,70211,5,0,0:0:0:0:
192,224,70211,5,0,0:0:0:0:
160,224,70211,5,0,0:0:0:0:
352,224,70211,5,0,0:0:0:0:
416,288,70354,5,0,0:0:0:0:
224,288,70354,5,0,0:0:0:0:
192,288,70354,5,0,0:0:0:0:
384,288,70354,5,0,0:0:0:0:
352,352,70497,5,0,0:0:0:0:
160,352,70497,5,0,0:0:0:0:
128,352,70497,5,0,0:0:0:0:
320,352,70497,5,0,0:0:0:0:
288,320,70640,5,0,0:0:0:0:
96,320,70640,5,0,0:0:0:0:
64,320,70640,5,0,0:0:0:0:
256,320,70640,5,0,0:0:0:0:
0,128,70783,5,0,0:0:0:0:
160,128,70783,5,0,0:0:0:0:
96,128,70783,5,0,0:0:0:0:
64,128,70783,5,0,0:0:0:0:
128,128,70783,5,0,0:0:0:0:
32,128,70783,5,0,0:0:0:0:
486,22,70783,5,0,0:0:0:0:
192,4,70783,5,0,0:0:0:0:
480,64,70783,5,0,0:0:0:0:
478,56,70854,5,0,0:0:0:0:
184,38,70854,5,0,0:0:0:0:
470,90,70925,5,0,0:0:0:0:
176,72,70925,5,0,0:0:0:0:
32,96,70926,5,0,0:0:0:0:
192,96,70926,5,0,0:0:0:0:
352,96,70926,5,0,0:0:0:0:
512,96,70926,5,0,0:0:0:0:
463,124,70997,5,0,0:0:0:0:
169,106,70997,5,0,0:0:0:0:
455,158,71068,5,0,0:0:0:0:
161,140,71068,5,0,0:0:0:0:
384,128,71069,5,0,0:0:0:0:
224,128,71069,5,0,0:0:0:0:
64,128,71069,5,0,0:0:0:0:
448,192,71140,5,0,0:0:0:0:
154,174,71140,5,0,0:0:0:0:
440,227,71211,5,0,0:0:0:0:
146,209,71211,5,0,0:0:0:0:
96,160,71211,5,0,0:0:0:0:
256,160,71211,5,0,0:0:0:0:
416,160,71211,5,0,0:0:0:0:
432,255,71282,5,0,0:0:0:0:
138,237,71282,5,0,0:0:0:0:
414,225,71354,5,0,0:0:0:0:
120,207,71354,5,0,0:0:0:0:
448,192,71354,5,0,0:0:0:0:
128,192,71354,5,0,0:0:0:0:
288,192,71354,5,0,0:0:0:0:
395,195,71425,5,0,0:0:0:0:
101,177,71425,5,0,0:0:0:0:
377,165,71497,5,0,0:0:0:0:
83,147,71497,5,0,0:0:0:0:
320,64,71497,5,0,0:0:0:0:
160,64,71497,5,0,0:0:0:0:
0,64,71497,5,0,0:0:0:0:
480,64,71497,5,0,0:0:0:0:
359,135,71568,5,0,0:0:0:0:
65,117,71568,5,0,0:0:0:0:
339,107,71640,5,0,0:0:0:0:
45,89,71640,5,0,0:0:0:0:
352,96,71640,5,0,0:0:0:0:
512,96,71640,5,0,0:0:0:0:
32,96,71640,5,0,0:0:0:0:
192,96,71640,5,0,0:0:0:0:
330,136,71711,5,0,0:0:0:0:
36,118,71711,5,0,0:0:0:0:
334,170,71782,5,0,0:0:0:0:
40,152,71782,5,0,0:0:0:0:
224,128,71783,5,0,0:0:0:0:
64,128,71783,5,0,0:0:0:0:
384,128,71783,5,0,0:0:0:0:
340,205,71854,5,0,0:0:0:0:
46,187,71854,5,0,0:0:0:0:
348,239,71925,5,0,0:0:0:0:
54,221,71925,5,0,0:0:0:0:
96,160,71926,5,0,0:0:0:0:
256,160,71926,5,0,0:0:0:0:
416,160,71926,5,0,0:0:0:0:
358,273,71997,5,0,0:0:0:0:
64,255,71997,5,0,0:0:0:0:
370,305,72068,5,0,0:0:0:0:
76,287,72068,5,0,0:0:0:0:
448,192,72069,5,0,0:0:0:0:
128,192,72069,5,0,0:0:0:0:
288,192,72069,5,0,0:0:0:0:
388,335,72140,5,0,0:0:0:0:
94,317,72140,5,0,0:0:0:0:
409,316,72211,5,0,0:0:0:0:
115,298,72211,5,0,0:0:0:0:
0,64,72211,5,0,0:0:0:0:
480,64,72211,5,0,0:0:0:0:
320,64,72211,5,0,0:0:0:0:
160,64,72211,5,0,0:0:0:0:
423,284,72282,5,0,0:0:0:0:
129,266,72282,5,0,0:0:0:0:
437,252,72354,5,0,0:0:0:0:
143,234,72354,5,0,0:0:0:0:
32,96,72354,5,0,0:0:0:0:
192,96,72354,5,0,0:0:0:0:
352,96,72354,5,0,0:0:0:0:
512,96,72354,5,0,0:0:0:0:
451,220,72425,5,0,0:0:0:0:
157,202,72425,5,0,0:0:0:0:
464,188,72497,5,0,0:0:0:0:
170,170,72497,5,0,0:0:0:0:
384,128,72497,5,0,0:0:0:0:
64,128,72497,5,0,0:0:0:0:
224,128,72497,5,0,0:0:0:0:
96,320,72711,5,0,0:0:0:0:
160,320,72711,5,0,0:0:0:0:
352,320,72711,5,0,0:0:0:0:
416,320,72711,5,0,0:0:0:0:
288,224,72926,5,0,0:0:0:0:
352,224,72926,5,0,0:0:0:0:
160,224,72926,5,0,0:0:0:0:
224,224,72926,5,0,0:0:0:0:
512,0,73069,5,0,0:0:0:0:
0,0,73069,5,0,0:0:0:0:
512,64,73069,5,0,0:0:0:0:
352,64,73069,5,0,0:0:0:0:
192,64,73069,5,0,0:0:0:0:
32,64,73069,5,0,0:0:0:0:
480,15,73140,5,0,0:0:0:0:
31,15,73140,5,0,0:0:0:0:
455,39,73211,5,0,0:0:0:0:
56,39,73211,5,0,0:0:0:0:
480,96,73212,5,0,0:0:0:0:
320,96,73212,5,0,0:0:0:0:
160,96,73212,5,0,0:0:0:0:
0,96,73212,5,0,0:0:0:0:
434,67,73283,5,0,0:0:0:0:
77,67,73283,5,0,0:0:0:0:
418,98,73354,5,0,0:0:0:0:
93,98,73354,5,0,0:0:0:0:
448,128,73355,5,0,0:0:0:0:
288,128,73355,5,0,0:0:0:0:
128,128,73355,5,0,0:0:0:0:
406,131,73426,5,0,0:0:0:0:
105,131,73426,5,0,0:0:0:0:
396,164,73497,5,0,0:0:0:0:
115,164,73497,5,0,0:0:0:0:
96,160,73497,5,0,0:0:0:0:
416,160,73497,5,0,0:0:0:0:
256,160,73497,5,0,0:0:0:0:
388,199,73568,5,0,0:0:0:0:
123,199,73568,5,0,0:0:0:0:
384,233,73640,5,0,0:0:0:0:
127,233,73640,5,0,0:0:0:0:
384,192,73640,5,0,0:0:0:0:
64,192,73640,5,0,0:0:0:0:
224,192,73640,5,0,0:0:0:0:
387,268,73711,5,0,0:0:0:0:
124,268,73711,5,0,0:0:0:0:
404,297,73783,5,0,0:0:0:0:
107,297,73783,5,0,0:0:0:0:
32,64,73783,5,0,0:0:0:0:
192,64,73783,5,0,0:0:0:0:
352,64,73783,5,0,0:0:0:0:
512,64,73783,5,0,0:0:0:0:
432,279,73854,5,0,0:0:0:0:
79,279,73854,5,0,0:0:0:0:
445,247,73926,5,0,0:0:0:0:
66,247,73926,5,0,0:0:0:0:
0,96,73926,5,0,0:0:0:0:
480,96,73926,5,0,0:0:0:0:
320,96,73926,5,0,0:0:0:0:
160,96,73926,5,0,0:0:0:0:
448,212,73997,5,0,0:0:0:0:
64,212,73997,5,0,0:0:0:0:
448,177,74068,5,0,0:0:0:0:
64,177,74068,5,0,0:0:0:0:
288,128,74069,5,0,0:0:0:0:
448,128,74069,5,0,0:0:0:0:
128,128,74069,5,0,0:0:0:0:
448,142,74140,5,0,0:0:0:0:
64,142,74140,5,0,0:0:0:0:
448,107,74211,5,0,0:0:0:0:
64,107,74211,5,0,0:0:0:0:
96,160,74212,5,0,0:0:0:0:
256,160,74212,5,0,0:0:0:0:
416,160,74212,5,0,0:0:0:0:
320,160,74497,5,0,0:0:0:0:
192,160,74498,5,0,0:0:0:0:
224,160,74498,5,0,0:0:0:0:
32,160,74499,5,0,0:0:0:0:
480,160,74499,5,0,0:0:0:0:
512,160,74499,5,0,0:0:0:0:
384,160,74499,5,0,0:0:0:0:
288,160,74499,5,0,0:0:0:0:
448,160,74499,5,0,0:0:0:0:
0,160,74499,5,0,0:0:0:0:
256,160,74499,5,0,0:0:0:0:
416,160,74500,5,0,0:0:0:0:
352,160,74500,5,0,0:0:0:0:
224,256,74784,5,0,0:0:0:0:
192,256,74784,5,0,0:0:0:0:
128,256,74785,5,0,0:0:0:0:
32,256,74785,5,0,0:0:0:0:
0,256,74785,5,0,0:0:0:0:
256,256,74785,5,0,0:0:0:0:
448,256,74785,5,0,0:0:0:0:
64,256,74785,5,0,0:0:0:0:
512,256,74785,5,0,0:0:0:0:
480,256,74785,5,0,0:0:0:0:
160,256,74785,5,0,0:0:0:0:
96,256,74785,5,0,0:0:0:0:
416,256,74786,5,0,0:0:0:0:
320,352,75069,5,0,0:0:0:0:
384,352,75071,5,0,0:0:0:0:
288,352,75071,5,0,0:0:0:0:
0,352,75071,5,0,0:0:0:0:
96,352,75071,5,0,0:0:0:0:
128,352,75071,5,0,0:0:0:0:
448,352,75071,5,0,0:0:0:0:
512,352,75071,5,0,0:0:0:0:
64,352,75071,5,0,0:0:0:0:
32,352,75071,5,0,0:0:0:0:
480,352,75071,5,0,0:0:0:0:
416,352,75072,5,0,0:0:0:0:
352,352,75072,5,0,0:0:0:0:
320,352,75352,5,0,0:0:0:0:
0,32,75354,5,0,0:0:0:0:
256,32,75354,5,0,0:0:0:0:
128,32,75354,5,0,0:0:0:0:
384,32,75354,5,0,0:0:0:0:
512,32,75354,5,0,0:0:0:0:
244,72,75354,5,0,0:0:0:0:
88,64,75354,5,0,0:0:0:0:
0,352,75354,5,0,0:0:0:0:
96,352,75354,5,0,0:0:0:0:
64,352,75354,5,0,0:0:0:0:
32,352,75354,5,0,0:0:0:0:
288,352,75354,5,0,0:0:0:0:
128,352,75354,5,0,0:0:0:0:
384,352,75354,5,0,0:0:0:0:
448,352,75354,5,0,0:0:0:0:
480,352,75354,5,0,0:0:0:0:
512,352,75354,5,0,0:0:0:0:
416,352,75355,5,0,0:0:0:0:
352,352,75355,5,0,0:0:0:0:
252,105,75425,5,0,0:0:0:0:
88,98,75425,5,0,0:0:0:0:
270,135,75496,5,0,0:0:0:0:
85,133,75496,5,0,0:0:0:0:
296,159,75568,5,0,0:0:0:0:
76,167,75568,5,0,0:0:0:0:
325,178,75639,5,0,0:0:0:0:
62,199,75639,5,0,0:0:0:0:
320,32,75640,5,0,0:0:0:0:
448,32,75640,5,0,0:0:0:0:
64,32,75641,5,0,0:0:0:0:
192,32,75641,5,0,0:0:0:0:
356,193,75711,5,0,0:0:0:0:
44,229,75711,5,0,0:0:0:0:
389,206,75782,5,0,0:0:0:0:
59,260,75782,5,0,0:0:0:0:
423,216,75853,5,0,0:0:0:0:
83,285,75853,5,0,0:0:0:0:
456,226,75925,5,0,0:0:0:0:
112,305,75925,5,0,0:0:0:0:
256,32,75926,5,0,0:0:0:0:
512,32,75926,5,0,0:0:0:0:
384,32,75926,5,0,0:0:0:0:
128,32,75926,5,0,0:0:0:0:
0,32,75926,5,0,0:0:0:0:
489,238,75996,5,0,0:0:0:0:
145,317,75996,5,0,0:0:0:0:
512,255,76068,5,0,0:0:0:0:
179,320,76068,5,0,0:0:0:0:
512,277,76139,5,0,0:0:0:0:
206,300,76139,5,0,0:0:0:0:
512,305,76211,5,0,0:0:0:0:
205,266,76211,5,0,0:0:0:0:
448,32,76212,5,0,0:0:0:0:
320,32,76212,5,0,0:0:0:0:
64,32,76213,5,0,0:0:0:0:
192,32,76213,5,0,0:0:0:0:
512,338,76282,5,0,0:0:0:0:
195,232,76282,5,0,0:0:0:0:
512,322,76353,5,0,0:0:0:0:
183,200,76353,5,0,0:0:0:0:
512,288,76425,5,0,0:0:0:0:
166,169,76425,5,0,0:0:0:0:
512,254,76496,5,0,0:0:0:0:
133,160,76496,5,0,0:0:0:0:
256,32,76497,5,0,0:0:0:0:
0,32,76497,5,0,0:0:0:0:
128,32,76497,5,0,0:0:0:0:
512,32,76497,5,0,0:0:0:0:
384,32,76497,5,0,0:0:0:0:
512,221,76568,5,0,0:0:0:0:
116,130,76568,5,0,0:0:0:0:
512,190,76639,5,0,0:0:0:0:
109,96,76639,5,0,0:0:0:0:
512,162,76711,5,0,0:0:0:0:
108,61,76711,5,0,0:0:0:0:
487,138,76782,5,0,0:0:0:0:
320,32,76783,5,0,0:0:0:0:
448,32,76783,5,0,0:0:0:0:
64,32,76784,5,0,0:0:0:0:
192,32,76784,5,0,0:0:0:0:
456,123,76853,5,0,0:0:0:0:
422,116,76925,5,0,0:0:0:0:
392,98,76996,5,0,0:0:0:0:
367,73,77068,5,0,0:0:0:0:
256,32,77069,5,0,0:0:0:0:
512,32,77069,5,0,0:0:0:0:
0,32,77069,5,0,0:0:0:0:
384,32,77069,5,0,0:0:0:0:
128,32,77069,5,0,0:0:0:0:
160,320,77283,5,0,0:0:0:0:
96,320,77283,5,0,0:0:0:0:
352,320,77283,5,0,0:0:0:0:
416,320,77283,5,0,0:0:0:0:
160,224,77498,5,0,0:0:0:0:
224,224,77498,5,0,0:0:0:0:
288,224,77498,5,0,0:0:0:0:
352,224,77498,5,0,0:0:0:0:
496,360,77640,5,0,0:0:0:0:
104,76,77640,5,0,0:0:0:0:
16,360,77640,5,0,0:0:0:0:
494,325,77711,5,0,0:0:0:0:
128,80,77711,5,0,0:0:0:0:
17,325,77711,5,0,0:0:0:0:
492,290,77782,5,0,0:0:0:0:
19,290,77782,5,0,0:0:0:0:
152,80,77783,5,0,0:0:0:0:
489,255,77854,5,0,0:0:0:0:
212,80,77854,5,0,0:0:0:0:
22,255,77854,5,0,0:0:0:0:
485,220,77925,5,0,0:0:0:0:
26,220,77925,5,0,0:0:0:0:
304,80,77926,5,0,0:0:0:0:
478,186,77997,5,0,0:0:0:0:
416,108,77997,5,0,0:0:0:0:
33,186,77997,5,0,0:0:0:0:
468,152,78068,5,0,0:0:0:0:
43,152,78068,5,0,0:0:0:0:
460,112,78069,5,0,0:0:0:0:
456,119,78139,5,0,0:0:0:0:
55,119,78139,5,0,0:0:0:0:
452,112,78140,5,0,0:0:0:0:
439,89,78211,5,0,0:0:0:0:
380,124,78211,5,0,0:0:0:0:
72,89,78211,5,0,0:0:0:0:
419,60,78282,5,0,0:0:0:0:
92,60,78282,5,0,0:0:0:0:
324,128,78283,5,0,0:0:0:0:
397,33,78354,5,0,0:0:0:0:
208,104,78354,5,0,0:0:0:0:
114,33,78354,5,0,0:0:0:0:
374,16,78425,5,0,0:0:0:0:
137,16,78425,5,0,0:0:0:0:
124,80,78426,5,0,0:0:0:0:
360,48,78497,5,0,0:0:0:0:
48,80,78497,5,0,0:0:0:0:
151,48,78497,5,0,0:0:0:0:
347,80,78568,5,0,0:0:0:0:
164,80,78568,5,0,0:0:0:0:
20,84,78569,5,0,0:0:0:0:
333,113,78639,5,0,0:0:0:0:
178,113,78639,5,0,0:0:0:0:
40,80,78640,5,0,0:0:0:0:
324,144,78711,5,0,0:0:0:0:
64,80,78711,5,0,0:0:0:0:
188,144,78711,5,0,0:0:0:0:
320,176,78782,5,0,0:0:0:0:
192,176,78782,5,0,0:0:0:0:
156,76,78783,5,0,0:0:0:0:
229,354,79105,5,0,0:0:0:0:
307,354,79105,1,0,0:0:0:0:
325,334,79140,1,0,0:0:0:0:
206,334,79140,1,0,0:0:0:0:
290,331,79140,1,0,0:0:0:0:
244,334,79140,1,0,0:0:0:0:
254,311,79176,1,0,0:0:0:0:
279,308,79176,1,0,0:0:0:0:
193,311,79176,1,0,0:0:0:0:
335,311,79176,1,0,0:0:0:0:
340,301,79212,1,0,0:0:0:0:
178,291,79212,1,0,0:0:0:0:
348,291,79212,1,0,0:0:0:0:
274,301,79212,1,0,0:0:0:0:
186,301,79212,1,0,0:0:0:0:
259,303,79212,1,0,0:0:0:0:
72,220,79319,5,0,0:0:0:0:
432,220,79319,5,0,0:0:0:0:
116,208,79337,5,0,0:0:0:0:
476,208,79337,5,0,0:0:0:0:
40,200,79354,5,0,0:0:0:0:
400,200,79354,5,0,0:0:0:0:
128,176,79372,5,0,0:0:0:0:
488,176,79372,5,0,0:0:0:0:
396,164,79390,5,0,0:0:0:0:
36,164,79390,5,0,0:0:0:0:
116,144,79408,5,0,0:0:0:0:
476,144,79408,5,0,0:0:0:0:
416,132,79426,5,0,0:0:0:0:
56,132,79426,5,0,0:0:0:0:
88,120,79444,5,0,0:0:0:0:
448,120,79444,5,0,0:0:0:0:
160,224,79925,5,0,0:0:0:0:
64,224,79926,5,0,0:0:0:0:
128,224,79926,5,0,0:0:0:0:
96,224,79926,5,0,0:0:0:0:
192,224,79926,5,0,0:0:0:0:
416,224,80069,5,0,0:0:0:0:
352,224,80070,5,0,0:0:0:0:
448,224,80070,5,0,0:0:0:0:
320,224,80070,5,0,0:0:0:0:
384,224,80070,5,0,0:0:0:0:
416,224,80211,5,0,0:0:0:0:
320,224,80212,5,0,0:0:0:0:
384,224,80212,5,0,0:0:0:0:
352,224,80212,5,0,0:0:0:0:
448,224,80212,5,0,0:0:0:0:
384,320,80229,2,0,L|320:96,1,225
96,160,80426,5,0,0:0:0:0:
32,160,80427,5,0,0:0:0:0:
128,160,80427,5,0,0:0:0:0:
0,160,80427,5,0,0:0:0:0:
64,160,80427,5,0,0:0:0:0:
480,160,80640,5,0,0:0:0:0:
416,160,80641,5,0,0:0:0:0:
512,160,80641,5,0,0:0:0:0:
384,160,80641,5,0,0:0:0:0:
448,160,80641,5,0,0:0:0:0:
288,128,80854,5,0,0:0:0:0:
224,128,80855,5,0,0:0:0:0:
320,128,80855,5,0,0:0:0:0:
192,128,80855,5,0,0:0:0:0:
256,128,80855,5,0,0:0:0:0:
32,288,80872,2,0,L|160:96,1,225
384,64,81069,5,0,0:0:0:0:
288,64,81070,5,0,0:0:0:0:
352,64,81070,5,0,0:0:0:0:
320,64,81070,5,0,0:0:0:0:
416,64,81070,5,0,0:0:0:0:
416,96,81140,5,0,0:0:0:0:
320,96,81141,5,0,0:0:0:0:
384,96,81141,5,0,0:0:0:0:
352,96,81141,5,0,0:0:0:0:
448,96,81141,5,0,0:0:0:0:
96,64,81210,5,0,0:0:0:0:
32,64,81211,5,0,0:0:0:0:
128,64,81211,5,0,0:0:0:0:
0,64,81211,5,0,0:0:0:0:
64,64,81211,5,0,0:0:0:0:
192,192,81354,5,0,0:0:0:0:
96,192,81355,5,0,0:0:0:0:
224,192,81355,5,0,0:0:0:0:
64,192,81355,5,0,0:0:0:0:
352,288,81497,5,0,0:0:0:0:
192,288,81498,5,0,0:0:0:0:
384,288,81498,5,0,0:0:0:0:
160,288,81498,5,0,0:0:0:0:
480,320,81622,2,0,L|416:224,1,112.5
416,256,81711,5,0,0:0:0:0:
192,256,81712,5,0,0:0:0:0:
224,256,81712,5,0,0:0:0:0:
448,256,81712,5,0,0:0:0:0:
480,96,81853,5,0,0:0:0:0:
512,96,81854,5,0,0:0:0:0:
96,96,81854,5,0,0:0:0:0:
64,96,81854,5,0,0:0:0:0:
416,192,81890,2,0,L|352:96,1,112.5
288,160,82069,5,0,0:0:0:0:
128,160,82070,5,0,0:0:0:0:
160,160,82070,5,0,0:0:0:0:
320,160,82070,5,0,0:0:0:0:
384,96,82211,5,0,0:0:0:0:
416,96,82212,5,0,0:0:0:0:
256,96,82212,5,0,0:0:0:0:
224,96,82212,5,0,0:0:0:0:
224,224,82354,5,0,0:0:0:0:
256,224,82355,5,0,0:0:0:0:
192,224,82355,5,0,0:0:0:0:
160,224,82355,5,0,0:0:0:0:
480,320,82426,2,0,L|320:96,1,250
480,256,82497,5,0,0:0:0:0:
384,256,82498,5,0,0:0:0:0:
448,256,82498,5,0,0:0:0:0:
416,256,82498,5,0,0:0:0:0:
512,256,82498,5,0,0:0:0:0:
96,288,82711,5,0,0:0:0:0:
32,288,82712,5,0,0:0:0:0:
128,288,82712,5,0,0:0:0:0:
0,288,82712,5,0,0:0:0:0:
64,288,82712,5,0,0:0:0:0:
352,192,82926,5,0,0:0:0:0:
256,192,82927,5,0,0:0:0:0:
320,192,82927,5,0,0:0:0:0:
288,192,82927,5,0,0:0:0:0:
384,192,82927,5,0,0:0:0:0:
192,128,82997,5,0,0:0:0:0:
128,128,82998,5,0,0:0:0:0:
96,128,82998,5,0,0:0:0:0:
160,128,82998,5,0,0:0:0:0:
480,288,83139,5,0,0:0:0:0:
384,288,83140,5,0,0:0:0:0:
512,288,83140,5,0,0:0:0:0:
416,288,83140,5,0,0:0:0:0:
448,288,83140,5,0,0:0:0:0:
160,256,83210,5,0,0:0:0:0:
192,256,83211,5,0,0:0:0:0:
128,256,83211,5,0,0:0:0:0:
32,160,83284,5,0,0:0:0:0:
0,160,83284,5,0,0:0:0:0:
416,256,83353,5,0,0:0:0:0:
192,256,83354,5,0,0:0:0:0:
224,256,83354,5,0,0:0:0:0:
448,256,83354,5,0,0:0:0:0:
192,192,83496,5,0,0:0:0:0:
96,192,83497,5,0,0:0:0:0:
64,192,83497,5,0,0:0:0:0:
224,192,83497,5,0,0:0:0:0:
448,224,83569,5,0,0:0:0:0:
480,224,83570,5,0,0:0:0:0:
320,224,83570,5,0,0:0:0:0:
352,224,83570,5,0,0:0:0:0:
96,288,83586,2,0,L|192:160,1,150
384,320,83639,5,0,0:0:0:0:
416,320,83640,5,0,0:0:0:0:
128,320,83640,5,0,0:0:0:0:
160,320,83640,5,0,0:0:0:0:
352,320,83711,2,0,L|512:160,1,200
480,96,83782,5,0,0:0:0:0:
512,96,83783,5,0,0:0:0:0:
64,96,83783,5,0,0:0:0:0:
96,96,83783,5,0,0:0:0:0:
384,32,83996,5,0,0:0:0:0:
192,32,83997,5,0,0:0:0:0:
160,32,83997,5,0,0:0:0:0:
416,32,83997,5,0,0:0:0:0:
256,96,84140,5,0,0:0:0:0:
288,96,84140,5,0,0:0:0:0:
224,96,84141,5,0,0:0:0:0:
480,288,84283,2,0,L|416:128,1,162.5
416,160,84354,5,0,0:0:0:0:
384,160,84354,5,0,0:0:0:0:
352,160,84355,5,0,0:0:0:0:
32,256,84426,2,0,L|128:64,1,200
160,192,84497,5,0,0:0:0:0:
128,192,84497,5,0,0:0:0:0:
96,192,84498,5,0,0:0:0:0:
96,288,84640,5,0,0:0:0:0:
32,288,84641,5,0,0:0:0:0:
0,288,84641,5,0,0:0:0:0:
64,288,84641,5,0,0:0:0:0:
128,288,84641,5,0,0:0:0:0:
480,288,84783,5,0,0:0:0:0:
416,288,84784,5,0,0:0:0:0:
384,288,84784,5,0,0:0:0:0:
448,288,84784,5,0,0:0:0:0:
512,288,84784,5,0,0:0:0:0:
224,192,84927,5,0,0:0:0:0:
192,192,84927,5,0,0:0:0:0:
352,224,84996,5,0,0:0:0:0:
320,224,84997,5,0,0:0:0:0:
384,224,84997,5,0,0:0:0:0:
288,224,84997,5,0,0:0:0:0:
256,224,84997,5,0,0:0:0:0:
96,96,85210,5,0,0:0:0:0:
32,96,85211,5,0,0:0:0:0:
0,96,85211,5,0,0:0:0:0:
64,96,85211,5,0,0:0:0:0:
128,96,85211,5,0,0:0:0:0:
384,160,85354,5,0,0:0:0:0:
320,160,85355,5,0,0:0:0:0:
288,160,85355,5,0,0:0:0:0:
352,160,85355,5,0,0:0:0:0:
416,160,85355,5,0,0:0:0:0:
256,96,85498,5,0,0:0:0:0:
224,96,85498,5,0,0:0:0:0:
288,96,85498,5,0,0:0:0:0:
480,64,85639,5,0,0:0:0:0:
448,64,85640,5,0,0:0:0:0:
512,64,85640,5,0,0:0:0:0:
416,64,85640,5,0,0:0:0:0:
384,64,85640,5,0,0:0:0:0:
96,352,85783,5,0,0:0:0:0:
128,352,85784,5,0,0:0:0:0:
64,352,85784,5,0,0:0:0:0:
32,352,85784,5,0,0:0:0:0:
224,320,85854,5,0,0:0:0:0:
160,320,85855,5,0,0:0:0:0:
192,320,85855,5,0,0:0:0:0:
256,320,85855,5,0,0:0:0:0:
480,288,85925,5,0,0:0:0:0:
512,288,85926,5,0,0:0:0:0:
32,288,85926,5,0,0:0:0:0:
0,288,85926,5,0,0:0:0:0:
256,320,85944,2,0,L|32:96,1,312.5
384,256,86068,5,0,0:0:0:0:
96,256,86069,5,0,0:0:0:0:
416,256,86069,5,0,0:0:0:0:
128,256,86069,5,0,0:0:0:0:
416,320,86158,2,0,L|480:128,1,200
352,128,86283,5,0,0:0:0:0:
384,128,86284,5,0,0:0:0:0:
320,128,86284,5,0,0:0:0:0:
288,128,86284,5,0,0:0:0:0:
448,192,86353,5,0,0:0:0:0:
192,192,86354,5,0,0:0:0:0:
224,192,86354,5,0,0:0:0:0:
480,192,86354,5,0,0:0:0:0:
96,96,86497,5,0,0:0:0:0:
32,96,86498,5,0,0:0:0:0:
64,96,86498,5,0,0:0:0:0:
128,96,86498,5,0,0:0:0:0:
256,32,86640,5,0,0:0:0:0:
288,32,86641,5,0,0:0:0:0:
32,32,86641,5,0,0:0:0:0:
0,32,86641,5,0,0:0:0:0:
480,64,86783,5,0,0:0:0:0:
416,64,86784,5,0,0:0:0:0:
512,64,86784,5,0,0:0:0:0:
448,64,86784,5,0,0:0:0:0:
192,320,86926,5,0,0:0:0:0:
128,320,86927,5,0,0:0:0:0:
224,320,86927,5,0,0:0:0:0:
160,320,86927,5,0,0:0:0:0:
352,256,87069,5,0,0:0:0:0:
288,256,87070,5,0,0:0:0:0:
384,256,87070,5,0,0:0:0:0:
320,256,87070,5,0,0:0:0:0:
64,352,87086,2,0,L|96:192,1,162.5
512,352,87104,2,0,L|416:192,1,187.5
96,160,87283,5,0,0:0:0:0:
32,160,87284,5,0,0:0:0:0:
128,160,87284,5,0,0:0:0:0:
64,160,87284,5,0,0:0:0:0:
448,128,87425,5,0,0:0:0:0:
416,128,87426,5,0,0:0:0:0:
480,128,87426,5,0,0:0:0:0:
384,128,87426,5,0,0:0:0:0:
400,32,87497,5,0,0:0:0:0:
368,32,87498,5,0,0:0:0:0:
432,32,87498,5,0,0:0:0:0:
336,32,87498,5,0,0:0:0:0:
160,96,87640,5,0,0:0:0:0:
128,96,87641,5,0,0:0:0:0:
192,96,87641,5,0,0:0:0:0:
96,96,87641,5,0,0:0:0:0:
288,128,87783,5,0,0:0:0:0:
256,128,87784,5,0,0:0:0:0:
320,128,87784,5,0,0:0:0:0:
224,128,87784,5,0,0:0:0:0:
224,320,87926,1,0,0:0:0:0:
288,320,87926,1,0,0:0:0:0:
192,320,87926,1,0,0:0:0:0:
320,320,87926,1,0,0:0:0:0:
256,320,87926,1,0,0:0:0:0:
512,320,87926,1,0,0:0:0:0:
0,320,87926,1,0,0:0:0:0:
160,320,87926,1,0,0:0:0:0:
352,320,87926,1,0,0:0:0:0:
512,320,87961,1,0,0:0:0:0:
0,320,87961,1,0,0:0:0:0:
160,320,87961,1,0,0:0:0:0:
352,320,87961,1,0,0:0:0:0:
192,288,87997,1,0,0:0:0:0:
320,288,87997,1,0,0:0:0:0:
480,288,87997,1,0,0:0:0:0:
32,288,87997,1,0,0:0:0:0:
480,288,88032,1,0,0:0:0:0:
32,288,88032,1,0,0:0:0:0:
192,288,88032,1,0,0:0:0:0:
320,288,88032,1,0,0:0:0:0:
448,256,88069,1,0,0:0:0:0:
64,256,88069,1,0,0:0:0:0:
224,256,88069,1,0,0:0:0:0:
288,256,88069,1,0,0:0:0:0:
448,256,88104,1,0,0:0:0:0:
64,256,88104,1,0,0:0:0:0:
224,256,88104,1,0,0:0:0:0:
288,256,88104,1,0,0:0:0:0:
256,224,88140,1,0,0:0:0:0:
416,224,88140,1,0,0:0:0:0:
96,224,88140,1,0,0:0:0:0:
96,224,88175,1,0,0:0:0:0:
416,224,88175,1,0,0:0:0:0:
256,224,88175,1,0,0:0:0:0:
384,192,88211,1,0,0:0:0:0:
128,192,88211,1,0,0:0:0:0:
384,192,88246,1,0,0:0:0:0:
128,192,88246,1,0,0:0:0:0:
352,160,88283,1,0,0:0:0:0:
160,160,88283,1,0,0:0:0:0:
160,160,88318,1,0,0:0:0:0:
352,160,88318,1,0,0:0:0:0:
384,128,88354,1,0,0:0:0:0:
128,128,88354,1,0,0:0:0:0:
384,128,88389,1,0,0:0:0:0:
128,128,88389,1,0,0:0:0:0:
256,96,88426,1,0,0:0:0:0:
416,96,88426,1,0,0:0:0:0:
96,96,88426,1,0,0:0:0:0:
96,96,88461,1,0,0:0:0:0:
416,96,88461,1,0,0:0:0:0:
256,96,88461,1,0,0:0:0:0:
448,64,88497,1,0,0:0:0:0:
64,64,88497,1,0,0:0:0:0:
224,64,88497,1,0,0:0:0:0:
288,64,88497,1,0,0:0:0:0:
448,64,88532,1,0,0:0:0:0:
64,64,88532,1,0,0:0:0:0:
224,64,88532,1,0,0:0:0:0:
288,64,88532,1,0,0:0:0:0:
192,384,88569,1,0,0:0:0:0:
320,384,88569,1,0,0:0:0:0:
480,384,88569,1,0,0:0:0:0:
32,384,88569,1,0,0:0:0:0:
480,384,88604,1,0,0:0:0:0:
32,384,88604,1,0,0:0:0:0:
192,384,88604,1,0,0:0:0:0:
320,384,88604,1,0,0:0:0:0:
160,352,88640,1,0,0:0:0:0:
352,352,88640,1,0,0:0:0:0:
512,352,88640,1,0,0:0:0:0:
0,352,88640,1,0,0:0:0:0:
160,352,88675,1,0,0:0:0:0:
352,352,88675,1,0,0:0:0:0:
512,352,88675,1,0,0:0:0:0:
0,352,88675,1,0,0:0:0:0:
480,320,88711,1,0,0:0:0:0:
32,320,88711,1,0,0:0:0:0:
192,320,88711,1,0,0:0:0:0:
320,320,88711,1,0,0:0:0:0:
192,320,88746,1,0,0:0:0:0:
320,320,88746,1,0,0:0:0:0:
480,320,88746,1,0,0:0:0:0:
32,320,88746,1,0,0:0:0:0:
224,288,88783,1,0,0:0:0:0:
288,288,88783,1,0,0:0:0:0:
448,288,88783,1,0,0:0:0:0:
64,288,88783,1,0,0:0:0:0:
224,288,88818,1,0,0:0:0:0:
288,288,88818,1,0,0:0:0:0:
448,288,88818,1,0,0:0:0:0:
64,288,88818,1,0,0:0:0:0:
416,256,88854,1,0,0:0:0:0:
96,256,88854,1,0,0:0:0:0:
256,256,88854,1,0,0:0:0:0:
256,256,88889,1,0,0:0:0:0:
96,256,88889,1,0,0:0:0:0:
416,256,88889,1,0,0:0:0:0:
384,224,88926,1,0,0:0:0:0:
128,224,88926,1,0,0:0:0:0:
384,224,88961,1,0,0:0:0:0:
128,224,88961,1,0,0:0:0:0:
160,192,88997,1,0,0:0:0:0:
352,192,88997,1,0,0:0:0:0:
352,192,89032,1,0,0:0:0:0:
160,192,89032,1,0,0:0:0:0:
160,224,89069,5,0,0:0:0:0:
96,224,89070,5,0,0:0:0:0:
192,224,89070,5,0,0:0:0:0:
64,224,89070,5,0,0:0:0:0:
128,224,89070,5,0,0:0:0:0:
416,224,89213,5,0,0:0:0:0:
352,224,89214,5,0,0:0:0:0:
448,224,89214,5,0,0:0:0:0:
320,224,89214,5,0,0:0:0:0:
384,224,89214,5,0,0:0:0:0:
416,224,89355,5,0,0:0:0:0:
352,224,89356,5,0,0:0:0:0:
448,224,89356,5,0,0:0:0:0:
320,224,89356,5,0,0:0:0:0:
384,224,89356,5,0,0:0:0:0:
384,320,89373,2,0,L|320:96,1,225
96,160,89570,5,0,0:0:0:0:
0,160,89571,5,0,0:0:0:0:
64,160,89571,5,0,0:0:0:0:
32,160,89571,5,0,0:0:0:0:
128,160,89571,5,0,0:0:0:0:
480,160,89784,5,0,0:0:0:0:
416,160,89785,5,0,0:0:0:0:
512,160,89785,5,0,0:0:0:0:
384,160,89785,5,0,0:0:0:0:
448,160,89785,5,0,0:0:0:0:
288,128,89998,5,0,0:0:0:0:
192,128,89999,5,0,0:0:0:0:
256,128,89999,5,0,0:0:0:0:
224,128,89999,5,0,0:0:0:0:
320,128,89999,5,0,0:0:0:0:
32,288,90016,2,0,L|160:96,1,225
384,64,90213,5,0,0:0:0:0:
288,64,90214,5,0,0:0:0:0:
352,64,90214,5,0,0:0:0:0:
320,64,90214,5,0,0:0:0:0:
416,64,90214,5,0,0:0:0:0:
416,96,90284,5,0,0:0:0:0:
352,96,90285,5,0,0:0:0:0:
448,96,90285,5,0,0:0:0:0:
320,96,90285,5,0,0:0:0:0:
384,96,90285,5,0,0:0:0:0:
96,64,90354,5,0,0:0:0:0:
0,64,90355,5,0,0:0:0:0:
64,64,90355,5,0,0:0:0:0:
32,64,90355,5,0,0:0:0:0:
128,64,90355,5,0,0:0:0:0:
192,192,90498,5,0,0:0:0:0:
96,192,90499,5,0,0:0:0:0:
224,192,90499,5,0,0:0:0:0:
64,192,90499,5,0,0:0:0:0:
352,288,90641,5,0,0:0:0:0:
160,288,90642,5,0,0:0:0:0:
384,288,90642,5,0,0:0:0:0:
192,288,90642,5,0,0:0:0:0:
480,320,90766,2,0,L|416:224,1,112.5
336,256,90855,5,0,0:0:0:0:
192,256,90856,5,0,0:0:0:0:
224,256,90856,5,0,0:0:0:0:
448,256,90856,5,0,0:0:0:0:
480,96,90997,5,0,0:0:0:0:
64,96,90998,5,0,0:0:0:0:
96,96,90998,5,0,0:0:0:0:
512,96,90998,5,0,0:0:0:0:
416,192,91034,2,0,L|352:96,1,112.5
288,160,91213,5,0,0:0:0:0:
320,160,91214,5,0,0:0:0:0:
160,160,91214,5,0,0:0:0:0:
128,160,91214,5,0,0:0:0:0:
384,96,91355,5,0,0:0:0:0:
416,96,91356,5,0,0:0:0:0:
256,96,91356,5,0,0:0:0:0:
224,96,91356,5,0,0:0:0:0:
224,224,91498,5,0,0:0:0:0:
160,224,91499,5,0,0:0:0:0:
192,224,91499,5,0,0:0:0:0:
256,224,91499,5,0,0:0:0:0:
480,320,91570,2,0,L|320:96,1,250
480,256,91641,5,0,0:0:0:0:
304,256,91642,5,0,0:0:0:0:
448,256,91642,5,0,0:0:0:0:
336,256,91642,5,0,0:0:0:0:
512,256,91642,5,0,0:0:0:0:
240,288,91855,5,0,0:0:0:0:
0,288,91856,5,0,0:0:0:0:
64,288,91856,5,0,0:0:0:0:
32,288,91856,5,0,0:0:0:0:
272,288,91856,5,0,0:0:0:0:
352,192,92070,5,0,0:0:0:0:
144,192,92071,5,0,0:0:0:0:
320,192,92071,5,0,0:0:0:0:
176,192,92071,5,0,0:0:0:0:
384,192,92071,5,0,0:0:0:0:
288,128,92141,5,0,0:0:0:0:
128,128,92142,5,0,0:0:0:0:
96,128,92142,5,0,0:0:0:0:
256,128,92142,5,0,0:0:0:0:
480,288,92283,5,0,0:0:0:0:
416,288,92284,5,0,0:0:0:0:
448,288,92284,5,0,0:0:0:0:
384,288,92284,5,0,0:0:0:0:
512,288,92284,5,0,0:0:0:0:
160,256,92354,5,0,0:0:0:0:
192,256,92355,5,0,0:0:0:0:
128,256,92355,5,0,0:0:0:0:
32,160,92428,5,0,0:0:0:0:
0,160,92428,5,0,0:0:0:0:
416,256,92497,5,0,0:0:0:0:
448,256,92498,5,0,0:0:0:0:
224,256,92498,5,0,0:0:0:0:
192,256,92498,5,0,0:0:0:0:
192,192,92640,5,0,0:0:0:0:
224,192,92641,5,0,0:0:0:0:
64,192,92641,5,0,0:0:0:0:
96,192,92641,5,0,0:0:0:0:
448,224,92713,5,0,0:0:0:0:
480,224,92714,5,0,0:0:0:0:
320,224,92714,5,0,0:0:0:0:
352,224,92714,5,0,0:0:0:0:
96,288,92730,2,0,L|192:160,1,150
384,320,92783,5,0,0:0:0:0:
416,320,92784,5,0,0:0:0:0:
128,320,92784,5,0,0:0:0:0:
160,320,92784,5,0,0:0:0:0:
352,320,92855,2,0,L|512:160,1,200
480,96,92926,5,0,0:0:0:0:
96,96,92927,5,0,0:0:0:0:
64,96,92927,5,0,0:0:0:0:
512,96,92927,5,0,0:0:0:0:
384,32,93140,5,0,0:0:0:0:
192,32,93141,5,0,0:0:0:0:
160,32,93141,5,0,0:0:0:0:
416,32,93141,5,0,0:0:0:0:
256,96,93284,5,0,0:0:0:0:
288,96,93284,5,0,0:0:0:0:
224,96,93285,5,0,0:0:0:0:
480,288,93427,2,0,L|416:128,1,162.5
416,160,93498,5,0,0:0:0:0:
384,160,93498,5,0,0:0:0:0:
352,160,93499,5,0,0:0:0:0:
32,256,93570,2,0,L|128:64,1,200
128,192,93641,5,0,0:0:0:0:
160,192,93641,5,0,0:0:0:0:
96,192,93642,5,0,0:0:0:0:
320,288,93784,5,0,0:0:0:0:
32,288,93785,5,0,0:0:0:0:
0,288,93785,5,0,0:0:0:0:
64,288,93785,5,0,0:0:0:0:
352,288,93785,5,0,0:0:0:0:
480,288,93927,5,0,0:0:0:0:
144,288,93928,5,0,0:0:0:0:
112,288,93928,5,0,0:0:0:0:
448,288,93928,5,0,0:0:0:0:
512,288,93928,5,0,0:0:0:0:
432,192,94071,5,0,0:0:0:0:
464,192,94071,5,0,0:0:0:0:
128,224,94140,5,0,0:0:0:0:
320,224,94141,5,0,0:0:0:0:
160,224,94141,5,0,0:0:0:0:
288,224,94141,5,0,0:0:0:0:
256,224,94141,5,0,0:0:0:0:
96,96,94354,5,0,0:0:0:0:
64,96,94355,5,0,0:0:0:0:
128,96,94355,5,0,0:0:0:0:
32,96,94355,5,0,0:0:0:0:
0,96,94355,5,0,0:0:0:0:
384,160,94498,5,0,0:0:0:0:
320,160,94499,5,0,0:0:0:0:
288,160,94499,5,0,0:0:0:0:
352,160,94499,5,0,0:0:0:0:
416,160,94499,5,0,0:0:0:0:
288,96,94642,5,0,0:0:0:0:
224,96,94642,5,0,0:0:0:0:
256,96,94642,5,0,0:0:0:0:
480,64,94783,5,0,0:0:0:0:
448,64,94784,5,0,0:0:0:0:
512,64,94784,5,0,0:0:0:0:
416,64,94784,5,0,0:0:0:0:
384,64,94784,5,0,0:0:0:0:
96,352,94927,5,0,0:0:0:0:
32,352,94928,5,0,0:0:0:0:
64,352,94928,5,0,0:0:0:0:
128,352,94928,5,0,0:0:0:0:
224,320,94998,5,0,0:0:0:0:
256,320,94999,5,0,0:0:0:0:
192,320,94999,5,0,0:0:0:0:
160,320,94999,5,0,0:0:0:0:
480,288,95069,5,0,0:0:0:0:
512,288,95070,5,0,0:0:0:0:
32,288,95070,5,0,0:0:0:0:
0,288,95070,5,0,0:0:0:0:
256,320,95088,2,0,L|32:96,1,312.5
384,256,95212,5,0,0:0:0:0:
128,256,95213,5,0,0:0:0:0:
416,256,95213,5,0,0:0:0:0:
96,256,95213,5,0,0:0:0:0:
416,320,95302,2,0,L|480:128,1,200
352,128,95427,5,0,0:0:0:0:
288,128,95428,5,0,0:0:0:0:
320,128,95428,5,0,0:0:0:0:
384,128,95428,5,0,0:0:0:0:
448,192,95497,5,0,0:0:0:0:
192,192,95498,5,0,0:0:0:0:
224,192,95498,5,0,0:0:0:0:
480,192,95498,5,0,0:0:0:0:
96,96,95641,5,0,0:0:0:0:
128,96,95642,5,0,0:0:0:0:
64,96,95642,5,0,0:0:0:0:
32,96,95642,5,0,0:0:0:0:
256,32,95784,5,0,0:0:0:0:
288,32,95785,5,0,0:0:0:0:
32,32,95785,5,0,0:0:0:0:
0,32,95785,5,0,0:0:0:0:
480,64,95927,5,0,0:0:0:0:
448,64,95928,5,0,0:0:0:0:
512,64,95928,5,0,0:0:0:0:
416,64,95928,5,0,0:0:0:0:
192,320,96070,5,0,0:0:0:0:
128,320,96071,5,0,0:0:0:0:
224,320,96071,5,0,0:0:0:0:
160,320,96071,5,0,0:0:0:0:
352,256,96213,5,0,0:0:0:0:
320,256,96214,5,0,0:0:0:0:
384,256,96214,5,0,0:0:0:0:
288,256,96214,5,0,0:0:0:0:
64,352,96230,2,0,L|96:192,1,162.5
512,352,96248,2,0,L|416:192,1,187.5
96,160,96427,5,0,0:0:0:0:
32,160,96428,5,0,0:0:0:0:
128,160,96428,5,0,0:0:0:0:
64,160,96428,5,0,0:0:0:0:
448,128,96569,5,0,0:0:0:0:
384,128,96570,5,0,0:0:0:0:
480,128,96570,5,0,0:0:0:0:
416,128,96570,5,0,0:0:0:0:
400,32,96641,5,0,0:0:0:0:
368,32,96642,5,0,0:0:0:0:
432,32,96642,5,0,0:0:0:0:
336,32,96642,5,0,0:0:0:0:
160,96,96784,5,0,0:0:0:0:
96,96,96785,5,0,0:0:0:0:
192,96,96785,5,0,0:0:0:0:
128,96,96785,5,0,0:0:0:0:
288,128,96927,5,0,0:0:0:0:
224,128,96928,5,0,0:0:0:0:
320,128,96928,5,0,0:0:0:0:
256,128,96928,5,0,0:0:0:0:
128,32,97068,5,0,0:0:0:0:
480,32,97068,5,0,0:0:0:0:
32,32,97069,5,0,0:0:0:0:
96,32,97069,5,0,0:0:0:0:
160,32,97069,5,0,0:0:0:0:
512,32,97069,5,0,0:0:0:0:
448,32,97069,5,0,0:0:0:0:
384,32,97069,5,0,0:0:0:0:
160,56,97069,1,0,0:0:0:0:
336,56,97069,1,0,0:0:0:0:
64,32,97070,5,0,0:0:0:0:
0,32,97070,5,0,0:0:0:0:
352,32,97070,5,0,0:0:0:0:
416,32,97070,5,0,0:0:0:0:
171,78,97104,1,0,0:0:0:0:
347,78,97104,1,0,0:0:0:0:
187,97,97140,1,0,0:0:0:0:
363,97,97140,1,0,0:0:0:0:
204,115,97176,1,0,0:0:0:0:
380,115,97176,1,0,0:0:0:0:
223,132,97211,1,0,0:0:0:0:
399,132,97211,1,0,0:0:0:0:
242,147,97247,1,0,0:0:0:0:
418,147,97247,1,0,0:0:0:0:
262,163,97283,1,0,0:0:0:0:
438,163,97283,1,0,0:0:0:0:
282,177,97319,1,0,0:0:0:0:
458,177,97319,1,0,0:0:0:0:
278,187,97354,1,0,0:0:0:0:
454,187,97354,1,0,0:0:0:0:
254,194,97390,1,0,0:0:0:0:
430,194,97390,1,0,0:0:0:0:
231,205,97426,1,0,0:0:0:0:
407,205,97426,1,0,0:0:0:0:
210,218,97461,1,0,0:0:0:0:
386,218,97461,1,0,0:0:0:0:
191,234,97497,1,0,0:0:0:0:
367,234,97497,1,0,0:0:0:0:
174,252,97533,1,0,0:0:0:0:
350,252,97533,1,0,0:0:0:0:
160,273,97569,1,0,0:0:0:0:
336,273,97569,1,0,0:0:0:0:
149,295,97604,1,0,0:0:0:0:
325,295,97604,1,0,0:0:0:0:
140,318,97640,1,0,0:0:0:0:
316,318,97640,1,0,0:0:0:0:
296,352,97676,1,0,0:0:0:0:
144,360,97676,1,0,0:0:0:0:
274,339,97711,1,0,0:0:0:0:
122,347,97711,1,0,0:0:0:0:
254,323,97747,1,0,0:0:0:0:
102,331,97747,1,0,0:0:0:0:
237,305,97783,1,0,0:0:0:0:
85,313,97783,1,0,0:0:0:0:
222,285,97818,1,0,0:0:0:0:
70,293,97818,1,0,0:0:0:0:
211,263,97854,1,0,0:0:0:0:
59,271,97854,1,0,0:0:0:0:
202,240,97890,1,0,0:0:0:0:
50,248,97890,1,0,0:0:0:0:
197,215,97926,1,0,0:0:0:0:
45,223,97926,1,0,0:0:0:0:
195,190,97961,1,0,0:0:0:0:
43,198,97961,1,0,0:0:0:0:
196,165,97997,1,0,0:0:0:0:
44,173,97997,1,0,0:0:0:0:
201,141,98033,1,0,0:0:0:0:
49,149,98033,1,0,0:0:0:0:
209,117,98068,1,0,0:0:0:0:
57,125,98068,1,0,0:0:0:0:
220,95,98104,1,0,0:0:0:0:
68,103,98104,1,0,0:0:0:0:
234,75,98140,1,0,0:0:0:0:
82,83,98140,1,0,0:0:0:0:
251,56,98176,1,0,0:0:0:0:
99,64,98176,1,0,0:0:0:0:
288,32,98209,5,0,0:0:0:0:
480,32,98209,5,0,0:0:0:0:
32,32,98210,5,0,0:0:0:0:
320,32,98210,5,0,0:0:0:0:
384,32,98210,5,0,0:0:0:0:
96,32,98210,5,0,0:0:0:0:
448,32,98210,5,0,0:0:0:0:
512,32,98210,5,0,0:0:0:0:
64,32,98211,5,0,0:0:0:0:
352,32,98211,5,0,0:0:0:0:
0,32,98211,5,0,0:0:0:0:
416,32,98211,5,0,0:0:0:0:
271,40,98211,1,0,0:0:0:0:
119,48,98211,1,0,0:0:0:0:
