osu file format v14

[General]
AudioFilename: maxlove.mp3
AudioLeadIn: 0
PreviewTime: 36435
Countdown: 0
SampleSet: Soft
StackLeniency: 0.7
Mode: 2
LetterboxInBreaks: 0
WidescreenStoryboard: 1

[Editor]
DistanceSpacing: 0.9
BeatDivisor: 16
GridSize: 32
TimelineZoom: 4.299998

[Metadata]
Title:[DTB] Bullet Hell Pack
TitleUnicode:[DTB] Bullet Hell Pack
Artist:Various Artists
ArtistUnicode:Various Artists
Creator:Staravia
Version:Max Love
Source:[[Score 10000 OR LESS]]
Tags:catch the beat ctb dodge avoid
BeatmapID:1284900
BeatmapSetID:608391

[Difficulty]
HPDrainRate:0
CircleSize:7
OverallDifficulty:10
ApproachRate:8
SliderMultiplier:1.4
SliderTickRate:2

[Events]
//Background and Video events
0,0,"max.jpg",0,0
//Break Periods
//Storyboard Layer 0 (Background)
//Storyboard Layer 1 (Fail)
//Storyboard Layer 2 (Pass)
//Storyboard Layer 3 (Foreground)
//Storyboard Sound Samples

[TimingPoints]
436,333.333333333333,4,2,0,22,1,0
17415,-50,4,2,0,22,0,0
37769,-100,4,2,0,22,0,1
48435,-100,4,2,0,22,0,0
59102,-100,4,2,0,22,0,1
72269,-100,4,2,0,22,0,0

[HitObjects]
64,192,436,5,0,0:0:0:0:
32,192,436,5,0,0:0:0:0:
448,192,436,5,0,0:0:0:0:
224,192,436,5,0,0:0:0:0:
416,192,436,5,0,0:0:0:0:
384,192,436,5,0,0:0:0:0:
320,192,437,5,0,0:0:0:0:
256,192,437,5,0,0:0:0:0:
288,192,437,5,0,0:0:0:0:
0,192,437,5,0,0:0:0:0:
512,192,437,5,0,0:0:0:0:
352,192,437,5,0,0:0:0:0:
480,192,437,5,0,0:0:0:0:
64,192,769,5,0,0:0:0:0:
32,192,769,5,0,0:0:0:0:
448,192,769,5,0,0:0:0:0:
224,192,769,5,0,0:0:0:0:
192,192,769,5,0,0:0:0:0:
96,192,769,5,0,0:0:0:0:
416,192,769,5,0,0:0:0:0:
256,192,770,5,0,0:0:0:0:
128,192,770,5,0,0:0:0:0:
160,192,770,5,0,0:0:0:0:
0,192,770,5,0,0:0:0:0:
512,192,770,5,0,0:0:0:0:
480,192,770,5,0,0:0:0:0:
64,192,1102,5,0,0:0:0:0:
32,192,1102,5,0,0:0:0:0:
448,192,1102,5,0,0:0:0:0:
224,192,1102,5,0,0:0:0:0:
192,192,1102,5,0,0:0:0:0:
96,192,1102,5,0,0:0:0:0:
416,192,1102,5,0,0:0:0:0:
256,192,1103,5,0,0:0:0:0:
128,192,1103,5,0,0:0:0:0:
160,192,1103,5,0,0:0:0:0:
0,192,1103,5,0,0:0:0:0:
512,192,1103,5,0,0:0:0:0:
480,192,1103,5,0,0:0:0:0:
224,192,1435,5,0,0:0:0:0:
416,192,1435,5,0,0:0:0:0:
384,192,1435,5,0,0:0:0:0:
64,192,1435,5,0,0:0:0:0:
32,192,1435,5,0,0:0:0:0:
448,192,1435,5,0,0:0:0:0:
512,192,1436,5,0,0:0:0:0:
352,192,1436,5,0,0:0:0:0:
480,192,1436,5,0,0:0:0:0:
0,192,1436,5,0,0:0:0:0:
320,192,1436,5,0,0:0:0:0:
256,192,1436,5,0,0:0:0:0:
288,192,1436,5,0,0:0:0:0:
448,192,1769,5,0,0:0:0:0:
224,192,1769,5,0,0:0:0:0:
192,192,1769,5,0,0:0:0:0:
416,192,1769,5,0,0:0:0:0:
384,192,1769,5,0,0:0:0:0:
320,192,1770,5,0,0:0:0:0:
256,192,1770,5,0,0:0:0:0:
160,192,1770,5,0,0:0:0:0:
288,192,1770,5,0,0:0:0:0:
0,192,1770,5,0,0:0:0:0:
512,192,1770,5,0,0:0:0:0:
352,192,1770,5,0,0:0:0:0:
480,192,1770,5,0,0:0:0:0:
192,192,2102,5,0,0:0:0:0:
96,192,2102,5,0,0:0:0:0:
416,192,2102,5,0,0:0:0:0:
224,192,2102,5,0,0:0:0:0:
64,192,2102,5,0,0:0:0:0:
32,192,2102,5,0,0:0:0:0:
448,192,2102,5,0,0:0:0:0:
0,192,2103,5,0,0:0:0:0:
512,192,2103,5,0,0:0:0:0:
480,192,2103,5,0,0:0:0:0:
256,192,2103,5,0,0:0:0:0:
128,192,2103,5,0,0:0:0:0:
160,192,2103,5,0,0:0:0:0:
64,192,2435,5,0,0:0:0:0:
32,192,2435,5,0,0:0:0:0:
448,192,2435,5,0,0:0:0:0:
96,192,2435,5,0,0:0:0:0:
416,192,2435,5,0,0:0:0:0:
384,192,2435,5,0,0:0:0:0:
320,192,2436,5,0,0:0:0:0:
128,192,2436,5,0,0:0:0:0:
160,192,2436,5,0,0:0:0:0:
0,192,2436,5,0,0:0:0:0:
512,192,2436,5,0,0:0:0:0:
352,192,2436,5,0,0:0:0:0:
480,192,2436,5,0,0:0:0:0:
64,192,2769,5,0,0:0:0:0:
32,192,2769,5,0,0:0:0:0:
448,192,2769,5,0,0:0:0:0:
224,192,2769,5,0,0:0:0:0:
416,192,2769,5,0,0:0:0:0:
384,192,2769,5,0,0:0:0:0:
320,192,2770,5,0,0:0:0:0:
256,192,2770,5,0,0:0:0:0:
288,192,2770,5,0,0:0:0:0:
0,192,2770,5,0,0:0:0:0:
512,192,2770,5,0,0:0:0:0:
352,192,2770,5,0,0:0:0:0:
480,192,2770,5,0,0:0:0:0:
96,192,3102,5,0,0:0:0:0:
192,192,3102,5,0,0:0:0:0:
32,192,3102,5,0,0:0:0:0:
64,192,3102,5,0,0:0:0:0:
224,192,3102,5,0,0:0:0:0:
512,192,3103,5,0,0:0:0:0:
0,192,3103,5,0,0:0:0:0:
352,192,3103,5,0,0:0:0:0:
288,192,3103,5,0,0:0:0:0:
256,192,3103,5,0,0:0:0:0:
320,192,3103,5,0,0:0:0:0:
160,192,3103,5,0,0:0:0:0:
128,192,3103,5,0,0:0:0:0:
64,192,3435,5,0,0:0:0:0:
32,192,3435,5,0,0:0:0:0:
448,192,3435,5,0,0:0:0:0:
224,192,3435,5,0,0:0:0:0:
192,192,3435,5,0,0:0:0:0:
96,192,3435,5,0,0:0:0:0:
416,192,3435,5,0,0:0:0:0:
256,192,3436,5,0,0:0:0:0:
128,192,3436,5,0,0:0:0:0:
160,192,3436,5,0,0:0:0:0:
0,192,3436,5,0,0:0:0:0:
512,192,3436,5,0,0:0:0:0:
480,192,3436,5,0,0:0:0:0:
96,192,3768,5,0,0:0:0:0:
192,192,3768,5,0,0:0:0:0:
384,192,3768,5,0,0:0:0:0:
416,192,3768,5,0,0:0:0:0:
32,192,3768,5,0,0:0:0:0:
224,192,3768,5,0,0:0:0:0:
448,192,3768,5,0,0:0:0:0:
64,192,3768,5,0,0:0:0:0:
512,192,3769,5,0,0:0:0:0:
0,192,3769,5,0,0:0:0:0:
480,192,3769,5,0,0:0:0:0:
160,192,3769,5,0,0:0:0:0:
128,192,3769,5,0,0:0:0:0:
448,192,4102,5,0,0:0:0:0:
224,192,4102,5,0,0:0:0:0:
192,192,4102,5,0,0:0:0:0:
416,192,4102,5,0,0:0:0:0:
384,192,4102,5,0,0:0:0:0:
320,192,4103,5,0,0:0:0:0:
256,192,4103,5,0,0:0:0:0:
160,192,4103,5,0,0:0:0:0:
288,192,4103,5,0,0:0:0:0:
0,192,4103,5,0,0:0:0:0:
512,192,4103,5,0,0:0:0:0:
352,192,4103,5,0,0:0:0:0:
480,192,4103,5,0,0:0:0:0:
416,192,4435,5,0,0:0:0:0:
384,192,4435,5,0,0:0:0:0:
192,192,4435,5,0,0:0:0:0:
448,192,4435,5,0,0:0:0:0:
224,192,4435,5,0,0:0:0:0:
512,192,4436,5,0,0:0:0:0:
0,192,4436,5,0,0:0:0:0:
480,192,4436,5,0,0:0:0:0:
352,192,4436,5,0,0:0:0:0:
256,192,4436,5,0,0:0:0:0:
320,192,4436,5,0,0:0:0:0:
288,192,4436,5,0,0:0:0:0:
160,192,4436,5,0,0:0:0:0:
64,192,4768,5,0,0:0:0:0:
32,192,4768,5,0,0:0:0:0:
448,192,4768,5,0,0:0:0:0:
96,192,4768,5,0,0:0:0:0:
416,192,4768,5,0,0:0:0:0:
384,192,4768,5,0,0:0:0:0:
320,192,4769,5,0,0:0:0:0:
128,192,4769,5,0,0:0:0:0:
160,192,4769,5,0,0:0:0:0:
0,192,4769,5,0,0:0:0:0:
512,192,4769,5,0,0:0:0:0:
352,192,4769,5,0,0:0:0:0:
480,192,4769,5,0,0:0:0:0:
448,192,5102,5,0,0:0:0:0:
224,192,5102,5,0,0:0:0:0:
192,192,5102,5,0,0:0:0:0:
416,192,5102,5,0,0:0:0:0:
384,192,5102,5,0,0:0:0:0:
320,192,5103,5,0,0:0:0:0:
256,192,5103,5,0,0:0:0:0:
160,192,5103,5,0,0:0:0:0:
288,192,5103,5,0,0:0:0:0:
0,192,5103,5,0,0:0:0:0:
512,192,5103,5,0,0:0:0:0:
352,192,5103,5,0,0:0:0:0:
480,192,5103,5,0,0:0:0:0:
96,192,5435,5,0,0:0:0:0:
192,192,5435,5,0,0:0:0:0:
32,192,5435,5,0,0:0:0:0:
64,192,5435,5,0,0:0:0:0:
224,192,5435,5,0,0:0:0:0:
512,192,5436,5,0,0:0:0:0:
0,192,5436,5,0,0:0:0:0:
352,192,5436,5,0,0:0:0:0:
288,192,5436,5,0,0:0:0:0:
256,192,5436,5,0,0:0:0:0:
320,192,5436,5,0,0:0:0:0:
160,192,5436,5,0,0:0:0:0:
128,192,5436,5,0,0:0:0:0:
96,192,5769,5,0,0:0:0:0:
416,192,5769,5,0,0:0:0:0:
384,192,5769,5,0,0:0:0:0:
64,192,5769,5,0,0:0:0:0:
32,192,5769,5,0,0:0:0:0:
448,192,5769,5,0,0:0:0:0:
512,192,5770,5,0,0:0:0:0:
352,192,5770,5,0,0:0:0:0:
480,192,5770,5,0,0:0:0:0:
0,192,5770,5,0,0:0:0:0:
320,192,5770,5,0,0:0:0:0:
128,192,5770,5,0,0:0:0:0:
160,192,5770,5,0,0:0:0:0:
96,192,6101,5,0,0:0:0:0:
192,192,6101,5,0,0:0:0:0:
384,192,6101,5,0,0:0:0:0:
416,192,6101,5,0,0:0:0:0:
32,192,6101,5,0,0:0:0:0:
224,192,6101,5,0,0:0:0:0:
448,192,6101,5,0,0:0:0:0:
64,192,6101,5,0,0:0:0:0:
512,192,6102,5,0,0:0:0:0:
0,192,6102,5,0,0:0:0:0:
480,192,6102,5,0,0:0:0:0:
160,192,6102,5,0,0:0:0:0:
128,192,6102,5,0,0:0:0:0:
64,192,6435,5,0,0:0:0:0:
224,192,6435,5,0,0:0:0:0:
32,192,6435,5,0,0:0:0:0:
448,192,6435,5,0,0:0:0:0:
416,192,6435,5,0,0:0:0:0:
384,192,6435,5,0,0:0:0:0:
320,192,6436,5,0,0:0:0:0:
256,192,6436,5,0,0:0:0:0:
288,192,6436,5,0,0:0:0:0:
0,192,6436,5,0,0:0:0:0:
512,192,6436,5,0,0:0:0:0:
352,192,6436,5,0,0:0:0:0:
480,192,6436,5,0,0:0:0:0:
64,192,6768,5,0,0:0:0:0:
32,192,6768,5,0,0:0:0:0:
448,192,6768,5,0,0:0:0:0:
224,192,6768,5,0,0:0:0:0:
192,192,6768,5,0,0:0:0:0:
96,192,6768,5,0,0:0:0:0:
416,192,6768,5,0,0:0:0:0:
256,192,6769,5,0,0:0:0:0:
128,192,6769,5,0,0:0:0:0:
160,192,6769,5,0,0:0:0:0:
0,192,6769,5,0,0:0:0:0:
512,192,6769,5,0,0:0:0:0:
480,192,6769,5,0,0:0:0:0:
64,192,7101,5,0,0:0:0:0:
32,192,7101,5,0,0:0:0:0:
448,192,7101,5,0,0:0:0:0:
224,192,7101,5,0,0:0:0:0:
192,192,7101,5,0,0:0:0:0:
96,192,7101,5,0,0:0:0:0:
416,192,7101,5,0,0:0:0:0:
256,192,7102,5,0,0:0:0:0:
128,192,7102,5,0,0:0:0:0:
160,192,7102,5,0,0:0:0:0:
0,192,7102,5,0,0:0:0:0:
512,192,7102,5,0,0:0:0:0:
480,192,7102,5,0,0:0:0:0:
224,192,7434,5,0,0:0:0:0:
416,192,7434,5,0,0:0:0:0:
384,192,7434,5,0,0:0:0:0:
64,192,7434,5,0,0:0:0:0:
32,192,7434,5,0,0:0:0:0:
448,192,7434,5,0,0:0:0:0:
512,192,7435,5,0,0:0:0:0:
352,192,7435,5,0,0:0:0:0:
480,192,7435,5,0,0:0:0:0:
0,192,7435,5,0,0:0:0:0:
320,192,7435,5,0,0:0:0:0:
256,192,7435,5,0,0:0:0:0:
288,192,7435,5,0,0:0:0:0:
448,192,7768,5,0,0:0:0:0:
224,192,7768,5,0,0:0:0:0:
192,192,7768,5,0,0:0:0:0:
416,192,7768,5,0,0:0:0:0:
384,192,7768,5,0,0:0:0:0:
320,192,7769,5,0,0:0:0:0:
256,192,7769,5,0,0:0:0:0:
160,192,7769,5,0,0:0:0:0:
288,192,7769,5,0,0:0:0:0:
0,192,7769,5,0,0:0:0:0:
512,192,7769,5,0,0:0:0:0:
352,192,7769,5,0,0:0:0:0:
480,192,7769,5,0,0:0:0:0:
192,192,8101,5,0,0:0:0:0:
96,192,8101,5,0,0:0:0:0:
416,192,8101,5,0,0:0:0:0:
224,192,8101,5,0,0:0:0:0:
64,192,8101,5,0,0:0:0:0:
32,192,8101,5,0,0:0:0:0:
448,192,8101,5,0,0:0:0:0:
0,192,8102,5,0,0:0:0:0:
512,192,8102,5,0,0:0:0:0:
480,192,8102,5,0,0:0:0:0:
256,192,8102,5,0,0:0:0:0:
128,192,8102,5,0,0:0:0:0:
160,192,8102,5,0,0:0:0:0:
64,192,8434,5,0,0:0:0:0:
32,192,8434,5,0,0:0:0:0:
448,192,8434,5,0,0:0:0:0:
96,192,8434,5,0,0:0:0:0:
416,192,8434,5,0,0:0:0:0:
384,192,8434,5,0,0:0:0:0:
320,192,8435,5,0,0:0:0:0:
128,192,8435,5,0,0:0:0:0:
160,192,8435,5,0,0:0:0:0:
0,192,8435,5,0,0:0:0:0:
512,192,8435,5,0,0:0:0:0:
352,192,8435,5,0,0:0:0:0:
480,192,8435,5,0,0:0:0:0:
64,192,8768,5,0,0:0:0:0:
32,192,8768,5,0,0:0:0:0:
448,192,8768,5,0,0:0:0:0:
224,192,8768,5,0,0:0:0:0:
416,192,8768,5,0,0:0:0:0:
384,192,8768,5,0,0:0:0:0:
320,192,8769,5,0,0:0:0:0:
256,192,8769,5,0,0:0:0:0:
288,192,8769,5,0,0:0:0:0:
0,192,8769,5,0,0:0:0:0:
512,192,8769,5,0,0:0:0:0:
352,192,8769,5,0,0:0:0:0:
480,192,8769,5,0,0:0:0:0:
96,192,9101,5,0,0:0:0:0:
192,192,9101,5,0,0:0:0:0:
32,192,9101,5,0,0:0:0:0:
64,192,9101,5,0,0:0:0:0:
224,192,9101,5,0,0:0:0:0:
512,192,9102,5,0,0:0:0:0:
0,192,9102,5,0,0:0:0:0:
352,192,9102,5,0,0:0:0:0:
288,192,9102,5,0,0:0:0:0:
256,192,9102,5,0,0:0:0:0:
320,192,9102,5,0,0:0:0:0:
160,192,9102,5,0,0:0:0:0:
128,192,9102,5,0,0:0:0:0:
64,192,9434,5,0,0:0:0:0:
32,192,9434,5,0,0:0:0:0:
448,192,9434,5,0,0:0:0:0:
224,192,9434,5,0,0:0:0:0:
192,192,9434,5,0,0:0:0:0:
96,192,9434,5,0,0:0:0:0:
416,192,9434,5,0,0:0:0:0:
256,192,9435,5,0,0:0:0:0:
128,192,9435,5,0,0:0:0:0:
160,192,9435,5,0,0:0:0:0:
0,192,9435,5,0,0:0:0:0:
512,192,9435,5,0,0:0:0:0:
480,192,9435,5,0,0:0:0:0:
96,192,9767,5,0,0:0:0:0:
192,192,9767,5,0,0:0:0:0:
384,192,9767,5,0,0:0:0:0:
416,192,9767,5,0,0:0:0:0:
32,192,9767,5,0,0:0:0:0:
224,192,9767,5,0,0:0:0:0:
448,192,9767,5,0,0:0:0:0:
64,192,9767,5,0,0:0:0:0:
512,192,9768,5,0,0:0:0:0:
0,192,9768,5,0,0:0:0:0:
480,192,9768,5,0,0:0:0:0:
160,192,9768,5,0,0:0:0:0:
128,192,9768,5,0,0:0:0:0:
448,192,10101,5,0,0:0:0:0:
224,192,10101,5,0,0:0:0:0:
192,192,10101,5,0,0:0:0:0:
416,192,10101,5,0,0:0:0:0:
384,192,10101,5,0,0:0:0:0:
320,192,10102,5,0,0:0:0:0:
256,192,10102,5,0,0:0:0:0:
160,192,10102,5,0,0:0:0:0:
288,192,10102,5,0,0:0:0:0:
0,192,10102,5,0,0:0:0:0:
512,192,10102,5,0,0:0:0:0:
352,192,10102,5,0,0:0:0:0:
480,192,10102,5,0,0:0:0:0:
64,192,10434,5,0,0:0:0:0:
32,192,10434,5,0,0:0:0:0:
448,192,10434,5,0,0:0:0:0:
96,192,10434,5,0,0:0:0:0:
416,192,10434,5,0,0:0:0:0:
384,192,10434,5,0,0:0:0:0:
320,192,10435,5,0,0:0:0:0:
128,192,10435,5,0,0:0:0:0:
160,192,10435,5,0,0:0:0:0:
0,192,10435,5,0,0:0:0:0:
512,192,10435,5,0,0:0:0:0:
352,192,10435,5,0,0:0:0:0:
480,192,10435,5,0,0:0:0:0:
448,192,10768,5,0,0:0:0:0:
224,192,10768,5,0,0:0:0:0:
192,192,10768,5,0,0:0:0:0:
416,192,10768,5,0,0:0:0:0:
384,192,10768,5,0,0:0:0:0:
256,192,10769,5,0,0:0:0:0:
160,192,10769,5,0,0:0:0:0:
288,192,10769,5,0,0:0:0:0:
0,192,10769,5,0,0:0:0:0:
512,192,10769,5,0,0:0:0:0:
352,192,10769,5,0,0:0:0:0:
480,192,10769,5,0,0:0:0:0:
320,192,10769,5,0,0:0:0:0:
480,192,10769,5,0,0:0:0:0:
448,192,10769,5,0,0:0:0:0:
96,192,11101,5,0,0:0:0:0:
192,192,11101,5,0,0:0:0:0:
32,192,11101,5,0,0:0:0:0:
64,192,11101,5,0,0:0:0:0:
224,192,11101,5,0,0:0:0:0:
512,192,11102,5,0,0:0:0:0:
0,192,11102,5,0,0:0:0:0:
352,192,11102,5,0,0:0:0:0:
288,192,11102,5,0,0:0:0:0:
256,192,11102,5,0,0:0:0:0:
320,192,11102,5,0,0:0:0:0:
160,192,11102,5,0,0:0:0:0:
128,192,11102,5,0,0:0:0:0:
96,192,11434,5,0,0:0:0:0:
416,192,11434,5,0,0:0:0:0:
384,192,11434,5,0,0:0:0:0:
64,192,11434,5,0,0:0:0:0:
32,192,11434,5,0,0:0:0:0:
448,192,11434,5,0,0:0:0:0:
512,192,11435,5,0,0:0:0:0:
352,192,11435,5,0,0:0:0:0:
480,192,11435,5,0,0:0:0:0:
0,192,11435,5,0,0:0:0:0:
320,192,11435,5,0,0:0:0:0:
128,192,11435,5,0,0:0:0:0:
160,192,11435,5,0,0:0:0:0:
416,192,11768,5,0,0:0:0:0:
384,192,11768,5,0,0:0:0:0:
192,192,11768,5,0,0:0:0:0:
448,192,11768,5,0,0:0:0:0:
224,192,11768,5,0,0:0:0:0:
512,192,11769,5,0,0:0:0:0:
0,192,11769,5,0,0:0:0:0:
480,192,11769,5,0,0:0:0:0:
352,192,11769,5,0,0:0:0:0:
256,192,11769,5,0,0:0:0:0:
320,192,11769,5,0,0:0:0:0:
288,192,11769,5,0,0:0:0:0:
160,192,11769,5,0,0:0:0:0:
96,192,12100,5,0,0:0:0:0:
192,192,12100,5,0,0:0:0:0:
384,192,12100,5,0,0:0:0:0:
416,192,12100,5,0,0:0:0:0:
32,192,12100,5,0,0:0:0:0:
224,192,12100,5,0,0:0:0:0:
448,192,12100,5,0,0:0:0:0:
64,192,12100,5,0,0:0:0:0:
512,192,12101,5,0,0:0:0:0:
0,192,12101,5,0,0:0:0:0:
480,192,12101,5,0,0:0:0:0:
160,192,12101,5,0,0:0:0:0:
128,192,12101,5,0,0:0:0:0:
416,192,12434,5,0,0:0:0:0:
384,192,12434,5,0,0:0:0:0:
192,192,12434,5,0,0:0:0:0:
448,192,12434,5,0,0:0:0:0:
224,192,12434,5,0,0:0:0:0:
512,192,12435,5,0,0:0:0:0:
0,192,12435,5,0,0:0:0:0:
480,192,12435,5,0,0:0:0:0:
352,192,12435,5,0,0:0:0:0:
256,192,12435,5,0,0:0:0:0:
320,192,12435,5,0,0:0:0:0:
288,192,12435,5,0,0:0:0:0:
160,192,12435,5,0,0:0:0:0:
128,192,12435,5,0,0:0:0:0:
64,192,12769,5,0,0:0:0:0:
32,192,12769,5,0,0:0:0:0:
448,192,12769,5,0,0:0:0:0:
224,192,12769,5,0,0:0:0:0:
416,192,12769,5,0,0:0:0:0:
384,192,12769,5,0,0:0:0:0:
320,192,12770,5,0,0:0:0:0:
256,192,12770,5,0,0:0:0:0:
288,192,12770,5,0,0:0:0:0:
0,192,12770,5,0,0:0:0:0:
512,192,12770,5,0,0:0:0:0:
352,192,12770,5,0,0:0:0:0:
480,192,12770,5,0,0:0:0:0:
64,192,13102,5,0,0:0:0:0:
32,192,13102,5,0,0:0:0:0:
448,192,13102,5,0,0:0:0:0:
224,192,13102,5,0,0:0:0:0:
192,192,13102,5,0,0:0:0:0:
96,192,13102,5,0,0:0:0:0:
416,192,13102,5,0,0:0:0:0:
256,192,13103,5,0,0:0:0:0:
128,192,13103,5,0,0:0:0:0:
160,192,13103,5,0,0:0:0:0:
0,192,13103,5,0,0:0:0:0:
512,192,13103,5,0,0:0:0:0:
480,192,13103,5,0,0:0:0:0:
64,192,13435,5,0,0:0:0:0:
32,192,13435,5,0,0:0:0:0:
448,192,13435,5,0,0:0:0:0:
224,192,13435,5,0,0:0:0:0:
192,192,13435,5,0,0:0:0:0:
96,192,13435,5,0,0:0:0:0:
416,192,13435,5,0,0:0:0:0:
256,192,13436,5,0,0:0:0:0:
128,192,13436,5,0,0:0:0:0:
160,192,13436,5,0,0:0:0:0:
0,192,13436,5,0,0:0:0:0:
512,192,13436,5,0,0:0:0:0:
480,192,13436,5,0,0:0:0:0:
224,192,13768,5,0,0:0:0:0:
416,192,13768,5,0,0:0:0:0:
384,192,13768,5,0,0:0:0:0:
64,192,13768,5,0,0:0:0:0:
32,192,13768,5,0,0:0:0:0:
448,192,13768,5,0,0:0:0:0:
512,192,13769,5,0,0:0:0:0:
352,192,13769,5,0,0:0:0:0:
480,192,13769,5,0,0:0:0:0:
0,192,13769,5,0,0:0:0:0:
320,192,13769,5,0,0:0:0:0:
256,192,13769,5,0,0:0:0:0:
288,192,13769,5,0,0:0:0:0:
448,192,14102,5,0,0:0:0:0:
224,192,14102,5,0,0:0:0:0:
192,192,14102,5,0,0:0:0:0:
416,192,14102,5,0,0:0:0:0:
384,192,14102,5,0,0:0:0:0:
320,192,14103,5,0,0:0:0:0:
256,192,14103,5,0,0:0:0:0:
160,192,14103,5,0,0:0:0:0:
288,192,14103,5,0,0:0:0:0:
0,192,14103,5,0,0:0:0:0:
512,192,14103,5,0,0:0:0:0:
352,192,14103,5,0,0:0:0:0:
480,192,14103,5,0,0:0:0:0:
420,8,14540,5,0,0:0:0:0:
444,20,14561,5,0,0:0:0:0:
464,32,14581,5,0,0:0:0:0:
464,48,14602,5,0,0:0:0:0:
296,52,14602,5,0,0:0:0:0:
316,52,14602,5,0,0:0:0:0:
376,52,14602,5,0,0:0:0:0:
344,52,14602,5,0,0:0:0:0:
408,48,14602,5,0,0:0:0:0:
436,48,14602,5,0,0:0:0:0:
480,48,14623,5,0,0:0:0:0:
456,80,14644,5,0,0:0:0:0:
432,108,14665,5,0,0:0:0:0:
64,192,14768,5,0,0:0:0:0:
32,192,14768,5,0,0:0:0:0:
448,192,14768,5,0,0:0:0:0:
96,192,14768,5,0,0:0:0:0:
416,192,14768,5,0,0:0:0:0:
384,192,14768,5,0,0:0:0:0:
128,192,14769,5,0,0:0:0:0:
160,192,14769,5,0,0:0:0:0:
0,192,14769,5,0,0:0:0:0:
512,192,14769,5,0,0:0:0:0:
352,192,14769,5,0,0:0:0:0:
480,192,14769,5,0,0:0:0:0:
320,192,14769,5,0,0:0:0:0:
224,96,15041,5,0,0:0:0:0:
252,100,15062,5,0,0:0:0:0:
280,116,15083,5,0,0:0:0:0:
304,136,15104,5,0,0:0:0:0:
308,160,15124,5,0,0:0:0:0:
288,180,15145,5,0,0:0:0:0:
260,188,15166,5,0,0:0:0:0:
232,192,15187,5,0,0:0:0:0:
216,192,15208,5,0,0:0:0:0:
244,208,15229,5,0,0:0:0:0:
272,228,15249,5,0,0:0:0:0:
296,252,15270,5,0,0:0:0:0:
292,280,15291,5,0,0:0:0:0:
264,296,15312,5,0,0:0:0:0:
236,304,15333,5,0,0:0:0:0:
208,300,15354,5,0,0:0:0:0:
80,184,15415,5,0,0:0:0:0:
111,181,15415,5,0,0:0:0:0:
138,181,15416,5,0,0:0:0:0:
48,181,15416,5,0,0:0:0:0:
27,27,15436,5,0,0:0:0:0:
53,33,15457,5,0,0:0:0:0:
74,43,15478,5,0,0:0:0:0:
101,54,15499,5,0,0:0:0:0:
111,78,15520,5,0,0:0:0:0:
111,107,15541,5,0,0:0:0:0:
106,133,15561,5,0,0:0:0:0:
87,162,15582,5,0,0:0:0:0:
56,173,15603,5,0,0:0:0:0:
19,176,15624,5,0,0:0:0:0:
24,181,15645,5,0,0:0:0:0:
320,104,15706,5,0,0:0:0:0:
372,104,15706,5,0,0:0:0:0:
388,104,15706,5,0,0:0:0:0:
409,104,15706,5,0,0:0:0:0:
467,104,15706,5,0,0:0:0:0:
345,104,15707,5,0,0:0:0:0:
439,104,15707,5,0,0:0:0:0:
394,104,15769,5,0,0:0:0:0:
394,143,15810,5,0,0:0:0:0:
394,189,15852,5,0,0:0:0:0:
394,213,15873,5,0,0:0:0:0:
305,222,15915,5,0,0:0:0:0:
394,274,15936,5,0,0:0:0:0:
330,256,15957,5,0,0:0:0:0:
394,283,15978,5,0,0:0:0:0:
351,283,15999,5,0,0:0:0:0:
375,305,16019,5,0,0:0:0:0:
394,329,16040,5,0,0:0:0:0:
480,180,16145,5,0,0:0:0:0:
456,188,16166,5,0,0:0:0:0:
504,192,16187,5,0,0:0:0:0:
512,212,16207,5,0,0:0:0:0:
452,220,16228,5,0,0:0:0:0:
472,236,16249,5,0,0:0:0:0:
496,236,16270,5,0,0:0:0:0:
92,24,16332,5,0,0:0:0:0:
320,212,16332,5,0,0:0:0:0:
292,212,16332,5,0,0:0:0:0:
348,216,16332,5,0,0:0:0:0:
480,180,16351,5,0,0:0:0:0:
480,184,16373,5,0,0:0:0:0:
124,36,16373,5,0,0:0:0:0:
56,28,16373,5,0,0:0:0:0:
368,200,16373,5,0,0:0:0:0:
480,180,16393,5,0,0:0:0:0:
276,188,16394,5,0,0:0:0:0:
480,184,16415,5,0,0:0:0:0:
24,52,16415,5,0,0:0:0:0:
480,180,16435,5,0,0:0:0:0:
16,168,16436,5,0,0:0:0:0:
396,168,16436,5,0,0:0:0:0:
480,184,16456,5,0,0:0:0:0:
128,200,16457,5,0,0:0:0:0:
256,148,16457,5,0,0:0:0:0:
480,180,16476,5,0,0:0:0:0:
8,84,16477,5,0,0:0:0:0:
408,124,16478,5,0,0:0:0:0:
480,184,16498,5,0,0:0:0:0:
104,216,16498,5,0,0:0:0:0:
480,180,16518,5,0,0:0:0:0:
132,168,16519,5,0,0:0:0:0:
252,108,16519,5,0,0:0:0:0:
484,188,16540,5,0,0:0:0:0:
0,128,16540,5,0,0:0:0:0:
136,132,16540,5,0,0:0:0:0:
104,128,16540,5,0,0:0:0:0:
156,132,16540,5,0,0:0:0:0:
388,76,16540,5,0,0:0:0:0:
480,180,16560,5,0,0:0:0:0:
268,68,16561,5,0,0:0:0:0:
356,40,16582,5,0,0:0:0:0:
292,32,16603,5,0,0:0:0:0:
316,28,16624,5,0,0:0:0:0:
340,28,16640,5,0,0:0:0:0:
72,208,16644,5,0,0:0:0:0:
40,196,16661,5,0,0:0:0:0:
416,352,16769,5,0,0:0:0:0:
384,352,16769,5,0,0:0:0:0:
64,352,16769,5,0,0:0:0:0:
32,352,16769,5,0,0:0:0:0:
448,352,16769,5,0,0:0:0:0:
88,336,16769,6,0,P|176:244|104:136,1,271.25
296,336,16769,6,0,P|384:244|312:136,1,271.25
96,352,16769,5,0,0:0:0:0:
512,352,16770,5,0,0:0:0:0:
352,352,16770,5,0,0:0:0:0:
480,352,16770,5,0,0:0:0:0:
0,352,16770,5,0,0:0:0:0:
320,352,16770,5,0,0:0:0:0:
256,352,16770,5,0,0:0:0:0:
288,352,16770,5,0,0:0:0:0:
64,192,17102,5,0,0:0:0:0:
32,192,17102,5,0,0:0:0:0:
448,192,17102,5,0,0:0:0:0:
224,192,17102,5,0,0:0:0:0:
192,192,17102,5,0,0:0:0:0:
96,192,17102,5,0,0:0:0:0:
416,192,17102,5,0,0:0:0:0:
128,192,17103,5,0,0:0:0:0:
160,192,17103,5,0,0:0:0:0:
0,192,17103,5,0,0:0:0:0:
512,192,17103,5,0,0:0:0:0:
480,192,17103,5,0,0:0:0:0:
384,192,17103,5,0,0:0:0:0:
108,304,17373,6,0,B|-4:268|-8:240|-8:240|-16:180|108:116|108:116|104:76|-4:32,1,455
256,304,17394,6,0,B|144:268|140:240|140:240|132:180|256:116|256:116|252:76|144:32,1,455
224,192,17414,5,0,0:0:0:0:
416,192,17414,5,0,0:0:0:0:
384,192,17414,5,0,0:0:0:0:
64,192,17414,5,0,0:0:0:0:
32,192,17414,5,0,0:0:0:0:
448,192,17414,5,0,0:0:0:0:
512,192,17415,5,0,0:0:0:0:
352,192,17415,5,0,0:0:0:0:
480,192,17415,5,0,0:0:0:0:
0,192,17415,5,0,0:0:0:0:
320,192,17415,5,0,0:0:0:0:
256,192,17415,5,0,0:0:0:0:
288,192,17415,5,0,0:0:0:0:
404,164,17600,5,0,0:0:0:0:
360,164,17600,5,0,0:0:0:0:
372,164,17601,5,0,0:0:0:0:
380,164,17601,5,0,0:0:0:0:
388,164,17601,5,0,0:0:0:0:
428,196,17621,5,0,0:0:0:0:
356,192,17622,5,0,0:0:0:0:
428,212,17642,5,0,0:0:0:0:
356,208,17643,5,0,0:0:0:0:
436,232,17663,5,0,0:0:0:0:
348,228,17664,5,0,0:0:0:0:
432,252,17684,5,0,0:0:0:0:
348,248,17685,5,0,0:0:0:0:
416,268,17705,5,0,0:0:0:0:
360,268,17706,5,0,0:0:0:0:
404,164,17725,5,0,0:0:0:0:
360,164,17725,5,0,0:0:0:0:
388,164,17726,5,0,0:0:0:0:
380,164,17726,5,0,0:0:0:0:
372,164,17726,5,0,0:0:0:0:
468,144,17935,5,0,0:0:0:0:
424,144,17935,5,0,0:0:0:0:
444,144,17936,5,0,0:0:0:0:
452,144,17936,5,0,0:0:0:0:
436,144,17936,5,0,0:0:0:0:
492,176,17956,5,0,0:0:0:0:
420,172,17957,5,0,0:0:0:0:
492,192,17977,5,0,0:0:0:0:
420,188,17978,5,0,0:0:0:0:
500,212,17998,5,0,0:0:0:0:
412,208,17999,5,0,0:0:0:0:
496,232,18019,5,0,0:0:0:0:
412,228,18020,5,0,0:0:0:0:
480,248,18040,5,0,0:0:0:0:
424,248,18041,5,0,0:0:0:0:
468,144,18060,5,0,0:0:0:0:
424,144,18060,5,0,0:0:0:0:
452,144,18061,5,0,0:0:0:0:
436,144,18061,5,0,0:0:0:0:
444,144,18061,5,0,0:0:0:0:
312,124,18269,5,0,0:0:0:0:
356,124,18269,5,0,0:0:0:0:
324,124,18270,5,0,0:0:0:0:
340,124,18270,5,0,0:0:0:0:
332,124,18270,5,0,0:0:0:0:
380,156,18290,5,0,0:0:0:0:
308,152,18291,5,0,0:0:0:0:
380,172,18311,5,0,0:0:0:0:
308,168,18312,5,0,0:0:0:0:
388,192,18332,5,0,0:0:0:0:
300,188,18333,5,0,0:0:0:0:
384,212,18353,5,0,0:0:0:0:
300,208,18354,5,0,0:0:0:0:
368,228,18374,5,0,0:0:0:0:
312,228,18375,5,0,0:0:0:0:
312,124,18394,5,0,0:0:0:0:
356,124,18394,5,0,0:0:0:0:
332,124,18395,5,0,0:0:0:0:
324,124,18395,5,0,0:0:0:0:
340,124,18395,5,0,0:0:0:0:
40,120,18602,5,0,0:0:0:0:
64,120,18623,5,0,0:0:0:0:
80,120,18643,5,0,0:0:0:0:
120,120,18664,5,0,0:0:0:0:
148,120,18685,5,0,0:0:0:0:
168,120,18706,5,0,0:0:0:0:
188,120,18727,5,0,0:0:0:0:
256,64,18915,5,0,0:0:0:0:
320,64,18915,5,0,0:0:0:0:
384,64,18915,5,0,0:0:0:0:
416,64,18915,5,0,0:0:0:0:
448,64,18915,5,0,0:0:0:0:
288,64,18916,5,0,0:0:0:0:
352,64,18916,5,0,0:0:0:0:
224,64,19185,5,0,0:0:0:0:
192,64,19185,5,0,0:0:0:0:
128,64,19185,5,0,0:0:0:0:
160,64,19185,5,0,0:0:0:0:
64,64,19185,5,0,0:0:0:0:
0,64,19185,5,0,0:0:0:0:
256,64,19185,5,0,0:0:0:0:
288,64,19185,5,0,0:0:0:0:
96,64,19186,5,0,0:0:0:0:
32,64,19186,5,0,0:0:0:0:
320,64,19290,6,0,B|320:160|128:192|-32:192|-32:192|-32:288|0:352|0:352|0:288|-32:224|-32:224|0:192|0:320|0:320|0:384|128:352|171:351|171:351|224:352|296:332|310:182|310:182,1,1242.5
84,60,19434,5,0,0:0:0:0:
128,60,19434,5,0,0:0:0:0:
104,60,19435,5,0,0:0:0:0:
112,60,19435,5,0,0:0:0:0:
96,60,19435,5,0,0:0:0:0:
152,92,19455,5,0,0:0:0:0:
80,88,19456,5,0,0:0:0:0:
152,108,19476,5,0,0:0:0:0:
80,104,19477,5,0,0:0:0:0:
160,128,19497,5,0,0:0:0:0:
72,124,19498,5,0,0:0:0:0:
156,148,19518,5,0,0:0:0:0:
72,144,19519,5,0,0:0:0:0:
448,64,19520,6,0,B|448:160|320:256|224:96|224:96|222:284|222:284|256:352|352:352|352:352,1,665
140,164,19539,5,0,0:0:0:0:
84,164,19540,5,0,0:0:0:0:
128,60,19559,5,0,0:0:0:0:
84,60,19559,5,0,0:0:0:0:
96,60,19560,5,0,0:0:0:0:
112,60,19560,5,0,0:0:0:0:
104,60,19560,5,0,0:0:0:0:
232,100,19706,5,0,0:0:0:0:
88,240,19747,5,0,0:0:0:0:
360,164,19767,5,0,0:0:0:0:
404,164,19767,5,0,0:0:0:0:
380,164,19768,5,0,0:0:0:0:
388,164,19768,5,0,0:0:0:0:
372,164,19768,5,0,0:0:0:0:
408,80,19769,5,0,0:0:0:0:
428,196,19788,5,0,0:0:0:0:
356,192,19789,5,0,0:0:0:0:
28,248,19789,5,0,0:0:0:0:
428,212,19809,5,0,0:0:0:0:
356,208,19810,5,0,0:0:0:0:
436,232,19830,5,0,0:0:0:0:
348,228,19831,5,0,0:0:0:0:
480,304,19831,5,0,0:0:0:0:
432,252,19851,5,0,0:0:0:0:
348,248,19852,5,0,0:0:0:0:
416,268,19872,5,0,0:0:0:0:
380,220,19872,5,0,0:0:0:0:
360,268,19873,5,0,0:0:0:0:
404,164,19892,5,0,0:0:0:0:
360,164,19892,5,0,0:0:0:0:
372,164,19893,5,0,0:0:0:0:
388,164,19893,5,0,0:0:0:0:
380,164,19893,5,0,0:0:0:0:
188,108,19956,5,0,0:0:0:0:
136,72,20081,5,0,0:0:0:0:
180,312,20165,5,0,0:0:0:0:
328,152,20268,5,0,0:0:0:0:
372,152,20268,5,0,0:0:0:0:
356,152,20269,5,0,0:0:0:0:
348,152,20269,5,0,0:0:0:0:
340,152,20269,5,0,0:0:0:0:
396,184,20289,5,0,0:0:0:0:
324,180,20290,5,0,0:0:0:0:
396,200,20310,5,0,0:0:0:0:
324,196,20311,5,0,0:0:0:0:
404,220,20331,5,0,0:0:0:0:
316,216,20332,5,0,0:0:0:0:
400,240,20352,5,0,0:0:0:0:
316,236,20353,5,0,0:0:0:0:
384,256,20373,5,0,0:0:0:0:
328,256,20374,5,0,0:0:0:0:
372,152,20393,5,0,0:0:0:0:
328,152,20393,5,0,0:0:0:0:
340,152,20394,5,0,0:0:0:0:
356,152,20394,5,0,0:0:0:0:
348,152,20394,5,0,0:0:0:0:
192,96,20601,5,0,0:0:0:0:
236,96,20601,5,0,0:0:0:0:
220,96,20602,5,0,0:0:0:0:
212,96,20602,5,0,0:0:0:0:
204,96,20602,5,0,0:0:0:0:
260,128,20622,5,0,0:0:0:0:
188,124,20623,5,0,0:0:0:0:
260,144,20643,5,0,0:0:0:0:
188,140,20644,5,0,0:0:0:0:
268,164,20664,5,0,0:0:0:0:
180,160,20665,5,0,0:0:0:0:
264,184,20685,5,0,0:0:0:0:
180,180,20686,5,0,0:0:0:0:
248,200,20706,5,0,0:0:0:0:
192,200,20707,5,0,0:0:0:0:
192,96,20726,5,0,0:0:0:0:
236,96,20726,5,0,0:0:0:0:
212,96,20727,5,0,0:0:0:0:
220,96,20727,5,0,0:0:0:0:
204,96,20727,5,0,0:0:0:0:
0,192,20894,5,0,0:0:0:0:
419,327,20914,5,0,0:0:0:0:
32,192,20915,5,0,0:0:0:0:
436,300,20935,5,0,0:0:0:0:
401,300,20956,5,0,0:0:0:0:
454,267,20977,5,0,0:0:0:0:
384,267,20998,5,0,0:0:0:0:
465,236,21019,5,0,0:0:0:0:
366,232,21039,5,0,0:0:0:0:
483,192,21060,5,0,0:0:0:0:
412,192,21060,5,0,0:0:0:0:
343,192,21081,5,0,0:0:0:0:
380,160,21102,5,0,0:0:0:0:
444,168,21102,5,0,0:0:0:0:
340,152,21124,5,0,0:0:0:0:
488,152,21144,5,0,0:0:0:0:
452,128,21165,5,0,0:0:0:0:
376,132,21186,5,0,0:0:0:0:
32,192,21206,5,0,0:0:0:0:
0,192,21227,5,0,0:0:0:0:
352,144,21269,5,0,0:0:0:0:
324,132,21290,5,0,0:0:0:0:
296,120,21310,5,0,0:0:0:0:
264,108,21331,5,0,0:0:0:0:
224,96,21352,5,0,0:0:0:0:
204,84,21373,5,0,0:0:0:0:
176,76,21394,5,0,0:0:0:0:
60,184,21435,5,0,0:0:0:0:
64,168,21456,5,0,0:0:0:0:
64,140,21477,5,0,0:0:0:0:
68,112,21498,5,0,0:0:0:0:
64,88,21519,5,0,0:0:0:0:
76,68,21540,5,0,0:0:0:0:
84,56,21560,5,0,0:0:0:0:
96,40,21623,5,0,0:0:0:0:
136,24,21665,5,0,0:0:0:0:
208,24,21706,5,0,0:0:0:0:
196,24,21727,5,0,0:0:0:0:
236,28,21748,5,0,0:0:0:0:
264,32,21769,5,0,0:0:0:0:
432,72,21790,5,0,0:0:0:0:
420,68,21810,5,0,0:0:0:0:
408,68,21831,5,0,0:0:0:0:
400,64,21852,5,0,0:0:0:0:
388,64,21894,5,0,0:0:0:0:
384,64,21915,5,0,0:0:0:0:
376,64,21935,5,0,0:0:0:0:
328,48,21977,5,0,0:0:0:0:
316,48,21998,5,0,0:0:0:0:
276,40,22040,5,0,0:0:0:0:
256,40,22060,5,0,0:0:0:0:
228,36,22081,5,0,0:0:0:0:
416,192,22102,5,0,0:0:0:0:
384,192,22102,5,0,0:0:0:0:
192,192,22102,5,0,0:0:0:0:
448,192,22102,5,0,0:0:0:0:
224,192,22102,5,0,0:0:0:0:
512,192,22103,5,0,0:0:0:0:
0,192,22103,5,0,0:0:0:0:
480,192,22103,5,0,0:0:0:0:
352,192,22103,5,0,0:0:0:0:
256,192,22103,5,0,0:0:0:0:
320,192,22103,5,0,0:0:0:0:
288,192,22103,5,0,0:0:0:0:
160,192,22103,5,0,0:0:0:0:
192,192,22435,5,0,0:0:0:0:
96,192,22435,5,0,0:0:0:0:
416,192,22435,5,0,0:0:0:0:
224,192,22435,5,0,0:0:0:0:
64,192,22435,5,0,0:0:0:0:
32,192,22435,5,0,0:0:0:0:
448,192,22435,5,0,0:0:0:0:
0,192,22436,5,0,0:0:0:0:
512,192,22436,5,0,0:0:0:0:
480,192,22436,5,0,0:0:0:0:
256,192,22436,5,0,0:0:0:0:
128,192,22436,5,0,0:0:0:0:
160,192,22436,5,0,0:0:0:0:
96,192,22768,5,0,0:0:0:0:
416,192,22768,5,0,0:0:0:0:
384,192,22768,5,0,0:0:0:0:
64,192,22768,5,0,0:0:0:0:
32,192,22768,5,0,0:0:0:0:
448,192,22768,5,0,0:0:0:0:
512,192,22769,5,0,0:0:0:0:
352,192,22769,5,0,0:0:0:0:
480,192,22769,5,0,0:0:0:0:
0,192,22769,5,0,0:0:0:0:
320,192,22769,5,0,0:0:0:0:
128,192,22769,5,0,0:0:0:0:
160,192,22769,5,0,0:0:0:0:
64,192,22934,5,0,0:0:0:0:
32,192,22934,5,0,0:0:0:0:
448,192,22934,5,0,0:0:0:0:
96,192,22934,5,0,0:0:0:0:
416,192,22934,5,0,0:0:0:0:
384,192,22934,5,0,0:0:0:0:
192,192,22934,5,0,0:0:0:0:
224,192,22934,5,0,0:0:0:0:
128,192,22935,5,0,0:0:0:0:
160,192,22935,5,0,0:0:0:0:
0,192,22935,5,0,0:0:0:0:
512,192,22935,5,0,0:0:0:0:
480,192,22935,5,0,0:0:0:0:
192,192,23102,5,0,0:0:0:0:
480,192,23102,5,0,0:0:0:0:
224,192,23102,5,0,0:0:0:0:
416,192,23102,5,0,0:0:0:0:
448,192,23102,5,0,0:0:0:0:
256,192,23102,5,0,0:0:0:0:
320,192,23102,5,0,0:0:0:0:
288,192,23102,5,0,0:0:0:0:
0,192,23103,5,0,0:0:0:0:
32,192,23103,5,0,0:0:0:0:
512,192,23103,5,0,0:0:0:0:
384,192,23103,5,0,0:0:0:0:
352,192,23103,5,0,0:0:0:0:
288,192,23434,5,0,0:0:0:0:
320,192,23434,5,0,0:0:0:0:
32,192,23434,5,0,0:0:0:0:
64,192,23434,5,0,0:0:0:0:
96,192,23434,5,0,0:0:0:0:
256,192,23434,5,0,0:0:0:0:
192,192,23434,5,0,0:0:0:0:
224,192,23434,5,0,0:0:0:0:
160,192,23435,5,0,0:0:0:0:
128,192,23435,5,0,0:0:0:0:
0,192,23435,5,0,0:0:0:0:
480,192,23435,5,0,0:0:0:0:
512,192,23435,5,0,0:0:0:0:
64,192,23769,5,0,0:0:0:0:
32,192,23769,5,0,0:0:0:0:
448,192,23769,5,0,0:0:0:0:
224,192,23769,5,0,0:0:0:0:
192,192,23769,5,0,0:0:0:0:
96,192,23769,5,0,0:0:0:0:
416,192,23769,5,0,0:0:0:0:
256,192,23770,5,0,0:0:0:0:
128,192,23770,5,0,0:0:0:0:
160,192,23770,5,0,0:0:0:0:
0,192,23770,5,0,0:0:0:0:
512,192,23770,5,0,0:0:0:0:
480,192,23770,5,0,0:0:0:0:
196,276,24040,5,0,0:0:0:0:
212,268,24061,5,0,0:0:0:0:
172,268,24082,5,0,0:0:0:0:
164,252,24103,5,0,0:0:0:0:
224,248,24124,5,0,0:0:0:0:
168,220,24145,5,0,0:0:0:0:
212,220,24165,5,0,0:0:0:0:
64,320,24185,5,0,0:0:0:0:
192,212,24186,5,0,0:0:0:0:
80,320,24206,5,0,0:0:0:0:
124,192,24227,5,0,0:0:0:0:
40,312,24227,5,0,0:0:0:0:
140,184,24248,5,0,0:0:0:0:
32,296,24248,5,0,0:0:0:0:
392,164,24268,5,0,0:0:0:0:
100,184,24269,5,0,0:0:0:0:
92,292,24269,5,0,0:0:0:0:
408,156,24289,5,0,0:0:0:0:
92,168,24290,5,0,0:0:0:0:
36,264,24290,5,0,0:0:0:0:
368,156,24310,5,0,0:0:0:0:
80,264,24310,5,0,0:0:0:0:
152,164,24311,5,0,0:0:0:0:
360,140,24331,5,0,0:0:0:0:
60,256,24331,5,0,0:0:0:0:
96,136,24332,5,0,0:0:0:0:
420,136,24352,5,0,0:0:0:0:
140,136,24352,5,0,0:0:0:0:
364,108,24373,5,0,0:0:0:0:
120,128,24373,5,0,0:0:0:0:
408,108,24393,5,0,0:0:0:0:
388,100,24414,5,0,0:0:0:0:
464,348,24435,5,0,0:0:0:0:
480,340,24456,5,0,0:0:0:0:
440,340,24477,5,0,0:0:0:0:
432,324,24498,5,0,0:0:0:0:
216,288,24518,5,0,0:0:0:0:
492,320,24519,5,0,0:0:0:0:
232,280,24539,5,0,0:0:0:0:
436,292,24540,5,0,0:0:0:0:
192,280,24560,5,0,0:0:0:0:
480,292,24560,5,0,0:0:0:0:
184,264,24581,5,0,0:0:0:0:
460,284,24581,5,0,0:0:0:0:
244,260,24602,5,0,0:0:0:0:
188,232,24623,5,0,0:0:0:0:
232,232,24643,5,0,0:0:0:0:
292,336,24644,5,0,0:0:0:0:
212,224,24664,5,0,0:0:0:0:
308,328,24665,5,0,0:0:0:0:
268,328,24686,5,0,0:0:0:0:
260,312,24707,5,0,0:0:0:0:
320,308,24728,5,0,0:0:0:0:
264,280,24749,5,0,0:0:0:0:
116,288,24769,5,0,0:0:0:0:
308,280,24769,5,0,0:0:0:0:
132,280,24790,5,0,0:0:0:0:
288,272,24790,5,0,0:0:0:0:
92,280,24811,5,0,0:0:0:0:
84,264,24832,5,0,0:0:0:0:
144,260,24853,5,0,0:0:0:0:
88,232,24874,5,0,0:0:0:0:
472,300,24893,5,0,0:0:0:0:
132,232,24894,5,0,0:0:0:0:
488,292,24914,5,0,0:0:0:0:
112,224,24915,5,0,0:0:0:0:
448,292,24935,5,0,0:0:0:0:
440,276,24956,5,0,0:0:0:0:
96,276,24977,5,0,0:0:0:0:
500,272,24977,5,0,0:0:0:0:
112,268,24998,5,0,0:0:0:0:
444,244,24998,5,0,0:0:0:0:
268,224,25018,5,0,0:0:0:0:
488,244,25018,5,0,0:0:0:0:
72,268,25019,5,0,0:0:0:0:
284,216,25039,5,0,0:0:0:0:
468,236,25039,5,0,0:0:0:0:
64,252,25040,5,0,0:0:0:0:
244,216,25060,5,0,0:0:0:0:
124,248,25061,5,0,0:0:0:0:
236,200,25081,5,0,0:0:0:0:
68,220,25082,5,0,0:0:0:0:
112,220,25102,5,0,0:0:0:0:
296,196,25102,5,0,0:0:0:0:
92,212,25123,5,0,0:0:0:0:
240,168,25123,5,0,0:0:0:0:
284,168,25143,5,0,0:0:0:0:
200,320,25144,5,0,0:0:0:0:
264,160,25164,5,0,0:0:0:0:
216,312,25165,5,0,0:0:0:0:
176,312,25186,5,0,0:0:0:0:
168,296,25207,5,0,0:0:0:0:
228,292,25228,5,0,0:0:0:0:
172,264,25249,5,0,0:0:0:0:
216,264,25269,5,0,0:0:0:0:
196,256,25290,5,0,0:0:0:0:
372,272,25331,5,0,0:0:0:0:
388,264,25352,5,0,0:0:0:0:
348,264,25373,5,0,0:0:0:0:
340,248,25394,5,0,0:0:0:0:
400,244,25415,5,0,0:0:0:0:
52,216,25415,5,0,0:0:0:0:
344,216,25436,5,0,0:0:0:0:
68,208,25436,5,0,0:0:0:0:
388,216,25456,5,0,0:0:0:0:
28,208,25457,5,0,0:0:0:0:
368,208,25477,5,0,0:0:0:0:
20,192,25478,5,0,0:0:0:0:
80,188,25499,5,0,0:0:0:0:
384,256,25519,5,0,0:0:0:0:
0,256,25519,5,0,0:0:0:0:
24,160,25520,5,0,0:0:0:0:
68,160,25540,5,0,0:0:0:0:
48,152,25561,5,0,0:0:0:0:
224,256,25601,5,0,0:0:0:0:
352,256,25602,5,0,0:0:0:0:
192,256,25685,5,0,0:0:0:0:
448,256,25686,5,0,0:0:0:0:
64,256,25686,5,0,0:0:0:0:
320,256,25686,5,0,0:0:0:0:
32,256,25770,5,0,0:0:0:0:
416,256,25770,5,0,0:0:0:0:
216,288,25810,5,0,0:0:0:0:
232,280,25831,5,0,0:0:0:0:
192,280,25852,5,0,0:0:0:0:
384,256,25853,5,0,0:0:0:0:
0,256,25853,5,0,0:0:0:0:
184,264,25873,5,0,0:0:0:0:
244,260,25894,5,0,0:0:0:0:
188,232,25915,5,0,0:0:0:0:
232,232,25935,5,0,0:0:0:0:
224,256,25935,5,0,0:0:0:0:
352,256,25936,5,0,0:0:0:0:
212,224,25956,5,0,0:0:0:0:
192,256,26019,5,0,0:0:0:0:
320,256,26020,5,0,0:0:0:0:
64,256,26020,5,0,0:0:0:0:
448,256,26020,5,0,0:0:0:0:
32,256,26104,5,0,0:0:0:0:
416,256,26104,5,0,0:0:0:0:
384,256,26186,5,0,0:0:0:0:
0,256,26186,5,0,0:0:0:0:
224,256,26268,5,0,0:0:0:0:
352,256,26269,5,0,0:0:0:0:
416,248,26311,5,0,0:0:0:0:
432,240,26332,5,0,0:0:0:0:
192,256,26352,5,0,0:0:0:0:
392,240,26353,5,0,0:0:0:0:
448,256,26353,5,0,0:0:0:0:
320,256,26353,5,0,0:0:0:0:
64,256,26353,5,0,0:0:0:0:
384,224,26374,5,0,0:0:0:0:
444,220,26395,5,0,0:0:0:0:
388,192,26416,5,0,0:0:0:0:
432,192,26436,5,0,0:0:0:0:
32,256,26437,5,0,0:0:0:0:
416,256,26437,5,0,0:0:0:0:
412,184,26457,5,0,0:0:0:0:
84,212,26477,5,0,0:0:0:0:
100,204,26498,5,0,0:0:0:0:
60,204,26519,5,0,0:0:0:0:
0,256,26520,5,0,0:0:0:0:
384,256,26520,5,0,0:0:0:0:
52,188,26540,5,0,0:0:0:0:
112,184,26561,5,0,0:0:0:0:
56,156,26582,5,0,0:0:0:0:
100,156,26602,5,0,0:0:0:0:
224,256,26602,5,0,0:0:0:0:
352,256,26603,5,0,0:0:0:0:
80,148,26623,5,0,0:0:0:0:
192,256,26686,5,0,0:0:0:0:
64,256,26687,5,0,0:0:0:0:
448,256,26687,5,0,0:0:0:0:
320,256,26687,5,0,0:0:0:0:
32,64,26768,5,0,0:0:0:0:
0,64,26769,5,0,0:0:0:0:
64,64,26769,5,0,0:0:0:0:
96,64,26769,5,0,0:0:0:0:
416,64,26769,5,0,0:0:0:0:
448,64,26769,5,0,0:0:0:0:
480,64,26769,5,0,0:0:0:0:
512,64,26769,5,0,0:0:0:0:
32,256,26771,5,0,0:0:0:0:
416,256,26771,5,0,0:0:0:0:
160,192,27100,5,0,0:0:0:0:
448,192,27100,5,0,0:0:0:0:
64,192,27101,5,0,0:0:0:0:
96,192,27101,5,0,0:0:0:0:
128,192,27101,5,0,0:0:0:0:
192,192,27101,5,0,0:0:0:0:
480,192,27101,5,0,0:0:0:0:
512,192,27101,5,0,0:0:0:0:
0,192,27102,5,0,0:0:0:0:
32,192,27102,5,0,0:0:0:0:
224,192,27102,5,0,0:0:0:0:
384,192,27102,5,0,0:0:0:0:
160,192,27102,5,0,0:0:0:0:
416,192,27102,5,0,0:0:0:0:
256,192,27103,5,0,0:0:0:0:
160,128,27269,5,0,0:0:0:0:
128,128,27269,5,0,0:0:0:0:
320,128,27269,5,0,0:0:0:0:
352,128,27269,5,0,0:0:0:0:
448,192,27433,5,0,0:0:0:0:
288,192,27434,5,0,0:0:0:0:
512,192,27434,5,0,0:0:0:0:
128,192,27434,5,0,0:0:0:0:
480,192,27434,5,0,0:0:0:0:
64,192,27434,5,0,0:0:0:0:
96,192,27434,5,0,0:0:0:0:
384,192,27435,5,0,0:0:0:0:
320,192,27435,5,0,0:0:0:0:
416,192,27435,5,0,0:0:0:0:
0,192,27435,5,0,0:0:0:0:
352,192,27435,5,0,0:0:0:0:
32,192,27435,5,0,0:0:0:0:
256,192,27436,5,0,0:0:0:0:
448,64,27602,5,0,0:0:0:0:
288,64,27602,5,0,0:0:0:0:
128,64,27602,5,0,0:0:0:0:
96,64,27769,5,0,0:0:0:0:
256,64,27769,5,0,0:0:0:0:
416,64,27769,5,0,0:0:0:0:
416,128,27769,5,0,0:0:0:0:
448,128,27769,5,0,0:0:0:0:
384,128,27769,5,0,0:0:0:0:
288,160,27935,5,0,0:0:0:0:
320,160,27935,5,0,0:0:0:0:
352,160,27935,5,0,0:0:0:0:
384,64,27935,5,0,0:0:0:0:
224,64,27935,5,0,0:0:0:0:
64,64,27935,5,0,0:0:0:0:
400,204,28102,5,0,0:0:0:0:
368,204,28102,5,0,0:0:0:0:
336,204,28102,5,0,0:0:0:0:
32,64,28102,5,0,0:0:0:0:
192,64,28102,5,0,0:0:0:0:
352,64,28102,5,0,0:0:0:0:
164,232,28269,5,0,0:0:0:0:
132,232,28269,5,0,0:0:0:0:
100,232,28269,5,0,0:0:0:0:
320,64,28269,5,0,0:0:0:0:
160,64,28269,5,0,0:0:0:0:
0,64,28269,5,0,0:0:0:0:
448,64,28435,5,0,0:0:0:0:
288,64,28435,5,0,0:0:0:0:
128,64,28435,5,0,0:0:0:0:
96,64,28602,5,0,0:0:0:0:
416,64,28602,5,0,0:0:0:0:
256,64,28602,5,0,0:0:0:0:
64,64,28768,5,0,0:0:0:0:
384,64,28768,5,0,0:0:0:0:
224,64,28768,5,0,0:0:0:0:
224,192,28769,5,0,0:0:0:0:
256,192,28769,5,0,0:0:0:0:
288,192,28769,5,0,0:0:0:0:
32,64,28935,5,0,0:0:0:0:
352,64,28935,5,0,0:0:0:0:
192,64,28935,5,0,0:0:0:0:
320,64,29102,5,0,0:0:0:0:
160,64,29102,5,0,0:0:0:0:
0,64,29102,5,0,0:0:0:0:
480,64,29102,5,0,0:0:0:0:
448,256,29144,5,0,0:0:0:0:
480,256,29144,5,0,0:0:0:0:
96,256,29144,5,0,0:0:0:0:
32,256,29144,5,0,0:0:0:0:
64,256,29144,5,0,0:0:0:0:
416,256,29144,5,0,0:0:0:0:
384,64,29434,5,0,0:0:0:0:
416,64,29435,5,0,0:0:0:0:
256,64,29435,5,0,0:0:0:0:
96,64,29435,5,0,0:0:0:0:
224,64,29435,5,0,0:0:0:0:
64,64,29435,5,0,0:0:0:0:
448,192,29768,5,0,0:0:0:0:
480,192,29769,5,0,0:0:0:0:
512,192,29769,5,0,0:0:0:0:
288,192,29769,5,0,0:0:0:0:
64,192,29769,5,0,0:0:0:0:
416,192,29770,5,0,0:0:0:0:
352,192,29770,5,0,0:0:0:0:
320,192,29770,5,0,0:0:0:0:
32,192,29770,5,0,0:0:0:0:
0,192,29770,5,0,0:0:0:0:
384,192,29770,5,0,0:0:0:0:
224,192,29770,5,0,0:0:0:0:
256,192,29771,5,0,0:0:0:0:
160,288,30101,5,0,0:0:0:0:
448,288,30101,5,0,0:0:0:0:
448,352,30102,6,0,L|352:32,1,280
288,288,30102,5,0,0:0:0:0:
192,288,30102,5,0,0:0:0:0:
512,288,30102,5,0,0:0:0:0:
128,288,30102,5,0,0:0:0:0:
480,288,30102,5,0,0:0:0:0:
96,288,30102,5,0,0:0:0:0:
288,352,30102,6,0,L|192:32,1,280
64,288,30102,5,0,0:0:0:0:
160,288,30103,5,0,0:0:0:0:
224,288,30103,5,0,0:0:0:0:
32,288,30103,5,0,0:0:0:0:
0,288,30103,5,0,0:0:0:0:
256,288,30104,5,0,0:0:0:0:
64,320,30269,5,0,0:0:0:0:
0,320,30269,5,0,0:0:0:0:
0,320,30269,5,0,0:0:0:0:
128,320,30435,5,0,0:0:0:0:
64,320,30435,5,0,0:0:0:0:
128,352,30519,5,0,0:0:0:0:
160,352,30519,5,0,0:0:0:0:
288,352,30519,5,0,0:0:0:0:
319,351,30519,5,0,0:0:0:0:
384,96,30602,5,0,0:0:0:0:
512,96,30602,5,0,0:0:0:0:
448,96,30602,5,0,0:0:0:0:
96,352,30602,6,0,L|0:32,1,280
256,352,30602,6,0,L|160:32,1,280
320,96,30769,5,0,0:0:0:0:
448,96,30769,5,0,0:0:0:0:
384,96,30769,5,0,0:0:0:0:
512,96,30769,5,0,0:0:0:0:
256,96,30935,5,0,0:0:0:0:
320,96,30935,5,0,0:0:0:0:
448,96,30935,5,0,0:0:0:0:
384,96,30935,5,0,0:0:0:0:
512,96,30935,5,0,0:0:0:0:
268,220,30998,5,0,0:0:0:0:
300,220,31018,5,0,0:0:0:0:
316,208,31039,5,0,0:0:0:0:
348,208,31060,5,0,0:0:0:0:
32,160,31060,5,0,0:0:0:0:
376,204,31081,5,0,0:0:0:0:
64,160,31081,5,0,0:0:0:0:
404,196,31102,5,0,0:0:0:0:
96,160,31102,5,0,0:0:0:0:
428,192,31123,5,0,0:0:0:0:
116,132,31123,5,0,0:0:0:0:
440,184,31143,5,0,0:0:0:0:
148,132,31144,5,0,0:0:0:0:
456,184,31164,5,0,0:0:0:0:
180,132,31164,5,0,0:0:0:0:
464,180,31185,5,0,0:0:0:0:
196,120,31185,5,0,0:0:0:0:
468,176,31206,5,0,0:0:0:0:
228,120,31206,5,0,0:0:0:0:
256,116,31227,5,0,0:0:0:0:
284,108,31248,5,0,0:0:0:0:
308,104,31269,5,0,0:0:0:0:
320,96,31289,5,0,0:0:0:0:
336,96,31310,5,0,0:0:0:0:
344,92,31331,5,0,0:0:0:0:
348,88,31352,5,0,0:0:0:0:
104,52,31769,5,0,0:0:0:0:
448,52,31811,5,0,0:0:0:0:
48,168,31874,5,0,0:0:0:0:
152,44,31915,5,0,0:0:0:0:
316,288,31999,5,0,0:0:0:0:
136,168,32019,5,0,0:0:0:0:
392,36,32082,5,0,0:0:0:0:
264,256,32103,5,0,0:0:0:0:
168,288,32124,5,0,0:0:0:0:
48,136,32144,5,0,0:0:0:0:
464,320,32186,5,0,0:0:0:0:
360,352,32249,5,0,0:0:0:0:
312,176,32269,5,0,0:0:0:0:
464,156,32290,5,0,0:0:0:0:
96,120,32311,5,0,0:0:0:0:
64,292,32374,5,0,0:0:0:0:
168,104,32394,5,0,0:0:0:0:
288,124,32415,5,0,0:0:0:0:
344,264,32457,5,0,0:0:0:0:
64,244,32499,5,0,0:0:0:0:
324,328,32560,5,0,0:0:0:0:
64,192,32769,5,0,0:0:0:0:
32,192,32769,5,0,0:0:0:0:
448,192,32769,5,0,0:0:0:0:
224,192,32769,5,0,0:0:0:0:
416,192,32769,5,0,0:0:0:0:
384,192,32769,5,0,0:0:0:0:
320,192,32770,5,0,0:0:0:0:
256,192,32770,5,0,0:0:0:0:
288,192,32770,5,0,0:0:0:0:
0,192,32770,5,0,0:0:0:0:
512,192,32770,5,0,0:0:0:0:
352,192,32770,5,0,0:0:0:0:
480,192,32770,5,0,0:0:0:0:
192,192,33102,5,0,0:0:0:0:
96,192,33102,5,0,0:0:0:0:
416,192,33102,5,0,0:0:0:0:
224,192,33102,5,0,0:0:0:0:
64,192,33102,5,0,0:0:0:0:
32,192,33102,5,0,0:0:0:0:
448,192,33102,5,0,0:0:0:0:
0,192,33103,5,0,0:0:0:0:
512,192,33103,5,0,0:0:0:0:
480,192,33103,5,0,0:0:0:0:
256,192,33103,5,0,0:0:0:0:
128,192,33103,5,0,0:0:0:0:
160,192,33103,5,0,0:0:0:0:
64,192,33434,5,0,0:0:0:0:
32,192,33434,5,0,0:0:0:0:
448,192,33434,5,0,0:0:0:0:
224,192,33434,5,0,0:0:0:0:
416,192,33434,5,0,0:0:0:0:
384,192,33434,5,0,0:0:0:0:
320,192,33435,5,0,0:0:0:0:
256,192,33435,5,0,0:0:0:0:
288,192,33435,5,0,0:0:0:0:
0,192,33435,5,0,0:0:0:0:
512,192,33435,5,0,0:0:0:0:
352,192,33435,5,0,0:0:0:0:
480,192,33435,5,0,0:0:0:0:
64,192,33768,5,0,0:0:0:0:
32,192,33768,5,0,0:0:0:0:
448,192,33768,5,0,0:0:0:0:
224,192,33768,5,0,0:0:0:0:
192,192,33768,5,0,0:0:0:0:
96,192,33768,5,0,0:0:0:0:
416,192,33768,5,0,0:0:0:0:
256,192,33769,5,0,0:0:0:0:
128,192,33769,5,0,0:0:0:0:
160,192,33769,5,0,0:0:0:0:
0,192,33769,5,0,0:0:0:0:
512,192,33769,5,0,0:0:0:0:
480,192,33769,5,0,0:0:0:0:
96,192,34102,5,0,0:0:0:0:
192,192,34102,5,0,0:0:0:0:
384,192,34102,5,0,0:0:0:0:
416,192,34102,5,0,0:0:0:0:
32,192,34102,5,0,0:0:0:0:
224,192,34102,5,0,0:0:0:0:
448,192,34102,5,0,0:0:0:0:
64,192,34102,5,0,0:0:0:0:
512,192,34103,5,0,0:0:0:0:
0,192,34103,5,0,0:0:0:0:
480,192,34103,5,0,0:0:0:0:
160,192,34103,5,0,0:0:0:0:
128,192,34103,5,0,0:0:0:0:
20,352,34435,6,0,B|56:20|56:20|176:344|176:344|220:28,1,980
288,344,34435,6,0,B|324:12|324:12|444:336|444:336|488:20,1,980
416,192,34436,5,0,0:0:0:0:
384,192,34436,5,0,0:0:0:0:
192,192,34436,5,0,0:0:0:0:
448,192,34436,5,0,0:0:0:0:
224,192,34436,5,0,0:0:0:0:
512,192,34437,5,0,0:0:0:0:
0,192,34437,5,0,0:0:0:0:
480,192,34437,5,0,0:0:0:0:
352,192,34437,5,0,0:0:0:0:
256,192,34437,5,0,0:0:0:0:
320,192,34437,5,0,0:0:0:0:
288,192,34437,5,0,0:0:0:0:
160,192,34437,5,0,0:0:0:0:
132,236,34769,5,0,0:0:0:0:
176,236,34769,5,0,0:0:0:0:
320,268,34935,5,0,0:0:0:0:
276,268,34935,5,0,0:0:0:0:
176,268,35102,5,0,0:0:0:0:
220,268,35102,5,0,0:0:0:0:
320,252,35268,5,0,0:0:0:0:
364,252,35268,5,0,0:0:0:0:
220,252,35435,5,0,0:0:0:0:
264,252,35435,5,0,0:0:0:0:
452,296,35601,5,0,0:0:0:0:
408,296,35601,5,0,0:0:0:0:
0,296,35602,5,0,0:0:0:0:
44,296,35602,5,0,0:0:0:0:
352,296,35768,5,0,0:0:0:0:
308,296,35768,5,0,0:0:0:0:
144,296,35768,5,0,0:0:0:0:
188,296,35768,5,0,0:0:0:0:
452,324,35934,5,0,0:0:0:0:
496,324,35934,5,0,0:0:0:0:
88,324,35935,5,0,0:0:0:0:
44,324,35935,5,0,0:0:0:0:
232,324,36101,5,0,0:0:0:0:
188,324,36101,5,0,0:0:0:0:
408,232,36268,5,0,0:0:0:0:
364,232,36268,5,0,0:0:0:0:
120,232,36269,5,0,0:0:0:0:
164,232,36269,5,0,0:0:0:0:
252,284,36435,5,0,0:0:0:0:
296,284,36435,5,0,0:0:0:0:
64,96,36456,5,0,0:0:0:0:
92,100,36477,5,0,0:0:0:0:
120,116,36498,5,0,0:0:0:0:
144,136,36519,5,0,0:0:0:0:
148,160,36539,5,0,0:0:0:0:
128,180,36560,5,0,0:0:0:0:
100,188,36581,5,0,0:0:0:0:
72,192,36602,5,0,0:0:0:0:
56,192,36623,5,0,0:0:0:0:
84,208,36644,5,0,0:0:0:0:
112,228,36664,5,0,0:0:0:0:
136,252,36685,5,0,0:0:0:0:
132,280,36706,5,0,0:0:0:0:
104,296,36727,5,0,0:0:0:0:
76,304,36748,5,0,0:0:0:0:
48,300,36769,5,0,0:0:0:0:
256,288,36830,5,0,0:0:0:0:
287,285,36830,5,0,0:0:0:0:
314,285,36831,5,0,0:0:0:0:
224,285,36831,5,0,0:0:0:0:
203,131,36851,5,0,0:0:0:0:
229,137,36872,5,0,0:0:0:0:
250,147,36893,5,0,0:0:0:0:
277,158,36914,5,0,0:0:0:0:
287,182,36935,5,0,0:0:0:0:
287,211,36956,5,0,0:0:0:0:
282,237,36976,5,0,0:0:0:0:
263,266,36997,5,0,0:0:0:0:
232,277,37018,5,0,0:0:0:0:
195,280,37039,5,0,0:0:0:0:
200,285,37060,5,0,0:0:0:0:
320,32,37121,5,0,0:0:0:0:
388,32,37121,5,0,0:0:0:0:
408,32,37121,5,0,0:0:0:0:
436,32,37121,5,0,0:0:0:0:
512,32,37121,5,0,0:0:0:0:
352,32,37122,5,0,0:0:0:0:
476,32,37122,5,0,0:0:0:0:
416,32,37145,5,0,0:0:0:0:
416,84,37186,5,0,0:0:0:0:
416,144,37206,5,0,0:0:0:0:
416,176,37247,5,0,0:0:0:0:
328,160,37290,5,0,0:0:0:0:
415,211,37311,5,0,0:0:0:0:
352,193,37332,5,0,0:0:0:0:
415,220,37353,5,0,0:0:0:0:
373,220,37374,5,0,0:0:0:0:
397,241,37394,5,0,0:0:0:0:
415,265,37415,5,0,0:0:0:0:
78,324,37436,5,0,0:0:0:0:
78,300,37456,5,0,0:0:0:0:
78,272,37477,5,0,0:0:0:0:
78,252,37498,5,0,0:0:0:0:
78,252,37519,5,0,0:0:0:0:
26,212,37540,5,0,0:0:0:0:
78,236,37560,5,0,0:0:0:0:
142,212,37560,5,0,0:0:0:0:
46,180,37581,5,0,0:0:0:0:
62,148,37602,5,0,0:0:0:0:
126,176,37623,5,0,0:0:0:0:
102,148,37644,5,0,0:0:0:0:
86,124,37664,5,0,0:0:0:0:
248,330,37810,5,0,0:0:0:0:
80,334,37810,5,0,0:0:0:0:
248,313,37852,5,0,0:0:0:0:
80,317,37852,5,0,0:0:0:0:
249,295,37893,5,0,0:0:0:0:
81,299,37893,5,0,0:0:0:0:
480,288,37935,5,0,0:0:0:0:
448,288,37935,5,0,0:0:0:0:
352,288,37935,5,0,0:0:0:0:
384,288,37935,5,0,0:0:0:0:
320,288,37935,5,0,0:0:0:0:
250,260,37977,5,0,0:0:0:0:
82,264,37977,5,0,0:0:0:0:
250,243,38018,5,0,0:0:0:0:
82,247,38018,5,0,0:0:0:0:
251,225,38060,5,0,0:0:0:0:
83,229,38060,5,0,0:0:0:0:
416,288,38102,5,0,0:0:0:0:
480,288,38102,5,0,0:0:0:0:
352,288,38102,5,0,0:0:0:0:
384,288,38102,5,0,0:0:0:0:
320,288,38102,5,0,0:0:0:0:
252,190,38143,5,0,0:0:0:0:
84,194,38143,5,0,0:0:0:0:
128,280,38165,5,0,0:0:0:0:
252,173,38185,5,0,0:0:0:0:
84,177,38185,5,0,0:0:0:0:
253,155,38227,5,0,0:0:0:0:
85,159,38227,5,0,0:0:0:0:
253,138,38268,5,0,0:0:0:0:
85,142,38268,5,0,0:0:0:0:
480,288,38269,5,0,0:0:0:0:
448,288,38269,5,0,0:0:0:0:
352,288,38269,5,0,0:0:0:0:
384,288,38269,5,0,0:0:0:0:
320,288,38269,5,0,0:0:0:0:
208,264,38290,5,0,0:0:0:0:
254,120,38310,5,0,0:0:0:0:
86,124,38310,5,0,0:0:0:0:
254,103,38352,5,0,0:0:0:0:
86,107,38352,5,0,0:0:0:0:
255,85,38393,5,0,0:0:0:0:
87,89,38393,5,0,0:0:0:0:
352,288,38435,5,0,0:0:0:0:
416,288,38435,5,0,0:0:0:0:
384,288,38435,5,0,0:0:0:0:
320,288,38435,5,0,0:0:0:0:
384,288,38435,5,0,0:0:0:0:
208,192,38456,5,0,0:0:0:0:
257,69,38477,5,0,0:0:0:0:
89,73,38477,5,0,0:0:0:0:
259,86,38518,5,0,0:0:0:0:
91,90,38518,5,0,0:0:0:0:
261,104,38560,5,0,0:0:0:0:
93,108,38560,5,0,0:0:0:0:
416,288,38601,5,0,0:0:0:0:
384,288,38601,5,0,0:0:0:0:
416,288,38602,5,0,0:0:0:0:
480,288,38602,5,0,0:0:0:0:
448,288,38602,5,0,0:0:0:0:
512,288,38602,5,0,0:0:0:0:
384,288,38602,5,0,0:0:0:0:
140,176,38623,5,0,0:0:0:0:
266,138,38643,5,0,0:0:0:0:
98,142,38643,5,0,0:0:0:0:
268,156,38685,5,0,0:0:0:0:
100,160,38685,5,0,0:0:0:0:
100,160,38685,5,0,0:0:0:0:
100,160,38685,5,0,0:0:0:0:
270,173,38727,5,0,0:0:0:0:
102,177,38727,5,0,0:0:0:0:
102,177,38727,5,0,0:0:0:0:
102,177,38727,5,0,0:0:0:0:
416,288,38768,5,0,0:0:0:0:
105,194,38768,5,0,0:0:0:0:
105,194,38768,5,0,0:0:0:0:
384,288,38768,5,0,0:0:0:0:
512,288,38769,5,0,0:0:0:0:
416,288,38769,5,0,0:0:0:0:
480,288,38769,5,0,0:0:0:0:
448,288,38769,5,0,0:0:0:0:
384,288,38769,5,0,0:0:0:0:
275,208,38810,5,0,0:0:0:0:
107,212,38810,5,0,0:0:0:0:
107,212,38810,5,0,0:0:0:0:
107,212,38810,5,0,0:0:0:0:
278,225,38852,5,0,0:0:0:0:
110,229,38852,5,0,0:0:0:0:
110,229,38852,5,0,0:0:0:0:
110,229,38852,5,0,0:0:0:0:
280,242,38893,5,0,0:0:0:0:
112,246,38893,5,0,0:0:0:0:
112,246,38893,5,0,0:0:0:0:
112,246,38893,5,0,0:0:0:0:
448,288,38935,5,0,0:0:0:0:
416,288,38935,5,0,0:0:0:0:
480,288,38935,5,0,0:0:0:0:
384,288,38935,5,0,0:0:0:0:
384,288,38935,5,0,0:0:0:0:
267,221,38977,5,0,0:0:0:0:
99,225,38977,5,0,0:0:0:0:
99,225,38977,5,0,0:0:0:0:
99,225,38977,5,0,0:0:0:0:
259,205,39018,5,0,0:0:0:0:
91,209,39018,5,0,0:0:0:0:
91,209,39018,5,0,0:0:0:0:
91,209,39018,5,0,0:0:0:0:
251,189,39060,5,0,0:0:0:0:
83,193,39060,5,0,0:0:0:0:
83,193,39060,5,0,0:0:0:0:
83,193,39060,5,0,0:0:0:0:
416,288,39101,5,0,0:0:0:0:
384,288,39101,5,0,0:0:0:0:
512,288,39102,5,0,0:0:0:0:
416,288,39102,5,0,0:0:0:0:
480,288,39102,5,0,0:0:0:0:
448,288,39102,5,0,0:0:0:0:
384,288,39102,5,0,0:0:0:0:
234,158,39143,5,0,0:0:0:0:
66,162,39143,5,0,0:0:0:0:
66,162,39143,5,0,0:0:0:0:
66,162,39143,5,0,0:0:0:0:
226,142,39185,5,0,0:0:0:0:
58,146,39185,5,0,0:0:0:0:
58,146,39185,5,0,0:0:0:0:
58,146,39185,5,0,0:0:0:0:
192,148,39206,5,0,0:0:0:0:
224,126,39227,5,0,0:0:0:0:
56,130,39227,5,0,0:0:0:0:
56,130,39227,5,0,0:0:0:0:
56,130,39227,5,0,0:0:0:0:
232,110,39268,5,0,0:0:0:0:
64,114,39268,5,0,0:0:0:0:
64,114,39268,5,0,0:0:0:0:
64,114,39268,5,0,0:0:0:0:
512,288,39269,5,0,0:0:0:0:
416,288,39269,5,0,0:0:0:0:
480,288,39269,5,0,0:0:0:0:
448,288,39269,5,0,0:0:0:0:
384,288,39269,5,0,0:0:0:0:
240,95,39310,5,0,0:0:0:0:
72,99,39310,5,0,0:0:0:0:
72,99,39310,5,0,0:0:0:0:
72,99,39310,5,0,0:0:0:0:
251,80,39352,5,0,0:0:0:0:
83,84,39352,5,0,0:0:0:0:
83,84,39352,5,0,0:0:0:0:
83,84,39352,5,0,0:0:0:0:
260,65,39393,5,0,0:0:0:0:
92,69,39393,5,0,0:0:0:0:
92,69,39393,5,0,0:0:0:0:
92,69,39393,5,0,0:0:0:0:
0,352,39435,5,0,0:0:0:0:
96,352,39435,5,0,0:0:0:0:
32,352,39435,5,0,0:0:0:0:
64,352,39435,5,0,0:0:0:0:
156,228,39456,5,0,0:0:0:0:
281,36,39477,5,0,0:0:0:0:
113,40,39477,5,0,0:0:0:0:
113,40,39477,5,0,0:0:0:0:
113,40,39477,5,0,0:0:0:0:
291,21,39518,5,0,0:0:0:0:
123,25,39518,5,0,0:0:0:0:
123,25,39518,5,0,0:0:0:0:
123,25,39518,5,0,0:0:0:0:
303,8,39560,5,0,0:0:0:0:
135,12,39560,5,0,0:0:0:0:
135,12,39560,5,0,0:0:0:0:
135,12,39560,5,0,0:0:0:0:
32,352,39602,5,0,0:0:0:0:
64,352,39602,5,0,0:0:0:0:
96,352,39602,5,0,0:0:0:0:
0,352,39602,5,0,0:0:0:0:
329,32,39643,5,0,0:0:0:0:
161,36,39643,5,0,0:0:0:0:
161,36,39643,5,0,0:0:0:0:
161,36,39643,5,0,0:0:0:0:
340,46,39685,5,0,0:0:0:0:
172,50,39685,5,0,0:0:0:0:
172,50,39685,5,0,0:0:0:0:
172,50,39685,5,0,0:0:0:0:
320,104,39706,5,0,0:0:0:0:
350,61,39727,5,0,0:0:0:0:
182,65,39727,5,0,0:0:0:0:
182,65,39727,5,0,0:0:0:0:
182,65,39727,5,0,0:0:0:0:
357,77,39768,5,0,0:0:0:0:
189,81,39768,5,0,0:0:0:0:
189,81,39768,5,0,0:0:0:0:
189,81,39768,5,0,0:0:0:0:
0,352,39769,5,0,0:0:0:0:
96,352,39769,5,0,0:0:0:0:
32,352,39769,5,0,0:0:0:0:
64,352,39769,5,0,0:0:0:0:
363,93,39810,5,0,0:0:0:0:
195,97,39810,5,0,0:0:0:0:
195,97,39810,5,0,0:0:0:0:
195,97,39810,5,0,0:0:0:0:
367,110,39852,5,0,0:0:0:0:
199,114,39852,5,0,0:0:0:0:
199,114,39852,5,0,0:0:0:0:
199,114,39852,5,0,0:0:0:0:
371,128,39893,5,0,0:0:0:0:
203,132,39893,5,0,0:0:0:0:
203,132,39893,5,0,0:0:0:0:
203,132,39893,5,0,0:0:0:0:
32,352,39935,5,0,0:0:0:0:
64,352,39935,5,0,0:0:0:0:
96,352,39935,5,0,0:0:0:0:
0,352,39935,5,0,0:0:0:0:
374,163,39977,5,0,0:0:0:0:
206,167,39977,5,0,0:0:0:0:
206,167,39977,5,0,0:0:0:0:
206,167,39977,5,0,0:0:0:0:
374,180,40018,5,0,0:0:0:0:
206,184,40018,5,0,0:0:0:0:
206,184,40018,5,0,0:0:0:0:
206,184,40018,5,0,0:0:0:0:
373,198,40060,5,0,0:0:0:0:
205,202,40060,5,0,0:0:0:0:
205,202,40060,5,0,0:0:0:0:
205,202,40060,5,0,0:0:0:0:
304,228,40081,5,0,0:0:0:0:
0,352,40102,5,0,0:0:0:0:
96,352,40102,5,0,0:0:0:0:
32,352,40102,5,0,0:0:0:0:
64,352,40102,5,0,0:0:0:0:
370,232,40143,5,0,0:0:0:0:
202,236,40143,5,0,0:0:0:0:
202,236,40143,5,0,0:0:0:0:
202,236,40143,5,0,0:0:0:0:
367,250,40185,5,0,0:0:0:0:
199,254,40185,5,0,0:0:0:0:
199,254,40185,5,0,0:0:0:0:
199,254,40185,5,0,0:0:0:0:
202,236,40206,5,0,0:0:0:0:
364,267,40227,5,0,0:0:0:0:
196,271,40227,5,0,0:0:0:0:
196,271,40227,5,0,0:0:0:0:
196,271,40227,5,0,0:0:0:0:
361,284,40268,5,0,0:0:0:0:
193,288,40268,5,0,0:0:0:0:
193,288,40268,5,0,0:0:0:0:
193,288,40268,5,0,0:0:0:0:
32,352,40269,5,0,0:0:0:0:
64,352,40269,5,0,0:0:0:0:
96,352,40269,5,0,0:0:0:0:
0,352,40269,5,0,0:0:0:0:
358,301,40310,5,0,0:0:0:0:
190,305,40310,5,0,0:0:0:0:
190,305,40310,5,0,0:0:0:0:
190,305,40310,5,0,0:0:0:0:
354,318,40352,5,0,0:0:0:0:
186,322,40352,5,0,0:0:0:0:
186,322,40352,5,0,0:0:0:0:
186,322,40352,5,0,0:0:0:0:
337,321,40393,5,0,0:0:0:0:
169,325,40393,5,0,0:0:0:0:
169,325,40393,5,0,0:0:0:0:
169,325,40393,5,0,0:0:0:0:
327,306,40435,5,0,0:0:0:0:
159,310,40435,5,0,0:0:0:0:
159,310,40435,5,0,0:0:0:0:
159,310,40435,5,0,0:0:0:0:
319,290,40477,5,0,0:0:0:0:
151,294,40477,5,0,0:0:0:0:
151,294,40477,5,0,0:0:0:0:
151,294,40477,5,0,0:0:0:0:
314,274,40518,5,0,0:0:0:0:
146,278,40518,5,0,0:0:0:0:
146,278,40518,5,0,0:0:0:0:
146,278,40518,5,0,0:0:0:0:
260,260,40540,5,0,0:0:0:0:
141,261,40560,5,0,0:0:0:0:
141,261,40560,5,0,0:0:0:0:
141,261,40560,5,0,0:0:0:0:
137,244,40602,5,0,0:0:0:0:
137,244,40602,5,0,0:0:0:0:
137,244,40602,5,0,0:0:0:0:
248,192,40623,5,0,0:0:0:0:
302,223,40643,5,0,0:0:0:0:
134,227,40643,5,0,0:0:0:0:
134,227,40643,5,0,0:0:0:0:
134,227,40643,5,0,0:0:0:0:
299,205,40685,5,0,0:0:0:0:
131,209,40685,5,0,0:0:0:0:
131,209,40685,5,0,0:0:0:0:
131,209,40685,5,0,0:0:0:0:
160,156,40706,5,0,0:0:0:0:
294,188,40727,5,0,0:0:0:0:
126,192,40727,5,0,0:0:0:0:
126,192,40727,5,0,0:0:0:0:
126,192,40727,5,0,0:0:0:0:
291,171,40768,5,0,0:0:0:0:
123,175,40768,5,0,0:0:0:0:
123,175,40768,5,0,0:0:0:0:
123,175,40768,5,0,0:0:0:0:
289,154,40810,5,0,0:0:0:0:
121,158,40810,5,0,0:0:0:0:
121,158,40810,5,0,0:0:0:0:
121,158,40810,5,0,0:0:0:0:
287,136,40852,5,0,0:0:0:0:
119,140,40852,5,0,0:0:0:0:
119,140,40852,5,0,0:0:0:0:
119,140,40852,5,0,0:0:0:0:
286,119,40893,5,0,0:0:0:0:
118,123,40893,5,0,0:0:0:0:
118,123,40893,5,0,0:0:0:0:
118,123,40893,5,0,0:0:0:0:
292,108,40914,5,0,0:0:0:0:
285,101,40935,5,0,0:0:0:0:
117,105,40935,5,0,0:0:0:0:
117,105,40935,5,0,0:0:0:0:
117,105,40935,5,0,0:0:0:0:
448,76,41060,5,0,0:0:0:0:
472,88,41081,5,0,0:0:0:0:
492,100,41101,5,0,0:0:0:0:
492,116,41122,5,0,0:0:0:0:
344,120,41122,5,0,0:0:0:0:
404,120,41122,5,0,0:0:0:0:
372,120,41122,5,0,0:0:0:0:
436,116,41122,5,0,0:0:0:0:
464,116,41122,5,0,0:0:0:0:
508,116,41143,5,0,0:0:0:0:
484,148,41164,5,0,0:0:0:0:
460,176,41185,5,0,0:0:0:0:
384,64,41435,5,0,0:0:0:0:
512,64,41435,5,0,0:0:0:0:
256,64,41435,5,0,0:0:0:0:
128,64,41435,5,0,0:0:0:0:
0,64,41435,5,0,0:0:0:0:
96,64,41518,5,0,0:0:0:0:
224,64,41518,5,0,0:0:0:0:
352,64,41518,5,0,0:0:0:0:
480,64,41518,5,0,0:0:0:0:
320,64,41602,5,0,0:0:0:0:
448,64,41602,5,0,0:0:0:0:
64,64,41602,5,0,0:0:0:0:
192,64,41602,5,0,0:0:0:0:
288,64,41685,5,0,0:0:0:0:
416,64,41685,5,0,0:0:0:0:
32,64,41685,5,0,0:0:0:0:
160,64,41685,5,0,0:0:0:0:
512,64,41768,5,0,0:0:0:0:
384,64,41768,5,0,0:0:0:0:
256,64,41768,5,0,0:0:0:0:
0,64,41768,5,0,0:0:0:0:
128,64,41768,5,0,0:0:0:0:
224,64,41851,5,0,0:0:0:0:
480,64,41851,5,0,0:0:0:0:
96,64,41851,5,0,0:0:0:0:
352,64,41851,5,0,0:0:0:0:
448,64,41935,5,0,0:0:0:0:
192,64,41935,5,0,0:0:0:0:
320,64,41935,5,0,0:0:0:0:
64,64,41935,5,0,0:0:0:0:
160,64,42018,5,0,0:0:0:0:
288,64,42018,5,0,0:0:0:0:
416,64,42018,5,0,0:0:0:0:
32,64,42018,5,0,0:0:0:0:
512,64,42102,5,0,0:0:0:0:
384,64,42102,5,0,0:0:0:0:
256,64,42102,5,0,0:0:0:0:
0,64,42102,5,0,0:0:0:0:
128,64,42102,5,0,0:0:0:0:
416,64,42185,5,0,0:0:0:0:
32,64,42185,5,0,0:0:0:0:
160,64,42185,5,0,0:0:0:0:
288,64,42185,5,0,0:0:0:0:
320,64,42268,5,0,0:0:0:0:
64,64,42268,5,0,0:0:0:0:
448,64,42268,5,0,0:0:0:0:
192,64,42268,5,0,0:0:0:0:
96,64,42352,5,0,0:0:0:0:
352,64,42352,5,0,0:0:0:0:
224,64,42352,5,0,0:0:0:0:
480,64,42352,5,0,0:0:0:0:
384,64,42435,5,0,0:0:0:0:
512,64,42435,5,0,0:0:0:0:
256,64,42435,5,0,0:0:0:0:
128,64,42435,5,0,0:0:0:0:
0,64,42435,5,0,0:0:0:0:
32,64,42518,5,0,0:0:0:0:
288,64,42518,5,0,0:0:0:0:
416,64,42518,5,0,0:0:0:0:
160,64,42518,5,0,0:0:0:0:
64,64,42601,5,0,0:0:0:0:
192,64,42601,5,0,0:0:0:0:
320,64,42601,5,0,0:0:0:0:
448,64,42601,5,0,0:0:0:0:
480,64,42685,5,0,0:0:0:0:
96,64,42685,5,0,0:0:0:0:
352,64,42685,5,0,0:0:0:0:
224,64,42685,5,0,0:0:0:0:
32,352,43101,5,0,0:0:0:0:
224,352,43101,5,0,0:0:0:0:
480,352,43102,5,0,0:0:0:0:
256,352,43102,5,0,0:0:0:0:
480,352,43102,5,0,0:0:0:0:
128,352,43102,5,0,0:0:0:0:
192,352,43102,5,0,0:0:0:0:
0,352,43102,5,0,0:0:0:0:
440,344,43102,5,0,0:0:0:0:
296,344,43102,5,0,0:0:0:0:
64,352,43102,5,0,0:0:0:0:
440,326,43143,5,0,0:0:0:0:
296,326,43143,5,0,0:0:0:0:
440,309,43185,5,0,0:0:0:0:
296,309,43185,5,0,0:0:0:0:
440,291,43226,5,0,0:0:0:0:
440,291,43226,5,0,0:0:0:0:
296,291,43226,5,0,0:0:0:0:
296,291,43226,5,0,0:0:0:0:
32,352,43226,5,0,0:0:0:0:
224,352,43226,5,0,0:0:0:0:
256,352,43227,5,0,0:0:0:0:
480,352,43227,5,0,0:0:0:0:
128,352,43227,5,0,0:0:0:0:
96,352,43227,5,0,0:0:0:0:
480,352,43227,5,0,0:0:0:0:
0,352,43227,5,0,0:0:0:0:
64,352,43227,5,0,0:0:0:0:
192,352,43227,5,0,0:0:0:0:
160,352,43228,5,0,0:0:0:0:
440,274,43268,5,0,0:0:0:0:
296,274,43268,5,0,0:0:0:0:
224,352,43268,5,0,0:0:0:0:
32,352,43268,5,0,0:0:0:0:
0,352,43269,5,0,0:0:0:0:
480,352,43269,5,0,0:0:0:0:
192,352,43269,5,0,0:0:0:0:
64,352,43269,5,0,0:0:0:0:
480,352,43269,5,0,0:0:0:0:
256,352,43269,5,0,0:0:0:0:
96,352,43269,5,0,0:0:0:0:
128,352,43269,5,0,0:0:0:0:
160,352,43270,5,0,0:0:0:0:
408,324,43290,5,0,0:0:0:0:
440,256,43310,5,0,0:0:0:0:
296,256,43310,5,0,0:0:0:0:
440,239,43351,5,0,0:0:0:0:
440,239,43351,5,0,0:0:0:0:
296,239,43351,5,0,0:0:0:0:
296,239,43351,5,0,0:0:0:0:
440,221,43393,5,0,0:0:0:0:
296,221,43393,5,0,0:0:0:0:
32,352,43434,5,0,0:0:0:0:
224,352,43434,5,0,0:0:0:0:
256,352,43435,5,0,0:0:0:0:
480,352,43435,5,0,0:0:0:0:
128,352,43435,5,0,0:0:0:0:
96,352,43435,5,0,0:0:0:0:
480,352,43435,5,0,0:0:0:0:
0,352,43435,5,0,0:0:0:0:
64,352,43435,5,0,0:0:0:0:
192,352,43435,5,0,0:0:0:0:
440,204,43435,5,0,0:0:0:0:
296,204,43435,5,0,0:0:0:0:
160,352,43436,5,0,0:0:0:0:
324,296,43456,5,0,0:0:0:0:
440,186,43476,5,0,0:0:0:0:
440,186,43476,5,0,0:0:0:0:
296,186,43476,5,0,0:0:0:0:
296,186,43476,5,0,0:0:0:0:
439,174,43518,5,0,0:0:0:0:
295,174,43518,5,0,0:0:0:0:
437,192,43560,5,0,0:0:0:0:
293,192,43560,5,0,0:0:0:0:
224,352,43601,5,0,0:0:0:0:
32,352,43601,5,0,0:0:0:0:
430,208,43601,5,0,0:0:0:0:
430,208,43601,5,0,0:0:0:0:
286,208,43601,5,0,0:0:0:0:
286,208,43601,5,0,0:0:0:0:
416,288,43602,5,0,0:0:0:0:
0,352,43602,5,0,0:0:0:0:
480,352,43602,5,0,0:0:0:0:
192,352,43602,5,0,0:0:0:0:
64,352,43602,5,0,0:0:0:0:
480,352,43602,5,0,0:0:0:0:
256,352,43602,5,0,0:0:0:0:
96,352,43602,5,0,0:0:0:0:
128,352,43602,5,0,0:0:0:0:
160,352,43603,5,0,0:0:0:0:
404,272,43623,5,0,0:0:0:0:
418,221,43643,5,0,0:0:0:0:
274,221,43643,5,0,0:0:0:0:
404,230,43685,5,0,0:0:0:0:
260,230,43685,5,0,0:0:0:0:
388,237,43726,5,0,0:0:0:0:
388,237,43726,5,0,0:0:0:0:
244,237,43726,5,0,0:0:0:0:
244,237,43726,5,0,0:0:0:0:
32,352,43768,5,0,0:0:0:0:
371,242,43768,5,0,0:0:0:0:
227,242,43768,5,0,0:0:0:0:
96,352,43769,5,0,0:0:0:0:
0,352,43769,5,0,0:0:0:0:
128,352,43769,5,0,0:0:0:0:
64,352,43769,5,0,0:0:0:0:
160,352,43770,5,0,0:0:0:0:
353,245,43810,5,0,0:0:0:0:
209,245,43810,5,0,0:0:0:0:
128,352,43831,5,0,0:0:0:0:
336,247,43851,5,0,0:0:0:0:
336,247,43851,5,0,0:0:0:0:
192,247,43851,5,0,0:0:0:0:
192,247,43851,5,0,0:0:0:0:
32,352,43893,5,0,0:0:0:0:
319,248,43893,5,0,0:0:0:0:
175,248,43893,5,0,0:0:0:0:
0,352,43894,5,0,0:0:0:0:
128,352,43894,5,0,0:0:0:0:
64,352,43894,5,0,0:0:0:0:
96,352,43894,5,0,0:0:0:0:
160,352,43895,5,0,0:0:0:0:
128,352,43915,5,0,0:0:0:0:
32,352,43935,5,0,0:0:0:0:
301,248,43935,5,0,0:0:0:0:
301,248,43935,5,0,0:0:0:0:
157,248,43935,5,0,0:0:0:0:
157,248,43935,5,0,0:0:0:0:
0,352,43936,5,0,0:0:0:0:
96,352,43936,5,0,0:0:0:0:
64,352,43936,5,0,0:0:0:0:
284,246,43976,5,0,0:0:0:0:
284,246,43976,5,0,0:0:0:0:
140,246,43976,5,0,0:0:0:0:
140,246,43976,5,0,0:0:0:0:
128,352,43998,5,0,0:0:0:0:
267,240,44018,5,0,0:0:0:0:
267,240,44018,5,0,0:0:0:0:
123,240,44018,5,0,0:0:0:0:
123,240,44018,5,0,0:0:0:0:
251,233,44060,5,0,0:0:0:0:
251,233,44060,5,0,0:0:0:0:
107,233,44060,5,0,0:0:0:0:
107,233,44060,5,0,0:0:0:0:
236,224,44101,5,0,0:0:0:0:
236,224,44101,5,0,0:0:0:0:
92,224,44101,5,0,0:0:0:0:
92,224,44101,5,0,0:0:0:0:
352,288,44102,5,0,0:0:0:0:
416,288,44102,5,0,0:0:0:0:
352,288,44102,5,0,0:0:0:0:
222,213,44143,5,0,0:0:0:0:
222,213,44143,5,0,0:0:0:0:
78,213,44143,5,0,0:0:0:0:
78,213,44143,5,0,0:0:0:0:
210,201,44185,5,0,0:0:0:0:
210,201,44185,5,0,0:0:0:0:
66,201,44185,5,0,0:0:0:0:
66,201,44185,5,0,0:0:0:0:
200,186,44226,5,0,0:0:0:0:
200,186,44226,5,0,0:0:0:0:
56,186,44226,5,0,0:0:0:0:
56,186,44226,5,0,0:0:0:0:
480,352,44267,5,0,0:0:0:0:
32,352,44268,5,0,0:0:0:0:
193,170,44268,5,0,0:0:0:0:
193,170,44268,5,0,0:0:0:0:
49,170,44268,5,0,0:0:0:0:
49,170,44268,5,0,0:0:0:0:
512,352,44268,5,0,0:0:0:0:
448,352,44268,5,0,0:0:0:0:
0,352,44269,5,0,0:0:0:0:
64,352,44269,5,0,0:0:0:0:
192,153,44310,5,0,0:0:0:0:
192,153,44310,5,0,0:0:0:0:
48,153,44310,5,0,0:0:0:0:
48,153,44310,5,0,0:0:0:0:
199,138,44351,5,0,0:0:0:0:
199,138,44351,5,0,0:0:0:0:
55,138,44351,5,0,0:0:0:0:
55,138,44351,5,0,0:0:0:0:
480,352,44392,5,0,0:0:0:0:
32,352,44393,5,0,0:0:0:0:
214,129,44393,5,0,0:0:0:0:
214,129,44393,5,0,0:0:0:0:
70,129,44393,5,0,0:0:0:0:
70,129,44393,5,0,0:0:0:0:
512,352,44393,5,0,0:0:0:0:
416,352,44393,5,0,0:0:0:0:
448,352,44393,5,0,0:0:0:0:
0,352,44394,5,0,0:0:0:0:
64,352,44394,5,0,0:0:0:0:
480,352,44434,5,0,0:0:0:0:
32,352,44435,5,0,0:0:0:0:
232,127,44435,5,0,0:0:0:0:
232,127,44435,5,0,0:0:0:0:
88,127,44435,5,0,0:0:0:0:
88,127,44435,5,0,0:0:0:0:
512,352,44435,5,0,0:0:0:0:
448,352,44435,5,0,0:0:0:0:
416,352,44435,5,0,0:0:0:0:
0,352,44436,5,0,0:0:0:0:
64,352,44436,5,0,0:0:0:0:
249,129,44476,5,0,0:0:0:0:
249,129,44476,5,0,0:0:0:0:
105,129,44476,5,0,0:0:0:0:
105,129,44476,5,0,0:0:0:0:
266,134,44518,5,0,0:0:0:0:
266,134,44518,5,0,0:0:0:0:
122,134,44518,5,0,0:0:0:0:
122,134,44518,5,0,0:0:0:0:
281,143,44560,5,0,0:0:0:0:
281,143,44560,5,0,0:0:0:0:
137,143,44560,5,0,0:0:0:0:
137,143,44560,5,0,0:0:0:0:
480,352,44600,5,0,0:0:0:0:
32,352,44601,5,0,0:0:0:0:
294,155,44601,5,0,0:0:0:0:
294,155,44601,5,0,0:0:0:0:
150,155,44601,5,0,0:0:0:0:
150,155,44601,5,0,0:0:0:0:
512,352,44601,5,0,0:0:0:0:
416,352,44601,5,0,0:0:0:0:
448,352,44601,5,0,0:0:0:0:
0,352,44602,5,0,0:0:0:0:
64,352,44602,5,0,0:0:0:0:
305,168,44643,5,0,0:0:0:0:
305,168,44643,5,0,0:0:0:0:
161,168,44643,5,0,0:0:0:0:
161,168,44643,5,0,0:0:0:0:
314,183,44685,5,0,0:0:0:0:
314,183,44685,5,0,0:0:0:0:
170,183,44685,5,0,0:0:0:0:
170,183,44685,5,0,0:0:0:0:
322,199,44726,5,0,0:0:0:0:
322,199,44726,5,0,0:0:0:0:
178,199,44726,5,0,0:0:0:0:
178,199,44726,5,0,0:0:0:0:
480,352,44767,5,0,0:0:0:0:
32,352,44768,5,0,0:0:0:0:
327,215,44768,5,0,0:0:0:0:
327,215,44768,5,0,0:0:0:0:
183,215,44768,5,0,0:0:0:0:
183,215,44768,5,0,0:0:0:0:
448,352,44768,5,0,0:0:0:0:
416,352,44768,5,0,0:0:0:0:
512,352,44768,5,0,0:0:0:0:
64,352,44769,5,0,0:0:0:0:
0,352,44769,5,0,0:0:0:0:
331,232,44810,5,0,0:0:0:0:
331,232,44810,5,0,0:0:0:0:
187,232,44810,5,0,0:0:0:0:
187,232,44810,5,0,0:0:0:0:
334,250,44851,5,0,0:0:0:0:
334,250,44851,5,0,0:0:0:0:
190,250,44851,5,0,0:0:0:0:
190,250,44851,5,0,0:0:0:0:
335,267,44893,5,0,0:0:0:0:
335,267,44893,5,0,0:0:0:0:
191,267,44893,5,0,0:0:0:0:
191,267,44893,5,0,0:0:0:0:
480,352,44934,5,0,0:0:0:0:
32,352,44935,5,0,0:0:0:0:
335,285,44935,5,0,0:0:0:0:
335,285,44935,5,0,0:0:0:0:
191,285,44935,5,0,0:0:0:0:
191,285,44935,5,0,0:0:0:0:
512,352,44935,5,0,0:0:0:0:
416,352,44935,5,0,0:0:0:0:
448,352,44935,5,0,0:0:0:0:
0,352,44936,5,0,0:0:0:0:
64,352,44936,5,0,0:0:0:0:
335,302,44976,5,0,0:0:0:0:
335,302,44976,5,0,0:0:0:0:
191,302,44976,5,0,0:0:0:0:
191,302,44976,5,0,0:0:0:0:
334,320,45018,5,0,0:0:0:0:
334,320,45018,5,0,0:0:0:0:
190,320,45018,5,0,0:0:0:0:
190,320,45018,5,0,0:0:0:0:
480,352,45059,5,0,0:0:0:0:
32,352,45060,5,0,0:0:0:0:
332,337,45060,5,0,0:0:0:0:
332,337,45060,5,0,0:0:0:0:
188,337,45060,5,0,0:0:0:0:
188,337,45060,5,0,0:0:0:0:
448,352,45060,5,0,0:0:0:0:
512,352,45060,5,0,0:0:0:0:
416,352,45060,5,0,0:0:0:0:
0,352,45061,5,0,0:0:0:0:
64,352,45061,5,0,0:0:0:0:
329,354,45101,5,0,0:0:0:0:
329,354,45101,5,0,0:0:0:0:
185,354,45101,5,0,0:0:0:0:
185,354,45101,5,0,0:0:0:0:
480,352,45101,5,0,0:0:0:0:
32,352,45102,5,0,0:0:0:0:
512,352,45102,5,0,0:0:0:0:
416,352,45102,5,0,0:0:0:0:
448,352,45102,5,0,0:0:0:0:
0,352,45103,5,0,0:0:0:0:
64,352,45103,5,0,0:0:0:0:
0,96,45435,5,0,0:0:0:0:
512,96,45435,5,0,0:0:0:0:
256,96,45435,5,0,0:0:0:0:
448,96,45435,5,0,0:0:0:0:
64,96,45435,5,0,0:0:0:0:
64,96,45519,5,0,0:0:0:0:
256,96,45519,5,0,0:0:0:0:
256,96,45602,5,0,0:0:0:0:
448,96,45602,5,0,0:0:0:0:
64,96,45602,5,0,0:0:0:0:
256,96,45685,5,0,0:0:0:0:
448,96,45685,5,0,0:0:0:0:
64,96,45685,5,0,0:0:0:0:
448,96,45769,5,0,0:0:0:0:
64,96,45769,5,0,0:0:0:0:
256,96,45769,5,0,0:0:0:0:
448,96,45852,5,0,0:0:0:0:
64,96,45852,5,0,0:0:0:0:
448,96,45935,5,0,0:0:0:0:
64,96,45935,5,0,0:0:0:0:
448,96,46019,5,0,0:0:0:0:
64,96,46019,5,0,0:0:0:0:
256,96,46019,5,0,0:0:0:0:
256,96,46102,5,0,0:0:0:0:
448,96,46102,5,0,0:0:0:0:
64,96,46102,5,0,0:0:0:0:
256,96,46185,5,0,0:0:0:0:
448,96,46185,5,0,0:0:0:0:
64,96,46185,5,0,0:0:0:0:
256,96,46269,5,0,0:0:0:0:
448,96,46269,5,0,0:0:0:0:
64,96,46269,5,0,0:0:0:0:
96,64,46269,5,0,0:0:0:0:
128,64,46269,5,0,0:0:0:0:
160,64,46269,5,0,0:0:0:0:
192,64,46269,5,0,0:0:0:0:
224,64,46269,5,0,0:0:0:0:
512,96,46269,5,0,0:0:0:0:
0,96,46269,5,0,0:0:0:0:
256,96,46352,5,0,0:0:0:0:
448,96,46352,5,0,0:0:0:0:
64,96,46352,5,0,0:0:0:0:
256,96,46435,5,0,0:0:0:0:
448,96,46435,5,0,0:0:0:0:
64,96,46435,5,0,0:0:0:0:
256,96,46519,5,0,0:0:0:0:
448,96,46519,5,0,0:0:0:0:
64,96,46519,5,0,0:0:0:0:
448,96,46602,5,0,0:0:0:0:
64,96,46602,5,0,0:0:0:0:
448,96,46685,5,0,0:0:0:0:
64,96,46685,5,0,0:0:0:0:
256,96,46769,5,0,0:0:0:0:
448,96,46769,5,0,0:0:0:0:
64,96,46769,5,0,0:0:0:0:
256,96,46852,5,0,0:0:0:0:
448,96,46852,5,0,0:0:0:0:
64,96,46852,5,0,0:0:0:0:
192,64,46935,5,0,0:0:0:0:
224,64,46935,5,0,0:0:0:0:
160,64,46935,5,0,0:0:0:0:
96,64,46935,5,0,0:0:0:0:
128,64,46935,5,0,0:0:0:0:
256,96,46935,5,0,0:0:0:0:
448,96,46935,5,0,0:0:0:0:
64,96,46935,5,0,0:0:0:0:
256,96,47019,5,0,0:0:0:0:
448,96,47019,5,0,0:0:0:0:
64,96,47019,5,0,0:0:0:0:
448,96,47102,5,0,0:0:0:0:
64,96,47102,5,0,0:0:0:0:
448,96,47185,5,0,0:0:0:0:
64,96,47185,5,0,0:0:0:0:
256,96,47269,5,0,0:0:0:0:
448,96,47269,5,0,0:0:0:0:
64,96,47269,5,0,0:0:0:0:
256,96,47352,5,0,0:0:0:0:
448,96,47352,5,0,0:0:0:0:
64,96,47352,5,0,0:0:0:0:
256,96,47435,5,0,0:0:0:0:
448,96,47435,5,0,0:0:0:0:
64,96,47435,5,0,0:0:0:0:
256,96,47519,5,0,0:0:0:0:
448,96,47519,5,0,0:0:0:0:
64,96,47519,5,0,0:0:0:0:
0,96,47519,5,0,0:0:0:0:
512,96,47519,5,0,0:0:0:0:
288,64,47519,5,0,0:0:0:0:
384,64,47519,5,0,0:0:0:0:
352,64,47519,5,0,0:0:0:0:
320,64,47519,5,0,0:0:0:0:
416,64,47519,5,0,0:0:0:0:
256,96,47602,5,0,0:0:0:0:
448,96,47602,5,0,0:0:0:0:
64,96,47602,5,0,0:0:0:0:
256,96,47685,5,0,0:0:0:0:
448,96,47685,5,0,0:0:0:0:
64,96,47685,5,0,0:0:0:0:
64,96,47769,5,0,0:0:0:0:
256,96,47769,5,0,0:0:0:0:
448,96,47769,5,0,0:0:0:0:
64,96,47852,5,0,0:0:0:0:
448,96,47852,5,0,0:0:0:0:
448,96,47935,5,0,0:0:0:0:
64,96,47935,5,0,0:0:0:0:
64,96,48019,5,0,0:0:0:0:
256,96,48019,5,0,0:0:0:0:
448,96,48019,5,0,0:0:0:0:
256,96,48102,5,0,0:0:0:0:
448,96,48102,5,0,0:0:0:0:
64,96,48102,5,0,0:0:0:0:
448,96,48185,5,0,0:0:0:0:
256,96,48185,5,0,0:0:0:0:
64,96,48185,5,0,0:0:0:0:
512,96,48269,5,0,0:0:0:0:
448,96,48269,5,0,0:0:0:0:
0,96,48269,5,0,0:0:0:0:
256,96,48269,5,0,0:0:0:0:
64,96,48269,5,0,0:0:0:0:
416,64,48269,5,0,0:0:0:0:
288,64,48269,5,0,0:0:0:0:
352,64,48269,5,0,0:0:0:0:
320,64,48269,5,0,0:0:0:0:
384,64,48269,5,0,0:0:0:0:
256,96,48352,5,0,0:0:0:0:
64,96,48352,5,0,0:0:0:0:
448,96,48352,5,0,0:0:0:0:
256,96,48435,5,0,0:0:0:0:
448,96,48435,5,0,0:0:0:0:
64,96,48435,5,0,0:0:0:0:
448,96,48519,5,0,0:0:0:0:
256,96,48519,5,0,0:0:0:0:
64,96,48519,5,0,0:0:0:0:
512,96,48519,5,0,0:0:0:0:
0,96,48519,5,0,0:0:0:0:
0,96,48769,5,0,0:0:0:0:
160,96,48769,5,0,0:0:0:0:
320,96,48769,5,0,0:0:0:0:
480,96,48769,5,0,0:0:0:0:
352,96,48936,5,0,0:0:0:0:
512,96,48936,5,0,0:0:0:0:
32,96,48936,5,0,0:0:0:0:
192,96,48936,5,0,0:0:0:0:
64,96,49102,5,0,0:0:0:0:
224,96,49102,5,0,0:0:0:0:
384,96,49102,5,0,0:0:0:0:
416,96,49269,5,0,0:0:0:0:
96,96,49269,5,0,0:0:0:0:
256,96,49269,5,0,0:0:0:0:
448,96,49436,5,0,0:0:0:0:
128,96,49436,5,0,0:0:0:0:
288,96,49436,5,0,0:0:0:0:
160,96,49602,5,0,0:0:0:0:
0,96,49602,5,0,0:0:0:0:
480,96,49602,5,0,0:0:0:0:
320,96,49602,5,0,0:0:0:0:
512,96,49769,5,0,0:0:0:0:
32,96,49769,5,0,0:0:0:0:
192,96,49769,5,0,0:0:0:0:
352,96,49769,5,0,0:0:0:0:
224,96,49935,5,0,0:0:0:0:
384,96,49935,5,0,0:0:0:0:
64,96,49935,5,0,0:0:0:0:
96,96,50102,5,0,0:0:0:0:
256,96,50102,5,0,0:0:0:0:
416,96,50102,5,0,0:0:0:0:
128,96,50269,5,0,0:0:0:0:
288,96,50269,5,0,0:0:0:0:
448,96,50269,5,0,0:0:0:0:
320,96,50435,5,0,0:0:0:0:
480,96,50435,5,0,0:0:0:0:
0,96,50435,5,0,0:0:0:0:
160,96,50435,5,0,0:0:0:0:
352,96,50602,5,0,0:0:0:0:
512,96,50602,5,0,0:0:0:0:
32,96,50602,5,0,0:0:0:0:
192,96,50602,5,0,0:0:0:0:
384,96,50768,5,0,0:0:0:0:
224,96,50768,5,0,0:0:0:0:
64,96,50768,5,0,0:0:0:0:
96,64,50852,5,0,0:0:0:0:
384,64,50852,5,0,0:0:0:0:
32,64,50852,5,0,0:0:0:0:
448,64,50852,5,0,0:0:0:0:
160,64,50852,5,0,0:0:0:0:
512,64,50852,5,0,0:0:0:0:
64,64,50852,5,0,0:0:0:0:
416,64,50852,5,0,0:0:0:0:
128,64,50852,5,0,0:0:0:0:
480,64,50852,5,0,0:0:0:0:
192,64,50853,5,0,0:0:0:0:
256,256,51040,5,0,0:0:0:0:
320,256,51040,5,0,0:0:0:0:
288,256,51040,5,0,0:0:0:0:
352,256,51040,5,0,0:0:0:0:
224,256,51040,5,0,0:0:0:0:
384,256,51040,5,0,0:0:0:0:
192,256,51040,5,0,0:0:0:0:
96,128,51102,6,0,L|128:288,1,140
480,160,51269,6,0,L|448:320,1,140
128,64,51352,6,0,L|256:128,1,140
256,96,51644,6,0,L|224:224,1,105
448,128,51769,6,0,L|320:64,1,140
192,224,51935,6,0,L|64:160,1,140
256,288,52206,5,0,0:0:0:0:
288,288,52227,5,0,0:0:0:0:
320,288,52248,5,0,0:0:0:0:
352,288,52268,5,0,0:0:0:0:
384,288,52289,5,0,0:0:0:0:
32,192,52290,5,0,0:0:0:0:
64,192,52310,5,0,0:0:0:0:
416,288,52310,5,0,0:0:0:0:
96,192,52331,5,0,0:0:0:0:
128,192,52352,5,0,0:0:0:0:
160,192,52373,5,0,0:0:0:0:
192,192,52394,5,0,0:0:0:0:
224,192,52415,5,0,0:0:0:0:
256,192,52435,5,0,0:0:0:0:
288,192,52456,5,0,0:0:0:0:
320,192,52477,5,0,0:0:0:0:
352,192,52498,5,0,0:0:0:0:
384,192,52518,5,0,0:0:0:0:
416,192,52539,5,0,0:0:0:0:
432,192,52560,5,0,0:0:0:0:
440,192,52581,5,0,0:0:0:0:
444,184,52602,5,0,0:0:0:0:
448,160,52623,5,0,0:0:0:0:
448,128,52644,5,0,0:0:0:0:
448,128,52665,5,0,0:0:0:0:
448,128,52685,5,0,0:0:0:0:
448,128,52706,5,0,0:0:0:0:
448,128,52727,5,0,0:0:0:0:
448,128,52748,5,0,0:0:0:0:
448,128,52769,5,0,0:0:0:0:
416,128,52790,5,0,0:0:0:0:
384,128,52810,5,0,0:0:0:0:
352,128,52831,5,0,0:0:0:0:
320,128,52852,5,0,0:0:0:0:
288,128,52873,5,0,0:0:0:0:
256,128,52894,5,0,0:0:0:0:
256,128,52915,5,0,0:0:0:0:
512,64,52935,5,0,0:0:0:0:
256,128,52935,5,0,0:0:0:0:
480,64,52956,5,0,0:0:0:0:
448,64,52976,5,0,0:0:0:0:
96,64,52977,5,0,0:0:0:0:
416,64,52997,5,0,0:0:0:0:
96,64,52998,5,0,0:0:0:0:
384,64,53018,5,0,0:0:0:0:
128,64,53019,5,0,0:0:0:0:
352,64,53039,5,0,0:0:0:0:
160,64,53040,5,0,0:0:0:0:
192,64,53061,5,0,0:0:0:0:
224,64,53082,5,0,0:0:0:0:
224,64,53102,5,0,0:0:0:0:
228,96,53123,5,0,0:0:0:0:
224,96,53144,5,0,0:0:0:0:
192,96,53164,5,0,0:0:0:0:
160,96,53185,5,0,0:0:0:0:
128,96,53206,5,0,0:0:0:0:
96,96,53227,5,0,0:0:0:0:
64,96,53248,5,0,0:0:0:0:
416,32,53269,5,0,0:0:0:0:
32,96,53269,5,0,0:0:0:0:
384,32,53290,5,0,0:0:0:0:
352,32,53310,5,0,0:0:0:0:
320,32,53331,5,0,0:0:0:0:
288,32,53352,5,0,0:0:0:0:
256,32,53373,5,0,0:0:0:0:
224,32,53394,5,0,0:0:0:0:
192,32,53415,5,0,0:0:0:0:
160,32,53435,5,0,0:0:0:0:
128,32,53456,5,0,0:0:0:0:
96,32,53477,5,0,0:0:0:0:
96,32,53498,5,0,0:0:0:0:
96,32,53519,5,0,0:0:0:0:
96,32,53540,5,0,0:0:0:0:
128,96,53685,5,0,0:0:0:0:
160,96,53768,5,0,0:0:0:0:
0,160,53769,5,0,0:0:0:0:
32,160,53852,5,0,0:0:0:0:
192,96,53852,5,0,0:0:0:0:
64,160,53935,5,0,0:0:0:0:
224,96,53935,5,0,0:0:0:0:
256,96,54018,5,0,0:0:0:0:
96,160,54019,5,0,0:0:0:0:
128,160,54102,5,0,0:0:0:0:
288,96,54102,5,0,0:0:0:0:
160,160,54185,5,0,0:0:0:0:
320,96,54185,5,0,0:0:0:0:
0,224,54186,5,0,0:0:0:0:
352,96,54268,5,0,0:0:0:0:
192,160,54269,5,0,0:0:0:0:
32,224,54269,5,0,0:0:0:0:
64,224,54352,5,0,0:0:0:0:
384,96,54352,5,0,0:0:0:0:
416,96,54435,5,0,0:0:0:0:
96,224,54436,5,0,0:0:0:0:
448,96,54518,5,0,0:0:0:0:
128,224,54519,5,0,0:0:0:0:
288,160,54519,5,0,0:0:0:0:
320,160,54602,5,0,0:0:0:0:
160,224,54602,5,0,0:0:0:0:
480,96,54602,5,0,0:0:0:0:
0,288,54602,5,0,0:0:0:0:
352,160,54685,5,0,0:0:0:0:
512,96,54685,5,0,0:0:0:0:
32,288,54685,5,0,0:0:0:0:
192,224,54686,5,0,0:0:0:0:
448,192,54706,5,0,0:0:0:0:
416,192,54727,5,0,0:0:0:0:
384,192,54748,5,0,0:0:0:0:
64,288,54768,5,0,0:0:0:0:
384,160,54769,5,0,0:0:0:0:
224,224,54769,5,0,0:0:0:0:
416,160,54852,5,0,0:0:0:0:
96,288,54852,5,0,0:0:0:0:
256,224,54852,5,0,0:0:0:0:
448,160,54935,5,0,0:0:0:0:
128,288,54935,5,0,0:0:0:0:
288,224,54936,5,0,0:0:0:0:
160,288,55018,5,0,0:0:0:0:
480,160,55019,5,0,0:0:0:0:
512,160,55102,5,0,0:0:0:0:
192,288,55102,5,0,0:0:0:0:
480,256,55123,5,0,0:0:0:0:
448,256,55144,5,0,0:0:0:0:
416,256,55165,5,0,0:0:0:0:
224,288,55185,5,0,0:0:0:0:
384,224,55186,5,0,0:0:0:0:
416,224,55269,5,0,0:0:0:0:
0,320,55352,5,0,0:0:0:0:
448,224,55352,5,0,0:0:0:0:
32,320,55435,5,0,0:0:0:0:
320,288,55435,5,0,0:0:0:0:
480,224,55436,5,0,0:0:0:0:
64,320,55518,5,0,0:0:0:0:
352,288,55518,5,0,0:0:0:0:
512,224,55519,5,0,0:0:0:0:
96,320,55602,5,0,0:0:0:0:
384,288,55602,5,0,0:0:0:0:
416,288,55685,5,0,0:0:0:0:
448,288,55768,5,0,0:0:0:0:
192,320,55852,5,0,0:0:0:0:
480,288,55852,5,0,0:0:0:0:
224,320,55935,5,0,0:0:0:0:
512,288,55935,5,0,0:0:0:0:
288,320,56102,5,0,0:0:0:0:
84,288,56123,6,0,B|52:32|52:32|20:288,1,516.25
208,288,56123,6,0,B|176:32|176:32|144:288,1,516.25
320,320,56185,5,0,0:0:0:0:
256,192,56227,5,0,0:0:0:0:
320,192,56248,5,0,0:0:0:0:
352,320,56269,5,0,0:0:0:0:
384,192,56269,5,0,0:0:0:0:
448,192,56290,5,0,0:0:0:0:
512,192,56310,5,0,0:0:0:0:
384,320,56352,5,0,0:0:0:0:
256,192,56352,5,0,0:0:0:0:
320,192,56373,5,0,0:0:0:0:
384,192,56394,5,0,0:0:0:0:
448,192,56415,5,0,0:0:0:0:
416,320,56435,5,0,0:0:0:0:
512,192,56435,5,0,0:0:0:0:
256,192,56498,5,0,0:0:0:0:
320,192,56519,5,0,0:0:0:0:
448,320,56519,5,0,0:0:0:0:
384,192,56540,5,0,0:0:0:0:
256,320,56540,5,0,0:0:0:0:
448,192,56561,5,0,0:0:0:0:
512,192,56581,5,0,0:0:0:0:
480,320,56602,5,0,0:0:0:0:
512,320,56685,5,0,0:0:0:0:
256,192,56706,5,0,0:0:0:0:
320,192,56727,5,0,0:0:0:0:
384,192,56748,5,0,0:0:0:0:
448,192,56769,5,0,0:0:0:0:
512,192,56789,5,0,0:0:0:0:
256,192,56873,5,0,0:0:0:0:
320,192,56894,5,0,0:0:0:0:
384,192,56915,5,0,0:0:0:0:
448,192,56936,5,0,0:0:0:0:
512,192,56956,5,0,0:0:0:0:
492,288,56956,6,0,B|460:32|460:32|428:288,1,516.25
368,288,56956,6,0,B|336:32|336:32|304:288,1,516.25
256,192,56977,5,0,0:0:0:0:
320,192,56998,5,0,0:0:0:0:
384,192,57019,5,0,0:0:0:0:
448,192,57040,5,0,0:0:0:0:
512,192,57060,5,0,0:0:0:0:
256,192,57081,5,0,0:0:0:0:
320,192,57102,5,0,0:0:0:0:
384,192,57123,5,0,0:0:0:0:
448,192,57144,5,0,0:0:0:0:
512,192,57164,5,0,0:0:0:0:
256,192,57186,5,0,0:0:0:0:
320,192,57207,5,0,0:0:0:0:
384,192,57228,5,0,0:0:0:0:
448,192,57249,5,0,0:0:0:0:
512,192,57269,5,0,0:0:0:0:
12,264,57456,5,0,0:0:0:0:
136,264,57477,5,0,0:0:0:0:
9,246,57497,5,0,0:0:0:0:
133,246,57518,5,0,0:0:0:0:
7,229,57539,5,0,0:0:0:0:
131,229,57560,5,0,0:0:0:0:
7,211,57580,5,0,0:0:0:0:
131,211,57601,5,0,0:0:0:0:
8,194,57622,5,0,0:0:0:0:
132,194,57643,5,0,0:0:0:0:
11,177,57664,5,0,0:0:0:0:
135,177,57685,5,0,0:0:0:0:
15,159,57705,5,0,0:0:0:0:
139,159,57726,5,0,0:0:0:0:
20,143,57747,5,0,0:0:0:0:
144,143,57768,5,0,0:0:0:0:
26,126,57789,5,0,0:0:0:0:
150,126,57810,5,0,0:0:0:0:
34,111,57830,5,0,0:0:0:0:
158,111,57851,5,0,0:0:0:0:
43,96,57872,5,0,0:0:0:0:
167,96,57893,5,0,0:0:0:0:
53,81,57914,5,0,0:0:0:0:
177,81,57935,5,0,0:0:0:0:
64,68,57955,5,0,0:0:0:0:
188,68,57976,5,0,0:0:0:0:
76,55,57997,5,0,0:0:0:0:
200,55,58018,5,0,0:0:0:0:
89,43,58039,5,0,0:0:0:0:
213,43,58060,5,0,0:0:0:0:
103,33,58080,5,0,0:0:0:0:
227,33,58101,5,0,0:0:0:0:
117,23,58122,5,0,0:0:0:0:
241,23,58143,5,0,0:0:0:0:
312,88,58602,5,0,0:0:0:0:
344,112,58623,5,0,0:0:0:0:
280,116,58644,5,0,0:0:0:0:
260,152,58665,5,0,0:0:0:0:
364,156,58686,5,0,0:0:0:0:
348,184,58707,5,0,0:0:0:0:
460,216,58727,5,0,0:0:0:0:
288,188,58727,5,0,0:0:0:0:
492,240,58748,5,0,0:0:0:0:
316,208,58748,5,0,0:0:0:0:
428,244,58769,5,0,0:0:0:0:
408,280,58790,5,0,0:0:0:0:
512,284,58811,5,0,0:0:0:0:
120,136,58831,5,0,0:0:0:0:
496,312,58832,5,0,0:0:0:0:
436,316,58852,5,0,0:0:0:0:
152,160,58852,5,0,0:0:0:0:
464,336,58873,5,0,0:0:0:0:
88,164,58873,5,0,0:0:0:0:
68,200,58894,5,0,0:0:0:0:
172,204,58915,5,0,0:0:0:0:
156,232,58936,5,0,0:0:0:0:
96,236,58956,5,0,0:0:0:0:
124,256,58977,5,0,0:0:0:0:
264,330,59102,5,0,0:0:0:0:
432,334,59102,5,0,0:0:0:0:
432,317,59144,5,0,0:0:0:0:
264,313,59144,5,0,0:0:0:0:
263,295,59185,5,0,0:0:0:0:
431,299,59185,5,0,0:0:0:0:
160,288,59227,5,0,0:0:0:0:
32,288,59227,5,0,0:0:0:0:
64,288,59227,5,0,0:0:0:0:
128,288,59227,5,0,0:0:0:0:
192,288,59227,5,0,0:0:0:0:
262,260,59269,5,0,0:0:0:0:
430,264,59269,5,0,0:0:0:0:
430,247,59310,5,0,0:0:0:0:
262,243,59310,5,0,0:0:0:0:
261,225,59352,5,0,0:0:0:0:
429,229,59352,5,0,0:0:0:0:
160,288,59394,5,0,0:0:0:0:
96,288,59394,5,0,0:0:0:0:
32,288,59394,5,0,0:0:0:0:
128,288,59394,5,0,0:0:0:0:
192,288,59394,5,0,0:0:0:0:
260,190,59435,5,0,0:0:0:0:
428,194,59435,5,0,0:0:0:0:
384,280,59457,5,0,0:0:0:0:
260,173,59477,5,0,0:0:0:0:
428,177,59477,5,0,0:0:0:0:
427,159,59519,5,0,0:0:0:0:
259,155,59519,5,0,0:0:0:0:
259,138,59560,5,0,0:0:0:0:
427,142,59560,5,0,0:0:0:0:
32,288,59561,5,0,0:0:0:0:
160,288,59561,5,0,0:0:0:0:
64,288,59561,5,0,0:0:0:0:
192,288,59561,5,0,0:0:0:0:
128,288,59561,5,0,0:0:0:0:
304,264,59582,5,0,0:0:0:0:
426,124,59602,5,0,0:0:0:0:
258,120,59602,5,0,0:0:0:0:
258,103,59644,5,0,0:0:0:0:
426,107,59644,5,0,0:0:0:0:
425,89,59685,5,0,0:0:0:0:
257,85,59685,5,0,0:0:0:0:
96,288,59727,5,0,0:0:0:0:
160,288,59727,5,0,0:0:0:0:
192,288,59727,5,0,0:0:0:0:
128,288,59727,5,0,0:0:0:0:
128,288,59727,5,0,0:0:0:0:
304,192,59748,5,0,0:0:0:0:
423,73,59769,5,0,0:0:0:0:
255,69,59769,5,0,0:0:0:0:
253,86,59810,5,0,0:0:0:0:
421,90,59810,5,0,0:0:0:0:
419,108,59852,5,0,0:0:0:0:
251,104,59852,5,0,0:0:0:0:
96,288,59893,5,0,0:0:0:0:
128,288,59893,5,0,0:0:0:0:
0,288,59894,5,0,0:0:0:0:
64,288,59894,5,0,0:0:0:0:
96,288,59894,5,0,0:0:0:0:
32,288,59894,5,0,0:0:0:0:
128,288,59894,5,0,0:0:0:0:
372,176,59915,5,0,0:0:0:0:
246,138,59935,5,0,0:0:0:0:
414,142,59935,5,0,0:0:0:0:
412,160,59977,5,0,0:0:0:0:
412,160,59977,5,0,0:0:0:0:
244,156,59977,5,0,0:0:0:0:
412,160,59977,5,0,0:0:0:0:
410,177,60019,5,0,0:0:0:0:
410,177,60019,5,0,0:0:0:0:
242,173,60019,5,0,0:0:0:0:
410,177,60019,5,0,0:0:0:0:
96,288,60060,5,0,0:0:0:0:
407,194,60060,5,0,0:0:0:0:
407,194,60060,5,0,0:0:0:0:
128,288,60060,5,0,0:0:0:0:
96,288,60061,5,0,0:0:0:0:
0,288,60061,5,0,0:0:0:0:
32,288,60061,5,0,0:0:0:0:
64,288,60061,5,0,0:0:0:0:
128,288,60061,5,0,0:0:0:0:
237,208,60102,5,0,0:0:0:0:
405,212,60102,5,0,0:0:0:0:
405,212,60102,5,0,0:0:0:0:
405,212,60102,5,0,0:0:0:0:
234,225,60144,5,0,0:0:0:0:
402,229,60144,5,0,0:0:0:0:
402,229,60144,5,0,0:0:0:0:
402,229,60144,5,0,0:0:0:0:
400,246,60185,5,0,0:0:0:0:
400,246,60185,5,0,0:0:0:0:
232,242,60185,5,0,0:0:0:0:
400,246,60185,5,0,0:0:0:0:
32,288,60227,5,0,0:0:0:0:
64,288,60227,5,0,0:0:0:0:
96,288,60227,5,0,0:0:0:0:
128,288,60227,5,0,0:0:0:0:
128,288,60227,5,0,0:0:0:0:
245,221,60269,5,0,0:0:0:0:
413,225,60269,5,0,0:0:0:0:
413,225,60269,5,0,0:0:0:0:
413,225,60269,5,0,0:0:0:0:
253,205,60310,5,0,0:0:0:0:
421,209,60310,5,0,0:0:0:0:
421,209,60310,5,0,0:0:0:0:
421,209,60310,5,0,0:0:0:0:
261,189,60352,5,0,0:0:0:0:
429,193,60352,5,0,0:0:0:0:
429,193,60352,5,0,0:0:0:0:
429,193,60352,5,0,0:0:0:0:
96,288,60393,5,0,0:0:0:0:
128,288,60393,5,0,0:0:0:0:
64,288,60394,5,0,0:0:0:0:
32,288,60394,5,0,0:0:0:0:
0,288,60394,5,0,0:0:0:0:
96,288,60394,5,0,0:0:0:0:
128,288,60394,5,0,0:0:0:0:
446,162,60435,5,0,0:0:0:0:
446,162,60435,5,0,0:0:0:0:
278,158,60435,5,0,0:0:0:0:
446,162,60435,5,0,0:0:0:0:
454,146,60477,5,0,0:0:0:0:
454,146,60477,5,0,0:0:0:0:
286,142,60477,5,0,0:0:0:0:
454,146,60477,5,0,0:0:0:0:
320,148,60498,5,0,0:0:0:0:
288,126,60519,5,0,0:0:0:0:
456,130,60519,5,0,0:0:0:0:
456,130,60519,5,0,0:0:0:0:
456,130,60519,5,0,0:0:0:0:
280,110,60560,5,0,0:0:0:0:
448,114,60560,5,0,0:0:0:0:
448,114,60560,5,0,0:0:0:0:
448,114,60560,5,0,0:0:0:0:
96,288,60561,5,0,0:0:0:0:
0,288,60561,5,0,0:0:0:0:
32,288,60561,5,0,0:0:0:0:
64,288,60561,5,0,0:0:0:0:
128,288,60561,5,0,0:0:0:0:
272,95,60602,5,0,0:0:0:0:
440,99,60602,5,0,0:0:0:0:
440,99,60602,5,0,0:0:0:0:
440,99,60602,5,0,0:0:0:0:
261,80,60644,5,0,0:0:0:0:
429,84,60644,5,0,0:0:0:0:
429,84,60644,5,0,0:0:0:0:
429,84,60644,5,0,0:0:0:0:
420,69,60685,5,0,0:0:0:0:
420,69,60685,5,0,0:0:0:0:
252,65,60685,5,0,0:0:0:0:
420,69,60685,5,0,0:0:0:0:
480,352,60727,5,0,0:0:0:0:
448,352,60727,5,0,0:0:0:0:
512,352,60727,5,0,0:0:0:0:
416,352,60727,5,0,0:0:0:0:
356,228,60748,5,0,0:0:0:0:
399,40,60769,5,0,0:0:0:0:
399,40,60769,5,0,0:0:0:0:
231,36,60769,5,0,0:0:0:0:
399,40,60769,5,0,0:0:0:0:
389,25,60810,5,0,0:0:0:0:
389,25,60810,5,0,0:0:0:0:
221,21,60810,5,0,0:0:0:0:
389,25,60810,5,0,0:0:0:0:
209,8,60852,5,0,0:0:0:0:
377,12,60852,5,0,0:0:0:0:
377,12,60852,5,0,0:0:0:0:
377,12,60852,5,0,0:0:0:0:
480,352,60894,5,0,0:0:0:0:
448,352,60894,5,0,0:0:0:0:
416,352,60894,5,0,0:0:0:0:
512,352,60894,5,0,0:0:0:0:
183,32,60935,5,0,0:0:0:0:
351,36,60935,5,0,0:0:0:0:
351,36,60935,5,0,0:0:0:0:
351,36,60935,5,0,0:0:0:0:
172,46,60977,5,0,0:0:0:0:
340,50,60977,5,0,0:0:0:0:
340,50,60977,5,0,0:0:0:0:
340,50,60977,5,0,0:0:0:0:
192,104,60998,5,0,0:0:0:0:
330,65,61019,5,0,0:0:0:0:
330,65,61019,5,0,0:0:0:0:
162,61,61019,5,0,0:0:0:0:
330,65,61019,5,0,0:0:0:0:
323,81,61060,5,0,0:0:0:0:
323,81,61060,5,0,0:0:0:0:
155,77,61060,5,0,0:0:0:0:
323,81,61060,5,0,0:0:0:0:
480,352,61061,5,0,0:0:0:0:
448,352,61061,5,0,0:0:0:0:
512,352,61061,5,0,0:0:0:0:
416,352,61061,5,0,0:0:0:0:
317,97,61102,5,0,0:0:0:0:
317,97,61102,5,0,0:0:0:0:
149,93,61102,5,0,0:0:0:0:
317,97,61102,5,0,0:0:0:0:
313,114,61144,5,0,0:0:0:0:
313,114,61144,5,0,0:0:0:0:
145,110,61144,5,0,0:0:0:0:
313,114,61144,5,0,0:0:0:0:
309,132,61185,5,0,0:0:0:0:
309,132,61185,5,0,0:0:0:0:
141,128,61185,5,0,0:0:0:0:
309,132,61185,5,0,0:0:0:0:
480,352,61227,5,0,0:0:0:0:
448,352,61227,5,0,0:0:0:0:
416,352,61227,5,0,0:0:0:0:
512,352,61227,5,0,0:0:0:0:
138,163,61269,5,0,0:0:0:0:
306,167,61269,5,0,0:0:0:0:
306,167,61269,5,0,0:0:0:0:
306,167,61269,5,0,0:0:0:0:
138,180,61310,5,0,0:0:0:0:
306,184,61310,5,0,0:0:0:0:
306,184,61310,5,0,0:0:0:0:
306,184,61310,5,0,0:0:0:0:
139,198,61352,5,0,0:0:0:0:
307,202,61352,5,0,0:0:0:0:
307,202,61352,5,0,0:0:0:0:
307,202,61352,5,0,0:0:0:0:
208,228,61373,5,0,0:0:0:0:
512,352,61394,5,0,0:0:0:0:
416,352,61394,5,0,0:0:0:0:
480,352,61394,5,0,0:0:0:0:
448,352,61394,5,0,0:0:0:0:
142,232,61435,5,0,0:0:0:0:
310,236,61435,5,0,0:0:0:0:
310,236,61435,5,0,0:0:0:0:
310,236,61435,5,0,0:0:0:0:
313,254,61477,5,0,0:0:0:0:
313,254,61477,5,0,0:0:0:0:
145,250,61477,5,0,0:0:0:0:
313,254,61477,5,0,0:0:0:0:
310,236,61498,5,0,0:0:0:0:
316,271,61519,5,0,0:0:0:0:
316,271,61519,5,0,0:0:0:0:
148,267,61519,5,0,0:0:0:0:
316,271,61519,5,0,0:0:0:0:
319,288,61560,5,0,0:0:0:0:
319,288,61560,5,0,0:0:0:0:
151,284,61560,5,0,0:0:0:0:
319,288,61560,5,0,0:0:0:0:
416,352,61561,5,0,0:0:0:0:
512,352,61561,5,0,0:0:0:0:
480,352,61561,5,0,0:0:0:0:
448,352,61561,5,0,0:0:0:0:
322,305,61602,5,0,0:0:0:0:
322,305,61602,5,0,0:0:0:0:
154,301,61602,5,0,0:0:0:0:
322,305,61602,5,0,0:0:0:0:
326,322,61644,5,0,0:0:0:0:
326,322,61644,5,0,0:0:0:0:
158,318,61644,5,0,0:0:0:0:
326,322,61644,5,0,0:0:0:0:
175,321,61685,5,0,0:0:0:0:
343,325,61685,5,0,0:0:0:0:
343,325,61685,5,0,0:0:0:0:
343,325,61685,5,0,0:0:0:0:
185,306,61727,5,0,0:0:0:0:
353,310,61727,5,0,0:0:0:0:
353,310,61727,5,0,0:0:0:0:
353,310,61727,5,0,0:0:0:0:
193,290,61769,5,0,0:0:0:0:
361,294,61769,5,0,0:0:0:0:
361,294,61769,5,0,0:0:0:0:
361,294,61769,5,0,0:0:0:0:
198,274,61810,5,0,0:0:0:0:
366,278,61810,5,0,0:0:0:0:
366,278,61810,5,0,0:0:0:0:
366,278,61810,5,0,0:0:0:0:
252,260,61832,5,0,0:0:0:0:
371,261,61852,5,0,0:0:0:0:
371,261,61852,5,0,0:0:0:0:
371,261,61852,5,0,0:0:0:0:
375,244,61894,5,0,0:0:0:0:
375,244,61894,5,0,0:0:0:0:
375,244,61894,5,0,0:0:0:0:
264,192,61915,5,0,0:0:0:0:
378,227,61935,5,0,0:0:0:0:
378,227,61935,5,0,0:0:0:0:
210,223,61935,5,0,0:0:0:0:
378,227,61935,5,0,0:0:0:0:
381,209,61977,5,0,0:0:0:0:
381,209,61977,5,0,0:0:0:0:
213,205,61977,5,0,0:0:0:0:
381,209,61977,5,0,0:0:0:0:
352,156,61998,5,0,0:0:0:0:
386,192,62019,5,0,0:0:0:0:
386,192,62019,5,0,0:0:0:0:
218,188,62019,5,0,0:0:0:0:
386,192,62019,5,0,0:0:0:0:
389,175,62060,5,0,0:0:0:0:
389,175,62060,5,0,0:0:0:0:
221,171,62060,5,0,0:0:0:0:
389,175,62060,5,0,0:0:0:0:
391,158,62102,5,0,0:0:0:0:
391,158,62102,5,0,0:0:0:0:
223,154,62102,5,0,0:0:0:0:
391,158,62102,5,0,0:0:0:0:
393,140,62144,5,0,0:0:0:0:
393,140,62144,5,0,0:0:0:0:
225,136,62144,5,0,0:0:0:0:
393,140,62144,5,0,0:0:0:0:
394,123,62185,5,0,0:0:0:0:
394,123,62185,5,0,0:0:0:0:
226,119,62185,5,0,0:0:0:0:
394,123,62185,5,0,0:0:0:0:
220,108,62206,5,0,0:0:0:0:
227,101,62227,5,0,0:0:0:0:
395,105,62227,5,0,0:0:0:0:
395,105,62227,5,0,0:0:0:0:
395,105,62227,5,0,0:0:0:0:
64,76,62352,5,0,0:0:0:0:
40,88,62373,5,0,0:0:0:0:
20,100,62393,5,0,0:0:0:0:
20,116,62414,5,0,0:0:0:0:
168,120,62414,5,0,0:0:0:0:
108,120,62414,5,0,0:0:0:0:
140,120,62414,5,0,0:0:0:0:
76,116,62414,5,0,0:0:0:0:
48,116,62414,5,0,0:0:0:0:
4,116,62435,5,0,0:0:0:0:
28,148,62456,5,0,0:0:0:0:
52,176,62477,5,0,0:0:0:0:
384,64,62727,5,0,0:0:0:0:
512,64,62727,5,0,0:0:0:0:
256,64,62727,5,0,0:0:0:0:
128,64,62727,5,0,0:0:0:0:
0,64,62727,5,0,0:0:0:0:
416,64,62810,5,0,0:0:0:0:
288,64,62810,5,0,0:0:0:0:
160,64,62810,5,0,0:0:0:0:
32,64,62810,5,0,0:0:0:0:
192,64,62894,5,0,0:0:0:0:
64,64,62894,5,0,0:0:0:0:
448,64,62894,5,0,0:0:0:0:
320,64,62894,5,0,0:0:0:0:
224,64,62977,5,0,0:0:0:0:
96,64,62977,5,0,0:0:0:0:
480,64,62977,5,0,0:0:0:0:
352,64,62977,5,0,0:0:0:0:
0,64,63060,5,0,0:0:0:0:
128,64,63060,5,0,0:0:0:0:
256,64,63060,5,0,0:0:0:0:
512,64,63060,5,0,0:0:0:0:
384,64,63060,5,0,0:0:0:0:
416,64,63143,5,0,0:0:0:0:
160,64,63143,5,0,0:0:0:0:
288,64,63143,5,0,0:0:0:0:
32,64,63143,5,0,0:0:0:0:
192,64,63227,5,0,0:0:0:0:
448,64,63227,5,0,0:0:0:0:
64,64,63227,5,0,0:0:0:0:
320,64,63227,5,0,0:0:0:0:
96,64,63310,5,0,0:0:0:0:
480,64,63310,5,0,0:0:0:0:
352,64,63310,5,0,0:0:0:0:
224,64,63310,5,0,0:0:0:0:
512,64,63394,5,0,0:0:0:0:
384,64,63394,5,0,0:0:0:0:
256,64,63394,5,0,0:0:0:0:
0,64,63394,5,0,0:0:0:0:
128,64,63394,5,0,0:0:0:0:
96,64,63477,5,0,0:0:0:0:
480,64,63477,5,0,0:0:0:0:
352,64,63477,5,0,0:0:0:0:
224,64,63477,5,0,0:0:0:0:
192,64,63560,5,0,0:0:0:0:
448,64,63560,5,0,0:0:0:0:
64,64,63560,5,0,0:0:0:0:
320,64,63560,5,0,0:0:0:0:
416,64,63644,5,0,0:0:0:0:
160,64,63644,5,0,0:0:0:0:
288,64,63644,5,0,0:0:0:0:
32,64,63644,5,0,0:0:0:0:
128,64,63727,5,0,0:0:0:0:
0,64,63727,5,0,0:0:0:0:
256,64,63727,5,0,0:0:0:0:
384,64,63727,5,0,0:0:0:0:
512,64,63727,5,0,0:0:0:0:
96,64,63810,5,0,0:0:0:0:
352,64,63810,5,0,0:0:0:0:
480,64,63810,5,0,0:0:0:0:
224,64,63810,5,0,0:0:0:0:
192,64,63893,5,0,0:0:0:0:
64,64,63893,5,0,0:0:0:0:
448,64,63893,5,0,0:0:0:0:
320,64,63893,5,0,0:0:0:0:
160,64,63977,5,0,0:0:0:0:
288,64,63977,5,0,0:0:0:0:
32,64,63977,5,0,0:0:0:0:
416,64,63977,5,0,0:0:0:0:
480,352,64393,5,0,0:0:0:0:
288,352,64393,5,0,0:0:0:0:
72,344,64394,5,0,0:0:0:0:
512,352,64394,5,0,0:0:0:0:
448,352,64394,5,0,0:0:0:0:
216,344,64394,5,0,0:0:0:0:
320,352,64394,5,0,0:0:0:0:
256,352,64394,5,0,0:0:0:0:
32,352,64394,5,0,0:0:0:0:
384,352,64394,5,0,0:0:0:0:
32,352,64394,5,0,0:0:0:0:
216,326,64435,5,0,0:0:0:0:
72,326,64435,5,0,0:0:0:0:
216,309,64477,5,0,0:0:0:0:
72,309,64477,5,0,0:0:0:0:
216,291,64518,5,0,0:0:0:0:
480,352,64518,5,0,0:0:0:0:
288,352,64518,5,0,0:0:0:0:
72,291,64518,5,0,0:0:0:0:
72,291,64518,5,0,0:0:0:0:
216,291,64518,5,0,0:0:0:0:
512,352,64519,5,0,0:0:0:0:
32,352,64519,5,0,0:0:0:0:
320,352,64519,5,0,0:0:0:0:
448,352,64519,5,0,0:0:0:0:
32,352,64519,5,0,0:0:0:0:
256,352,64519,5,0,0:0:0:0:
416,352,64519,5,0,0:0:0:0:
384,352,64519,5,0,0:0:0:0:
352,352,64520,5,0,0:0:0:0:
288,352,64560,5,0,0:0:0:0:
480,352,64560,5,0,0:0:0:0:
72,274,64560,5,0,0:0:0:0:
216,274,64560,5,0,0:0:0:0:
256,352,64561,5,0,0:0:0:0:
32,352,64561,5,0,0:0:0:0:
384,352,64561,5,0,0:0:0:0:
416,352,64561,5,0,0:0:0:0:
32,352,64561,5,0,0:0:0:0:
512,352,64561,5,0,0:0:0:0:
448,352,64561,5,0,0:0:0:0:
320,352,64561,5,0,0:0:0:0:
352,352,64562,5,0,0:0:0:0:
104,324,64582,5,0,0:0:0:0:
216,256,64602,5,0,0:0:0:0:
72,256,64602,5,0,0:0:0:0:
216,239,64643,5,0,0:0:0:0:
216,239,64643,5,0,0:0:0:0:
72,239,64643,5,0,0:0:0:0:
72,239,64643,5,0,0:0:0:0:
216,221,64685,5,0,0:0:0:0:
72,221,64685,5,0,0:0:0:0:
480,352,64726,5,0,0:0:0:0:
288,352,64726,5,0,0:0:0:0:
256,352,64727,5,0,0:0:0:0:
32,352,64727,5,0,0:0:0:0:
384,352,64727,5,0,0:0:0:0:
416,352,64727,5,0,0:0:0:0:
32,352,64727,5,0,0:0:0:0:
512,352,64727,5,0,0:0:0:0:
448,352,64727,5,0,0:0:0:0:
320,352,64727,5,0,0:0:0:0:
72,204,64727,5,0,0:0:0:0:
216,204,64727,5,0,0:0:0:0:
352,352,64728,5,0,0:0:0:0:
188,296,64748,5,0,0:0:0:0:
72,186,64768,5,0,0:0:0:0:
72,186,64768,5,0,0:0:0:0:
216,186,64768,5,0,0:0:0:0:
216,186,64768,5,0,0:0:0:0:
73,174,64810,5,0,0:0:0:0:
217,174,64810,5,0,0:0:0:0:
75,192,64852,5,0,0:0:0:0:
219,192,64852,5,0,0:0:0:0:
288,352,64893,5,0,0:0:0:0:
480,352,64893,5,0,0:0:0:0:
82,208,64893,5,0,0:0:0:0:
82,208,64893,5,0,0:0:0:0:
226,208,64893,5,0,0:0:0:0:
226,208,64893,5,0,0:0:0:0:
96,288,64894,5,0,0:0:0:0:
512,352,64894,5,0,0:0:0:0:
32,352,64894,5,0,0:0:0:0:
320,352,64894,5,0,0:0:0:0:
448,352,64894,5,0,0:0:0:0:
32,352,64894,5,0,0:0:0:0:
256,352,64894,5,0,0:0:0:0:
416,352,64894,5,0,0:0:0:0:
384,352,64894,5,0,0:0:0:0:
352,352,64895,5,0,0:0:0:0:
108,272,64915,5,0,0:0:0:0:
94,221,64935,5,0,0:0:0:0:
238,221,64935,5,0,0:0:0:0:
108,230,64977,5,0,0:0:0:0:
252,230,64977,5,0,0:0:0:0:
124,237,65018,5,0,0:0:0:0:
124,237,65018,5,0,0:0:0:0:
268,237,65018,5,0,0:0:0:0:
268,237,65018,5,0,0:0:0:0:
285,242,65060,5,0,0:0:0:0:
141,242,65060,5,0,0:0:0:0:
480,352,65060,5,0,0:0:0:0:
384,352,65061,5,0,0:0:0:0:
448,352,65061,5,0,0:0:0:0:
416,352,65061,5,0,0:0:0:0:
512,352,65061,5,0,0:0:0:0:
352,352,65062,5,0,0:0:0:0:
303,245,65102,5,0,0:0:0:0:
159,245,65102,5,0,0:0:0:0:
384,352,65123,5,0,0:0:0:0:
320,247,65143,5,0,0:0:0:0:
320,247,65143,5,0,0:0:0:0:
176,247,65143,5,0,0:0:0:0:
176,247,65143,5,0,0:0:0:0:
337,248,65185,5,0,0:0:0:0:
193,248,65185,5,0,0:0:0:0:
480,352,65185,5,0,0:0:0:0:
448,352,65186,5,0,0:0:0:0:
416,352,65186,5,0,0:0:0:0:
512,352,65186,5,0,0:0:0:0:
384,352,65186,5,0,0:0:0:0:
352,352,65187,5,0,0:0:0:0:
384,352,65207,5,0,0:0:0:0:
355,248,65227,5,0,0:0:0:0:
355,248,65227,5,0,0:0:0:0:
211,248,65227,5,0,0:0:0:0:
480,352,65227,5,0,0:0:0:0:
211,248,65227,5,0,0:0:0:0:
448,352,65228,5,0,0:0:0:0:
416,352,65228,5,0,0:0:0:0:
512,352,65228,5,0,0:0:0:0:
372,246,65268,5,0,0:0:0:0:
372,246,65268,5,0,0:0:0:0:
228,246,65268,5,0,0:0:0:0:
228,246,65268,5,0,0:0:0:0:
384,352,65290,5,0,0:0:0:0:
389,240,65310,5,0,0:0:0:0:
389,240,65310,5,0,0:0:0:0:
245,240,65310,5,0,0:0:0:0:
245,240,65310,5,0,0:0:0:0:
405,233,65352,5,0,0:0:0:0:
405,233,65352,5,0,0:0:0:0:
261,233,65352,5,0,0:0:0:0:
261,233,65352,5,0,0:0:0:0:
276,224,65393,5,0,0:0:0:0:
276,224,65393,5,0,0:0:0:0:
420,224,65393,5,0,0:0:0:0:
420,224,65393,5,0,0:0:0:0:
160,288,65394,5,0,0:0:0:0:
96,288,65394,5,0,0:0:0:0:
160,288,65394,5,0,0:0:0:0:
290,213,65435,5,0,0:0:0:0:
290,213,65435,5,0,0:0:0:0:
434,213,65435,5,0,0:0:0:0:
434,213,65435,5,0,0:0:0:0:
302,201,65477,5,0,0:0:0:0:
302,201,65477,5,0,0:0:0:0:
446,201,65477,5,0,0:0:0:0:
446,201,65477,5,0,0:0:0:0:
312,186,65518,5,0,0:0:0:0:
312,186,65518,5,0,0:0:0:0:
456,186,65518,5,0,0:0:0:0:
456,186,65518,5,0,0:0:0:0:
32,352,65559,5,0,0:0:0:0:
480,352,65560,5,0,0:0:0:0:
319,170,65560,5,0,0:0:0:0:
319,170,65560,5,0,0:0:0:0:
463,170,65560,5,0,0:0:0:0:
463,170,65560,5,0,0:0:0:0:
0,352,65560,5,0,0:0:0:0:
64,352,65560,5,0,0:0:0:0:
512,352,65561,5,0,0:0:0:0:
448,352,65561,5,0,0:0:0:0:
320,153,65602,5,0,0:0:0:0:
320,153,65602,5,0,0:0:0:0:
464,153,65602,5,0,0:0:0:0:
464,153,65602,5,0,0:0:0:0:
313,138,65643,5,0,0:0:0:0:
313,138,65643,5,0,0:0:0:0:
457,138,65643,5,0,0:0:0:0:
457,138,65643,5,0,0:0:0:0:
32,352,65684,5,0,0:0:0:0:
480,352,65685,5,0,0:0:0:0:
298,129,65685,5,0,0:0:0:0:
298,129,65685,5,0,0:0:0:0:
442,129,65685,5,0,0:0:0:0:
442,129,65685,5,0,0:0:0:0:
0,352,65685,5,0,0:0:0:0:
96,352,65685,5,0,0:0:0:0:
64,352,65685,5,0,0:0:0:0:
512,352,65686,5,0,0:0:0:0:
448,352,65686,5,0,0:0:0:0:
32,352,65726,5,0,0:0:0:0:
0,352,65727,5,0,0:0:0:0:
424,127,65727,5,0,0:0:0:0:
96,352,65727,5,0,0:0:0:0:
64,352,65727,5,0,0:0:0:0:
280,127,65727,5,0,0:0:0:0:
480,352,65727,5,0,0:0:0:0:
424,127,65727,5,0,0:0:0:0:
280,127,65727,5,0,0:0:0:0:
448,352,65728,5,0,0:0:0:0:
512,352,65728,5,0,0:0:0:0:
407,129,65768,5,0,0:0:0:0:
407,129,65768,5,0,0:0:0:0:
263,129,65768,5,0,0:0:0:0:
263,129,65768,5,0,0:0:0:0:
390,134,65810,5,0,0:0:0:0:
390,134,65810,5,0,0:0:0:0:
246,134,65810,5,0,0:0:0:0:
246,134,65810,5,0,0:0:0:0:
375,143,65852,5,0,0:0:0:0:
375,143,65852,5,0,0:0:0:0:
231,143,65852,5,0,0:0:0:0:
231,143,65852,5,0,0:0:0:0:
32,352,65892,5,0,0:0:0:0:
0,352,65893,5,0,0:0:0:0:
362,155,65893,5,0,0:0:0:0:
64,352,65893,5,0,0:0:0:0:
96,352,65893,5,0,0:0:0:0:
218,155,65893,5,0,0:0:0:0:
480,352,65893,5,0,0:0:0:0:
362,155,65893,5,0,0:0:0:0:
218,155,65893,5,0,0:0:0:0:
448,352,65894,5,0,0:0:0:0:
512,352,65894,5,0,0:0:0:0:
351,168,65935,5,0,0:0:0:0:
351,168,65935,5,0,0:0:0:0:
207,168,65935,5,0,0:0:0:0:
207,168,65935,5,0,0:0:0:0:
342,183,65977,5,0,0:0:0:0:
342,183,65977,5,0,0:0:0:0:
198,183,65977,5,0,0:0:0:0:
198,183,65977,5,0,0:0:0:0:
334,199,66018,5,0,0:0:0:0:
334,199,66018,5,0,0:0:0:0:
190,199,66018,5,0,0:0:0:0:
190,199,66018,5,0,0:0:0:0:
32,352,66059,5,0,0:0:0:0:
480,352,66060,5,0,0:0:0:0:
185,215,66060,5,0,0:0:0:0:
185,215,66060,5,0,0:0:0:0:
329,215,66060,5,0,0:0:0:0:
329,215,66060,5,0,0:0:0:0:
64,352,66060,5,0,0:0:0:0:
96,352,66060,5,0,0:0:0:0:
0,352,66060,5,0,0:0:0:0:
448,352,66061,5,0,0:0:0:0:
512,352,66061,5,0,0:0:0:0:
181,232,66102,5,0,0:0:0:0:
181,232,66102,5,0,0:0:0:0:
325,232,66102,5,0,0:0:0:0:
325,232,66102,5,0,0:0:0:0:
178,250,66143,5,0,0:0:0:0:
178,250,66143,5,0,0:0:0:0:
322,250,66143,5,0,0:0:0:0:
322,250,66143,5,0,0:0:0:0:
177,267,66185,5,0,0:0:0:0:
177,267,66185,5,0,0:0:0:0:
321,267,66185,5,0,0:0:0:0:
321,267,66185,5,0,0:0:0:0:
32,352,66226,5,0,0:0:0:0:
480,352,66227,5,0,0:0:0:0:
177,285,66227,5,0,0:0:0:0:
177,285,66227,5,0,0:0:0:0:
321,285,66227,5,0,0:0:0:0:
321,285,66227,5,0,0:0:0:0:
0,352,66227,5,0,0:0:0:0:
96,352,66227,5,0,0:0:0:0:
64,352,66227,5,0,0:0:0:0:
512,352,66228,5,0,0:0:0:0:
448,352,66228,5,0,0:0:0:0:
177,302,66268,5,0,0:0:0:0:
177,302,66268,5,0,0:0:0:0:
321,302,66268,5,0,0:0:0:0:
321,302,66268,5,0,0:0:0:0:
178,320,66310,5,0,0:0:0:0:
178,320,66310,5,0,0:0:0:0:
322,320,66310,5,0,0:0:0:0:
322,320,66310,5,0,0:0:0:0:
32,352,66351,5,0,0:0:0:0:
64,352,66352,5,0,0:0:0:0:
324,337,66352,5,0,0:0:0:0:
96,352,66352,5,0,0:0:0:0:
0,352,66352,5,0,0:0:0:0:
180,337,66352,5,0,0:0:0:0:
480,352,66352,5,0,0:0:0:0:
324,337,66352,5,0,0:0:0:0:
180,337,66352,5,0,0:0:0:0:
448,352,66353,5,0,0:0:0:0:
512,352,66353,5,0,0:0:0:0:
327,354,66393,5,0,0:0:0:0:
32,352,66393,5,0,0:0:0:0:
327,354,66393,5,0,0:0:0:0:
183,354,66393,5,0,0:0:0:0:
183,354,66393,5,0,0:0:0:0:
96,352,66394,5,0,0:0:0:0:
64,352,66394,5,0,0:0:0:0:
480,352,66394,5,0,0:0:0:0:
0,352,66394,5,0,0:0:0:0:
448,352,66395,5,0,0:0:0:0:
512,352,66395,5,0,0:0:0:0:
512,96,66727,5,0,0:0:0:0:
0,96,66727,5,0,0:0:0:0:
256,96,66727,5,0,0:0:0:0:
64,96,66727,5,0,0:0:0:0:
448,96,66727,5,0,0:0:0:0:
448,96,66811,5,0,0:0:0:0:
256,96,66811,5,0,0:0:0:0:
208,160,66873,5,0,0:0:0:0:
256,96,66894,5,0,0:0:0:0:
64,96,66894,5,0,0:0:0:0:
448,96,66894,5,0,0:0:0:0:
256,96,66977,5,0,0:0:0:0:
64,96,66977,5,0,0:0:0:0:
448,96,66977,5,0,0:0:0:0:
296,184,67019,5,0,0:0:0:0:
256,96,67061,5,0,0:0:0:0:
448,96,67061,5,0,0:0:0:0:
64,96,67061,5,0,0:0:0:0:
396,188,67123,5,0,0:0:0:0:
448,96,67144,5,0,0:0:0:0:
64,96,67144,5,0,0:0:0:0:
448,96,67227,5,0,0:0:0:0:
64,96,67227,5,0,0:0:0:0:
256,96,67311,5,0,0:0:0:0:
448,96,67311,5,0,0:0:0:0:
64,96,67311,5,0,0:0:0:0:
256,96,67394,5,0,0:0:0:0:
64,96,67394,5,0,0:0:0:0:
448,96,67394,5,0,0:0:0:0:
320,176,67435,5,0,0:0:0:0:
104,200,67456,5,0,0:0:0:0:
256,96,67477,5,0,0:0:0:0:
64,96,67477,5,0,0:0:0:0:
448,96,67477,5,0,0:0:0:0:
256,96,67561,5,0,0:0:0:0:
64,96,67561,5,0,0:0:0:0:
448,96,67561,5,0,0:0:0:0:
416,64,67561,5,0,0:0:0:0:
384,64,67561,5,0,0:0:0:0:
352,64,67561,5,0,0:0:0:0:
320,64,67561,5,0,0:0:0:0:
288,64,67561,5,0,0:0:0:0:
0,96,67561,5,0,0:0:0:0:
512,96,67561,5,0,0:0:0:0:
448,96,67644,5,0,0:0:0:0:
64,96,67644,5,0,0:0:0:0:
256,96,67644,5,0,0:0:0:0:
448,96,67727,5,0,0:0:0:0:
64,96,67727,5,0,0:0:0:0:
256,96,67727,5,0,0:0:0:0:
316,184,67748,5,0,0:0:0:0:
448,96,67811,5,0,0:0:0:0:
64,96,67811,5,0,0:0:0:0:
256,96,67811,5,0,0:0:0:0:
448,96,67894,5,0,0:0:0:0:
64,96,67894,5,0,0:0:0:0:
64,96,67977,5,0,0:0:0:0:
448,96,67977,5,0,0:0:0:0:
116,176,68019,5,0,0:0:0:0:
256,96,68061,5,0,0:0:0:0:
64,96,68061,5,0,0:0:0:0:
448,96,68061,5,0,0:0:0:0:
400,188,68102,5,0,0:0:0:0:
256,96,68144,5,0,0:0:0:0:
64,96,68144,5,0,0:0:0:0:
448,96,68144,5,0,0:0:0:0:
128,64,68227,5,0,0:0:0:0:
96,64,68227,5,0,0:0:0:0:
160,64,68227,5,0,0:0:0:0:
224,64,68227,5,0,0:0:0:0:
192,64,68227,5,0,0:0:0:0:
256,96,68227,5,0,0:0:0:0:
64,96,68227,5,0,0:0:0:0:
448,96,68227,5,0,0:0:0:0:
448,96,68311,5,0,0:0:0:0:
64,96,68311,5,0,0:0:0:0:
256,96,68311,5,0,0:0:0:0:
304,196,68352,5,0,0:0:0:0:
448,96,68394,5,0,0:0:0:0:
64,96,68394,5,0,0:0:0:0:
448,96,68477,5,0,0:0:0:0:
64,96,68477,5,0,0:0:0:0:
256,96,68561,5,0,0:0:0:0:
64,96,68561,5,0,0:0:0:0:
448,96,68561,5,0,0:0:0:0:
256,96,68644,5,0,0:0:0:0:
64,96,68644,5,0,0:0:0:0:
448,96,68644,5,0,0:0:0:0:
256,96,68727,5,0,0:0:0:0:
64,96,68727,5,0,0:0:0:0:
448,96,68727,5,0,0:0:0:0:
64,96,68811,5,0,0:0:0:0:
256,96,68811,5,0,0:0:0:0:
448,96,68811,5,0,0:0:0:0:
0,96,68811,5,0,0:0:0:0:
512,96,68811,5,0,0:0:0:0:
128,64,68811,5,0,0:0:0:0:
224,64,68811,5,0,0:0:0:0:
160,64,68811,5,0,0:0:0:0:
96,64,68811,5,0,0:0:0:0:
192,64,68811,5,0,0:0:0:0:
448,96,68894,5,0,0:0:0:0:
64,96,68894,5,0,0:0:0:0:
256,96,68894,5,0,0:0:0:0:
448,96,68977,5,0,0:0:0:0:
64,96,68977,5,0,0:0:0:0:
256,96,68977,5,0,0:0:0:0:
448,96,69061,5,0,0:0:0:0:
256,96,69061,5,0,0:0:0:0:
64,96,69061,5,0,0:0:0:0:
448,96,69144,5,0,0:0:0:0:
64,96,69144,5,0,0:0:0:0:
64,96,69227,5,0,0:0:0:0:
448,96,69227,5,0,0:0:0:0:
300,224,69248,5,0,0:0:0:0:
64,96,69311,5,0,0:0:0:0:
256,96,69311,5,0,0:0:0:0:
448,96,69311,5,0,0:0:0:0:
448,96,69394,5,0,0:0:0:0:
64,96,69394,5,0,0:0:0:0:
256,96,69394,5,0,0:0:0:0:
208,184,69435,5,0,0:0:0:0:
64,96,69477,5,0,0:0:0:0:
256,96,69477,5,0,0:0:0:0:
448,96,69477,5,0,0:0:0:0:
408,212,69540,5,0,0:0:0:0:
0,96,69561,5,0,0:0:0:0:
288,64,69561,5,0,0:0:0:0:
64,96,69561,5,0,0:0:0:0:
416,64,69561,5,0,0:0:0:0:
512,96,69561,5,0,0:0:0:0:
256,96,69561,5,0,0:0:0:0:
448,96,69561,5,0,0:0:0:0:
352,64,69561,5,0,0:0:0:0:
384,64,69561,5,0,0:0:0:0:
320,64,69561,5,0,0:0:0:0:
256,96,69644,5,0,0:0:0:0:
448,96,69644,5,0,0:0:0:0:
64,96,69644,5,0,0:0:0:0:
448,96,69727,5,0,0:0:0:0:
256,96,69727,5,0,0:0:0:0:
64,96,69727,5,0,0:0:0:0:
344,164,69748,5,0,0:0:0:0:
256,96,69811,5,0,0:0:0:0:
448,96,69811,5,0,0:0:0:0:
64,96,69811,5,0,0:0:0:0:
0,96,69894,5,0,0:0:0:0:
512,96,69894,5,0,0:0:0:0:
64,96,69894,5,0,0:0:0:0:
256,96,69894,5,0,0:0:0:0:
448,96,69894,5,0,0:0:0:0:
0,96,70102,5,0,0:0:0:0:
160,96,70102,5,0,0:0:0:0:
320,96,70102,5,0,0:0:0:0:
480,96,70102,5,0,0:0:0:0:
32,96,70269,5,0,0:0:0:0:
192,96,70269,5,0,0:0:0:0:
352,96,70269,5,0,0:0:0:0:
512,96,70269,5,0,0:0:0:0:
64,96,70435,5,0,0:0:0:0:
224,96,70435,5,0,0:0:0:0:
384,96,70435,5,0,0:0:0:0:
256,96,70602,5,0,0:0:0:0:
96,96,70602,5,0,0:0:0:0:
416,96,70602,5,0,0:0:0:0:
448,96,70769,5,0,0:0:0:0:
128,96,70769,5,0,0:0:0:0:
288,96,70769,5,0,0:0:0:0:
480,96,70935,5,0,0:0:0:0:
320,96,70935,5,0,0:0:0:0:
160,96,70935,5,0,0:0:0:0:
0,96,70935,5,0,0:0:0:0:
512,96,71102,5,0,0:0:0:0:
32,96,71102,5,0,0:0:0:0:
192,96,71102,5,0,0:0:0:0:
352,96,71102,5,0,0:0:0:0:
64,96,71268,5,0,0:0:0:0:
384,96,71268,5,0,0:0:0:0:
224,96,71268,5,0,0:0:0:0:
96,96,71435,5,0,0:0:0:0:
256,96,71435,5,0,0:0:0:0:
416,96,71435,5,0,0:0:0:0:
448,96,71602,5,0,0:0:0:0:
288,96,71602,5,0,0:0:0:0:
128,96,71602,5,0,0:0:0:0:
320,96,71768,5,0,0:0:0:0:
480,96,71768,5,0,0:0:0:0:
0,96,71768,5,0,0:0:0:0:
160,96,71768,5,0,0:0:0:0:
32,96,71935,5,0,0:0:0:0:
192,96,71935,5,0,0:0:0:0:
352,96,71935,5,0,0:0:0:0:
512,96,71935,5,0,0:0:0:0:
128,96,72102,5,0,0:0:0:0:
288,96,72102,5,0,0:0:0:0:
448,96,72102,5,0,0:0:0:0:
512,96,72269,5,0,0:0:0:0:
192,96,72269,5,0,0:0:0:0:
384,96,72269,5,0,0:0:0:0:
128,96,72269,5,0,0:0:0:0:
320,96,72269,5,0,0:0:0:0:
0,96,72269,5,0,0:0:0:0:
0,160,72769,5,0,0:0:0:0:
64,160,72769,5,0,0:0:0:0:
96,160,72769,5,0,0:0:0:0:
224,160,72769,5,0,0:0:0:0:
480,160,72769,5,0,0:0:0:0:
32,160,72769,5,0,0:0:0:0:
352,160,72769,5,0,0:0:0:0:
288,160,72769,5,0,0:0:0:0:
448,160,72769,5,0,0:0:0:0:
320,160,72769,5,0,0:0:0:0:
512,160,72769,5,0,0:0:0:0:
416,160,72770,5,0,0:0:0:0:
256,160,72770,5,0,0:0:0:0:
384,160,72770,5,0,0:0:0:0:
32,224,73102,5,0,0:0:0:0:
512,224,73102,5,0,0:0:0:0:
192,224,73102,5,0,0:0:0:0:
384,224,73102,5,0,0:0:0:0:
64,224,73102,5,0,0:0:0:0:
128,224,73102,5,0,0:0:0:0:
0,224,73102,5,0,0:0:0:0:
256,224,73102,5,0,0:0:0:0:
224,224,73102,5,0,0:0:0:0:
96,224,73102,5,0,0:0:0:0:
160,224,73102,5,0,0:0:0:0:
416,224,73102,5,0,0:0:0:0:
480,224,73102,5,0,0:0:0:0:
448,224,73103,5,0,0:0:0:0:
320,288,73268,5,0,0:0:0:0:
128,288,73268,5,0,0:0:0:0:
448,288,73268,5,0,0:0:0:0:
352,288,73269,5,0,0:0:0:0:
160,288,73269,5,0,0:0:0:0:
288,288,73269,5,0,0:0:0:0:
32,288,73269,5,0,0:0:0:0:
96,288,73269,5,0,0:0:0:0:
416,288,73269,5,0,0:0:0:0:
0,288,73269,5,0,0:0:0:0:
64,288,73269,5,0,0:0:0:0:
384,288,73269,5,0,0:0:0:0:
512,288,73269,5,0,0:0:0:0:
480,288,73270,5,0,0:0:0:0:
128,352,73602,5,0,0:0:0:0:
0,352,73602,5,0,0:0:0:0:
320,352,73602,5,0,0:0:0:0:
64,352,73602,5,0,0:0:0:0:
512,352,73602,5,0,0:0:0:0:
192,352,73602,5,0,0:0:0:0:
256,352,73602,5,0,0:0:0:0:
448,352,73603,5,0,0:0:0:0:
160,32,74101,5,0,0:0:0:0:
224,32,74101,5,0,0:0:0:0:
32,32,74101,5,0,0:0:0:0:
288,32,74101,5,0,0:0:0:0:
352,32,74101,5,0,0:0:0:0:
192,32,74102,5,0,0:0:0:0:
384,32,74102,5,0,0:0:0:0:
480,32,74102,5,0,0:0:0:0:
416,32,74102,5,0,0:0:0:0:
256,32,74102,5,0,0:0:0:0:
448,32,74102,5,0,0:0:0:0:
0,32,74102,5,0,0:0:0:0:
320,32,74102,5,0,0:0:0:0:
64,96,74435,5,0,0:0:0:0:
256,96,74435,5,0,0:0:0:0:
128,96,74435,5,0,0:0:0:0:
192,96,74435,5,0,0:0:0:0:
0,96,74435,5,0,0:0:0:0:
448,96,74435,5,0,0:0:0:0:
512,96,74435,5,0,0:0:0:0:
384,96,74436,5,0,0:0:0:0:
320,160,74602,5,0,0:0:0:0:
128,160,74602,5,0,0:0:0:0:
384,160,74602,5,0,0:0:0:0:
96,160,74768,5,0,0:0:0:0:
288,160,74768,5,0,0:0:0:0:
352,160,74768,5,0,0:0:0:0:
256,160,74768,5,0,0:0:0:0:
32,160,74768,5,0,0:0:0:0:
384,160,74768,5,0,0:0:0:0:
416,160,74769,5,0,0:0:0:0:
480,160,74769,5,0,0:0:0:0:
128,160,74769,5,0,0:0:0:0:
320,160,74769,5,0,0:0:0:0:
448,160,74769,5,0,0:0:0:0:
512,160,74769,5,0,0:0:0:0:
0,160,74770,5,0,0:0:0:0:
64,160,74770,5,0,0:0:0:0:
448,224,74935,5,0,0:0:0:0:
64,224,74935,5,0,0:0:0:0:
256,224,74935,5,0,0:0:0:0:
128,224,74935,5,0,0:0:0:0:
192,224,74935,5,0,0:0:0:0:
0,224,74935,5,0,0:0:0:0:
512,224,74935,5,0,0:0:0:0:
160,224,74935,5,0,0:0:0:0:
480,224,74935,5,0,0:0:0:0:
96,224,74935,5,0,0:0:0:0:
320,224,74935,5,0,0:0:0:0:
32,224,74935,5,0,0:0:0:0:
224,224,74935,5,0,0:0:0:0:
288,224,74936,5,0,0:0:0:0:
