osu file format v14

[General]
AudioFilename: Soraru - Gikyoku to Deformed toshi.mp3
AudioLeadIn: 0
PreviewTime: -1
Countdown: 0
SampleSet: None
StackLeniency: 0.7
Mode: 3
LetterboxInBreaks: 0
SpecialStyle: 0
WidescreenStoryboard: 0

[Editor]
Bookmarks: 29240,45150,46050,60750,68015,72130,81130,92942,93130,102130,105130,114130,120130,148265,154265,166077,166265,181265,186421,199265,205265,205452,205640,205846,206015,206240,206427,206615,206840,207027,207233,207440,207646,207852,208058,208265,208490,208640,209465,210290,211265,212165,213665,215165,216215
DistanceSpacing: 0.8
BeatDivisor: 4
GridSize: 16
TimelineZoom: 2.4

[Metadata]
Title:Wishlist Pack 1
TitleUnicode:Wishlist Pack 1
Artist:Various Artist
ArtistUnicode:Various Artist
Creator:Noch Einen
Version:Soraru - Gikyoku to Deformed toshi (4K LN)
Source:
Tags:
BeatmapID:1970618
BeatmapSetID:937075

[Difficulty]
HPDrainRate:8
CircleSize:4
OverallDifficulty:8
ApproachRate:5
SliderMultiplier:1.4
SliderTickRate:1

[Events]
//Background and Video events
0,0,"Deformed.jpg",0,0
//Break Periods
//Storyboard Layer 0 (Background)
//Storyboard Layer 1 (Fail)
//Storyboard Layer 2 (Pass)
//Storyboard Layer 3 (Foreground)
//Storyboard Sound Samples

[TimingPoints]
17840,300,4,3,0,0,1,0
17840,-125,4,3,0,0,0,0
18440,300,6,3,0,0,1,0
18440,-125,6,3,0,0,0,0
32545,300,6,3,0,0,1,0
32545,-125,6,3,0,0,0,0
68015,375,4,3,0,0,1,0
68015,-100,4,3,0,0,0,0
72130,375,5,3,0,0,1,0
72130,-100,5,3,0,0,0,0
81130,-100,5,3,0,0,0,1
92942,-100,5,3,0,0,0,0
93130,-100,5,3,0,0,0,1
102130,-100,5,3,0,0,0,0
127265,375,4,3,0,0,1,0
154265,-100,4,3,0,0,0,1
166077,-100,4,3,0,0,0,0
166265,-100,4,3,0,0,0,1
181265,375,5,3,0,0,1,0
187265,300,5,3,0,0,1,0
187265,-125,5,3,0,0,0,1
199265,-125,5,3,0,0,0,0

[Colours]
Combo1 : 240,5,5
Combo2 : 5,240,5
Combo3 : 5,5,240

[HitObjects]
64,192,10640,5,0,0:0:0:0:
192,192,10715,1,0,0:0:0:0:
192,192,11690,1,0,0:0:0:0:
448,192,11765,1,0,0:0:0:0:
192,192,12065,1,0,0:0:0:0:
320,192,12140,1,0,0:0:0:0:
448,192,12215,1,0,0:0:0:0:
64,192,12440,1,0,0:0:0:0:
192,192,12590,1,0,0:0:0:0:
192,192,13940,1,0,0:0:0:0:
64,192,14840,128,0,17840:0:0:0:0:
320,192,15740,128,0,17840:0:0:0:0:
448,192,16640,128,0,17840:0:0:0:0:
192,192,17840,5,0,0:0:0:0:
64,192,18065,1,0,0:0:0:0:
320,192,18140,1,0,0:0:0:0:
64,192,18440,128,0,19040:0:0:0:0:
192,192,18440,128,0,18890:0:0:0:0:
448,192,18440,128,0,18590:0:0:0:0:
320,192,18590,128,0,18740:0:0:0:0:
448,192,18740,128,0,19190:0:0:0:0:
320,192,18890,128,0,19190:0:0:0:0:
192,192,19040,128,0,19190:0:0:0:0:
64,192,19190,128,0,19640:0:0:0:0:
448,192,19340,128,0,19640:0:0:0:0:
192,192,19340,128,0,19640:0:0:0:0:
320,192,19640,128,0,19940:0:0:0:0:
64,192,19790,128,0,19940:0:0:0:0:
192,192,19940,128,0,20165:0:0:0:0:
448,192,20090,128,0,20165:0:0:0:0:
64,192,20090,128,0,20165:0:0:0:0:
320,192,20240,128,0,20690:0:0:0:0:
448,192,20240,128,0,20765:0:0:0:0:
192,192,20240,128,0,20615:0:0:0:0:
64,192,20540,128,0,21065:0:0:0:0:
192,192,20690,128,0,21065:0:0:0:0:
320,192,20765,128,0,20915:0:0:0:0:
448,192,20840,128,0,21215:0:0:0:0:
320,192,20990,128,0,21290:0:0:0:0:
192,192,21140,128,0,21365:0:0:0:0:
64,192,21140,128,0,21665:0:0:0:0:
448,192,21290,1,0,0:0:0:0:
320,192,21365,1,0,0:0:0:0:
192,192,21440,1,0,0:0:0:0:
320,192,21590,128,0,21665:0:0:0:0:
448,192,21590,128,0,21665:0:0:0:0:
192,192,21740,128,0,21815:0:0:0:0:
64,192,21740,128,0,21815:0:0:0:0:
320,192,21890,128,0,21965:0:0:0:0:
448,192,21890,128,0,21965:0:0:0:0:
320,192,22040,128,0,22640:0:0:0:0:
192,192,22040,128,0,22640:0:0:0:0:
64,192,22040,128,0,22940:0:0:0:0:
448,192,22640,128,0,23540:0:0:0:0:
320,192,22940,128,0,23540:0:0:0:0:
192,192,22940,128,0,23540:0:0:0:0:
64,192,23540,128,0,23765:0:0:0:0:
192,192,23690,128,0,23765:0:0:0:0:
320,192,23690,128,0,23765:0:0:0:0:
64,192,23840,128,0,24140:0:0:0:0:
320,192,23840,128,0,24290:0:0:0:0:
448,192,23840,128,0,24590:0:0:0:0:
192,192,24140,128,0,24290:0:0:0:0:
64,192,24290,128,0,24365:0:0:0:0:
64,192,24440,128,0,24590:0:0:0:0:
320,192,24590,128,0,24740:0:0:0:0:
192,192,24740,128,0,25040:0:0:0:0:
448,192,24740,128,0,25040:0:0:0:0:
64,192,24890,128,0,25190:0:0:0:0:
320,192,25040,128,0,25265:0:0:0:0:
192,192,25190,128,0,25415:0:0:0:0:
448,192,25190,128,0,25265:0:0:0:0:
448,192,25340,128,0,25415:0:0:0:0:
64,192,25340,128,0,25565:0:0:0:0:
320,192,25340,128,0,25415:0:0:0:0:
320,192,25490,128,0,25565:0:0:0:0:
192,192,25490,128,0,25565:0:0:0:0:
64,192,25640,128,0,27140:0:0:0:0:
192,192,25640,128,0,26315:0:0:0:0:
320,192,25640,128,0,26015:0:0:0:0:
448,192,25940,128,0,26015:0:0:0:0:
448,192,26240,128,0,26315:0:0:0:0:
192,192,26540,128,0,26990:0:0:0:0:
320,192,26540,128,0,26840:0:0:0:0:
448,192,26840,128,0,27215:0:0:0:0:
320,192,26990,128,0,27290:0:0:0:0:
192,192,27140,128,0,27290:0:0:0:0:
64,192,27290,1,0,0:0:0:0:
448,192,27290,1,0,0:0:0:0:
320,192,27440,128,0,27815:0:0:0:0:
64,192,27440,128,0,27965:0:0:0:0:
192,192,27440,128,0,27890:0:0:0:0:
448,192,27740,128,0,28265:0:0:0:0:
320,192,27890,128,0,28265:0:0:0:0:
192,192,27965,128,0,28115:0:0:0:0:
64,192,28040,128,0,28415:0:0:0:0:
192,192,28190,128,0,28490:0:0:0:0:
448,192,28340,128,0,28865:0:0:0:0:
320,192,28340,128,0,28565:0:0:0:0:
64,192,28490,1,0,0:0:0:0:
192,192,28565,1,0,0:0:0:0:
320,192,28640,1,0,0:0:0:0:
192,192,28790,128,0,28865:0:0:0:0:
64,192,28790,128,0,28865:0:0:0:0:
320,192,28940,128,0,29015:0:0:0:0:
448,192,28940,128,0,29015:0:0:0:0:
192,192,29090,128,0,29165:0:0:0:0:
64,192,29090,128,0,29165:0:0:0:0:
192,192,29240,128,0,29390:0:0:0:0:
320,192,29240,128,0,29465:0:0:0:0:
448,192,29240,128,0,29540:0:0:0:0:
64,192,29390,128,0,29615:0:0:0:0:
192,192,29465,128,0,29840:0:0:0:0:
320,192,29540,128,0,29840:0:0:0:0:
448,192,29690,128,0,29840:0:0:0:0:
64,192,29690,128,0,29840:0:0:0:0:
320,192,29990,128,0,30065:0:0:0:0:
192,192,30065,128,0,30140:0:0:0:0:
320,192,30140,128,0,30365:0:0:0:0:
448,192,30140,128,0,30365:0:0:0:0:
64,192,30140,128,0,30365:0:0:0:0:
192,192,30290,128,0,30365:0:0:0:0:
448,192,30440,128,0,30965:0:0:0:0:
192,192,30440,128,0,30740:0:0:0:0:
64,192,30440,128,0,30890:0:0:0:0:
320,192,30740,128,0,30890:0:0:0:0:
192,192,30890,128,0,31040:0:0:0:0:
320,192,30965,128,0,31190:0:0:0:0:
64,192,31040,128,0,31565:0:0:0:0:
448,192,31040,128,0,31340:0:0:0:0:
192,192,31190,128,0,31565:0:0:0:0:
320,192,31340,128,0,31565:0:0:0:0:
448,192,31490,128,0,31565:0:0:0:0:
192,192,31640,1,0,0:0:0:0:
320,192,31640,1,0,0:0:0:0:
448,192,31640,1,0,0:0:0:0:
64,192,31640,1,0,0:0:0:0:
448,192,31940,128,0,32165:0:0:0:0:
320,192,32090,128,0,32390:0:0:0:0:
448,192,32240,128,0,32390:0:0:0:0:
192,192,32545,128,0,32620:0:0:0:0:
64,192,32545,128,0,32620:0:0:0:0:
64,192,32695,128,0,32770:0:0:0:0:
448,192,32995,128,0,33370:0:0:0:0:
320,192,33070,128,0,33220:0:0:0:0:
192,192,33145,128,0,33670:0:0:0:0:
320,192,33295,128,0,33520:0:0:0:0:
448,192,33445,128,0,33895:0:0:0:0:
320,192,33595,128,0,33895:0:0:0:0:
192,192,33745,128,0,33895:0:0:0:0:
192,192,34045,128,0,34270:0:0:0:0:
64,192,34045,128,0,34120:0:0:0:0:
64,192,34195,128,0,34420:0:0:0:0:
192,192,34345,128,0,34420:0:0:0:0:
320,192,34345,128,0,34420:0:0:0:0:
192,192,34495,128,0,34570:0:0:0:0:
448,192,34795,128,0,35020:0:0:0:0:
320,192,34945,128,0,35020:0:0:0:0:
64,192,35245,128,0,35320:0:0:0:0:
192,192,35245,128,0,35320:0:0:0:0:
64,192,35395,128,0,35470:0:0:0:0:
448,192,35545,128,0,35770:0:0:0:0:
320,192,35695,128,0,35920:0:0:0:0:
448,192,35845,128,0,35920:0:0:0:0:
192,192,36145,128,0,36220:0:0:0:0:
448,192,36145,128,0,36220:0:0:0:0:
64,192,36295,128,0,36370:0:0:0:0:
192,192,36445,128,0,36820:0:0:0:0:
320,192,36595,128,0,37045:0:0:0:0:
448,192,36745,128,0,37045:0:0:0:0:
192,192,36895,128,0,37045:0:0:0:0:
64,192,37345,128,0,37945:0:0:0:0:
448,192,37345,128,0,37945:0:0:0:0:
320,192,37945,128,0,38245:0:0:0:0:
192,192,38095,128,0,38245:0:0:0:0:
448,192,38395,128,0,38470:0:0:0:0:
320,192,38395,128,0,38470:0:0:0:0:
448,192,38545,128,0,38620:0:0:0:0:
64,192,38845,128,0,38920:0:0:0:0:
192,192,38845,128,0,39145:0:0:0:0:
448,192,39145,128,0,39220:0:0:0:0:
320,192,39145,128,0,39220:0:0:0:0:
448,192,39295,128,0,39595:0:0:0:0:
320,192,39445,128,0,39595:0:0:0:0:
192,192,39745,128,0,39820:0:0:0:0:
64,192,39745,128,0,39820:0:0:0:0:
192,192,39895,128,0,40045:0:0:0:0:
448,192,40045,128,0,40270:0:0:0:0:
320,192,40195,128,0,40420:0:0:0:0:
448,192,40345,128,0,40420:0:0:0:0:
64,192,40645,128,0,40870:0:0:0:0:
320,192,40645,128,0,40720:0:0:0:0:
192,192,40795,128,0,40870:0:0:0:0:
320,192,40945,128,0,41395:0:0:0:0:
448,192,41095,128,0,41395:0:0:0:0:
192,192,41245,128,0,41395:0:0:0:0:
64,192,41545,128,0,41620:0:0:0:0:
320,192,41545,128,0,41620:0:0:0:0:
64,192,41695,128,0,41845:0:0:0:0:
448,192,41845,128,0,42145:0:0:0:0:
192,192,41845,128,0,41995:0:0:0:0:
320,192,41995,128,0,42145:0:0:0:0:
192,192,42145,128,0,42445:0:0:0:0:
448,192,42295,128,0,42370:0:0:0:0:
448,192,42445,128,0,42745:0:0:0:0:
320,192,42445,128,0,42745:0:0:0:0:
64,192,42745,128,0,42970:0:0:0:0:
192,192,42820,128,0,42895:0:0:0:0:
320,192,42895,1,0,0:0:0:0:
192,192,42970,1,0,0:0:0:0:
448,192,43045,128,0,43195:0:0:0:0:
64,192,43045,128,0,43195:0:0:0:0:
64,192,43345,128,0,43645:0:0:0:0:
448,192,43645,128,0,44845:0:0:0:0:
192,192,43645,128,0,44545:0:0:0:0:
64,192,45145,1,0,0:0:0:0:
192,192,45145,1,0,0:0:0:0:
192,192,45295,1,0,0:0:0:0:
320,192,45370,1,0,0:0:0:0:
448,192,45445,1,0,0:0:0:0:
64,192,45445,1,0,0:0:0:0:
192,192,45595,1,0,0:0:0:0:
448,192,45595,1,0,0:0:0:0:
320,192,45745,1,0,0:0:0:0:
64,192,45745,1,0,0:0:0:0:
64,192,45895,1,0,0:0:0:0:
448,192,45895,1,0,0:0:0:0:
192,192,46045,1,0,0:0:0:0:
448,192,46045,1,0,0:0:0:0:
64,192,46945,1,0,0:0:0:0:
192,192,46945,1,0,0:0:0:0:
448,192,46945,128,0,47245:0:0:0:0:
64,192,47245,1,0,0:0:0:0:
448,192,47395,128,0,47620:0:0:0:0:
320,192,47470,128,0,47545:0:0:0:0:
192,192,47545,1,0,0:0:0:0:
320,192,47620,1,0,0:0:0:0:
448,192,47695,128,0,48295:0:0:0:0:
320,192,47845,128,0,48295:0:0:0:0:
64,192,47845,1,0,0:0:0:0:
192,192,47995,128,0,48295:0:0:0:0:
64,192,48145,128,0,48295:0:0:0:0:
64,192,48445,128,0,48595:0:0:0:0:
192,192,48445,1,0,0:0:0:0:
320,192,48595,1,0,0:0:0:0:
448,192,48595,1,0,0:0:0:0:
448,192,48745,1,0,0:0:0:0:
192,192,48745,1,0,0:0:0:0:
64,192,48745,128,0,49045:0:0:0:0:
448,192,49045,1,0,0:0:0:0:
320,192,49195,128,0,49495:0:0:0:0:
448,192,49345,128,0,49495:0:0:0:0:
64,192,49495,1,0,0:0:0:0:
192,192,49645,1,0,0:0:0:0:
320,192,49645,1,0,0:0:0:0:
448,192,49795,1,0,0:0:0:0:
320,192,49870,1,0,0:0:0:0:
64,192,49945,1,0,0:0:0:0:
192,192,49945,128,0,50095:0:0:0:0:
448,192,50095,1,0,0:0:0:0:
320,192,50095,128,0,50245:0:0:0:0:
448,192,50245,1,0,0:0:0:0:
64,192,50245,128,0,50395:0:0:0:0:
320,192,50395,1,0,0:0:0:0:
192,192,50395,1,0,0:0:0:0:
192,192,50545,1,0,0:0:0:0:
64,192,50545,1,0,0:0:0:0:
448,192,50545,128,0,50845:0:0:0:0:
64,192,50845,128,0,51220:0:0:0:0:
192,192,50995,128,0,51070:0:0:0:0:
192,192,51145,128,0,51445:0:0:0:0:
64,192,51295,128,0,51445:0:0:0:0:
448,192,51445,1,0,0:0:0:0:
320,192,51445,1,0,0:0:0:0:
64,192,51745,128,0,52195:0:0:0:0:
320,192,51895,1,0,0:0:0:0:
448,192,52045,1,0,0:0:0:0:
320,192,52195,1,0,0:0:0:0:
192,192,52195,1,0,0:0:0:0:
64,192,52345,1,0,0:0:0:0:
320,192,52345,1,0,0:0:0:0:
448,192,52345,1,0,0:0:0:0:
192,192,52645,1,0,0:0:0:0:
448,192,52795,128,0,52870:0:0:0:0:
320,192,52795,128,0,52870:0:0:0:0:
448,192,52945,128,0,53095:0:0:0:0:
320,192,52945,128,0,53095:0:0:0:0:
64,192,53245,1,0,0:0:0:0:
320,192,53245,1,0,0:0:0:0:
192,192,53395,1,0,0:0:0:0:
448,192,53470,1,0,0:0:0:0:
320,192,53545,128,0,53620:0:0:0:0:
192,192,53545,1,0,0:0:0:0:
64,192,53695,1,0,0:0:0:0:
320,192,53695,128,0,53770:0:0:0:0:
192,192,53845,1,0,0:0:0:0:
448,192,53845,128,0,53920:0:0:0:0:
64,192,53995,1,0,0:0:0:0:
320,192,53995,1,0,0:0:0:0:
192,192,54145,1,0,0:0:0:0:
64,192,54145,1,0,0:0:0:0:
320,192,54145,128,0,54445:0:0:0:0:
448,192,54445,128,0,54895:0:0:0:0:
320,192,54595,128,0,54895:0:0:0:0:
192,192,54745,128,0,54895:0:0:0:0:
64,192,55045,1,0,0:0:0:0:
448,192,55045,1,0,0:0:0:0:
64,192,55345,128,0,55645:0:0:0:0:
192,192,55495,128,0,55795:0:0:0:0:
320,192,55645,128,0,55795:0:0:0:0:
64,192,55795,1,0,0:0:0:0:
448,192,55795,1,0,0:0:0:0:
320,192,55945,1,0,0:0:0:0:
192,192,55945,1,0,0:0:0:0:
448,192,55945,1,0,0:0:0:0:
64,192,56245,128,0,56545:0:0:0:0:
192,192,56320,128,0,56545:0:0:0:0:
320,192,56395,128,0,56695:0:0:0:0:
448,192,56545,128,0,56695:0:0:0:0:
64,192,56695,128,0,56770:0:0:0:0:
320,192,56845,1,0,0:0:0:0:
448,192,56845,1,0,0:0:0:0:
320,192,56995,1,0,0:0:0:0:
192,192,57070,1,0,0:0:0:0:
64,192,57145,1,0,0:0:0:0:
448,192,57145,1,0,0:0:0:0:
320,192,57220,1,0,0:0:0:0:
192,192,57295,1,0,0:0:0:0:
64,192,57295,1,0,0:0:0:0:
320,192,57370,1,0,0:0:0:0:
64,192,57445,1,0,0:0:0:0:
448,192,57445,1,0,0:0:0:0:
320,192,57595,1,0,0:0:0:0:
192,192,57595,1,0,0:0:0:0:
64,192,57745,1,0,0:0:0:0:
320,192,57745,1,0,0:0:0:0:
448,192,57745,1,0,0:0:0:0:
192,192,58045,128,0,59395:0:0:0:0:
448,192,58345,1,0,0:0:0:0:
448,192,58645,1,0,0:0:0:0:
320,192,58645,1,0,0:0:0:0:
64,192,58795,128,0,58870:0:0:0:0:
64,192,59095,128,0,59170:0:0:0:0:
448,192,59245,1,0,0:0:0:0:
320,192,59395,1,0,0:0:0:0:
64,192,59395,1,0,0:0:0:0:
192,192,59545,1,0,0:0:0:0:
320,192,59545,1,0,0:0:0:0:
448,192,59545,1,0,0:0:0:0:
64,192,59845,1,0,0:0:0:0:
448,192,59845,1,0,0:0:0:0:
320,192,59995,1,0,0:0:0:0:
64,192,59995,1,0,0:0:0:0:
192,192,60145,1,0,0:0:0:0:
320,192,60145,1,0,0:0:0:0:
192,192,60295,1,0,0:0:0:0:
448,192,60295,1,0,0:0:0:0:
64,192,60445,128,0,60820:0:0:0:0:
448,192,60445,128,0,61120:0:0:0:0:
320,192,60445,1,0,0:0:0:0:
320,192,60745,128,0,60820:0:0:0:0:
192,192,60745,128,0,60820:0:0:0:0:
192,192,61045,128,0,61120:0:0:0:0:
64,192,61045,128,0,61345:0:0:0:0:
448,192,61345,128,0,61495:0:0:0:0:
320,192,61495,128,0,61645:0:0:0:0:
192,192,61645,128,0,61795:0:0:0:0:
320,192,61795,128,0,61945:0:0:0:0:
64,192,61945,128,0,62395:0:0:0:0:
448,192,62245,128,0,62395:0:0:0:0:
192,192,62545,128,0,62845:0:0:0:0:
64,192,63145,1,0,0:0:0:0:
448,192,63145,1,0,0:0:0:0:
192,192,63145,1,0,0:0:0:0:
448,192,63295,1,0,0:0:0:0:
320,192,63370,1,0,0:0:0:0:
192,192,63445,1,0,0:0:0:0:
64,192,63445,1,0,0:0:0:0:
320,192,63595,1,0,0:0:0:0:
448,192,63595,1,0,0:0:0:0:
64,192,63745,1,0,0:0:0:0:
448,192,63745,1,0,0:0:0:0:
320,192,63820,1,0,0:0:0:0:
448,192,63895,1,0,0:0:0:0:
320,192,63970,1,0,0:0:0:0:
192,192,64045,1,0,0:0:0:0:
64,192,64045,128,0,64345:0:0:0:0:
448,192,64045,1,0,0:0:0:0:
448,192,64345,1,0,0:0:0:0:
320,192,64495,1,0,0:0:0:0:
448,192,64495,1,0,0:0:0:0:
192,192,64495,1,0,0:0:0:0:
320,192,64645,1,0,0:0:0:0:
192,192,64645,1,0,0:0:0:0:
192,192,64795,1,0,0:0:0:0:
64,192,64945,128,0,65095:0:0:0:0:
192,192,65095,128,0,65245:0:0:0:0:
64,192,65245,128,0,65395:0:0:0:0:
320,192,65395,128,0,65545:0:0:0:0:
192,192,65545,128,0,65995:0:0:0:0:
448,192,65695,128,0,65845:0:0:0:0:
320,192,65845,128,0,65995:0:0:0:0:
64,192,65995,128,0,66070:0:0:0:0:
448,192,66145,128,0,66220:0:0:0:0:
448,192,66295,128,0,66370:0:0:0:0:
448,192,66445,128,0,66520:0:0:0:0:
192,192,66745,1,0,0:0:0:0:
64,192,66745,1,0,0:0:0:0:
448,192,66745,1,0,0:0:0:0:
64,192,66895,1,0,0:0:0:0:
192,192,66970,1,0,0:0:0:0:
320,192,67045,1,0,0:0:0:0:
448,192,67045,1,0,0:0:0:0:
192,192,67195,1,0,0:0:0:0:
64,192,67195,1,0,0:0:0:0:
448,192,67345,1,0,0:0:0:0:
192,192,67495,1,0,0:0:0:0:
64,192,67495,1,0,0:0:0:0:
320,192,67645,1,0,0:0:0:0:
448,192,67645,1,0,0:0:0:0:
192,192,68015,1,0,0:0:0:0:
64,192,68015,1,0,0:0:0:0:
448,192,68015,1,0,0:0:0:0:
192,192,68390,1,0,0:0:0:0:
320,192,68390,1,0,0:0:0:0:
448,192,68390,1,0,0:0:0:0:
192,192,68765,1,0,0:0:0:0:
64,192,68765,1,0,0:0:0:0:
448,192,68858,1,0,0:0:0:0:
192,192,68952,1,0,0:0:0:0:
448,192,69046,1,0,0:0:0:0:
64,192,69140,1,0,0:0:0:0:
320,192,69140,1,0,0:0:0:0:
192,192,69233,1,0,0:0:0:0:
448,192,69327,128,0,69515:0:0:0:0:
64,192,69515,1,0,0:0:0:0:
192,192,69608,1,0,0:0:0:0:
320,192,69702,1,0,0:0:0:0:
448,192,69796,1,0,0:0:0:0:
192,192,69890,1,0,0:0:0:0:
64,192,69890,1,0,0:0:0:0:
64,192,70077,1,0,0:0:0:0:
192,192,70077,1,0,0:0:0:0:
192,192,70171,1,0,0:0:0:0:
320,192,70265,1,0,0:0:0:0:
320,192,70358,1,0,0:0:0:0:
64,192,70452,1,0,0:0:0:0:
448,192,70452,1,0,0:0:0:0:
192,192,70640,1,0,0:0:0:0:
192,192,70733,1,0,0:0:0:0:
320,192,70827,1,0,0:0:0:0:
448,192,70827,1,0,0:0:0:0:
64,192,70874,1,0,0:0:0:0:
192,192,70921,1,0,0:0:0:0:
320,192,71015,1,0,0:0:0:0:
320,192,71108,1,0,0:0:0:0:
192,192,71202,1,0,0:0:0:0:
192,192,71296,1,0,0:0:0:0:
448,192,71390,1,0,0:0:0:0:
64,192,71390,1,0,0:0:0:0:
320,192,71483,1,0,0:0:0:0:
64,192,71577,1,0,0:0:0:0:
448,192,71577,1,0,0:0:0:0:
192,192,71671,1,0,0:0:0:0:
320,192,71765,1,0,0:0:0:0:
448,192,71765,1,0,0:0:0:0:
192,192,71858,1,0,0:0:0:0:
320,192,71952,1,0,0:0:0:0:
448,192,72046,1,0,0:0:0:0:
320,192,72130,1,0,0:0:0:0:
64,192,72130,1,0,0:0:0:0:
192,192,72130,1,0,0:0:0:0:
192,192,72411,1,0,0:0:0:0:
64,192,72411,1,0,0:0:0:0:
448,192,72411,1,0,0:0:0:0:
192,192,72692,1,0,0:0:0:0:
320,192,72692,1,0,0:0:0:0:
448,192,72692,1,0,0:0:0:0:
192,192,73067,1,0,0:0:0:0:
64,192,73067,1,0,0:0:0:0:
448,192,73255,1,0,0:0:0:0:
64,192,73255,1,0,0:0:0:0:
320,192,73348,1,0,0:0:0:0:
192,192,73442,1,0,0:0:0:0:
320,192,73536,1,0,0:0:0:0:
448,192,73630,1,0,0:0:0:0:
192,192,73630,1,0,0:0:0:0:
64,192,73630,1,0,0:0:0:0:
192,192,73911,1,0,0:0:0:0:
320,192,73911,1,0,0:0:0:0:
448,192,73911,1,0,0:0:0:0:
448,192,74192,1,0,0:0:0:0:
320,192,74192,1,0,0:0:0:0:
64,192,74192,1,0,0:0:0:0:
192,192,74567,1,0,0:0:0:0:
64,192,74567,1,0,0:0:0:0:
320,192,74755,1,0,0:0:0:0:
448,192,74755,1,0,0:0:0:0:
192,192,74942,1,0,0:0:0:0:
64,192,75036,1,0,0:0:0:0:
448,192,75130,1,0,0:0:0:0:
192,192,75130,1,0,0:0:0:0:
320,192,75130,1,0,0:0:0:0:
64,192,75317,1,0,0:0:0:0:
192,192,75411,1,0,0:0:0:0:
320,192,75505,1,0,0:0:0:0:
448,192,75505,1,0,0:0:0:0:
320,192,75692,1,0,0:0:0:0:
448,192,75692,1,0,0:0:0:0:
192,192,75786,1,0,0:0:0:0:
64,192,75880,1,0,0:0:0:0:
448,192,75880,1,0,0:0:0:0:
448,192,76067,1,0,0:0:0:0:
64,192,76067,1,0,0:0:0:0:
320,192,76255,1,0,0:0:0:0:
192,192,76255,1,0,0:0:0:0:
64,192,76442,1,0,0:0:0:0:
448,192,76442,1,0,0:0:0:0:
448,192,76630,1,0,0:0:0:0:
320,192,76723,1,0,0:0:0:0:
64,192,76817,1,0,0:0:0:0:
192,192,76817,1,0,0:0:0:0:
320,192,77005,1,0,0:0:0:0:
448,192,77005,1,0,0:0:0:0:
192,192,77192,1,0,0:0:0:0:
320,192,77286,1,0,0:0:0:0:
448,192,77380,1,0,0:0:0:0:
64,192,77380,1,0,0:0:0:0:
64,192,77567,1,0,0:0:0:0:
448,192,77567,1,0,0:0:0:0:
320,192,77661,1,0,0:0:0:0:
64,192,77755,1,0,0:0:0:0:
192,192,77848,1,0,0:0:0:0:
320,192,77942,1,0,0:0:0:0:
448,192,77942,1,0,0:0:0:0:
192,192,78036,1,0,0:0:0:0:
64,192,78130,1,0,0:0:0:0:
320,192,78130,1,0,0:0:0:0:
448,192,78130,1,0,0:0:0:0:
320,192,78411,1,0,0:0:0:0:
192,192,78411,1,0,0:0:0:0:
192,192,78692,1,0,0:0:0:0:
64,192,78692,1,0,0:0:0:0:
448,192,78692,1,0,0:0:0:0:
320,192,79067,128,0,79255:0:0:0:0:
448,192,79067,128,0,79255:0:0:0:0:
192,192,79161,128,0,79255:0:0:0:0:
64,192,79255,1,0,0:0:0:0:
64,192,79348,1,0,0:0:0:0:
320,192,79442,1,0,0:0:0:0:
320,192,79536,1,0,0:0:0:0:
192,192,79817,1,0,0:0:0:0:
320,192,79817,1,0,0:0:0:0:
448,192,79817,1,0,0:0:0:0:
320,192,80098,1,0,0:0:0:0:
192,192,80098,1,0,0:0:0:0:
64,192,80098,1,0,0:0:0:0:
192,192,80380,1,0,0:0:0:0:
64,192,80380,1,0,0:0:0:0:
448,192,80380,1,0,0:0:0:0:
320,192,80473,1,0,0:0:0:0:
448,192,80567,1,0,0:0:0:0:
320,192,80661,1,0,0:0:0:0:
192,192,80755,1,0,0:0:0:0:
64,192,80755,1,0,0:0:0:0:
448,192,80848,1,0,0:0:0:0:
192,192,80942,1,0,0:0:0:0:
448,192,81036,1,0,0:0:0:0:
320,192,81130,1,0,0:0:0:0:
192,192,81130,1,0,0:0:0:0:
64,192,81130,1,0,0:0:0:0:
