osu file format v14

[General]
AudioFilename: twintail dreamer!.mp3
AudioLeadIn: 0
PreviewTime: 52669
Countdown: 1
SampleSet: Soft
StackLeniency: 0.7
Mode: 0
LetterboxInBreaks: 0
WidescreenStoryboard: 1

[Editor]
Bookmarks: 4336,5245,6306,21609,30245,41609,61003,72518,85093,86760
DistanceSpacing: 1.6
BeatDivisor: 4
GridSize: 8
TimelineZoom: 1.9

[Metadata]
Title:United Jump Collection 2
TitleUnicode:United Jump Collection 2
Artist:Various Artist
ArtistUnicode:Various Artist
Creator:My Angel United
Version:Twintail Dreamer!
Source:
Tags:MAU My Angel United
BeatmapID:1558679
BeatmapSetID:738571

[Difficulty]
HPDrainRate:3
CircleSize:4
OverallDifficulty:9
ApproachRate:9.5
SliderMultiplier:2
SliderTickRate:1

[Events]
//Background and Video events
0,0,"Twintail BG.jpg",0,0
//Break Periods
//Storyboard Layer 0 (Background)
//Storyboard Layer 1 (Fail)
//Storyboard Layer 2 (Pass)
//Storyboard Layer 3 (Foreground)
//Storyboard Sound Samples

[TimingPoints]
397,303.030303030303,4,2,0,50,1,0
2669,-133.333333333333,4,2,0,50,0,0
12366,-133.333333333333,4,2,0,60,0,0
22215,-133.333333333333,4,2,0,65,0,0
53578,-100,4,2,0,70,0,1
61003,-100,4,2,6,55,0,1
62518,-100,4,2,0,70,0,0
62821,-100,4,3,1,60,0,0
63275,-100,4,3,0,65,0,1
63578,-100,4,2,0,55,0,1
72518,-100,4,3,0,65,0,1
73431,-100,4,2,0,55,0,1
75396,-90.9090909090909,4,2,0,55,0,1
76154,-100,4,2,0,55,0,1
76760,-76.9230769230769,4,2,0,55,0,1
77063,-71.4285714285714,4,2,0,55,0,1
77669,-71.4285714285714,4,2,0,5,0,1
77745,-71.4285714285714,4,2,0,55,0,1
77821,-166.666666666667,4,2,0,55,0,1
78503,-166.666666666667,4,2,0,20,0,1
78578,-100,4,2,0,55,0,1
78957,-100,4,2,0,20,0,1
79033,-100,4,2,0,70,0,0
85093,-200,4,2,0,50,0,0

[HitObjects]
192,32,397,6,0,B|192:64|192:64|184:96|184:96|184:144,1,100
320,256,700,2,0,B|320:224|320:224|328:192|328:192|328:144,1,100
128,32,1306,2,0,B|128:64|128:64|120:96|120:96|120:144,1,100
384,256,1609,2,0,B|384:224|384:224|392:192|392:192|392:144,1,100
272,32,1912,6,0,L|312:88,1,50
280,200,2063,2,0,L|248:152,1,50
160,32,2215,1,0,0:0:0:0:
384,192,2366,1,0,0:0:0:0:
464,32,2669,6,0,B|480:88|464:120|464:120|480:144|480:144|456:192|480:256,1,225.000008583069
368,320,3427,2,0,P|320:344|272:344,2,75.0000028610231
512,192,3881,1,4,0:0:0:0:
368,64,4033,2,0,P|320:40|272:40,2,75.0000028610231
512,192,4487,1,0,0:0:0:0:
288,192,4639,1,0,0:0:0:0:
480,256,4790,1,0,0:0:0:0:
256,256,4942,1,0,0:0:0:0:
448,320,5093,1,0,0:0:0:0:
224,320,5245,6,0,P|192:352|160:352,1,75.0000028610231,4|0,0:0|0:0,0:0:0:0:
32,352,5548,1,0,0:0:0:0:
224,224,5700,1,0,0:0:0:0:
32,288,5851,1,0,0:0:0:0:
224,160,6003,1,0,0:0:0:0:
32,224,6154,1,0,0:0:0:0:
224,96,6306,2,0,B|272:96|272:96|304:80|336:96|336:96|384:96,1,150.000005722046
424,40,6760,1,0,0:0:0:0:
441,73,6835,1,0,0:0:0:0:
447,109,6911,5,0,0:0:0:0:
443,147,6987,1,0,0:0:0:0:
432,184,7063,2,0,P|403:235|368:256,1,75.0000028610231
304,352,7366,1,0,0:0:0:0:
304,264,7518,2,0,P|272:216|168:216,1,150.000005722046
32,288,7972,5,0,0:0:0:0:
288,32,8275,5,0,0:0:0:0:
32,96,8578,5,0,0:0:0:0:
480,224,8881,5,0,0:0:0:0:
224,352,9184,5,0,0:0:0:0:
384,80,9487,6,0,L|384:144,1,37.5000014305115
272,88,9639,2,0,L|304:136,1,37.5000014305115
352,184,9790,1,0,0:0:0:0:
352,280,9942,2,0,P|280:240|200:248,1,150.000005722046
32,352,10396,1,0,0:0:0:0:
128,32,10700,1,0,0:0:0:0:
160,352,11003,5,0,0:0:0:0:
256,32,11306,1,0,0:0:0:0:
288,352,11609,5,0,0:0:0:0:
384,32,11912,1,0,0:0:0:0:
480,160,12063,1,0,0:0:0:0:
480,160,12139,1,0,0:0:0:0:
480,160,12215,1,0,0:0:0:0:
480,288,12366,6,0,P|448:320|320:320,1,150.000005722046
256,352,12821,1,0,0:0:0:0:
256,32,12972,1,0,0:0:0:0:
160,352,13124,1,0,0:0:0:0:
352,32,13275,1,0,0:0:0:0:
256,352,13427,1,0,0:0:0:0:
256,32,13578,1,0,0:0:0:0:
352,352,13730,1,0,0:0:0:0:
160,32,13881,1,0,0:0:0:0:
0,352,14033,5,0,0:0:0:0:
256,160,14184,1,0,0:0:0:0:
0,32,14336,5,0,0:0:0:0:
256,224,14487,1,0,0:0:0:0:
0,288,14639,5,0,0:0:0:0:
256,96,14790,1,0,0:0:0:0:
0,96,14942,5,0,0:0:0:0:
256,288,15093,1,0,0:0:0:0:
0,192,15245,5,0,0:0:0:0:
256,192,15396,1,0,0:0:0:0:
32,192,15548,1,0,0:0:0:0:
320,192,15700,1,0,0:0:0:0:
64,192,15851,1,0,0:0:0:0:
384,192,16003,1,0,0:0:0:0:
96,192,16154,1,0,0:0:0:0:
448,192,16306,1,0,0:0:0:0:
128,192,16457,1,0,0:0:0:0:
512,192,16609,5,0,0:0:0:0:
256,32,16760,1,0,0:0:0:0:
512,128,16912,5,0,0:0:0:0:
256,288,17063,1,0,0:0:0:0:
512,256,17215,5,0,0:0:0:0:
256,96,17366,1,0,0:0:0:0:
256,352,17518,1,0,0:0:0:0:
480,32,17669,1,0,0:0:0:0:
112,352,17821,5,0,0:0:0:0:
400,32,17972,1,0,0:0:0:0:
112,288,18124,5,0,0:0:0:0:
400,96,18275,1,0,0:0:0:0:
112,224,18427,5,0,0:0:0:0:
400,160,18578,1,0,0:0:0:0:
112,160,18730,5,0,0:0:0:0:
400,224,18881,1,0,0:0:0:0:
112,96,19033,5,0,0:0:0:0:
400,288,19184,1,0,0:0:0:0:
112,32,19336,5,0,0:0:0:0:
400,352,19487,1,0,0:0:0:0:
0,192,19639,5,0,0:0:0:0:
480,192,19790,1,0,0:0:0:0:
0,256,19942,5,0,0:0:0:0:
480,128,20093,1,0,0:0:0:0:
0,320,20245,5,0,0:0:0:0:
480,64,20396,1,0,0:0:0:0:
0,384,20548,5,0,0:0:0:0:
480,0,20699,1,0,0:0:0:0:
0,192,20851,5,0,0:0:0:0:
480,192,21002,1,0,0:0:0:0:
0,128,21154,5,0,0:0:0:0:
480,256,21305,1,0,0:0:0:0:
0,64,21457,5,0,0:0:0:0:
480,320,21609,1,0,0:0:0:0:
446,335,21684,1,0,0:0:0:0:
409,343,21760,1,0,0:0:0:0:
372,343,21836,1,0,0:0:0:0:
335,333,21912,1,0,0:0:0:0:
302,316,21987,1,0,0:0:0:0:
274,292,22063,1,0,0:0:0:0:
252,262,22139,1,0,0:0:0:0:
237,227,22215,6,0,P|192:224|96:280,1,150.000005722046
64,352,22669,2,0,P|32:296|32:256,1,75.0000028610231
32,224,22972,1,0,0:0:0:0:
288,160,23124,1,0,0:0:0:0:
32,160,23275,1,0,0:0:0:0:
288,224,23427,1,0,0:0:0:0:
32,96,23578,1,0,0:0:0:0:
288,288,23730,1,0,0:0:0:0:
32,32,23881,1,0,0:0:0:0:
288,352,24033,5,0,0:0:0:0:
288,32,24184,1,0,0:0:0:0:
32,160,24336,1,0,0:0:0:0:
288,96,24487,5,0,0:0:0:0:
32,224,24639,1,0,0:0:0:0:
288,160,24790,5,0,0:0:0:0:
32,288,24942,1,0,0:0:0:0:
288,224,25093,5,0,0:0:0:0:
32,352,25245,1,0,0:0:0:0:
288,224,25397,1,0,0:0:0:0:
480,352,25548,1,0,0:0:0:0:
288,160,25700,1,0,0:0:0:0:
480,288,25851,1,0,0:0:0:0:
288,96,26003,1,0,0:0:0:0:
480,224,26154,1,0,0:0:0:0:
480,160,26306,1,0,0:0:0:0:
288,32,26457,5,0,0:0:0:0:
480,96,26609,1,0,0:0:0:0:
224,224,26760,5,0,0:0:0:0:
288,160,26912,1,0,0:0:0:0:
192,256,27063,1,0,0:0:0:0:
320,128,27215,1,0,0:0:0:0:
160,288,27366,1,0,0:0:0:0:
352,96,27518,1,0,0:0:0:0:
128,320,27669,1,0,0:0:0:0:
384,64,27821,1,0,0:0:0:0:
96,352,27972,1,0,0:0:0:0:
416,32,28124,1,0,0:0:0:0:
64,384,28275,1,0,0:0:0:0:
448,0,28427,1,0,0:0:0:0:
288,224,28578,5,0,0:0:0:0:
224,160,28730,1,0,0:0:0:0:
320,256,28881,1,0,0:0:0:0:
192,128,29033,1,0,0:0:0:0:
352,288,29184,1,0,0:0:0:0:
160,96,29336,1,0,0:0:0:0:
384,320,29487,1,0,0:0:0:0:
128,64,29639,1,0,0:0:0:0:
416,352,29790,1,0,0:0:0:0:
96,32,29942,1,0,0:0:0:0:
448,384,30093,1,0,0:0:0:0:
64,0,30245,2,0,P|40:56|64:120,1,112.500004291535
112,72,30548,6,0,P|128:128|72:168,1,112.500004291535
32,192,30851,1,0,0:0:0:0:
32,352,31003,1,0,0:0:0:0:
128,256,31154,1,0,0:0:0:0:
128,352,31306,2,0,P|192:320|224:288,1,112.500004291535
224,208,31609,1,0,0:0:0:0:
257,225,31684,1,0,0:0:0:0:
281,253,31760,1,0,0:0:0:0:
293,288,31836,1,0,0:0:0:0:
296,328,31912,6,0,P|344:320|408:216,1,150.000005722046
480,192,32366,1,0,0:0:0:0:
480,0,32518,1,0,0:0:0:0:
416,160,32669,1,0,0:0:0:0:
416,32,32821,1,0,0:0:0:0:
352,128,32972,1,0,0:0:0:0:
352,64,33124,1,0,0:0:0:0:
320,96,33275,1,0,0:0:0:0:
288,96,33427,2,0,L|192:96,1,75.0000028610231
160,32,33730,6,0,P|128:64|128:96,1,75.0000028610231
32,160,34033,1,0,0:0:0:0:
224,224,34184,1,0,0:0:0:0:
32,224,34336,1,0,0:0:0:0:
224,160,34487,1,0,0:0:0:0:
32,96,34639,5,0,0:0:0:0:
224,288,34790,1,0,0:0:0:0:
32,288,34942,1,0,0:0:0:0:
224,96,35093,1,0,0:0:0:0:
32,32,35245,5,0,0:0:0:0:
224,352,35396,1,0,0:0:0:0:
32,352,35548,1,0,0:0:0:0:
224,32,35699,1,0,0:0:0:0:
256,192,35851,5,0,0:0:0:0:
512,384,36003,1,0,0:0:0:0:
256,160,36154,5,0,0:0:0:0:
512,352,36306,1,0,0:0:0:0:
256,128,36457,5,0,0:0:0:0:
512,320,36609,1,0,0:0:0:0:
256,96,36760,5,0,0:0:0:0:
512,288,36912,1,0,0:0:0:0:
256,64,37063,5,0,0:0:0:0:
512,256,37215,1,0,0:0:0:0:
256,32,37366,5,0,0:0:0:0:
512,224,37518,1,0,0:0:0:0:
256,0,37669,5,0,0:0:0:0:
512,192,37821,1,0,0:0:0:0:
192,256,37972,5,0,0:0:0:0:
192,128,38124,1,0,0:0:0:0:
320,128,38275,1,0,0:0:0:0:
320,256,38427,1,0,0:0:0:0:
128,320,38578,5,0,0:0:0:0:
128,64,38730,1,0,0:0:0:0:
384,64,38881,1,0,0:0:0:0:
384,320,39033,1,0,0:0:0:0:
64,384,39184,5,0,0:0:0:0:
64,0,39336,1,0,0:0:0:0:
416,0,39487,1,0,0:0:0:0:
416,384,39639,1,0,0:0:0:0:
288,224,39790,1,0,0:0:0:0:
480,224,39942,1,0,0:0:0:0:
320,288,40093,1,0,0:0:0:0:
448,288,40245,1,0,0:0:0:0:
384,352,40396,1,0,0:0:0:0:
288,32,40548,5,0,0:0:0:0:
224,32,40700,1,0,0:0:0:0:
320,64,40851,1,0,0:0:0:0:
192,64,41003,1,0,0:0:0:0:
352,96,41154,1,0,0:0:0:0:
160,96,41306,1,0,0:0:0:0:
384,128,41457,1,0,0:0:0:0:
128,128,41609,2,0,P|96:200|40:256,1,150.000005722046
112,336,42215,1,0,0:0:0:0:
112,336,42366,5,0,0:0:0:0:
240,264,42669,2,0,P|256:208|256:104,1,150.000005722046
256,24,43124,2,0,P|208:48|176:144,2,150.000005722046
336,24,43881,1,0,0:0:0:0:
384,104,44033,2,0,P|383:151|352:184,1,75.0000028610231
264,192,44336,1,0,0:0:0:0:
480,344,44639,5,0,0:0:0:0:
408,256,44790,2,0,P|368:240|312:240,1,75.0000028610231
312,312,45093,2,0,L|160:312,1,150.000005722046
88,344,45548,6,0,P|48:280|48:200,1,150.000005722046
160,224,46003,1,0,0:0:0:0:
32,120,46154,1,0,0:0:0:0:
208,24,46306,2,0,P|232:64|224:192,1,150.000005722046
144,160,46760,2,0,P|136:208|168:320,2,150.000005722046
208,32,47518,5,0,0:0:0:0:
256,96,47669,2,0,L|256:192,1,75.0000028610231
176,176,47972,2,0,L|176:272,1,75.0000028610231
256,272,48275,2,0,L|256:360,1,75.0000028610231
96,352,48578,5,0,0:0:0:0:
83,316,48654,1,0,0:0:0:0:
78,279,48729,1,0,0:0:0:0:
32,200,48881,2,0,P|64:144|112:112,1,112.500004291535
152,112,49184,1,0,0:0:0:0:
224,224,49336,1,0,0:0:0:0:
88,224,49639,5,0,0:0:0:0:
160,336,49791,1,0,0:0:0:0:
256,360,49942,2,0,P|288:320|304:288,1,75.0000028610231
288,224,50245,5,0,0:0:0:0:
512,224,50396,1,0,0:0:0:0:
224,256,50548,1,0,0:0:0:0:
448,256,50700,1,0,0:0:0:0:
256,128,50851,5,0,0:0:0:0:
352,352,51003,1,0,0:0:0:0:
320,64,51154,5,0,0:0:0:0:
288,288,51306,2,0,P|256:320|192:320,1,112.500004291535
160,288,51609,1,0,0:0:0:0:
32,352,51760,1,0,0:0:0:0:
64,0,51912,5,0,0:0:0:0:
480,128,52063,1,0,0:0:0:0:
0,32,52215,5,0,0:0:0:0:
512,192,52366,1,0,0:0:0:0:
288,160,52821,6,0,P|272:208|272:272,1,112.500004291535
271,269,53124,1,0,0:0:0:0:
128,336,53275,1,0,0:0:0:0:
32,240,53578,6,0,L|32:128,1,100
32,32,53881,1,0,0:0:0:0:
480,32,54033,1,0,0:0:0:0:
64,96,54184,1,0,0:0:0:0:
448,96,54336,1,0,0:0:0:0:
96,160,54487,1,0,0:0:0:0:
416,160,54639,1,0,0:0:0:0:
128,224,54790,1,0,0:0:0:0:
384,224,54942,1,0,0:0:0:0:
160,288,55093,1,0,0:0:0:0:
352,288,55245,1,0,0:0:0:0:
192,352,55396,1,0,0:0:0:0:
320,352,55548,1,0,0:0:0:0:
192,352,55700,5,0,0:0:0:0:
320,352,55852,1,0,0:0:0:0:
160,288,56003,1,0,0:0:0:0:
352,288,56155,1,0,0:0:0:0:
128,224,56306,1,0,0:0:0:0:
384,224,56458,1,0,0:0:0:0:
96,160,56609,1,0,0:0:0:0:
416,160,56761,1,0,0:0:0:0:
64,96,56912,1,0,0:0:0:0:
448,96,57064,1,0,0:0:0:0:
32,32,57215,1,0,0:0:0:0:
480,32,57367,1,0,0:0:0:0:
32,32,57518,6,0,L|128:32,1,50
160,32,57669,5,0,0:0:0:0:
256,352,57821,1,0,0:0:0:0:
352,32,57972,1,0,0:0:0:0:
160,288,58124,5,0,0:0:0:0:
256,96,58275,1,0,0:0:0:0:
352,288,58427,1,0,0:0:0:0:
160,160,58578,5,0,0:0:0:0:
256,224,58730,1,0,0:0:0:0:
352,160,58881,1,0,0:0:0:0:
160,96,59033,5,0,0:0:0:0:
352,288,59184,1,0,0:0:0:0:
352,96,59336,1,0,0:0:0:0:
160,288,59487,1,0,0:0:0:0:
96,32,59639,5,0,0:0:0:0:
416,352,59790,1,0,0:0:0:0:
416,32,59942,1,0,0:0:0:0:
96,352,60093,1,0,0:0:0:0:
0,192,60245,2,0,L|128:192,1,100
128,128,60548,2,0,L|256:128,1,100
256,192,60851,1,0,0:0:0:0:
352,192,61003,1,4,0:0:0:0:
128,64,61306,5,4,0:0:0:0:
288,224,61457,1,4,0:0:0:0:
416,64,61760,5,4,0:0:0:0:
480,160,62063,2,0,B|448:216|448:216|376:208|328:232|328:232|328:272,1,200
280,344,62518,2,0,P|256:296|256:240,1,100
304,200,62821,5,0,0:0:0:0:
269,163,62896,1,0,0:0:0:0:
227,138,62972,1,0,0:0:0:0:
178,125,63048,1,0,0:0:0:0:
129,126,63124,1,0,0:0:0:0:
81,142,63199,1,0,0:0:0:0:
48,176,63275,2,0,P|24:248|32:280,1,100
0,352,63578,5,0,0:0:0:0:
256,0,63730,1,0,0:0:0:0:
64,352,63881,5,0,0:0:0:0:
256,64,64033,1,0,0:0:0:0:
128,352,64184,5,0,0:0:0:0:
256,128,64336,1,0,0:0:0:0:
192,352,64487,5,0,0:0:0:0:
256,192,64639,1,0,0:0:0:0:
256,352,64790,5,0,0:0:0:0:
256,256,64942,1,0,0:0:0:0:
512,32,65093,5,0,0:0:0:0:
256,384,65245,1,0,0:0:0:0:
448,32,65396,5,0,0:0:0:0:
256,320,65548,1,0,0:0:0:0:
384,32,65699,5,0,0:0:0:0:
256,256,65851,1,0,0:0:0:0:
320,32,66002,5,0,0:0:0:0:
256,192,66154,1,0,0:0:0:0:
256,32,66305,5,0,0:0:0:0:
256,128,66457,1,0,0:0:0:0:
0,32,66609,1,0,0:0:0:0:
512,32,66760,1,0,0:0:0:0:
0,96,66912,5,0,0:0:0:0:
512,96,67063,1,0,0:0:0:0:
0,160,67215,5,0,0:0:0:0:
512,160,67366,1,0,0:0:0:0:
0,224,67518,5,0,0:0:0:0:
512,224,67669,1,0,0:0:0:0:
0,288,67821,5,0,0:0:0:0:
512,288,67972,1,0,0:0:0:0:
0,352,68124,5,0,0:0:0:0:
512,352,68275,1,0,0:0:0:0:
32,320,68427,1,0,0:0:0:0:
480,320,68578,1,0,0:0:0:0:
32,256,68730,5,0,0:0:0:0:
480,256,68881,1,0,0:0:0:0:
32,192,69033,5,0,0:0:0:0:
480,192,69184,1,0,0:0:0:0:
32,128,69336,5,0,0:0:0:0:
480,128,69487,1,0,0:0:0:0:
32,64,69639,5,0,0:0:0:0:
480,64,69790,1,0,0:0:0:0:
96,32,69942,1,0,0:0:0:0:
416,32,70093,1,0,0:0:0:0:
96,96,70245,5,0,0:0:0:0:
416,96,70396,1,0,0:0:0:0:
96,160,70548,5,0,0:0:0:0:
416,160,70699,1,0,0:0:0:0:
96,224,70851,5,0,0:0:0:0:
416,224,71002,1,0,0:0:0:0:
96,288,71154,5,0,0:0:0:0:
416,288,71305,1,0,0:0:0:0:
96,352,71457,5,0,0:0:0:0:
416,352,71608,1,0,0:0:0:0:
224,96,71760,5,0,0:0:0:0:
288,288,71912,1,0,0:0:0:0:
288,96,72063,1,0,0:0:0:0:
224,288,72215,1,0,0:0:0:0:
224,96,72366,5,0,0:0:0:0:
288,288,72518,5,0,0:0:0:0:
330,261,72593,1,0,0:0:0:0:
361,222,72669,1,0,0:0:0:0:
377,175,72745,1,0,0:0:0:0:
376,126,72821,1,0,0:0:0:0:
360,80,72896,1,0,0:0:0:0:
328,48,72972,2,0,B|272:96|272:96|248:160|248:160|200:200,1,200
128,256,73427,5,0,0:0:0:0:
32,96,73730,1,0,0:0:0:0:
480,192,74033,1,0,0:0:0:0:
192,352,74336,1,0,0:0:0:0:
384,32,74639,1,0,0:0:0:0:
288,224,74942,5,0,0:0:0:0:
272,240,75018,1,0,0:0:0:0:
256,256,75093,1,0,0:0:0:0:
240,272,75169,1,0,0:0:0:0:
224,288,75245,2,0,L|160:288,1,50
96,336,75396,2,0,B|72:296|96:264|96:264|104:216|80:192|72:168|72:168|104:104,1,220.000006713867
136,24,75851,2,0,P|192:80|240:80,1,110.000003356934
160,152,76154,2,0,L|264:152,1,100
304,40,76457,2,0,P|328:96|328:144,1,100
312,232,76684,5,0,0:0:0:0:
312,232,76760,6,0,B|256:280|176:280|176:280|216:240,1,194.999991073609
251,188,77063,2,0,B|283:108|283:108|219:132|195:140|147:124,1,209.999993591309
88,24,77366,2,0,B|88:80|64:112|64:112|80:160|80:160|48:192|72:232|72:232|144:192|208:248,1,349.999989318848
184,152,77821,6,0,P|264:216|152:304,1,269.999991760254
96,352,78578,2,0,B|64:296|104:256|104:256|88:192|88:160|88:160|104:112,1,250
152,48,79033,2,0,P|200:112|152:232,1,200
32,224,79487,2,0,P|72:280|112:296,1,100
160,352,79790,5,0,0:0:0:0:
256,32,79942,1,0,0:0:0:0:
224,352,80093,5,0,0:0:0:0:
320,32,80245,1,0,0:0:0:0:
288,352,80396,5,0,0:0:0:0:
384,32,80548,1,0,0:0:0:0:
352,352,80700,5,0,0:0:0:0:
448,32,80852,1,0,0:0:0:0:
416,352,81003,5,0,0:0:0:0:
512,32,81155,1,0,0:0:0:0:
480,352,81306,5,0,0:0:0:0:
384,32,81458,1,0,0:0:0:0:
416,352,81609,5,0,0:0:0:0:
320,32,81761,1,0,0:0:0:0:
352,352,81912,5,0,0:0:0:0:
256,32,82064,1,0,0:0:0:0:
288,352,82215,5,0,0:0:0:0:
192,32,82367,1,0,0:0:0:0:
224,352,82518,5,0,0:0:0:0:
128,32,82670,1,0,0:0:0:0:
160,352,82821,5,0,0:0:0:0:
64,32,82973,1,0,0:0:0:0:
96,352,83124,5,0,0:0:0:0:
0,32,83276,1,0,0:0:0:0:
32,352,83427,5,0,0:0:0:0:
256,192,83578,1,0,0:0:0:0:
32,288,83730,5,0,0:0:0:0:
256,256,83881,1,0,0:0:0:0:
32,224,84033,5,0,0:0:0:0:
256,320,84184,1,0,0:0:0:0:
32,160,84336,5,0,0:0:0:0:
256,384,84487,1,0,0:0:0:0:
32,96,84639,5,0,0:0:0:0:
256,96,84790,1,0,0:0:0:0:
32,32,84942,5,0,0:0:0:0:
472,32,85093,6,0,B|456:72|472:104|472:104|472:160|400:160|400:160|400:240|336:208|336:208|272:272|256:336|256:336|232:272|192:272,1,525
168,272,86760,2,0,L|128:272,1,25
