osu file format v14

[General]
AudioFilename: opening.mp3
AudioLeadIn: 0
PreviewTime: 28618
Countdown: 1
SampleSet: Normal
StackLeniency: 0.7
Mode: 0
LetterboxInBreaks: 0
WidescreenStoryboard: 1

[Editor]
Bookmarks: 8426,14888,23195,39349,54118,68888,75118,76965,84098
DistanceSpacing: 1.5
BeatDivisor: 4
GridSize: 32
TimelineZoom: 2.3

[Metadata]
Title:United Jump Collection 2
TitleUnicode:United Jump Collection 2
Artist:Various Artist
ArtistUnicode:Various Artist
Creator:My Angel United
Version:THE HERO!!~Ikareru Kobushi ni Hi o Tsukero~
Source:
Tags:MAU My Angel United
BeatmapID:1558678
BeatmapSetID:738571

[Difficulty]
HPDrainRate:2
CircleSize:4
OverallDifficulty:9
ApproachRate:9.5
SliderMultiplier:2.2
SliderTickRate:1

[Events]
//Background and Video events
0,0,"Fucking brutal.jpg",0,0
//Break Periods
//Storyboard Layer 0 (Background)
//Storyboard Layer 1 (Fail)
//Storyboard Layer 2 (Pass)
//Storyboard Layer 3 (Foreground)
//Storyboard Sound Samples

[TimingPoints]
1042,230.769230769231,4,1,0,100,1,0
1042,-200,4,1,0,50,0,0
8426,-125,4,1,0,50,0,0
15003,-125,4,1,0,70,0,0
15811,-125,4,1,0,50,0,0
39811,-125,4,1,0,90,0,1
52734,-125,4,1,0,70,0,0
54580,-125,4,1,0,70,0,1
61042,-125,4,3,0,70,0,1
61734,-125,4,1,0,70,0,1
69349,-125,4,1,0,70,0,0
80406,230.769230769231,4,1,0,100,1,0
84098,-133.333333333333,4,1,0,100,0,0
87559,-133.333333333333,4,1,0,5,0,0

[HitObjects]
168,40,1042,6,0,P|216:72|216:144,1,110
152,120,1388,2,0,L|152:240,1,110
80,256,1734,2,0,B|120:304|120:304|176:304,1,110
224,352,2080,2,0,P|248:312|248:240,1,110
256,160,2426,1,0,0:0:0:0:
424,256,2657,6,0,L|424:216,3,27.5
392,160,2888,2,0,P|360:192|344:256,1,110
352,328,3234,2,0,P|296:336|248:296,1,110
272,232,3580,2,0,P|216:232|168:272,1,110
168,336,3926,2,0,P|112:312|96:248,1,110
24,192,4272,1,0,0:0:0:0:
160,32,4503,6,0,L|160:72,3,27.5
96,96,4734,2,0,P|136:152|184:152,1,110
240,112,5080,2,0,P|256:168|224:224,1,110
136,240,5426,2,0,L|208:336,1,110
256,368,5772,1,0,0:0:0:0:
336,280,6003,1,0,0:0:0:0:
336,280,6118,1,0,0:0:0:0:
256,160,6349,1,0,0:0:0:0:
136,256,6580,1,0,0:0:0:0:
256,192,6695,12,0,8195,0:0:0:0:
40,56,8426,6,0,L|216:56,1,176
272,112,8772,2,0,B|248:136|184:128|184:128|128:152|128:152|80:152,1,176
32,128,9118,2,0,B|32:176|32:176|48:216|80:224|80:224|80:304,1,176
136,328,9465,2,0,B|160:296|168:272|168:272|152:232|152:232|161:200|152:160|120:152,1,176
224,32,9811,5,0,0:0:0:0:
224,224,9926,1,0,0:0:0:0:
416,224,10042,1,0,0:0:0:0:
416,32,10157,1,0,0:0:0:0:
224,32,10272,2,0,P|256:96|192:192,1,176
184,104,10618,6,0,B|120:104|88:160|88:160|112:208|96:248,1,176
184,232,10965,2,0,P|152:288|48:280,1,176
32,192,11311,1,0,0:0:0:0:
224,32,11426,1,0,0:0:0:0:
32,32,11542,1,0,0:0:0:0:
224,192,11657,1,0,0:0:0:0:
128,0,11772,5,0,0:0:0:0:
128,256,11888,1,0,0:0:0:0:
128,0,12003,1,0,0:0:0:0:
128,352,12118,2,0,B|200:344|256:352|256:352|232:320|200:304,1,176
224,240,12465,2,0,P|288:264|328:360,1,176
400,360,12811,2,0,B|384:312|416:264|416:264|392:232|392:232|408:208|400:184,1,176
376,104,13157,2,0,B|328:168|328:168|296:120|232:128,1,176
216,56,13503,2,0,P|168:104|216:192,1,176
296,224,13849,1,0,0:0:0:0:
296,224,13965,6,0,P|272:272|232:288,1,88
168,224,14195,2,0,L|168:336,1,88
80,272,14425,2,0,L|80:376,2,88
80,184,14772,2,0,P|112:136|168:96,1,88
192,32,15003,5,0,0:0:0:0:
256,256,15118,1,0,0:0:0:0:
352,128,15234,1,0,0:0:0:0:
120,128,15349,2,0,P|144:200|88:288,1,176
336,344,15811,6,0,P|368:296|352:184,1,176
296,256,16157,2,0,P|264:192|296:96,1,176
376,104,16503,2,0,B|440:136|440:136|464:200|456:248,1,176
376,208,16849,2,0,P|392:304|464:344,1,176
304,352,17195,6,0,B|256:280|256:280|216:320|216:320|160:256|160:256|104:256,1,264
32,224,17657,5,0,0:0:0:0:
128,64,17772,1,0,0:0:0:0:
96,224,17888,5,0,0:0:0:0:
192,64,18003,1,0,0:0:0:0:
160,224,18118,5,0,0:0:0:0:
256,64,18233,1,0,0:0:0:0:
224,224,18349,5,0,0:0:0:0:
320,64,18464,1,0,0:0:0:0:
288,224,18580,5,0,0:0:0:0:
384,64,18695,1,0,0:0:0:0:
352,128,18811,5,0,0:0:0:0:
448,64,18926,1,0,0:0:0:0:
416,128,19042,5,0,0:0:0:0:
512,64,19157,1,0,0:0:0:0:
480,224,19272,2,0,P|480:288|448:320,1,88
320,288,19503,5,0,0:0:0:0:
192,128,19618,1,0,0:0:0:0:
256,320,19734,1,0,0:0:0:0:
256,64,19849,1,0,0:0:0:0:
192,288,19965,1,0,0:0:0:0:
320,128,20080,1,0,0:0:0:0:
256,352,20195,5,0,0:0:0:0:
256,32,20311,1,0,0:0:0:0:
256,288,20426,1,0,0:0:0:0:
256,96,20542,1,0,0:0:0:0:
32,192,20657,5,0,0:0:0:0:
480,192,20772,1,0,0:0:0:0:
96,192,20888,1,0,0:0:0:0:
416,192,21003,1,0,0:0:0:0:
160,192,21118,1,0,0:0:0:0:
352,192,21234,1,0,0:0:0:0:
224,192,21349,1,0,0:0:0:0:
288,192,21465,1,0,0:0:0:0:
256,32,21580,1,0,0:0:0:0:
256,96,21695,6,0,L|256:192,1,88,4|0,0:0|0:0,0:0:0:0:
256,352,21926,1,0,0:0:0:0:
352,160,22042,1,0,0:0:0:0:
256,320,22157,1,0,0:0:0:0:
160,160,22272,1,0,0:0:0:0:
256,256,22388,1,0,0:0:0:0:
448,192,22503,1,0,0:0:0:0:
256,32,22618,1,0,0:0:0:0:
64,192,22734,1,0,0:0:0:0:
144,96,22849,5,0,0:0:0:0:
232,112,22965,1,0,0:0:0:0:
256,192,23080,1,0,0:0:0:0:
208,264,23195,5,0,0:0:0:0:
128,304,23311,2,0,P|184:352|288:328,1,176
352,352,23657,2,0,P|344:288|312:256,1,88
256,264,23888,1,0,0:0:0:0:
184,224,24003,2,0,B|232:192|232:192|304:192|304:192|336:144,1,176
352,64,24349,1,0,0:0:0:0:
480,160,24465,1,0,0:0:0:0:
480,32,24580,5,0,0:0:0:0:
256,192,24695,1,0,0:0:0:0:
256,256,24811,5,0,0:0:0:0:
480,96,24926,1,0,0:0:0:0:
256,32,25042,2,0,B|256:96|256:96|208:120|208:192,1,176
160,256,25388,5,0,0:0:0:0:
352,128,25503,1,0,0:0:0:0:
128,192,25618,1,0,0:0:0:0:
384,192,25734,1,0,0:0:0:0:
160,128,25849,1,0,0:0:0:0:
352,256,25965,1,0,0:0:0:0:
288,288,26080,1,0,0:0:0:0:
224,96,26195,1,0,0:0:0:0:
224,288,26311,1,0,0:0:0:0:
288,96,26426,1,0,0:0:0:0:
320,192,26542,5,0,0:0:0:0:
192,192,26657,1,0,0:0:0:0:
384,192,26772,1,0,0:0:0:0:
128,192,26888,1,0,0:0:0:0:
448,192,27003,1,0,0:0:0:0:
64,192,27118,1,0,0:0:0:0:
512,192,27234,1,0,0:0:0:0:
0,192,27349,1,0,0:0:0:0:
256,32,27465,1,0,0:0:0:0:
256,352,27580,6,0,P|256:256|224:160,1,176
168,224,27926,2,0,P|144:176|176:128,1,88
224,112,28157,1,0,0:0:0:0:
280,40,28272,2,0,P|320:96|304:208,1,176
256,264,28618,1,0,0:0:0:0:
312,344,28734,2,0,P|344:304|360:248,1,88
368,192,28965,5,0,0:0:0:0:
480,112,29080,1,0,0:0:0:0:
256,16,29195,2,0,P|288:72|288:128,1,88
208,136,29426,1,0,0:0:0:0:
448,256,29657,5,0,0:0:0:0:
448,96,29773,1,0,0:0:0:0:
288,96,29888,1,0,0:0:0:0:
288,256,30003,1,0,0:0:0:0:
448,256,30118,2,0,P|416:192|384:160,1,88
336,96,30349,2,0,L|336:224,1,88
352,352,30580,5,0,0:0:0:0:
256,192,30695,1,0,0:0:0:0:
288,352,30811,5,0,0:0:0:0:
288,160,30926,1,0,0:0:0:0:
224,352,31042,5,0,0:0:0:0:
320,128,31157,1,0,0:0:0:0:
160,352,31272,5,0,0:0:0:0:
352,96,31388,1,0,0:0:0:0:
96,352,31503,5,0,0:0:0:0:
384,64,31618,1,0,0:0:0:0:
32,352,31734,5,0,0:0:0:0:
416,32,31849,1,0,0:0:0:0:
480,64,31965,2,0,P|496:112|464:160,1,88
432,208,32195,1,0,0:0:0:0:
352,240,32311,1,0,0:0:0:0:
304,352,32426,6,0,P|272:288|272:144,1,176
336,192,32772,2,0,P|336:144|240:64,1,176
160,32,33118,2,0,B|144:80|144:80|160:112|160:112|144:160|160:208,1,176
32,224,33465,5,0,0:0:0:0:
32,352,33580,1,0,0:0:0:0:
224,352,33695,5,0,0:0:0:0:
224,224,33811,1,0,0:0:0:0:
448,352,33926,5,0,0:0:0:0:
448,224,34042,1,0,0:0:0:0:
384,288,34157,1,0,0:0:0:0:
320,272,34272,2,0,P|264:224|280:104,1,176
320,96,34618,5,0,0:0:0:0:
512,96,34734,1,0,0:0:0:0:
352,32,34849,1,0,0:0:0:0:
480,160,34965,1,0,0:0:0:0:
416,0,35080,1,0,0:0:0:0:
416,192,35195,1,0,0:0:0:0:
480,32,35311,1,0,0:0:0:0:
352,160,35426,1,0,0:0:0:0:
288,96,35542,2,0,P|224:96|192:96,1,88
32,32,35772,5,0,0:0:0:0:
128,96,35888,2,0,P|128:160|64:256,1,176
160,352,36349,5,0,0:0:0:0:
256,192,36465,1,0,0:0:0:0:
224,352,36580,5,0,0:0:0:0:
256,128,36696,1,0,0:0:0:0:
288,352,36811,5,0,0:0:0:0:
256,64,36927,1,0,0:0:0:0:
352,352,37042,5,0,0:0:0:0:
256,0,37158,1,0,0:0:0:0:
32,192,37272,5,0,0:0:0:0:
224,352,37388,1,0,0:0:0:0:
96,192,37503,5,0,0:0:0:0:
288,352,37619,1,0,0:0:0:0:
160,192,37734,5,0,0:0:0:0:
352,352,37850,1,0,0:0:0:0:
224,192,37965,5,0,0:0:0:0:
416,352,38081,1,0,0:0:0:0:
480,192,38195,5,0,0:0:0:0:
288,32,38311,1,0,0:0:0:0:
416,192,38426,5,0,0:0:0:0:
224,32,38542,1,0,0:0:0:0:
352,192,38657,5,0,0:0:0:0:
160,32,38773,1,0,0:0:0:0:
288,192,38888,2,0,L|288:288,1,88
224,352,39118,2,0,P|192:288|160:256,1,88
112,304,39349,6,0,B|96:272|112:240|112:240|144:192|192:192|192:192|256:144|256:96,1,264
256,32,39811,2,0,P|208:32|160:80,1,88
128,112,40042,5,0,0:0:0:0:
256,352,40157,1,0,0:0:0:0:
336,192,40272,1,0,0:0:0:0:
96,144,40388,1,0,0:0:0:0:
272,336,40503,2,0,P|288:288|272:256,1,88
224,144,40734,2,0,L|224:192,3,44
224,64,40965,1,0,0:0:0:0:
320,176,41080,5,0,0:0:0:0:
432,272,41195,1,0,0:0:0:0:
368,96,41311,1,0,0:0:0:0:
368,352,41426,1,0,0:0:0:0:
496,192,41542,5,0,0:0:0:0:
256,192,41657,1,0,0:0:0:0:
448,240,41772,5,0,0:0:0:0:
224,128,41888,1,0,0:0:0:0:
384,272,42003,5,0,0:0:0:0:
192,64,42118,1,0,0:0:0:0:
320,288,42234,5,0,0:0:0:0:
480,32,42349,1,0,0:0:0:0:
304,272,42465,1,0,0:0:0:0:
368,32,42580,5,0,0:0:0:0:
480,240,42695,1,0,0:0:0:0:
368,80,42811,1,0,0:0:0:0:
304,240,42926,1,0,0:0:0:0:
368,112,43042,1,0,0:0:0:0:
384,352,43157,1,0,0:0:0:0:
256,32,43272,1,0,0:0:0:0:
224,160,43388,5,0,0:0:0:0:
288,224,43503,1,0,0:0:0:0:
192,128,43618,1,0,0:0:0:0:
320,256,43734,1,0,0:0:0:0:
160,96,43849,1,0,0:0:0:0:
352,288,43965,1,0,0:0:0:0:
128,64,44080,1,0,0:0:0:0:
384,320,44195,1,0,0:0:0:0:
96,32,44311,1,0,0:0:0:0:
416,352,44426,1,0,0:0:0:0:
288,160,44542,5,0,0:0:0:0:
224,224,44657,1,0,0:0:0:0:
320,128,44772,1,0,0:0:0:0:
192,256,44888,1,0,0:0:0:0:
352,96,45003,1,0,0:0:0:0:
160,288,45119,1,0,0:0:0:0:
384,64,45234,1,0,0:0:0:0:
128,320,45349,1,0,0:0:0:0:
416,32,45465,1,0,0:0:0:0:
96,352,45580,1,0,0:0:0:0:
256,32,45695,5,0,0:0:0:0:
256,352,45811,1,0,0:0:0:0:
256,96,45926,1,0,0:0:0:0:
256,288,46042,1,0,0:0:0:0:
256,160,46157,1,0,0:0:0:0:
256,224,46272,1,0,0:0:0:0:
32,192,46388,1,0,0:0:0:0:
480,192,46503,1,0,0:0:0:0:
96,192,46618,1,0,0:0:0:0:
416,192,46734,5,0,0:0:0:0:
160,192,46849,1,0,0:0:0:0:
352,192,46965,1,0,0:0:0:0:
224,192,47080,1,0,0:0:0:0:
288,192,47195,1,0,0:0:0:0:
256,32,47311,2,0,L|256:128,1,88
256,352,47542,2,0,L|256:256,1,88
96,192,47772,2,0,L|192:192,1,88
416,192,48003,2,0,L|320:192,1,88
160,64,48234,5,0,0:0:0:0:
352,320,48349,1,0,0:0:0:0:
352,64,48465,5,0,0:0:0:0:
160,320,48580,1,0,0:0:0:0:
128,192,48695,5,0,0:0:0:0:
384,192,48811,1,0,0:0:0:0:
256,64,48926,1,0,0:0:0:0:
256,320,49042,1,0,0:0:0:0:
256,224,49157,2,0,P|224:192|192:160,1,88
192,64,49388,2,0,L|256:128,1,88
352,128,49618,2,0,L|288:64,1,88
256,224,49849,1,0,0:0:0:0:
193,161,49965,1,0,0:0:0:0:
192,32,50080,5,0,0:0:0:0:
32,160,50195,1,0,0:0:0:0:
192,96,50311,5,0,0:0:0:0:
32,224,50426,1,0,0:0:0:0:
193,161,50542,5,0,0:0:0:0:
33,289,50657,1,0,0:0:0:0:
192,224,50772,5,0,0:0:0:0:
32,352,50887,1,0,0:0:0:0:
192,352,51003,5,0,0:0:0:0:
352,224,51118,1,0,0:0:0:0:
192,288,51234,5,0,0:0:0:0:
352,160,51349,1,0,0:0:0:0:
192,224,51465,5,0,0:0:0:0:
352,96,51580,1,0,0:0:0:0:
192,160,51695,5,0,0:0:0:0:
352,32,51810,1,0,0:0:0:0:
192,96,51926,1,0,0:0:0:0:
352,288,52042,1,0,0:0:0:0:
192,32,52157,1,0,0:0:0:0:
352,352,52272,1,0,0:0:0:0:
448,288,52388,1,0,0:0:0:0:
480,192,52503,1,0,0:0:0:0:
448,96,52618,1,0,0:0:0:0:
320,32,52734,6,0,P|352:96|320:192,1,176
256,128,53080,1,0,0:0:0:0:
256,256,53195,1,0,0:0:0:0:
256,32,53311,1,0,0:0:0:0:
256,352,53426,2,0,P|192:320|192:192,1,176
256,192,53772,2,0,P|224:160|96:160,1,176
32,384,54118,5,0,0:0:0:0:
32,0,54234,1,0,0:0:0:0:
96,352,54349,5,0,0:0:0:0:
96,32,54465,1,0,0:0:0:0:
160,384,54580,5,0,0:0:0:0:
160,0,54696,1,0,0:0:0:0:
224,352,54811,5,0,0:0:0:0:
224,32,54927,1,0,0:0:0:0:
288,384,55042,5,0,0:0:0:0:
288,0,55158,1,0,0:0:0:0:
352,352,55273,5,0,0:0:0:0:
352,32,55389,1,0,0:0:0:0:
416,384,55503,5,0,0:0:0:0:
416,0,55619,1,0,0:0:0:0:
480,352,55734,5,0,0:0:0:0:
480,32,55850,1,0,0:0:0:0:
0,352,55965,5,0,0:0:0:0:
512,352,56080,1,0,0:0:0:0:
64,288,56195,5,0,0:0:0:0:
448,288,56311,1,0,0:0:0:0:
0,224,56426,5,0,0:0:0:0:
512,224,56541,1,0,0:0:0:0:
64,160,56656,5,0,0:0:0:0:
448,160,56772,1,0,0:0:0:0:
0,96,56888,5,0,0:0:0:0:
512,96,57003,1,0,0:0:0:0:
64,32,57118,5,0,0:0:0:0:
448,32,57234,1,0,0:0:0:0:
160,288,57349,5,0,0:0:0:0:
160,96,57465,1,0,0:0:0:0:
352,288,57580,1,0,0:0:0:0:
352,96,57695,1,0,0:0:0:0:
160,288,57811,1,0,0:0:0:0:
160,96,57927,1,0,0:0:0:0:
352,288,58042,1,0,0:0:0:0:
352,96,58157,1,0,0:0:0:0:
256,352,58272,1,0,0:0:0:0:
256,32,58388,5,0,0:0:0:0:
256,320,58503,1,0,0:0:0:0:
256,64,58618,1,0,0:0:0:0:
256,288,58734,1,0,0:0:0:0:
256,96,58849,1,0,0:0:0:0:
256,256,58965,1,0,0:0:0:0:
256,128,59080,1,0,0:0:0:0:
256,192,59195,2,0,L|128:192,1,88
64,192,59426,2,0,P|88:240|144:256,1,88
192,352,59657,6,0,L|192:264,1,88
320,352,59888,2,0,L|320:264,1,88
128,224,60118,2,0,L|128:136,1,88
384,224,60349,2,0,L|384:96,1,88
64,96,60580,2,0,L|64:8,1,88
448,96,60811,2,0,L|448:-32,1,88
256,32,61042,5,0,0:0:0:0:
256,96,61157,1,0,0:0:0:0:
256,160,61272,1,0,0:0:0:0:
256,224,61388,1,0,0:0:0:0:
256,288,61503,1,0,0:0:0:0:
256,352,61618,1,0,0:0:0:0:
352,320,61734,2,0,P|384:288|384:160,1,176
480,160,62080,5,0,0:0:0:0:
288,32,62195,1,0,0:0:0:0:
416,160,62311,5,0,0:0:0:0:
224,32,62426,1,0,0:0:0:0:
352,160,62542,5,0,0:0:0:0:
160,32,62657,1,0,0:0:0:0:
32,160,62772,5,0,0:0:0:0:
224,32,62887,1,0,0:0:0:0:
96,160,63003,5,0,0:0:0:0:
288,32,63118,1,0,0:0:0:0:
160,160,63234,5,0,0:0:0:0:
352,32,63349,1,0,0:0:0:0:
256,352,63465,5,0,0:0:0:0:
256,160,63580,1,0,0:0:0:0:
320,320,63695,1,0,0:0:0:0:
192,192,63811,1,0,0:0:0:0:
352,256,63926,1,0,0:0:0:0:
160,256,64042,1,0,0:0:0:0:
320,192,64157,1,0,0:0:0:0:
192,320,64272,1,0,0:0:0:0:
256,160,64388,1,0,0:0:0:0:
256,352,64503,6,0,L|256:160,1,176
256,96,64849,2,0,P|224:64|160:64,1,88
32,160,65080,1,0,0:0:0:0:
224,256,65195,1,0,0:0:0:0:
96,160,65311,1,0,0:0:0:0:
288,256,65426,1,0,0:0:0:0:
160,160,65542,1,0,0:0:0:0:
352,256,65657,1,0,0:0:0:0:
224,160,65772,1,0,0:0:0:0:
416,256,65887,5,0,0:0:0:0:
288,160,66003,1,0,0:0:0:0:
480,256,66118,1,0,0:0:0:0:
352,160,66234,1,0,0:0:0:0:
480,32,66349,1,0,0:0:0:0:
288,160,66465,1,0,0:0:0:0:
416,32,66580,1,0,0:0:0:0:
224,160,66695,1,0,0:0:0:0:
352,32,66810,1,0,0:0:0:0:
160,160,66926,5,0,0:0:0:0:
32,32,67041,1,0,0:0:0:0:
224,160,67157,1,0,0:0:0:0:
96,32,67272,1,0,0:0:0:0:
288,160,67387,1,0,0:0:0:0:
160,32,67502,1,0,0:0:0:0:
352,160,67618,1,0,0:0:0:0:
224,32,67734,2,0,P|288:32|384:128,1,176
480,192,68080,1,0,0:0:0:0:
416,288,68195,6,0,P|352:320|320:320,1,88
256,352,68426,2,0,B|224:256|224:256|256:160,1,176
360,216,68888,6,0,P|392:176|312:64,1,176
288,144,69234,1,0,0:0:0:0:
216,216,69349,2,0,P|184:176|264:64,1,176
152,32,69695,1,0,0:0:0:0:
152,32,69811,2,0,L|56:32,1,88
40,112,70042,2,0,P|96:144|104:264,1,176
32,224,70388,2,0,P|48:304|160:304,1,176
184,256,70734,2,0,P|216:320|216:376,2,88
112,176,71080,2,0,P|168:136|216:136,3,88
256,32,71542,5,0,0:0:0:0:
320,96,71657,1,0,0:0:0:0:
352,192,71772,1,0,0:0:0:0:
320,280,71888,2,0,P|288:320|160:320,1,176
96,344,72234,5,0,0:0:0:0:
40,264,72349,1,0,0:0:0:0:
64,176,72465,1,0,0:0:0:0:
80,32,72580,2,0,B|128:64|128:64|96:96|96:96|152:120|144:184,1,176
144,224,72926,1,0,0:0:0:0:
208,288,73042,1,0,0:0:0:0:
296,280,73157,1,0,0:0:0:0:
368,216,73272,2,0,B|328:168|270:161|270:161|320:96,1,176
368,48,73618,1,0,0:0:0:0:
432,112,73734,5,0,0:0:0:0:
464,192,73849,1,0,0:0:0:0:
448,280,73965,2,0,P|408:320|280:320,1,176
192,352,74311,5,0,0:0:0:0:
240,272,74426,1,0,0:0:0:0:
240,184,74542,1,0,0:0:0:0:
192,112,74657,2,0,B|144:80|72:80|72:80|128:152,1,176
136,200,75003,1,0,0:0:0:0:
32,232,75118,6,0,P|64:280|104:304,1,88
160,352,75349,2,0,L|256:352,1,88
320,288,75580,2,0,L|216:288,1,88
160,224,75811,2,0,L|256:224,1,88
320,224,76042,5,0,0:0:0:0:
352,160,76099,1,0,0:0:0:0:
320,96,76157,1,0,0:0:0:0:
256,64,76215,1,0,0:0:0:0:
192,96,76272,1,0,0:0:0:0:
160,160,76330,1,0,0:0:0:0:
192,224,76388,1,0,0:0:0:0:
256,256,76445,1,0,0:0:0:0:
320,224,76503,1,0,0:0:0:0:
352,160,76561,5,0,0:0:0:0:
320,96,76618,1,0,0:0:0:0:
256,64,76676,1,0,0:0:0:0:
256,256,76734,2,0,P|224:288|96:288,1,176
32,352,77080,6,0,L|32:160,1,176
32,96,77426,2,0,P|96:96|160:192,1,176
104,224,77772,2,0,P|128:264|176:280,1,88
224,352,78003,1,0,0:0:0:0:
320,256,78118,1,0,0:0:0:0:
224,256,78234,1,0,0:0:0:0:
320,352,78349,2,0,P|384:352|448:256,1,176
448,192,78695,1,0,0:0:0:0:
288,64,78810,1,0,0:0:0:0:
512,0,78926,5,0,0:0:0:0:
288,192,79042,2,0,L|160:192,1,88
128,128,79272,2,0,L|256:128,1,88
288,64,79503,2,0,L|160:64,1,88
128,32,79734,5,0,0:0:0:0:
0,192,79849,1,0,0:0:0:0:
192,32,79965,5,0,0:0:0:0:
64,192,80080,1,0,0:0:0:0:
256,32,80195,5,0,0:0:0:0:
128,192,80310,1,0,0:0:0:0:
224,192,80406,5,0,0:0:0:0:
416,192,80521,1,0,0:0:0:0:
256,256,80636,5,0,0:0:0:0:
384,128,80752,1,0,0:0:0:0:
320,288,80867,5,0,0:0:0:0:
320,96,80982,1,0,0:0:0:0:
384,256,81098,5,0,0:0:0:0:
256,128,81213,1,0,0:0:0:0:
416,192,81329,5,0,0:0:0:0:
224,192,81444,1,0,0:0:0:0:
416,96,81559,1,0,0:0:0:0:
224,288,81675,1,0,0:0:0:0:
448,64,81790,1,0,0:0:0:0:
192,320,81906,1,0,0:0:0:0:
480,32,82021,1,0,0:0:0:0:
160,352,82136,1,0,0:0:0:0:
512,0,82252,1,0,0:0:0:0:
128,384,82367,1,0,0:0:0:0:
480,32,82482,6,0,L|384:128,1,110
160,352,82713,2,0,L|256:256,1,110
352,160,82944,2,0,L|352:32,1,110
288,224,83175,2,0,L|288:352,1,110
320,192,83406,2,0,P|288:128|128:96,1,220
64,128,83752,2,0,P|96:192|160:192,2,110
160,32,84098,6,0,L|256:32,1,82.5000031471254
352,128,84444,1,0,0:0:0:0:
160,32,84790,6,0,L|256:32,1,82.5000031471254
352,128,85136,1,0,0:0:0:0:
160,32,85482,6,0,L|256:32,1,82.5000031471254
352,128,85829,1,4,0:0:0:0:
256,192,85944,12,0,87790,0:0:0:0:
