osu file format v14

[General]
AudioFilename: audio.mp3
AudioLeadIn: 0
PreviewTime: 56771
Countdown: 1
SampleSet: Soft
StackLeniency: 0.7
Mode: 0
LetterboxInBreaks: 0
WidescreenStoryboard: 0

[Editor]
Bookmarks: 39814,74183,86770,106596
DistanceSpacing: 1.5
BeatDivisor: 4
GridSize: 8
TimelineZoom: 3.599998

[Metadata]
Title:United Jump Collection 2
TitleUnicode:United Jump Collection 2
Artist:Various Artist
ArtistUnicode:Various Artist
Creator:My Angel United
Version:Ribbon Of The Evening Shower (Ito)
Source:
Tags:MAU My Angel United
BeatmapID:1558676
BeatmapSetID:738571

[Difficulty]
HPDrainRate:3
CircleSize:4
OverallDifficulty:9
ApproachRate:9.5
SliderMultiplier:1.9
SliderTickRate:1

[Events]
//Background and Video events
0,0,"hhhh.jpg",0,0
//Break Periods
//Storyboard Layer 0 (Background)
//Storyboard Layer 1 (Fail)
//Storyboard Layer 2 (Pass)
//Storyboard Layer 3 (Foreground)
//Storyboard Sound Samples

[TimingPoints]
424,260.869565217391,4,1,0,70,1,0
684,-133.333333333333,4,1,0,70,0,0
945,260.869565217391,6,1,0,70,1,0
6423,260.869565217391,4,1,0,70,1,0
6423,-133.333333333333,4,2,19,70,0,0
7466,-200,4,2,19,70,0,0
7988,-100,4,1,0,70,0,0
9814,-100,4,2,19,70,0,0
10205,-166.666666666667,4,1,0,70,0,0
10727,-133.333333333333,4,1,0,70,0,0
15683,-83.3333333333333,4,1,0,70,0,0
15944,-133.333333333333,4,1,0,70,0,0
20509,-133.333333333333,4,2,19,70,0,0
23118,-133.333333333333,4,2,19,70,0,0
55466,-125,4,2,19,70,0,0
56509,-100,4,2,19,70,0,0
57553,-133.333333333333,4,2,19,70,0,1
70075,-100,4,2,19,70,0,1
70336,-100,4,2,19,70,0,1
74118,-133.333333333333,4,2,19,70,0,0
74249,-86.9565217391304,4,2,19,70,0,1
89901,-100,4,2,19,70,0,1
90031,-100,4,2,19,80,0,1
90096,-100,4,2,19,20,0,1
90292,-100,4,2,19,80,0,1
90357,-100,4,2,19,20,0,1
90553,-100,4,2,19,80,0,1
90618,-100,4,2,19,20,0,1
90814,-100,4,2,19,80,0,1
90879,-100,4,2,19,20,0,1
90944,-133.333333333333,4,2,19,70,0,0
95118,-125,4,2,19,70,0,0
106727,-125,4,2,19,80,0,0
106792,-125,4,2,19,20,0,0
106988,-125,4,2,19,80,0,0
107053,-125,4,2,19,20,0,0
107249,-125,4,2,19,80,0,0
107314,-125,4,2,19,20,0,0
107509,-125,4,2,19,80,0,0
107575,-125,4,2,19,20,0,0
107640,260.869565217391,6,1,0,70,1,0
107640,-125,4,2,19,80,0,0
108031,-133.333333333333,4,2,19,70,0,0
112335,-142.857142857143,4,2,19,70,0,0
114683,-142.857142857143,4,2,19,5,0,0

[HitObjects]
32,32,684,5,0,0:0:0:0:
144,112,815,1,0,0:0:0:0:
48,224,945,2,0,P|72:272|144:288,2,95
208,144,1336,2,0,P|256:232|168:288,1,190
112,312,1727,2,0,P|184:352|336:232,1,285
224,240,2249,5,0,0:0:0:0:
368,344,2379,1,0,0:0:0:0:
480,240,2510,2,0,B|512:192|488:152|488:152|504:128|504:128|488:80|512:24,1,190
416,32,2901,2,0,P|376:104|384:216,1,190
408,288,3292,2,0,B|384:328|336:328|336:328|296:368|232:336|232:336|200:352|200:352|136:352,1,285
48,344,3814,5,0,0:0:0:0:
208,248,3944,1,0,0:0:0:0:
72,288,4075,2,0,P|40:232|120:144,1,190
144,216,4466,2,0,B|200:208|240:216|240:216|224:176|208:142|176:112,1,190
112,144,4858,2,0,B|72:96|72:96|128:48|184:56|184:56|248:32|288:32,1,285
376,64,5379,5,0,0:0:0:0:
464,160,5510,1,0,0:0:0:0:
432,288,5640,2,0,P|400:328|272:312,1,190
344,272,6031,2,0,B|344:224|296:192|296:192|240:208|192:192,1,190
168,312,6423,1,6,0:0:0:0:
344,64,7466,5,6,0:0:0:0:
456,224,7596,1,0,0:0:0:0:
320,328,7727,5,0,0:0:0:0:
408,168,7857,1,6,0:0:0:0:
336,40,7988,2,0,P|272:120|184:120,1,190
192,32,8379,5,0,0:0:0:0:
64,160,8509,1,0,0:0:0:0:
224,96,8640,1,0,0:0:0:0:
32,96,8770,1,0,0:0:0:0:
192,160,8901,1,0,0:0:0:0:
64,32,9031,1,0,0:0:0:0:
224,192,9162,5,0,0:0:0:0:
128,32,9292,1,0,0:0:0:0:
128,224,9422,1,0,0:0:0:0:
128,56,9553,1,0,0:0:0:0:
136,272,9683,1,0,0:0:0:0:
136,272,9814,2,0,P|200:320|320:320,1,190,4|0,0:0|0:0,0:0:0:0:
240,256,10205,2,0,P|288:240|304:256,1,56.9999982604981
384,352,10466,2,0,L|384:296,1,56.9999982604981
472,264,10727,2,0,P|448:232|400:224,1,71.2500027179719
320,288,10988,5,0,0:0:0:0:
256,160,11118,1,0,0:0:0:0:
448,160,11249,1,0,0:0:0:0:
288,96,11379,1,0,0:0:0:0:
416,224,11509,1,0,0:0:0:0:
352,64,11640,1,0,0:0:0:0:
352,256,11770,1,0,0:0:0:0:
416,96,11901,5,0,0:0:0:0:
288,224,12031,1,0,0:0:0:0:
232,352,12162,2,0,P|184:312|144:312,1,71.2500027179719
96,344,12422,2,0,P|64:288|96:208,1,142.500005435944
144,272,12814,5,0,0:0:0:0:
280,144,12944,1,0,0:0:0:0:
160,112,13075,1,0,0:0:0:0:
232,264,13205,1,0,0:0:0:0:
144,72,13336,1,0,0:0:0:0:
216,232,13466,1,0,0:0:0:0:
24,192,13596,2,0,L|112:192,1,71.2500027179719
120,256,13857,2,0,P|176:224|176:192,1,71.2500027179719
248,96,14118,1,0,0:0:0:0:
80,104,14249,5,0,0:0:0:0:
248,96,14379,1,0,0:0:0:0:
56,136,14509,1,0,0:0:0:0:
272,64,14640,1,0,0:0:0:0:
112,232,14770,5,0,0:0:0:0:
176,40,14901,1,0,0:0:0:0:
240,232,15031,1,0,0:0:0:0:
80,104,15162,1,0,0:0:0:0:
272,104,15292,1,0,0:0:0:0:
352,160,15422,2,0,P|384:192|424:200,1,71.2500027179719
472,160,15683,2,0,P|480:224|432:272,1,113.999996520996
368,344,15944,2,0,L|272:336,1,71.2500027179719
224,240,16205,2,0,L|320:248,1,71.2500027179719
384,264,16466,5,0,0:0:0:0:
392,128,16596,1,0,0:0:0:0:
384,240,16727,1,0,0:0:0:0:
384,160,16857,1,0,0:0:0:0:
368,184,16988,1,0,0:0:0:0:
368,200,17118,1,0,0:0:0:0:
352,192,17249,2,0,L|280:192,1,71.2500027179719
184,200,17509,2,0,P|224:248|248:256,1,71.2500027179719
312,272,17770,1,0,0:0:0:0:
224,336,17901,5,0,0:0:0:0:
48,224,18031,1,0,0:0:0:0:
144,344,18162,5,0,0:0:0:0:
96,160,18292,1,0,0:0:0:0:
80,312,18422,5,0,0:0:0:0:
168,144,18553,1,0,0:0:0:0:
40,256,18683,5,0,0:0:0:0:
232,176,18814,1,0,0:0:0:0:
256,240,18944,1,0,0:0:0:0:
128,208,19075,1,0,0:0:0:0:
288,248,19205,5,0,0:0:0:0:
88,192,19336,1,0,0:0:0:0:
248,296,19466,2,0,P|216:328|168:328,1,71.2500027179719
48,272,19727,2,0,L|96:344,1,71.2500027179719
184,176,19988,2,0,L|144:256,1,71.2500027179719
48,96,20249,2,0,L|80:192,1,71.2500027179719
136,80,20509,2,0,P|184:56|288:56,1,142.500005435944,4|0,0:0|0:0,0:0:0:0:
328,120,20901,1,0,0:0:0:0:
288,240,21031,1,0,0:0:0:0:
240,168,21162,5,0,0:0:0:0:
352,296,21292,1,0,0:0:0:0:
344,200,21422,5,0,0:0:0:0:
256,344,21553,1,0,0:0:0:0:
168,160,21683,5,0,0:0:0:0:
200,272,21814,1,0,0:0:0:0:
88,344,21944,2,0,L|32:272,1,71.2500027179719,0|6,0:0|0:0,0:0:0:0:
392,56,23118,6,0,L|352:104,1,35.625001358986,10|0,0:0|0:0,0:0:0:0:
320,136,23249,1,2,0:0:0:0:
256,312,23509,5,2,0:0:0:0:
144,200,23770,1,2,0:0:0:0:
240,40,24031,2,0,L|240:96,1,35.625001358986,2|0,0:0|0:0,0:0:0:0:
240,144,24162,2,0,B|264:176|264:176|240:224|240:224|272:272,1,142.500005435944,6|0,0:0|0:0,0:0:0:0:
304,336,24553,5,0,0:0:0:0:
456,296,24683,1,0,0:0:0:0:
288,264,24814,1,0,0:0:0:0:
464,224,24944,1,0,0:0:0:0:
288,192,25075,2,0,L|368:176,1,71.2500027179719
480,80,25336,2,0,L|400:104,1,71.2500027179719
320,80,25596,5,0,0:0:0:0:
176,200,25727,1,0,0:0:0:0:
320,80,25857,1,0,0:0:0:0:
176,200,25988,1,0,0:0:0:0:
136,104,26118,5,0,0:0:0:0:
272,200,26249,1,0,0:0:0:0:
240,72,26379,1,0,0:0:0:0:
136,104,26509,2,0,P|104:144|72:152,1,71.2500027179719
48,240,26770,2,0,P|80:280|88:320,1,71.2500027179719
168,336,27031,5,0,0:0:0:0:
208,224,27162,1,0,0:0:0:0:
272,336,27292,2,0,P|280:296|280:256,1,71.2500027179719
352,336,27553,5,0,0:0:0:0:
392,224,27684,1,0,0:0:0:0:
456,336,27814,2,0,P|464:296|464:256,1,71.2500027179719
416,160,28075,5,0,0:0:0:0:
320,32,28205,1,0,0:0:0:0:
448,96,28336,1,0,0:0:0:0:
288,96,28466,1,0,0:0:0:0:
416,32,28596,1,0,0:0:0:0:
320,160,28727,1,0,0:0:0:0:
368,32,28857,2,0,L|368:88,1,35.625001358986
368,168,28988,2,0,L|368:128,1,35.625001358986
368,96,29118,2,0,L|272:96,1,71.2500027179719
208,48,29379,5,0,0:0:0:0:
96,176,29509,1,0,0:0:0:0:
208,48,29640,1,0,0:0:0:0:
96,176,29770,1,0,0:0:0:0:
112,48,29901,2,0,P|160:88|168:128,1,71.2500027179719
96,128,30162,2,0,P|128:168|160:176,1,71.2500027179719
224,136,30422,2,0,L|224:216,1,71.2500027179719
152,240,30683,2,0,P|192:296|216:296,1,71.2500027179719
256,232,30944,1,0,0:0:0:0:
320,336,31075,5,0,0:0:0:0:
416,216,31205,1,0,0:0:0:0:
256,232,31336,1,0,0:0:0:0:
424,304,31466,1,0,0:0:0:0:
336,176,31596,5,0,0:0:0:0:
384,344,31727,1,0,0:0:0:0:
448,112,31857,5,0,0:0:0:0:
336,280,31988,1,0,0:0:0:0:
376,96,32118,5,0,0:0:0:0:
400,232,32249,1,0,0:0:0:0:
424,32,32379,5,0,0:0:0:0:
290,157,32509,2,0,P|226:157|194:101,1,106.875004076958,12|0,0:0|0:0,0:0:0:0:
200,128,32770,2,0,L|128:128,1,71.2500027179719,10|0,0:0|0:0,0:0:0:0:
64,64,33031,1,0,0:0:0:0:
32,256,33162,1,0,0:0:0:0:
96,128,33292,5,0,0:0:0:0:
64,320,33422,1,0,0:0:0:0:
128,160,33553,1,0,0:0:0:0:
192,320,33683,1,0,0:0:0:0:
160,128,33814,1,0,0:0:0:0:
224,256,33944,1,0,0:0:0:0:
192,64,34075,6,0,P|224:64|256:96,1,71.2500027179719
216,160,34336,2,0,P|256:184|304:176,1,71.2500027179719
352,112,34596,1,0,0:0:0:0:
416,264,34727,1,0,0:0:0:0:
296,200,34857,1,0,0:0:0:0:
480,176,34988,1,0,0:0:0:0:
352,112,35118,1,0,0:0:0:0:
416,264,35249,1,0,0:0:0:0:
296,200,35379,1,0,0:0:0:0:
480,176,35510,1,0,0:0:0:0:
352,112,35640,2,0,P|296:120|256:112,1,71.2500027179719
216,56,35901,6,0,L|176:128,1,71.2500027179719
56,128,36162,2,0,L|112:200,1,71.2500027179719
192,200,36422,1,0,0:0:0:0:
56,336,36553,1,0,0:0:0:0:
200,328,36683,1,0,0:0:0:0:
80,232,36814,1,0,0:0:0:0:
200,328,36944,1,0,0:0:0:0:
304,232,37075,1,0,0:0:0:0:
200,296,37205,1,0,0:0:0:0:
200,152,37336,5,0,0:0:0:0:
200,360,37466,1,0,0:0:0:0:
200,192,37596,2,0,L|200:112,1,71.2500027179719
200,24,37857,2,0,P|152:48|112:40,1,71.2500027179719
40,48,38118,2,0,P|72:96|72:128,1,71.2500027179719
160,152,38379,1,0,0:0:0:0:
40,216,38509,2,0,P|72:256|168:264,1,142.500005435944
232,216,38901,2,0,P|256:264|264:296,1,71.2500027179719
304,368,39162,1,0,0:0:0:0:
368,288,39292,2,0,P|384:240|384:192,1,71.2500027179719
480,176,39553,6,0,P|440:136|376:136,1,106.875004076958,2|0,0:0|0:0,0:0:0:0:
416,208,39814,5,8,0:0:0:0:
96,208,39944,1,8,0:0:0:0:
256,368,40075,1,8,0:0:0:0:
256,48,40205,1,8,0:0:0:0:
416,336,40336,1,8,0:0:0:0:
96,80,40466,1,8,0:0:0:0:
256,208,40596,1,8,0:0:0:0:
392,104,40727,6,0,P|416:104|440:104,1,35.625001358986,8|0,0:0|0:0,0:0:0:0:
464,120,40857,2,0,P|456:168|360:232,1,142.500005435944,6|0,0:0|0:0,0:0:0:0:
296,280,41249,1,0,0:0:0:0:
392,352,41379,1,0,0:0:0:0:
448,240,41509,1,0,0:0:0:0:
264,160,41640,5,0,0:0:0:0:
392,312,41770,1,0,0:0:0:0:
360,112,41901,5,0,0:0:0:0:
304,296,42031,1,0,0:0:0:0:
280,32,42162,5,0,0:0:0:0:
392,232,42292,1,0,0:0:0:0:
368,40,42422,5,0,0:0:0:0:
296,184,42553,2,0,P|248:184|200:184,1,71.2500027179719
200,104,42814,2,0,P|152:136|128:168,1,71.2500027179719
200,264,43075,2,0,P|152:232|128:200,1,71.2500027179719
64,88,43336,5,0,0:0:0:0:
72,288,43466,1,0,0:0:0:0:
64,88,43596,1,0,0:0:0:0:
72,288,43726,1,0,0:0:0:0:
144,144,43857,2,0,P|192:192|208:224,1,71.2500027179719
128,248,44118,2,0,P|168:296|208:304,1,71.2500027179719
256,224,44379,1,0,0:0:0:0:
320,336,44509,1,0,0:0:0:0:
432,256,44640,1,0,0:0:0:0:
368,144,44770,2,0,P|328:128|320:88,1,71.2500027179719
256,32,45031,6,0,L|224:112,1,71.2500027179719
146,118,45292,1,0,0:0:0:0:
102,238,45422,1,0,0:0:0:0:
223,282,45553,1,0,0:0:0:0:
266,161,45683,1,0,0:0:0:0:
146,118,45814,2,0,P|96:128|64:128,1,71.2500027179719
40,192,46075,2,0,P|80:224|88:256,1,71.2500027179719
120,312,46336,2,0,B|184:336|184:336|216:328|216:256,1,142.500005435944
176,176,46727,2,0,P|216:160|256:176,1,71.2500027179719
288,224,46988,5,0,0:0:0:0:
384,320,47118,1,0,0:0:0:0:
384,128,47249,1,0,0:0:0:0:
288,224,47379,1,0,0:0:0:0:
488,224,47509,1,0,0:0:0:0:
328,224,47640,5,0,0:0:0:0:
440,224,47770,1,0,0:0:0:0:
256,224,47901,1,0,0:0:0:0:
360,336,48031,1,0,0:0:0:0:
384,160,48162,1,0,0:0:0:0:
360,352,48292,2,0,P|320:296|312:264,1,71.2500027179719
392,280,48553,2,0,P|408:240|408:200,1,71.2500027179719
328,136,48814,2,0,L|328:224,3,71.2500027179719
328,344,49336,1,0,0:0:0:0:
328,136,49466,5,0,0:0:0:0:
264,296,49596,1,0,0:0:0:0:
248,88,49727,5,0,0:0:0:0:
312,248,49857,1,0,0:0:0:0:
328,48,49988,5,0,0:0:0:0:
264,208,50118,1,0,0:0:0:0:
272,24,50249,6,0,P|232:48|232:144,1,142.500005435944
264,200,50640,2,0,P|232:224|192:224,1,71.2500027179719
160,160,50901,1,0,0:0:0:0:
128,320,51031,1,0,0:0:0:0:
96,128,51162,5,0,0:0:0:0:
64,288,51292,1,0,0:0:0:0:
32,96,51422,5,0,0:0:0:0:
0,256,51552,1,0,0:0:0:0:
96,32,51683,6,0,P|136:72|144:96,1,71.2500027179719
152,192,51944,1,0,0:0:0:0:
88,288,52075,1,0,0:0:0:0:
192,352,52205,1,0,0:0:0:0:
152,192,52336,2,0,L|224:160,1,71.2500027179719
248,72,52596,2,0,P|280:104|280:216,1,142.500005435944
224,248,52988,1,0,0:0:0:0:
312,352,53118,1,0,0:0:0:0:
208,344,53249,1,0,0:0:0:0:
344,248,53379,5,0,0:0:0:0:
208,344,53509,1,0,0:0:0:0:
464,280,53640,1,0,0:0:0:0:
400,184,53770,2,0,P|416:136|448:112,1,71.2500027179719
496,72,54031,1,0,0:0:0:0:
400,32,54162,2,0,P|336:40|288:128,1,142.500005435944
328,184,54553,1,0,0:0:0:0:
360,272,54683,2,0,P|320:336|240:344,1,142.500005435944
184,336,55075,2,0,P|184:272|232:200,1,142.500005435944
440,184,55466,5,2,0:0:0:0:
88,184,55596,1,8,0:0:0:0:
64,213,55661,1,8,0:0:0:0:
41,243,55726,1,8,0:0:0:0:
320,360,55857,1,8,0:0:0:0:
320,16,55988,1,10,0:0:0:0:
96,88,56118,5,8,0:0:0:0:
296,256,56249,1,0,0:0:0:0:
512,96,56379,1,4,0:0:0:0:
384,40,56509,6,0,B|384:88|384:88|376:112|376:112|384:136|384:136|384:200|384:200,1,142.5
384,264,56770,1,10,0:0:0:0:
136,152,57553,6,0,L|272:152,1,106.875004076958,6|0,0:0|0:0,0:0:0:0:
392,152,57814,2,0,P|368:208|344:224,1,71.2500027179719,8|0,0:0|0:0,0:0:0:0:
208,256,58075,1,0,0:0:0:0:
344,336,58205,1,0,3:0:0:0:
160,224,58336,1,0,3:0:0:0:
416,384,58466,1,0,0:0:0:0:
256,96,58596,2,0,L|256:160,1,35.625001358986,0|0,0:0|0:0,0:0:0:0:
256,224,58727,1,0,0:0:0:0:
256,32,58857,1,0,0:0:0:0:
256,352,58988,5,0,3:0:0:0:
256,96,59118,1,0,3:0:0:0:
256,352,59249,1,0,0:0:0:0:
256,96,59379,1,0,0:0:0:0:
160,192,59509,5,0,0:0:0:0:
352,192,59640,1,0,0:0:0:0:
96,160,59770,1,0,0:0:0:0:
416,224,59901,1,0,0:0:0:0:
32,128,60031,1,0,0:0:0:0:
480,256,60162,1,0,0:0:0:0:
160,192,60292,5,0,0:0:0:0:
352,192,60423,1,0,0:0:0:0:
96,224,60553,1,0,0:0:0:0:
416,160,60684,1,0,0:0:0:0:
32,256,60814,1,0,0:0:0:0:
480,128,60945,1,0,0:0:0:0:
224,160,61075,5,0,0:0:0:0:
288,224,61205,1,0,0:0:0:0:
192,128,61336,1,0,0:0:0:0:
320,256,61466,1,0,0:0:0:0:
160,96,61596,1,0,0:0:0:0:
352,288,61727,1,0,0:0:0:0:
128,64,61857,1,0,0:0:0:0:
384,320,61988,1,0,0:0:0:0:
96,32,62118,1,0,0:0:0:0:
416,352,62249,1,0,0:0:0:0:
288,160,62379,5,0,0:0:0:0:
224,224,62509,1,0,0:0:0:0:
320,128,62640,1,0,0:0:0:0:
192,256,62770,1,0,0:0:0:0:
352,96,62900,1,0,0:0:0:0:
160,288,63031,1,0,0:0:0:0:
384,64,63161,1,0,0:0:0:0:
128,320,63292,1,0,0:0:0:0:
416,32,63422,1,0,0:0:0:0:
96,352,63553,1,0,0:0:0:0:
256,96,63683,6,0,L|256:160,1,35.625001358986
256,288,63814,2,0,L|256:224,1,35.625001358986
160,192,63944,1,0,0:0:0:0:
352,192,64075,1,0,0:0:0:0:
192,128,64205,1,0,0:0:0:0:
320,256,64336,1,0,0:0:0:0:
256,96,64466,1,0,0:0:0:0:
256,288,64596,1,0,0:0:0:0:
192,256,64727,1,0,0:0:0:0:
320,128,64857,1,0,0:0:0:0:
160,192,64988,1,0,0:0:0:0:
352,192,65119,1,0,0:0:0:0:
256,32,65249,6,0,L|256:96,1,35.625001358986
256,352,65379,2,0,L|256:288,1,35.625001358986
96,192,65509,1,0,0:0:0:0:
416,192,65640,1,0,0:0:0:0:
128,64,65770,1,0,0:0:0:0:
384,320,65901,1,0,0:0:0:0:
256,32,66031,1,0,0:0:0:0:
256,352,66162,1,0,0:0:0:0:
384,64,66292,1,0,0:0:0:0:
128,320,66423,1,0,0:0:0:0:
416,192,66553,1,0,0:0:0:0:
96,192,66684,1,0,0:0:0:0:
256,96,66814,6,0,L|256:160,1,35.625001358986
192,128,66944,2,0,L|224:160,1,35.625001358986
160,192,67075,2,0,L|224:192,1,35.625001358986
192,256,67205,2,0,L|224:224,1,35.625001358986
256,288,67336,2,0,L|256:224,1,35.625001358986
320,256,67466,2,0,L|288:224,1,35.625001358986
352,192,67596,2,0,L|288:192,1,35.625001358986
320,128,67727,2,0,L|288:160,1,35.625001358986
256,96,67857,2,0,L|256:160,1,35.625001358986
256,352,67988,5,4,0:0:0:0:
416,192,68118,1,0,0:0:0:0:
256,320,68249,1,0,0:0:0:0:
96,192,68379,1,0,0:0:0:0:
256,288,68509,1,0,0:0:0:0:
448,160,68640,1,0,0:0:0:0:
256,256,68770,1,0,0:0:0:0:
64,160,68901,1,0,0:0:0:0:
256,224,69031,1,0,0:0:0:0:
256,32,69162,6,0,L|256:96,1,35.625001358986
256,128,69292,1,0,0:0:0:0:
256,352,69422,1,0,0:0:0:0:
384,192,69553,1,0,0:0:0:0:
128,192,69683,1,0,0:0:0:0:
512,192,69814,1,0,0:0:0:0:
0,192,69944,1,0,0:0:0:0:
256,32,70075,5,6,0:0:0:0:
352,160,70205,1,0,0:0:0:0:
224,256,70336,2,0,P|160:256|112:208,1,95,8|0,0:0|0:0,0:0:0:0:
64,32,70596,5,6,0:0:0:0:
256,192,70727,1,0,0:0:0:0:
64,352,70857,1,8,0:0:0:0:
256,32,70988,1,0,0:0:0:0:
480,352,71118,5,6,0:0:0:0:
480,32,71249,1,0,0:0:0:0:
192,192,71379,1,8,0:0:0:0:
512,192,71509,1,0,0:0:0:0:
0,384,71640,5,6,0:0:0:0:
256,192,71770,1,0,0:0:0:0:
0,384,71901,1,8,0:0:0:0:
512,0,72031,1,0,0:0:0:0:
16,24,72162,5,6,0:0:0:0:
328,280,72292,1,8,0:0:0:0:
328,280,72357,1,8,0:0:0:0:
328,280,72422,1,0,0:0:0:0:
432,192,72553,2,0,L|432:120,1,47.5
432,32,72683,1,0,0:0:0:0:
200,232,72814,1,0,0:0:0:0:
384,136,72944,1,0,0:0:0:0:
192,80,73075,1,0,0:0:0:0:
320,256,73205,5,0,0:0:0:0:
192,128,73336,1,0,0:0:0:0:
416,352,73466,1,0,0:0:0:0:
96,32,73596,1,0,0:0:0:0:
96,352,73727,1,0,0:0:0:0:
416,32,73857,1,0,0:0:0:0:
256,344,73988,5,2,0:0:0:0:
328,264,74118,2,0,L|328:200,1,35.625001358986,8|0,0:0|0:0,0:0:0:0:
496,56,74249,2,0,P|424:128|328:128,1,163.875003125668,6|0,0:0|0:0,0:0:0:0:
264,16,74509,2,0,P|288:56|288:128,1,109.250002083778,8|0,0:0|0:0,0:0:0:0:
256,216,74770,5,0,0:0:0:0:
112,120,74901,1,0,0:0:0:0:
120,304,75031,1,0,0:0:0:0:
224,104,75162,1,0,0:0:0:0:
256,216,75292,1,0,0:0:0:0:
112,120,75423,1,0,0:0:0:0:
120,304,75553,1,0,0:0:0:0:
224,104,75684,1,0,0:0:0:0:
256,352,75814,2,0,L|256:288,1,54.6250010418892
256,216,75944,5,0,0:0:0:0:
256,32,76075,1,0,0:0:0:0:
160,256,76205,1,0,0:0:0:0:
256,64,76336,5,0,0:0:0:0:
160,288,76466,1,0,0:0:0:0:
256,96,76596,5,0,0:0:0:0:
160,320,76726,1,0,0:0:0:0:
256,352,76857,5,0,0:0:0:0:
352,128,76987,1,0,0:0:0:0:
256,320,77118,5,0,0:0:0:0:
352,96,77248,1,0,0:0:0:0:
256,288,77378,5,0,0:0:0:0:
352,64,77508,1,0,0:0:0:0:
32,192,77640,5,0,0:0:0:0:
480,192,77770,1,0,0:0:0:0:
32,192,77901,1,0,0:0:0:0:
480,192,78031,1,0,0:0:0:0:
32,192,78162,1,0,0:0:0:0:
480,192,78292,1,0,0:0:0:0:
224,64,78422,2,0,L|224:128,1,54.6250010418892
288,320,78553,2,0,L|288:256,1,54.6250010418892
256,192,78683,2,0,P|320:160|352:128,1,109.250002083778
288,32,78944,5,0,0:0:0:0:
480,160,79075,1,0,0:0:0:0:
480,224,79205,1,0,0:0:0:0:
288,352,79336,1,0,0:0:0:0:
224,352,79466,1,0,0:0:0:0:
32,224,79596,1,0,0:0:0:0:
32,160,79727,1,0,0:0:0:0:
224,32,79857,1,0,0:0:0:0:
288,32,79988,2,0,L|352:64,1,54.6250010418892
352,96,80118,5,0,0:0:0:0:
160,96,80249,1,0,0:0:0:0:
352,160,80379,1,0,0:0:0:0:
160,160,80509,1,0,0:0:0:0:
352,224,80640,1,0,0:0:0:0:
160,224,80771,1,0,0:0:0:0:
352,288,80901,1,0,0:0:0:0:
160,288,81031,1,0,0:0:0:0:
256,352,81162,2,0,L|256:288,1,54.6250010418892
256,32,81292,2,0,L|256:96,1,54.6250010418892
256,192,81422,5,0,0:0:0:0:
352,192,81553,1,0,0:0:0:0:
160,192,81683,1,0,0:0:0:0:
448,192,81814,1,0,0:0:0:0:
64,192,81944,1,0,0:0:0:0:
256,352,82075,1,0,0:0:0:0:
256,32,82205,1,0,0:0:0:0:
256,256,82336,1,0,0:0:0:0:
256,128,82466,1,0,0:0:0:0:
256,128,82531,5,0,0:0:0:0:
256,128,82596,2,0,P|248:192|160:248,1,163.875003125668,6|0,0:0|0:0,0:0:0:0:
128,312,82857,2,0,P|104:256|104:200,1,109.250002083778,8|0,0:0|0:0,0:0:0:0:
0,8,83118,1,0,0:0:0:0:
256,192,83249,1,0,0:0:0:0:
256,8,83379,1,0,0:0:0:0:
0,192,83510,1,0,0:0:0:0:
256,192,83640,1,0,0:0:0:0:
512,192,83770,1,0,0:0:0:0:
256,32,83901,5,0,0:0:0:0:
256,352,84031,1,0,0:0:0:0:
224,64,84162,1,0,0:0:0:0:
288,320,84292,1,0,0:0:0:0:
288,0,84422,1,0,0:0:0:0:
224,384,84553,1,0,0:0:0:0:
320,224,84683,5,0,0:0:0:0:
192,160,84814,1,0,0:0:0:0:
352,256,84944,1,0,0:0:0:0:
160,128,85075,1,0,0:0:0:0:
384,288,85205,1,0,0:0:0:0:
128,96,85336,1,0,0:0:0:0:
416,320,85466,1,0,0:0:0:0:
96,64,85596,1,0,0:0:0:0:
448,352,85727,1,0,0:0:0:0:
64,32,85857,1,0,0:0:0:0:
352,192,85988,5,0,0:0:0:0:
160,192,86118,1,0,0:0:0:0:
256,288,86249,1,0,0:0:0:0:
256,96,86379,1,0,0:0:0:0:
256,384,86509,1,0,0:0:0:0:
256,0,86640,1,0,0:0:0:0:
64,192,86770,5,6,0:0:0:0:
448,192,86901,1,0,0:0:0:0:
320,352,87031,2,0,P|288:288|288:224,1,109.250002083778,8|0,0:0|0:0,0:0:0:0:
384,32,87292,5,6,0:0:0:0:
160,224,87422,1,0,0:0:0:0:
352,192,87553,1,8,0:0:0:0:
192,64,87683,1,0,0:0:0:0:
256,352,87814,5,6,0:0:0:0:
256,32,87944,1,0,0:0:0:0:
320,320,88075,1,8,0:0:0:0:
192,64,88205,1,0,0:0:0:0:
