osu file format v14

[General]
AudioFilename: The End.mp3
AudioLeadIn: 0
PreviewTime: 198505
Countdown: 0
SampleSet: Normal
StackLeniency: 0.7
Mode: 3
LetterboxInBreaks: 0
SpecialStyle: 0
WidescreenStoryboard: 1

[Editor]
Bookmarks: 20746,42815,64884,81436,109022,131091,153160,175229,197298,219367,241436,263505,274539,285574
DistanceSpacing: 0.8
BeatDivisor: 2
GridSize: 32
TimelineZoom: 2.3

[Metadata]
Title:Pis's EDM Mania Pack Vol.2
TitleUnicode:Pis's EDM Mania Pack Vol.2
Artist:Various Artist
ArtistUnicode:Various Artist
Creator:PisRyder
Version:The End - 4K
Source:
Tags:
BeatmapID:1028706
BeatmapSetID:452032

[Difficulty]
HPDrainRate:8
CircleSize:4
OverallDifficulty:8
ApproachRate:5
SliderMultiplier:1.4
SliderTickRate:1

[Events]
//Background and Video events
0,0,"10.jpg",0,0
//Break Periods
//Storyboard Layer 0 (Background)
Sprite,Background,TopLeft,"10.jpg",0,0
//Storyboard Layer 1 (Fail)
//Storyboard Layer 2 (Pass)
//Storyboard Layer 3 (Foreground)
Sprite,Foreground,TopLeft,"SB\The End\BG.jpg",-122,-9 S,0,-8000,,0.647 F,0,-8000,0,0,1 C,0,-8000,295002,100,100,100 F,0,295002,298002,1,0
Animation,Foreground,TopLeft,"SB\Particle\P.png",-122,-9,90,20,LoopForever S,0,-8000,,0.647 F,0,-8000,0,0,1 F,0,295002,298002,1,0
Sprite,Foreground,CentreLeft,"SB\Bar.png",510,271 V,0,-5000,-4000,0,0.647,0.647,0.647 F,0,-5000,295002,1
Sprite,Foreground,CentreLeft,"SB\BarColor.png",525,268.5 V,0,-3000,,0.616,0.647 F,0,-3000,-2900,0,1 C,0,-3000,295002,200,200,200 F,0,-2900,-2800,1,0 F,0,-2800,-2700,0,1 F,0,-2700,295002,1
Animation,Foreground,CentreLeft,"SB\BarC.png",525,268.5,90,20,LoopForever F,0,0,295002,1 C,0,0,295002,153,108,89 V,0,0,295002,0,0.647,0.616,0.647
Animation,Foreground,Centre,"SB\Disk.png",510,268,60,20,LoopForever V,0,-7000,-6000,0,0,0.8,0.8 F,0,-7000,-5500,0,1 V,0,-6000,-5500,0.8,0.8,0.648,0.648 F,0,-5500,295002,1
Sprite,Foreground,CentreLeft,"SB\The End\Text.png",528,279 S,0,-3000,,0.647 F,0,-3000,-2900,0,1 F,0,-2900,-2800,1,0 F,0,-2800,-2700,0,1 F,0,-2700,295002,1
//Storyboard Sound Samples

[TimingPoints]
57,344.827586206897,4,1,0,100,1,0
22125,-100,4,1,0,100,0,1
44108,-133.333333333333,4,1,0,100,0,0
54539,-200,4,1,0,100,0,0
55143,-133.333333333333,4,1,0,100,0,0
65574,-200,4,1,0,100,0,0
66177,-100,4,1,0,100,0,0
87988,-66.6666666666667,4,1,0,100,0,0
88246,-100,4,1,0,100,0,0
88332,-100,4,1,0,100,0,1
110057,-66.6666666666667,4,1,0,100,0,0
110315,-100,4,1,0,100,0,0
131953,-66.6666666666667,4,1,0,100,0,0
132384,-100,4,1,0,100,0,0
132470,-100,4,1,0,100,0,1
154453,-133.333333333333,4,1,0,100,0,0
176522,-100,4,1,0,100,0,0
198246,-66.6666666666667,4,1,0,100,0,0
198591,-100,4,1,0,100,0,0
198677,-100,4,1,0,100,0,1
220401,-66.6666666666667,4,1,0,100,0,0
220660,-100,4,1,0,100,0,0
242298,-66.6666666666667,4,1,0,100,0,0
242729,-100,4,1,0,100,0,0
242815,-100,4,1,0,100,0,1
264798,-100,4,1,0,100,0,0
286953,-400,4,1,0,100,0,0

[HitObjects]
64,192,57,128,0,488:0:0:0:0:
320,192,57,1,0,0:0:0:0:
448,192,57,1,0,0:0:0:0:
192,192,229,1,0,0:0:0:0:
192,192,401,1,0,0:0:0:0:
320,192,401,1,0,0:0:0:0:
448,192,401,1,0,0:0:0:0:
448,192,574,128,0,832:0:0:0:0:
320,192,574,1,0,0:0:0:0:
64,192,746,1,0,0:0:0:0:
320,192,919,128,0,1005:0:0:0:0:
192,192,919,1,0,0:0:0:0:
448,192,919,1,0,0:0:0:0:
64,192,1091,1,0,0:0:0:0:
192,192,1091,1,0,0:0:0:0:
320,192,1091,1,0,0:0:0:0:
448,192,1091,128,0,1263:0:0:0:0:
64,192,1263,1,0,0:0:0:0:
192,192,1436,128,0,1867:0:0:0:0:
320,192,1436,1,0,0:0:0:0:
448,192,1436,1,0,0:0:0:0:
64,192,1608,1,0,0:0:0:0:
448,192,1781,1,0,0:0:0:0:
320,192,1781,1,0,0:0:0:0:
64,192,1781,1,0,0:0:0:0:
448,192,1953,128,0,2212:0:0:0:0:
320,192,1953,1,0,0:0:0:0:
192,192,2125,1,0,0:0:0:0:
320,192,2298,128,0,2384:0:0:0:0:
448,192,2298,1,0,0:0:0:0:
64,192,2298,1,0,0:0:0:0:
64,192,2470,1,0,0:0:0:0:
192,192,2470,1,0,0:0:0:0:
320,192,2470,1,0,0:0:0:0:
448,192,2470,128,0,2729:0:0:0:0:
192,192,2643,128,0,2729:0:0:0:0:
320,192,2815,128,0,3246:0:0:0:0:
448,192,2815,1,0,0:0:0:0:
64,192,2815,1,0,0:0:0:0:
192,192,2988,1,0,0:0:0:0:
64,192,3160,1,0,0:0:0:0:
192,192,3160,1,0,0:0:0:0:
448,192,3160,1,0,0:0:0:0:
320,192,3332,128,0,3591:0:0:0:0:
64,192,3332,1,0,0:0:0:0:
448,192,3505,1,0,0:0:0:0:
192,192,3677,128,0,3763:0:0:0:0:
320,192,3677,1,0,0:0:0:0:
64,192,3677,1,0,0:0:0:0:
320,192,3850,128,0,4281:0:0:0:0:
64,192,3850,1,0,0:0:0:0:
192,192,3850,1,0,0:0:0:0:
448,192,3850,1,0,0:0:0:0:
64,192,4022,1,0,0:0:0:0:
192,192,4194,1,0,0:0:0:0:
448,192,4194,1,0,0:0:0:0:
320,192,4367,128,0,4625:0:0:0:0:
64,192,4367,1,0,0:0:0:0:
64,192,4539,1,0,0:0:0:0:
192,192,4539,1,0,0:0:0:0:
448,192,4539,1,0,0:0:0:0:
192,192,4712,128,0,4798:0:0:0:0:
448,192,4712,1,0,0:0:0:0:
320,192,4884,128,0,4970:0:0:0:0:
64,192,4884,1,0,0:0:0:0:
192,192,5057,128,0,5143:0:0:0:0:
320,192,5057,1,0,0:0:0:0:
448,192,5057,1,0,0:0:0:0:
448,192,5229,128,0,5315:0:0:0:0:
320,192,5229,1,0,0:0:0:0:
192,192,5229,1,0,0:0:0:0:
64,192,5229,1,0,0:0:0:0:
320,192,5401,128,0,5488:0:0:0:0:
64,192,5401,1,0,0:0:0:0:
448,192,5574,128,0,6005:0:0:0:0:
192,192,5574,1,0,0:0:0:0:
64,192,5574,1,0,0:0:0:0:
320,192,5746,1,0,0:0:0:0:
320,192,5919,1,0,0:0:0:0:
192,192,5919,1,0,0:0:0:0:
64,192,5919,1,0,0:0:0:0:
64,192,6091,128,0,6350:0:0:0:0:
192,192,6091,1,0,0:0:0:0:
448,192,6263,1,0,0:0:0:0:
192,192,6436,128,0,6522:0:0:0:0:
320,192,6436,1,0,0:0:0:0:
64,192,6436,1,0,0:0:0:0:
448,192,6608,1,0,0:0:0:0:
320,192,6608,1,0,0:0:0:0:
192,192,6608,1,0,0:0:0:0:
64,192,6608,128,0,6781:0:0:0:0:
448,192,6781,1,0,0:0:0:0:
320,192,6953,128,0,7384:0:0:0:0:
192,192,6953,1,0,0:0:0:0:
64,192,6953,1,0,0:0:0:0:
448,192,7125,1,0,0:0:0:0:
64,192,7298,1,0,0:0:0:0:
192,192,7298,1,0,0:0:0:0:
448,192,7298,1,0,0:0:0:0:
64,192,7470,128,0,7729:0:0:0:0:
192,192,7470,1,0,0:0:0:0:
320,192,7643,1,0,0:0:0:0:
192,192,7815,128,0,7901:0:0:0:0:
64,192,7815,1,0,0:0:0:0:
448,192,7815,1,0,0:0:0:0:
448,192,7988,1,0,0:0:0:0:
320,192,7988,1,0,0:0:0:0:
192,192,7988,1,0,0:0:0:0:
64,192,7988,128,0,8246:0:0:0:0:
320,192,8160,128,0,8246:0:0:0:0:
192,192,8332,128,0,8763:0:0:0:0:
64,192,8332,1,0,0:0:0:0:
448,192,8332,1,0,0:0:0:0:
320,192,8505,1,0,0:0:0:0:
448,192,8677,1,0,0:0:0:0:
320,192,8677,1,0,0:0:0:0:
64,192,8677,1,0,0:0:0:0:
192,192,8850,128,0,9108:0:0:0:0:
448,192,8850,1,0,0:0:0:0:
64,192,9022,1,0,0:0:0:0:
320,192,9194,128,0,9281:0:0:0:0:
192,192,9194,1,0,0:0:0:0:
448,192,9194,1,0,0:0:0:0:
192,192,9367,128,0,9798:0:0:0:0:
448,192,9367,1,0,0:0:0:0:
320,192,9367,1,0,0:0:0:0:
64,192,9367,1,0,0:0:0:0:
448,192,9539,1,0,0:0:0:0:
320,192,9712,1,0,0:0:0:0:
64,192,9712,1,0,0:0:0:0:
192,192,9884,128,0,10143:0:0:0:0:
448,192,9884,1,0,0:0:0:0:
448,192,10057,1,0,0:0:0:0:
320,192,10057,1,0,0:0:0:0:
64,192,10057,1,0,0:0:0:0:
320,192,10229,128,0,10315:0:0:0:0:
64,192,10229,1,0,0:0:0:0:
192,192,10401,128,0,10488:0:0:0:0:
448,192,10401,1,0,0:0:0:0:
320,192,10574,128,0,10660:0:0:0:0:
192,192,10574,1,0,0:0:0:0:
64,192,10574,1,0,0:0:0:0:
64,192,10746,128,0,10832:0:0:0:0:
192,192,10746,1,0,0:0:0:0:
320,192,10746,1,0,0:0:0:0:
448,192,10746,1,0,0:0:0:0:
192,192,10919,128,0,11005:0:0:0:0:
448,192,10919,1,0,0:0:0:0:
64,192,11091,128,0,11522:0:0:0:0:
320,192,11091,1,0,0:0:0:0:
448,192,11091,1,0,0:0:0:0:
192,192,11263,1,0,0:0:0:0:
192,192,11436,1,0,0:0:0:0:
320,192,11436,1,0,0:0:0:0:
448,192,11436,1,0,0:0:0:0:
448,192,11608,128,0,11867:0:0:0:0:
320,192,11608,1,0,0:0:0:0:
64,192,11781,1,0,0:0:0:0:
320,192,11953,128,0,12039:0:0:0:0:
192,192,11953,1,0,0:0:0:0:
448,192,11953,1,0,0:0:0:0:
64,192,12125,1,0,0:0:0:0:
192,192,12125,1,0,0:0:0:0:
320,192,12125,1,0,0:0:0:0:
448,192,12125,128,0,12298:0:0:0:0:
64,192,12298,1,0,0:0:0:0:
192,192,12470,128,0,12901:0:0:0:0:
320,192,12470,1,0,0:0:0:0:
448,192,12470,1,0,0:0:0:0:
64,192,12643,1,0,0:0:0:0:
448,192,12815,1,0,0:0:0:0:
320,192,12815,1,0,0:0:0:0:
64,192,12815,1,0,0:0:0:0:
448,192,12988,128,0,13246:0:0:0:0:
320,192,12988,1,0,0:0:0:0:
192,192,13160,1,0,0:0:0:0:
320,192,13332,128,0,13419:0:0:0:0:
448,192,13332,1,0,0:0:0:0:
64,192,13332,1,0,0:0:0:0:
64,192,13505,1,0,0:0:0:0:
192,192,13505,1,0,0:0:0:0:
320,192,13505,1,0,0:0:0:0:
448,192,13505,128,0,13763:0:0:0:0:
192,192,13677,128,0,13763:0:0:0:0:
320,192,13850,128,0,14281:0:0:0:0:
448,192,13850,1,0,0:0:0:0:
64,192,13850,1,0,0:0:0:0:
192,192,14022,1,0,0:0:0:0:
64,192,14194,1,0,0:0:0:0:
192,192,14194,1,0,0:0:0:0:
448,192,14194,1,0,0:0:0:0:
320,192,14367,128,0,14625:0:0:0:0:
64,192,14367,1,0,0:0:0:0:
448,192,14539,1,0,0:0:0:0:
192,192,14712,128,0,14798:0:0:0:0:
320,192,14712,1,0,0:0:0:0:
64,192,14712,1,0,0:0:0:0:
320,192,14884,128,0,15315:0:0:0:0:
64,192,14884,1,0,0:0:0:0:
192,192,14884,1,0,0:0:0:0:
448,192,14884,1,0,0:0:0:0:
64,192,15057,1,0,0:0:0:0:
192,192,15229,1,0,0:0:0:0:
448,192,15229,1,0,0:0:0:0:
320,192,15401,128,0,15660:0:0:0:0:
64,192,15401,1,0,0:0:0:0:
64,192,15574,1,0,0:0:0:0:
192,192,15574,1,0,0:0:0:0:
448,192,15574,1,0,0:0:0:0:
192,192,15746,128,0,15832:0:0:0:0:
448,192,15746,1,0,0:0:0:0:
320,192,15919,128,0,16005:0:0:0:0:
64,192,15919,1,0,0:0:0:0:
192,192,16091,128,0,16177:0:0:0:0:
320,192,16091,1,0,0:0:0:0:
448,192,16091,1,0,0:0:0:0:
448,192,16263,128,0,16350:0:0:0:0:
320,192,16263,1,0,0:0:0:0:
192,192,16263,1,0,0:0:0:0:
64,192,16263,1,0,0:0:0:0:
320,192,16436,128,0,16522:0:0:0:0:
64,192,16436,1,0,0:0:0:0:
448,192,16608,128,0,17039:0:0:0:0:
192,192,16608,1,0,0:0:0:0:
64,192,16608,1,0,0:0:0:0:
320,192,16781,1,0,0:0:0:0:
320,192,16953,1,0,0:0:0:0:
192,192,16953,1,0,0:0:0:0:
64,192,16953,1,0,0:0:0:0:
64,192,17125,128,0,17384:0:0:0:0:
192,192,17125,1,0,0:0:0:0:
448,192,17298,1,0,0:0:0:0:
192,192,17470,128,0,17557:0:0:0:0:
320,192,17470,1,0,0:0:0:0:
64,192,17470,1,0,0:0:0:0:
448,192,17643,1,0,0:0:0:0:
320,192,17643,1,0,0:0:0:0:
192,192,17643,1,0,0:0:0:0:
64,192,17643,128,0,17815:0:0:0:0:
448,192,17815,1,0,0:0:0:0:
320,192,17988,128,0,18419:0:0:0:0:
192,192,17988,1,0,0:0:0:0:
64,192,17988,1,0,0:0:0:0:
448,192,18160,1,0,0:0:0:0:
64,192,18332,1,0,0:0:0:0:
192,192,18332,1,0,0:0:0:0:
448,192,18332,1,0,0:0:0:0:
64,192,18505,128,0,18763:0:0:0:0:
192,192,18505,1,0,0:0:0:0:
320,192,18677,1,0,0:0:0:0:
192,192,18850,128,0,18936:0:0:0:0:
64,192,18850,1,0,0:0:0:0:
448,192,18850,1,0,0:0:0:0:
448,192,19022,1,0,0:0:0:0:
320,192,19022,1,0,0:0:0:0:
192,192,19022,1,0,0:0:0:0:
64,192,19022,128,0,19281:0:0:0:0:
320,192,19194,128,0,19281:0:0:0:0:
192,192,19367,128,0,19798:0:0:0:0:
64,192,19367,1,0,0:0:0:0:
448,192,19367,1,0,0:0:0:0:
320,192,19539,1,0,0:0:0:0:
448,192,19712,1,0,0:0:0:0:
320,192,19712,1,0,0:0:0:0:
64,192,19712,1,0,0:0:0:0:
192,192,19884,128,0,20143:0:0:0:0:
448,192,19884,1,0,0:0:0:0:
64,192,20057,1,0,0:0:0:0:
320,192,20229,128,0,20315:0:0:0:0:
192,192,20229,1,0,0:0:0:0:
448,192,20229,1,0,0:0:0:0:
192,192,20401,128,0,20832:0:0:0:0:
448,192,20401,1,0,0:0:0:0:
320,192,20401,1,0,0:0:0:0:
64,192,20401,1,0,0:0:0:0:
192,192,20919,128,0,21350:0:0:0:0:
320,192,21263,128,0,21522:0:0:0:0:
192,192,21436,128,0,21867:0:0:0:0:
320,192,21608,128,0,22039:0:0:0:0:
64,192,21781,128,0,22039:0:0:0:0:
192,192,21953,128,0,22039:0:0:0:0:
64,192,22125,128,0,22557:0:0:0:0:
320,192,22125,1,0,0:0:0:0:
448,192,22125,1,0,0:0:0:0:
192,192,22298,1,0,0:0:0:0:
192,192,22470,1,0,0:0:0:0:
320,192,22470,1,0,0:0:0:0:
448,192,22470,1,0,0:0:0:0:
448,192,22643,128,0,22901:0:0:0:0:
320,192,22643,1,0,0:0:0:0:
192,192,22729,1,0,0:0:0:0:
320,192,22815,1,0,0:0:0:0:
64,192,22901,1,0,0:0:0:0:
320,192,22988,128,0,23074:0:0:0:0:
192,192,22988,1,0,0:0:0:0:
448,192,22988,1,0,0:0:0:0:
64,192,23160,1,0,0:0:0:0:
192,192,23160,1,0,0:0:0:0:
320,192,23160,1,0,0:0:0:0:
448,192,23160,128,0,23332:0:0:0:0:
192,192,23332,1,0,0:0:0:0:
64,192,23419,1,0,0:0:0:0:
192,192,23505,128,0,23936:0:0:0:0:
320,192,23505,1,0,0:0:0:0:
448,192,23505,1,0,0:0:0:0:
64,192,23677,1,0,0:0:0:0:
448,192,23850,1,0,0:0:0:0:
320,192,23850,1,0,0:0:0:0:
64,192,23850,1,0,0:0:0:0:
448,192,24022,128,0,24281:0:0:0:0:
320,192,24022,1,0,0:0:0:0:
64,192,24108,1,0,0:0:0:0:
320,192,24194,1,0,0:0:0:0:
192,192,24281,1,0,0:0:0:0:
320,192,24367,128,0,24453:0:0:0:0:
448,192,24367,1,0,0:0:0:0:
64,192,24367,1,0,0:0:0:0:
64,192,24539,1,0,0:0:0:0:
192,192,24539,1,0,0:0:0:0:
320,192,24539,1,0,0:0:0:0:
448,192,24539,128,0,24798:0:0:0:0:
320,192,24712,1,0,0:0:0:0:
192,192,24798,1,0,0:0:0:0:
320,192,24884,128,0,25488:0:0:0:0:
64,192,24884,1,0,0:0:0:0:
448,192,24884,1,0,0:0:0:0:
192,192,25057,1,0,0:0:0:0:
64,192,25229,1,0,0:0:0:0:
192,192,25229,1,0,0:0:0:0:
448,192,25229,1,0,0:0:0:0:
448,192,25401,1,0,0:0:0:0:
64,192,25488,1,0,0:0:0:0:
192,192,25574,128,0,26177:0:0:0:0:
448,192,25574,1,0,0:0:0:0:
320,192,25660,1,0,0:0:0:0:
64,192,25746,1,0,0:0:0:0:
448,192,25746,1,0,0:0:0:0:
320,192,25919,1,0,0:0:0:0:
448,192,25919,1,0,0:0:0:0:
64,192,25919,1,0,0:0:0:0:
448,192,26091,1,0,0:0:0:0:
320,192,26177,1,0,0:0:0:0:
448,192,26263,128,0,26867:0:0:0:0:
192,192,26263,1,0,0:0:0:0:
64,192,26263,1,0,0:0:0:0:
320,192,26436,1,0,0:0:0:0:
64,192,26608,1,0,0:0:0:0:
192,192,26608,1,0,0:0:0:0:
320,192,26608,1,0,0:0:0:0:
320,192,26781,1,0,0:0:0:0:
192,192,26867,1,0,0:0:0:0:
64,192,26953,128,0,27557:0:0:0:0:
448,192,26953,1,0,0:0:0:0:
192,192,27039,1,0,0:0:0:0:
320,192,27125,1,0,0:0:0:0:
448,192,27125,128,0,27212:0:0:0:0:
192,192,27298,1,0,0:0:0:0:
448,192,27298,1,0,0:0:0:0:
320,192,27298,128,0,27384:0:0:0:0:
320,192,27470,128,0,27557:0:0:0:0:
448,192,27643,128,0,28074:0:0:0:0:
192,192,27643,1,0,0:0:0:0:
64,192,27643,1,0,0:0:0:0:
320,192,27815,1,0,0:0:0:0:
320,192,27988,1,0,0:0:0:0:
192,192,27988,1,0,0:0:0:0:
64,192,27988,1,0,0:0:0:0:
64,192,28160,128,0,28419:0:0:0:0:
192,192,28160,1,0,0:0:0:0:
320,192,28246,1,0,0:0:0:0:
192,192,28332,1,0,0:0:0:0:
448,192,28419,1,0,0:0:0:0:
192,192,28505,128,0,28591:0:0:0:0:
320,192,28505,1,0,0:0:0:0:
64,192,28505,1,0,0:0:0:0:
448,192,28677,1,0,0:0:0:0:
320,192,28677,1,0,0:0:0:0:
192,192,28677,1,0,0:0:0:0:
64,192,28677,128,0,28850:0:0:0:0:
320,192,28850,1,0,0:0:0:0:
448,192,28936,1,0,0:0:0:0:
320,192,29022,128,0,29453:0:0:0:0:
192,192,29022,1,0,0:0:0:0:
64,192,29022,1,0,0:0:0:0:
448,192,29194,1,0,0:0:0:0:
64,192,29367,1,0,0:0:0:0:
192,192,29367,1,0,0:0:0:0:
448,192,29367,1,0,0:0:0:0:
64,192,29539,128,0,29798:0:0:0:0:
192,192,29539,1,0,0:0:0:0:
448,192,29625,1,0,0:0:0:0:
192,192,29712,1,0,0:0:0:0:
320,192,29798,1,0,0:0:0:0:
192,192,29884,128,0,29970:0:0:0:0:
64,192,29884,1,0,0:0:0:0:
448,192,29884,1,0,0:0:0:0:
448,192,30057,1,0,0:0:0:0:
320,192,30057,1,0,0:0:0:0:
192,192,30057,1,0,0:0:0:0:
64,192,30057,128,0,30315:0:0:0:0:
192,192,30229,1,0,0:0:0:0:
320,192,30315,1,0,0:0:0:0:
192,192,30401,128,0,31005:0:0:0:0:
448,192,30401,1,0,0:0:0:0:
64,192,30401,1,0,0:0:0:0:
320,192,30574,1,0,0:0:0:0:
448,192,30746,1,0,0:0:0:0:
320,192,30746,1,0,0:0:0:0:
64,192,30746,1,0,0:0:0:0:
64,192,30919,1,0,0:0:0:0:
448,192,31005,1,0,0:0:0:0:
320,192,31091,128,0,31694:0:0:0:0:
64,192,31091,1,0,0:0:0:0:
192,192,31177,1,0,0:0:0:0:
448,192,31263,1,0,0:0:0:0:
64,192,31263,1,0,0:0:0:0:
192,192,31436,1,0,0:0:0:0:
64,192,31436,1,0,0:0:0:0:
448,192,31436,1,0,0:0:0:0:
64,192,31608,1,0,0:0:0:0:
192,192,31694,1,0,0:0:0:0:
64,192,31781,128,0,32384:0:0:0:0:
320,192,31781,1,0,0:0:0:0:
448,192,31781,1,0,0:0:0:0:
192,192,31953,1,0,0:0:0:0:
448,192,32125,1,0,0:0:0:0:
320,192,32125,1,0,0:0:0:0:
192,192,32125,1,0,0:0:0:0:
192,192,32298,1,0,0:0:0:0:
320,192,32384,1,0,0:0:0:0:
448,192,32470,128,0,33074:0:0:0:0:
64,192,32470,1,0,0:0:0:0:
320,192,32557,1,0,0:0:0:0:
192,192,32643,1,0,0:0:0:0:
64,192,32643,128,0,32729:0:0:0:0:
320,192,32815,1,0,0:0:0:0:
64,192,32815,1,0,0:0:0:0:
192,192,32815,128,0,32901:0:0:0:0:
192,192,32988,128,0,33074:0:0:0:0:
64,192,33160,128,0,33591:0:0:0:0:
320,192,33160,1,0,0:0:0:0:
448,192,33160,1,0,0:0:0:0:
192,192,33332,1,0,0:0:0:0:
192,192,33505,1,0,0:0:0:0:
320,192,33505,1,0,0:0:0:0:
448,192,33505,1,0,0:0:0:0:
448,192,33677,128,0,33936:0:0:0:0:
320,192,33677,1,0,0:0:0:0:
192,192,33763,1,0,0:0:0:0:
320,192,33850,1,0,0:0:0:0:
64,192,33936,1,0,0:0:0:0:
320,192,34022,128,0,34108:0:0:0:0:
192,192,34022,1,0,0:0:0:0:
448,192,34022,1,0,0:0:0:0:
64,192,34194,1,0,0:0:0:0:
192,192,34194,1,0,0:0:0:0:
320,192,34194,1,0,0:0:0:0:
448,192,34194,128,0,34367:0:0:0:0:
192,192,34367,1,0,0:0:0:0:
64,192,34453,1,0,0:0:0:0:
192,192,34539,128,0,34970:0:0:0:0:
320,192,34539,1,0,0:0:0:0:
448,192,34539,1,0,0:0:0:0:
64,192,34712,1,0,0:0:0:0:
448,192,34884,1,0,0:0:0:0:
320,192,34884,1,0,0:0:0:0:
64,192,34884,1,0,0:0:0:0:
448,192,35057,128,0,35315:0:0:0:0:
320,192,35057,1,0,0:0:0:0:
64,192,35143,1,0,0:0:0:0:
320,192,35229,1,0,0:0:0:0:
192,192,35315,1,0,0:0:0:0:
320,192,35401,128,0,35488:0:0:0:0:
448,192,35401,1,0,0:0:0:0:
64,192,35401,1,0,0:0:0:0:
64,192,35574,1,0,0:0:0:0:
192,192,35574,1,0,0:0:0:0:
320,192,35574,1,0,0:0:0:0:
448,192,35574,128,0,35832:0:0:0:0:
320,192,35746,1,0,0:0:0:0:
192,192,35832,1,0,0:0:0:0:
320,192,35919,128,0,36522:0:0:0:0:
64,192,35919,1,0,0:0:0:0:
448,192,35919,1,0,0:0:0:0:
192,192,36091,1,0,0:0:0:0:
64,192,36263,1,0,0:0:0:0:
192,192,36263,1,0,0:0:0:0:
448,192,36263,1,0,0:0:0:0:
448,192,36436,1,0,0:0:0:0:
64,192,36522,1,0,0:0:0:0:
192,192,36608,128,0,37212:0:0:0:0:
448,192,36608,1,0,0:0:0:0:
320,192,36694,1,0,0:0:0:0:
64,192,36781,1,0,0:0:0:0:
448,192,36781,1,0,0:0:0:0:
320,192,36953,1,0,0:0:0:0:
448,192,36953,1,0,0:0:0:0:
64,192,36953,1,0,0:0:0:0:
448,192,37125,1,0,0:0:0:0:
320,192,37212,1,0,0:0:0:0:
448,192,37298,128,0,37901:0:0:0:0:
192,192,37298,1,0,0:0:0:0:
64,192,37298,1,0,0:0:0:0:
320,192,37470,1,0,0:0:0:0:
64,192,37643,1,0,0:0:0:0:
192,192,37643,1,0,0:0:0:0:
320,192,37643,1,0,0:0:0:0:
320,192,37815,1,0,0:0:0:0:
192,192,37901,1,0,0:0:0:0:
64,192,37988,128,0,38591:0:0:0:0:
448,192,37988,1,0,0:0:0:0:
192,192,38074,1,0,0:0:0:0:
320,192,38160,1,0,0:0:0:0:
448,192,38160,128,0,38246:0:0:0:0:
192,192,38332,1,0,0:0:0:0:
448,192,38332,1,0,0:0:0:0:
320,192,38332,128,0,38419:0:0:0:0:
320,192,38505,128,0,38591:0:0:0:0:
448,192,38677,128,0,39108:0:0:0:0:
192,192,38677,1,0,0:0:0:0:
64,192,38677,1,0,0:0:0:0:
320,192,38850,1,0,0:0:0:0:
320,192,39022,1,0,0:0:0:0:
192,192,39022,1,0,0:0:0:0:
64,192,39022,1,0,0:0:0:0:
64,192,39194,128,0,39453:0:0:0:0:
192,192,39194,1,0,0:0:0:0:
320,192,39281,1,0,0:0:0:0:
192,192,39367,1,0,0:0:0:0:
448,192,39453,1,0,0:0:0:0:
192,192,39539,128,0,39625:0:0:0:0:
320,192,39539,1,0,0:0:0:0:
64,192,39539,1,0,0:0:0:0:
448,192,39712,1,0,0:0:0:0:
320,192,39712,1,0,0:0:0:0:
192,192,39712,1,0,0:0:0:0:
64,192,39712,128,0,39884:0:0:0:0:
320,192,39884,1,0,0:0:0:0:
448,192,39970,1,0,0:0:0:0:
320,192,40057,128,0,40488:0:0:0:0:
192,192,40057,1,0,0:0:0:0:
64,192,40057,1,0,0:0:0:0:
448,192,40229,1,0,0:0:0:0:
64,192,40401,1,0,0:0:0:0:
192,192,40401,1,0,0:0:0:0:
448,192,40401,1,0,0:0:0:0:
64,192,40574,128,0,40832:0:0:0:0:
192,192,40574,1,0,0:0:0:0:
448,192,40660,1,0,0:0:0:0:
192,192,40746,1,0,0:0:0:0:
320,192,40832,1,0,0:0:0:0:
192,192,40919,128,0,41005:0:0:0:0:
64,192,40919,1,0,0:0:0:0:
448,192,40919,1,0,0:0:0:0:
448,192,41091,1,0,0:0:0:0:
320,192,41091,1,0,0:0:0:0:
192,192,41091,1,0,0:0:0:0:
64,192,41091,128,0,41350:0:0:0:0:
192,192,41263,1,0,0:0:0:0:
320,192,41350,1,0,0:0:0:0:
192,192,41436,128,0,42039:0:0:0:0:
448,192,41436,1,0,0:0:0:0:
64,192,41436,1,0,0:0:0:0:
320,192,41608,1,0,0:0:0:0:
448,192,41781,1,0,0:0:0:0:
320,192,41781,1,0,0:0:0:0:
64,192,41781,1,0,0:0:0:0:
64,192,41953,1,0,0:0:0:0:
448,192,42039,1,0,0:0:0:0:
320,192,42125,128,0,42729:0:0:0:0:
64,192,42125,1,0,0:0:0:0:
192,192,42212,1,0,0:0:0:0:
448,192,42298,1,0,0:0:0:0:
64,192,42298,1,0,0:0:0:0:
192,192,42470,1,0,0:0:0:0:
64,192,42470,1,0,0:0:0:0:
448,192,42470,1,0,0:0:0:0:
64,192,42643,1,0,0:0:0:0:
192,192,42729,1,0,0:0:0:0:
64,192,42815,128,0,43419:0:0:0:0:
320,192,42815,1,0,0:0:0:0:
448,192,42815,1,0,0:0:0:0:
192,192,42988,1,0,0:0:0:0:
448,192,43160,5,0,0:0:0:0:
320,192,43160,1,0,0:0:0:0:
192,192,43160,1,0,0:0:0:0:
192,192,43332,1,0,0:0:0:0:
320,192,43419,1,0,0:0:0:0:
448,192,43505,128,0,44108:0:0:0:0:
64,192,43677,128,0,43763:0:0:0:0:
192,192,43850,128,0,43936:0:0:0:0:
192,192,44022,128,0,44108:0:0:0:0:
320,192,44194,128,0,44453:0:0:0:0:
64,192,44539,128,0,44798:0:0:0:0:
320,192,44884,1,0,0:0:0:0:
64,192,45057,128,0,45488:0:0:0:0:
448,192,45574,128,0,45832:0:0:0:0:
64,192,45919,128,0,46177:0:0:0:0:
320,192,46263,1,0,0:0:0:0:
64,192,46436,128,0,46694:0:0:0:0:
320,192,46781,1,0,0:0:0:0:
448,192,46953,128,0,47815:0:0:0:0:
192,192,47298,1,0,0:0:0:0:
448,192,47988,128,0,48246:0:0:0:0:
192,192,48332,128,0,48850:0:0:0:0:
192,192,49022,128,0,49367:0:0:0:0:
320,192,49194,1,0,0:0:0:0:
448,192,49367,1,0,0:0:0:0:
192,192,49539,1,0,0:0:0:0:
320,192,49712,1,0,0:0:0:0:
64,192,49884,128,0,50143:0:0:0:0:
320,192,50229,128,0,50660:0:0:0:0:
64,192,50401,1,0,0:0:0:0:
192,192,50746,128,0,51005:0:0:0:0:
64,192,50919,1,0,0:0:0:0:
320,192,51091,128,0,51522:0:0:0:0:
64,192,51263,1,0,0:0:0:0:
448,192,51608,128,0,51867:0:0:0:0:
192,192,51953,128,0,52384:0:0:0:0:
320,192,52470,1,0,0:0:0:0:
64,192,52643,128,0,52901:0:0:0:0:
320,192,52988,1,0,0:0:0:0:
64,192,53160,128,0,53419:0:0:0:0:
320,192,53505,1,0,0:0:0:0:
192,192,53677,1,0,0:0:0:0:
64,192,53850,1,0,0:0:0:0:
320,192,54022,1,0,0:0:0:0:
192,192,54194,128,0,54453:0:0:0:0:
448,192,54539,128,0,55143:0:0:0:0:
320,192,54539,128,0,55143:0:0:0:0:
64,192,54539,128,0,55143:0:0:0:0:
192,192,55229,128,0,55488:0:0:0:0:
448,192,55574,128,0,55832:0:0:0:0:
192,192,55919,1,0,0:0:0:0:
448,192,56091,128,0,56522:0:0:0:0:
64,192,56608,128,0,56867:0:0:0:0:
448,192,56953,128,0,57212:0:0:0:0:
192,192,57298,1,0,0:0:0:0:
448,192,57470,128,0,57729:0:0:0:0:
192,192,57815,1,0,0:0:0:0:
64,192,57988,128,0,58850:0:0:0:0:
320,192,58332,1,0,0:0:0:0:
64,192,59022,128,0,59281:0:0:0:0:
320,192,59367,128,0,59884:0:0:0:0:
320,192,60057,128,0,60401:0:0:0:0:
192,192,60229,1,0,0:0:0:0:
64,192,60401,1,0,0:0:0:0:
320,192,60574,1,0,0:0:0:0:
192,192,60746,1,0,0:0:0:0:
448,192,60919,128,0,61177:0:0:0:0:
192,192,61263,128,0,61694:0:0:0:0:
448,192,61436,1,0,0:0:0:0:
320,192,61781,128,0,62039:0:0:0:0:
448,192,61953,1,0,0:0:0:0:
192,192,62125,128,0,62557:0:0:0:0:
448,192,62298,1,0,0:0:0:0:
64,192,62643,128,0,62901:0:0:0:0:
320,192,62988,128,0,63419:0:0:0:0:
192,192,63505,1,0,0:0:0:0:
448,192,63677,128,0,63936:0:0:0:0:
192,192,64022,1,0,0:0:0:0:
448,192,64194,128,0,64453:0:0:0:0:
192,192,64539,1,0,0:0:0:0:
320,192,64712,1,0,0:0:0:0:
448,192,64884,1,0,0:0:0:0:
192,192,65057,1,0,0:0:0:0:
320,192,65229,128,0,65488:0:0:0:0:
64,192,65574,128,0,66177:0:0:0:0:
192,192,65574,128,0,66177:0:0:0:0:
448,192,65574,128,0,66177:0:0:0:0:
320,192,66263,1,0,0:0:0:0:
448,192,66263,1,0,0:0:0:0:
64,192,66263,128,0,67643:0:0:0:0:
192,192,66608,1,0,0:0:0:0:
320,192,66608,1,0,0:0:0:0:
448,192,66608,1,0,0:0:0:0:
192,192,67125,1,0,0:0:0:0:
448,192,67125,1,0,0:0:0:0:
192,192,67298,1,0,0:0:0:0:
320,192,67298,1,0,0:0:0:0:
448,192,67298,1,0,0:0:0:0:
192,192,67643,128,0,69022:0:0:0:0:
448,192,67643,1,0,0:0:0:0:
320,192,67643,1,0,0:0:0:0:
64,192,67988,1,0,0:0:0:0:
320,192,67988,1,0,0:0:0:0:
448,192,67988,1,0,0:0:0:0:
320,192,68505,1,0,0:0:0:0:
64,192,68505,1,0,0:0:0:0:
64,192,68677,1,0,0:0:0:0:
320,192,68677,1,0,0:0:0:0:
448,192,68677,1,0,0:0:0:0:
320,192,69022,128,0,71091:0:0:0:0:
64,192,69022,1,0,0:0:0:0:
448,192,69022,1,0,0:0:0:0:
192,192,69367,1,0,0:0:0:0:
64,192,69367,1,0,0:0:0:0:
448,192,69367,1,0,0:0:0:0:
64,192,69884,1,0,0:0:0:0:
448,192,69884,1,0,0:0:0:0:
192,192,70057,1,0,0:0:0:0:
64,192,70057,1,0,0:0:0:0:
448,192,70057,1,0,0:0:0:0:
448,192,70401,1,0,0:0:0:0:
64,192,70401,1,0,0:0:0:0:
64,192,70746,1,0,0:0:0:0:
192,192,70746,1,0,0:0:0:0:
448,192,70746,1,0,0:0:0:0:
192,192,71091,128,0,71781:0:0:0:0:
64,192,71263,1,0,0:0:0:0:
448,192,71263,1,0,0:0:0:0:
320,192,71436,1,0,0:0:0:0:
448,192,71436,1,0,0:0:0:0:
64,192,71436,1,0,0:0:0:0:
64,192,71781,128,0,73160:0:0:0:0:
320,192,71781,1,0,0:0:0:0:
448,192,71781,1,0,0:0:0:0:
192,192,72125,1,0,0:0:0:0:
320,192,72125,1,0,0:0:0:0:
448,192,72125,1,0,0:0:0:0:
192,192,72643,1,0,0:0:0:0:
448,192,72643,1,0,0:0:0:0:
448,192,72815,1,0,0:0:0:0:
320,192,72815,1,0,0:0:0:0:
192,192,72815,1,0,0:0:0:0:
192,192,73160,128,0,74539:0:0:0:0:
320,192,73160,1,0,0:0:0:0:
448,192,73160,1,0,0:0:0:0:
64,192,73505,1,0,0:0:0:0:
320,192,73505,1,0,0:0:0:0:
448,192,73505,1,0,0:0:0:0:
64,192,74022,1,0,0:0:0:0:
320,192,74022,1,0,0:0:0:0:
448,192,74194,1,0,0:0:0:0:
320,192,74194,1,0,0:0:0:0:
64,192,74194,1,0,0:0:0:0:
320,192,74539,128,0,76608:0:0:0:0:
64,192,74539,1,0,0:0:0:0:
448,192,74539,1,0,0:0:0:0:
192,192,74884,1,0,0:0:0:0:
64,192,74884,1,0,0:0:0:0:
448,192,74884,1,0,0:0:0:0:
448,192,75401,1,0,0:0:0:0:
64,192,75401,1,0,0:0:0:0:
448,192,75574,1,0,0:0:0:0:
192,192,75574,1,0,0:0:0:0:
64,192,75574,1,0,0:0:0:0:
64,192,75919,1,0,0:0:0:0:
448,192,75919,1,0,0:0:0:0:
448,192,76263,1,0,0:0:0:0:
192,192,76263,1,0,0:0:0:0:
64,192,76263,1,0,0:0:0:0:
448,192,76608,128,0,77298:0:0:0:0:
64,192,76781,1,0,0:0:0:0:
320,192,76781,1,0,0:0:0:0:
192,192,76953,1,0,0:0:0:0:
64,192,76953,1,0,0:0:0:0:
320,192,76953,1,0,0:0:0:0:
192,192,77298,128,0,78677:0:0:0:0:
64,192,77298,1,0,0:0:0:0:
320,192,77298,1,0,0:0:0:0:
448,192,77643,1,0,0:0:0:0:
320,192,77643,1,0,0:0:0:0:
64,192,77643,1,0,0:0:0:0:
64,192,78160,1,0,0:0:0:0:
448,192,78160,1,0,0:0:0:0:
64,192,78332,1,0,0:0:0:0:
320,192,78332,1,0,0:0:0:0:
448,192,78332,1,0,0:0:0:0:
320,192,78677,128,0,80057:0:0:0:0:
64,192,78677,1,0,0:0:0:0:
448,192,78677,1,0,0:0:0:0:
192,192,79022,1,0,0:0:0:0:
64,192,79022,1,0,0:0:0:0:
448,192,79022,1,0,0:0:0:0:
64,192,79539,1,0,0:0:0:0:
448,192,79539,1,0,0:0:0:0:
64,192,79712,1,0,0:0:0:0:
192,192,79712,1,0,0:0:0:0:
448,192,79712,1,0,0:0:0:0:
448,192,80057,128,0,82815:0:0:0:0:
192,192,80057,1,0,0:0:0:0:
64,192,80057,1,0,0:0:0:0:
64,192,80401,1,0,0:0:0:0:
192,192,80401,1,0,0:0:0:0:
320,192,80401,1,0,0:0:0:0:
320,192,80919,1,0,0:0:0:0:
64,192,80919,1,0,0:0:0:0:
64,192,81091,1,0,0:0:0:0:
192,192,81091,1,0,0:0:0:0:
320,192,81091,1,0,0:0:0:0:
64,192,81436,1,0,0:0:0:0:
320,192,81436,1,0,0:0:0:0:
64,192,81781,1,0,0:0:0:0:
192,192,81781,1,0,0:0:0:0:
320,192,81781,1,0,0:0:0:0:
64,192,82298,1,0,0:0:0:0:
320,192,82298,1,0,0:0:0:0:
320,192,82470,1,0,0:0:0:0:
192,192,82470,1,0,0:0:0:0:
64,192,82470,1,0,0:0:0:0:
64,192,82815,1,0,0:0:0:0:
192,192,82815,1,0,0:0:0:0:
320,192,82815,1,0,0:0:0:0:
448,192,82988,1,0,0:0:0:0:
192,192,82988,1,0,0:0:0:0:
64,192,83160,1,0,0:0:0:0:
320,192,83160,1,0,0:0:0:0:
448,192,83160,1,0,0:0:0:0:
192,192,83332,1,0,0:0:0:0:
64,192,83332,1,0,0:0:0:0:
192,192,83505,1,0,0:0:0:0:
320,192,83505,1,0,0:0:0:0:
448,192,83505,1,0,0:0:0:0:
64,192,83677,1,0,0:0:0:0:
320,192,83677,1,0,0:0:0:0:
192,192,83850,1,0,0:0:0:0:
64,192,83850,1,0,0:0:0:0:
448,192,83850,1,0,0:0:0:0:
320,192,84022,1,0,0:0:0:0:
192,192,84022,1,0,0:0:0:0:
64,192,84194,1,0,0:0:0:0:
320,192,84194,1,0,0:0:0:0:
448,192,84194,1,0,0:0:0:0:
192,192,84367,1,0,0:0:0:0:
448,192,84367,1,0,0:0:0:0:
320,192,84539,1,0,0:0:0:0:
192,192,84539,1,0,0:0:0:0:
64,192,84539,1,0,0:0:0:0:
448,192,84712,1,0,0:0:0:0:
192,192,84712,1,0,0:0:0:0:
64,192,84884,1,0,0:0:0:0:
320,192,84884,1,0,0:0:0:0:
448,192,84884,1,0,0:0:0:0:
192,192,85057,1,0,0:0:0:0:
64,192,85057,1,0,0:0:0:0:
192,192,85229,1,0,0:0:0:0:
320,192,85229,1,0,0:0:0:0:
448,192,85229,1,0,0:0:0:0:
64,192,85401,1,0,0:0:0:0:
320,192,85401,1,0,0:0:0:0:
192,192,85574,1,0,0:0:0:0:
64,192,85574,1,0,0:0:0:0:
448,192,85574,1,0,0:0:0:0:
320,192,85660,1,0,0:0:0:0:
64,192,85746,1,0,0:0:0:0:
448,192,85746,1,0,0:0:0:0:
192,192,85832,1,0,0:0:0:0:
64,192,85919,1,0,0:0:0:0:
320,192,85919,1,0,0:0:0:0:
448,192,85919,1,0,0:0:0:0:
192,192,86005,1,0,0:0:0:0:
64,192,86091,1,0,0:0:0:0:
448,192,86091,1,0,0:0:0:0:
320,192,86177,1,0,0:0:0:0:
192,192,86263,1,0,0:0:0:0:
64,192,86263,1,0,0:0:0:0:
448,192,86263,1,0,0:0:0:0:
320,192,86350,1,0,0:0:0:0:
448,192,86436,1,0,0:0:0:0:
64,192,86436,1,0,0:0:0:0:
192,192,86522,1,0,0:0:0:0:
320,192,86608,1,0,0:0:0:0:
448,192,86608,1,0,0:0:0:0:
64,192,86608,1,0,0:0:0:0:
192,192,86694,1,0,0:0:0:0:
64,192,86781,1,0,0:0:0:0:
448,192,86781,1,0,0:0:0:0:
320,192,86867,1,0,0:0:0:0:
192,192,86953,1,0,0:0:0:0:
64,192,86953,1,0,0:0:0:0:
448,192,86953,1,0,0:0:0:0:
320,192,87039,1,0,0:0:0:0:
448,192,87125,1,0,0:0:0:0:
64,192,87125,1,0,0:0:0:0:
192,192,87212,1,0,0:0:0:0:
64,192,87298,1,0,0:0:0:0:
320,192,87298,1,0,0:0:0:0:
448,192,87298,1,0,0:0:0:0:
192,192,87384,1,0,0:0:0:0:
64,192,87470,1,0,0:0:0:0:
448,192,87470,1,0,0:0:0:0:
320,192,87557,1,0,0:0:0:0:
192,192,87643,1,0,0:0:0:0:
64,192,87643,1,0,0:0:0:0:
448,192,87643,1,0,0:0:0:0:
320,192,87729,1,0,0:0:0:0:
448,192,87815,1,0,0:0:0:0:
64,192,87815,1,0,0:0:0:0:
192,192,87901,1,0,0:0:0:0:
64,192,87988,1,0,0:0:0:0:
320,192,87988,1,0,0:0:0:0:
448,192,87988,1,0,0:0:0:0:
448,192,88332,1,0,0:0:0:0:
192,192,88332,1,0,0:0:0:0:
320,192,88419,1,0,0:0:0:0:
64,192,88505,1,0,0:0:0:0:
192,192,88591,1,0,0:0:0:0:
64,192,88677,1,0,0:0:0:0:
448,192,88677,1,0,0:0:0:0:
320,192,88677,1,0,0:0:0:0:
192,192,88763,1,0,0:0:0:0:
448,192,88850,1,0,0:0:0:0:
320,192,88936,1,0,0:0:0:0:
64,192,89022,1,0,0:0:0:0:
320,192,89108,1,0,0:0:0:0:
64,192,89194,1,0,0:0:0:0:
448,192,89194,1,0,0:0:0:0:
192,192,89281,1,0,0:0:0:0:
64,192,89367,1,0,0:0:0:0:
320,192,89367,1,0,0:0:0:0:
448,192,89367,1,0,0:0:0:0:
192,192,89453,1,0,0:0:0:0:
448,192,89539,1,0,0:0:0:0:
320,192,89625,1,0,0:0:0:0:
64,192,89712,1,0,0:0:0:0:
448,192,89712,1,0,0:0:0:0:
192,192,89798,1,0,0:0:0:0:
448,192,89884,1,0,0:0:0:0:
320,192,89970,1,0,0:0:0:0:
64,192,90057,1,0,0:0:0:0:
448,192,90057,1,0,0:0:0:0:
192,192,90057,1,0,0:0:0:0:
320,192,90143,1,0,0:0:0:0:
64,192,90229,1,0,0:0:0:0:
448,192,90315,1,0,0:0:0:0:
192,192,90401,1,0,0:0:0:0:
64,192,90488,1,0,0:0:0:0:
192,192,90574,1,0,0:0:0:0:
320,192,90574,1,0,0:0:0:0:
448,192,90660,1,0,0:0:0:0:
320,192,90746,1,0,0:0:0:0:
192,192,90746,1,0,0:0:0:0:
64,192,90746,1,0,0:0:0:0:
448,192,90832,1,0,0:0:0:0:
320,192,90919,1,0,0:0:0:0:
192,192,91005,1,0,0:0:0:0:
320,192,91091,128,0,91694:0:0:0:0:
64,192,91091,1,0,0:0:0:0:
448,192,91091,1,0,0:0:0:0:
192,192,91177,1,0,0:0:0:0:
448,192,91263,1,0,0:0:0:0:
64,192,91350,1,0,0:0:0:0:
192,192,91436,1,0,0:0:0:0:
64,192,91436,1,0,0:0:0:0:
448,192,91436,1,0,0:0:0:0:
448,192,91522,1,0,0:0:0:0:
192,192,91608,1,0,0:0:0:0:
64,192,91694,1,0,0:0:0:0:
192,192,91781,128,0,92384:0:0:0:0:
320,192,91781,1,0,0:0:0:0:
448,192,91867,1,0,0:0:0:0:
320,192,91953,1,0,0:0:0:0:
64,192,91953,1,0,0:0:0:0:
448,192,92039,1,0,0:0:0:0:
64,192,92125,1,0,0:0:0:0:
320,192,92125,1,0,0:0:0:0:
448,192,92125,1,0,0:0:0:0:
64,192,92212,1,0,0:0:0:0:
448,192,92298,1,0,0:0:0:0:
320,192,92384,1,0,0:0:0:0:
448,192,92470,128,0,93074:0:0:0:0:
192,192,92470,1,0,0:0:0:0:
64,192,92470,1,0,0:0:0:0:
320,192,92557,1,0,0:0:0:0:
64,192,92643,1,0,0:0:0:0:
192,192,92729,1,0,0:0:0:0:
192,192,92815,1,0,0:0:0:0:
320,192,92815,1,0,0:0:0:0:
64,192,92815,1,0,0:0:0:0:
320,192,92901,1,0,0:0:0:0:
64,192,92988,1,0,0:0:0:0:
192,192,93074,1,0,0:0:0:0:
64,192,93160,128,0,93763:0:0:0:0:
448,192,93160,1,0,0:0:0:0:
320,192,93246,1,0,0:0:0:0:
448,192,93332,1,0,0:0:0:0:
192,192,93419,1,0,0:0:0:0:
192,192,93505,1,0,0:0:0:0:
320,192,93505,1,0,0:0:0:0:
448,192,93505,1,0,0:0:0:0:
320,192,93591,1,0,0:0:0:0:
448,192,93677,1,0,0:0:0:0:
192,192,93763,1,0,0:0:0:0:
448,192,93850,1,0,0:0:0:0:
320,192,93850,1,0,0:0:0:0:
64,192,93936,1,0,0:0:0:0:
320,192,94022,1,0,0:0:0:0:
192,192,94108,1,0,0:0:0:0:
64,192,94194,1,0,0:0:0:0:
320,192,94194,1,0,0:0:0:0:
448,192,94194,1,0,0:0:0:0:
192,192,94281,1,0,0:0:0:0:
448,192,94367,1,0,0:0:0:0:
64,192,94453,1,0,0:0:0:0:
320,192,94539,1,0,0:0:0:0:
192,192,94625,1,0,0:0:0:0:
320,192,94712,1,0,0:0:0:0:
64,192,94712,1,0,0:0:0:0:
192,192,94798,1,0,0:0:0:0:
64,192,94884,1,0,0:0:0:0:
320,192,94884,1,0,0:0:0:0:
448,192,94884,1,0,0:0:0:0:
192,192,94970,1,0,0:0:0:0:
448,192,95057,1,0,0:0:0:0:
320,192,95143,1,0,0:0:0:0:
64,192,95229,1,0,0:0:0:0:
448,192,95229,1,0,0:0:0:0:
192,192,95315,1,0,0:0:0:0:
64,192,95401,1,0,0:0:0:0:
320,192,95488,1,0,0:0:0:0:
192,192,95574,1,0,0:0:0:0:
64,192,95574,1,0,0:0:0:0:
448,192,95574,1,0,0:0:0:0:
320,192,95660,1,0,0:0:0:0:
448,192,95746,1,0,0:0:0:0:
64,192,95832,1,0,0:0:0:0:
320,192,95919,1,0,0:0:0:0:
192,192,96005,1,0,0:0:0:0:
448,192,96091,1,0,0:0:0:0:
320,192,96091,1,0,0:0:0:0:
64,192,96177,1,0,0:0:0:0:
192,192,96263,1,0,0:0:0:0:
448,192,96263,1,0,0:0:0:0:
320,192,96263,1,0,0:0:0:0:
64,192,96350,1,0,0:0:0:0:
192,192,96436,1,0,0:0:0:0:
320,192,96522,1,0,0:0:0:0:
192,192,96608,128,0,97212:0:0:0:0:
448,192,96608,1,0,0:0:0:0:
64,192,96608,1,0,0:0:0:0:
320,192,96694,1,0,0:0:0:0:
64,192,96781,1,0,0:0:0:0:
448,192,96867,1,0,0:0:0:0:
320,192,96953,1,0,0:0:0:0:
448,192,96953,1,0,0:0:0:0:
64,192,96953,1,0,0:0:0:0:
64,192,97039,1,0,0:0:0:0:
320,192,97125,1,0,0:0:0:0:
448,192,97212,1,0,0:0:0:0:
320,192,97298,128,0,97901:0:0:0:0:
192,192,97298,1,0,0:0:0:0:
64,192,97384,1,0,0:0:0:0:
192,192,97470,1,0,0:0:0:0:
448,192,97470,1,0,0:0:0:0:
64,192,97557,1,0,0:0:0:0:
448,192,97643,1,0,0:0:0:0:
192,192,97643,1,0,0:0:0:0:
64,192,97643,1,0,0:0:0:0:
448,192,97729,1,0,0:0:0:0:
64,192,97815,1,0,0:0:0:0:
192,192,97901,1,0,0:0:0:0:
64,192,97988,128,0,98591:0:0:0:0:
320,192,97988,1,0,0:0:0:0:
448,192,97988,1,0,0:0:0:0:
192,192,98074,1,0,0:0:0:0:
448,192,98160,1,0,0:0:0:0:
320,192,98246,1,0,0:0:0:0:
320,192,98332,1,0,0:0:0:0:
192,192,98332,1,0,0:0:0:0:
448,192,98332,1,0,0:0:0:0:
192,192,98419,1,0,0:0:0:0:
448,192,98505,1,0,0:0:0:0:
320,192,98591,1,0,0:0:0:0:
448,192,98677,128,0,99281:0:0:0:0:
64,192,98677,1,0,0:0:0:0:
192,192,98763,1,0,0:0:0:0:
64,192,98850,1,0,0:0:0:0:
320,192,98936,1,0,0:0:0:0:
320,192,99022,1,0,0:0:0:0:
192,192,99022,1,0,0:0:0:0:
64,192,99022,1,0,0:0:0:0:
192,192,99108,1,0,0:0:0:0:
64,192,99194,1,0,0:0:0:0:
320,192,99281,1,0,0:0:0:0:
64,192,99367,1,0,0:0:0:0:
192,192,99367,1,0,0:0:0:0:
448,192,99453,1,0,0:0:0:0:
192,192,99539,1,0,0:0:0:0:
320,192,99625,1,0,0:0:0:0:
192,192,99712,1,0,0:0:0:0:
64,192,99712,1,0,0:0:0:0:
448,192,99712,1,0,0:0:0:0:
320,192,99798,1,0,0:0:0:0:
64,192,99884,1,0,0:0:0:0:
448,192,99970,1,0,0:0:0:0:
320,192,100057,1,0,0:0:0:0:
192,192,100143,1,0,0:0:0:0:
64,192,100229,1,0,0:0:0:0:
320,192,100229,1,0,0:0:0:0:
448,192,100315,1,0,0:0:0:0:
320,192,100401,1,0,0:0:0:0:
192,192,100401,1,0,0:0:0:0:
64,192,100401,1,0,0:0:0:0:
448,192,100488,1,0,0:0:0:0:
64,192,100574,1,0,0:0:0:0:
320,192,100660,1,0,0:0:0:0:
192,192,100746,1,0,0:0:0:0:
448,192,100746,1,0,0:0:0:0:
320,192,100832,1,0,0:0:0:0:
64,192,100919,1,0,0:0:0:0:
192,192,101005,1,0,0:0:0:0:
320,192,101091,1,0,0:0:0:0:
448,192,101091,1,0,0:0:0:0:
64,192,101091,1,0,0:0:0:0:
192,192,101177,1,0,0:0:0:0:
448,192,101263,1,0,0:0:0:0:
64,192,101350,1,0,0:0:0:0:
320,192,101436,1,0,0:0:0:0:
448,192,101522,1,0,0:0:0:0:
192,192,101608,1,0,0:0:0:0:
320,192,101608,1,0,0:0:0:0:
448,192,101694,1,0,0:0:0:0:
192,192,101781,1,0,0:0:0:0:
320,192,101781,1,0,0:0:0:0:
64,192,101781,1,0,0:0:0:0:
448,192,101867,1,0,0:0:0:0:
320,192,101953,1,0,0:0:0:0:
192,192,102039,1,0,0:0:0:0:
320,192,102125,128,0,102729:0:0:0:0:
64,192,102125,1,0,0:0:0:0:
448,192,102125,1,0,0:0:0:0:
192,192,102212,1,0,0:0:0:0:
448,192,102298,1,0,0:0:0:0:
64,192,102384,1,0,0:0:0:0:
192,192,102470,1,0,0:0:0:0:
64,192,102470,1,0,0:0:0:0:
448,192,102470,1,0,0:0:0:0:
448,192,102557,1,0,0:0:0:0:
192,192,102643,1,0,0:0:0:0:
64,192,102729,1,0,0:0:0:0:
192,192,102815,128,0,103419:0:0:0:0:
320,192,102815,1,0,0:0:0:0:
448,192,102901,1,0,0:0:0:0:
320,192,102988,1,0,0:0:0:0:
64,192,102988,1,0,0:0:0:0:
448,192,103074,1,0,0:0:0:0:
64,192,103160,1,0,0:0:0:0:
320,192,103160,1,0,0:0:0:0:
448,192,103160,1,0,0:0:0:0:
64,192,103246,1,0,0:0:0:0:
448,192,103332,1,0,0:0:0:0:
320,192,103419,1,0,0:0:0:0:
448,192,103505,128,0,104108:0:0:0:0:
192,192,103505,1,0,0:0:0:0:
64,192,103505,1,0,0:0:0:0:
320,192,103591,1,0,0:0:0:0:
64,192,103677,1,0,0:0:0:0:
192,192,103763,1,0,0:0:0:0:
192,192,103850,1,0,0:0:0:0:
320,192,103850,1,0,0:0:0:0:
64,192,103850,1,0,0:0:0:0:
320,192,103936,1,0,0:0:0:0:
64,192,104022,1,0,0:0:0:0:
192,192,104108,1,0,0:0:0:0:
64,192,104194,128,0,104798:0:0:0:0:
448,192,104194,1,0,0:0:0:0:
320,192,104281,1,0,0:0:0:0:
448,192,104367,1,0,0:0:0:0:
192,192,104453,1,0,0:0:0:0:
192,192,104539,1,0,0:0:0:0:
320,192,104539,1,0,0:0:0:0:
448,192,104539,1,0,0:0:0:0:
320,192,104625,1,0,0:0:0:0:
448,192,104712,1,0,0:0:0:0:
192,192,104798,1,0,0:0:0:0:
320,192,104884,1,0,0:0:0:0:
448,192,104884,1,0,0:0:0:0:
64,192,104970,1,0,0:0:0:0:
192,192,105057,1,0,0:0:0:0:
448,192,105143,1,0,0:0:0:0:
320,192,105229,1,0,0:0:0:0:
192,192,105229,1,0,0:0:0:0:
64,192,105229,1,0,0:0:0:0:
448,192,105315,1,0,0:0:0:0:
320,192,105401,1,0,0:0:0:0:
64,192,105488,1,0,0:0:0:0:
192,192,105574,1,0,0:0:0:0:
448,192,105660,1,0,0:0:0:0:
320,192,105746,1,0,0:0:0:0:
64,192,105746,1,0,0:0:0:0:
192,192,105832,1,0,0:0:0:0:
64,192,105919,1,0,0:0:0:0:
320,192,105919,1,0,0:0:0:0:
448,192,105919,1,0,0:0:0:0:
192,192,106005,1,0,0:0:0:0:
64,192,106091,1,0,0:0:0:0:
320,192,106177,1,0,0:0:0:0:
192,192,106263,1,0,0:0:0:0:
448,192,106263,1,0,0:0:0:0:
320,192,106350,1,0,0:0:0:0:
448,192,106436,1,0,0:0:0:0:
192,192,106522,1,0,0:0:0:0:
64,192,106608,1,0,0:0:0:0:
320,192,106608,1,0,0:0:0:0:
448,192,106608,1,0,0:0:0:0:
192,192,106694,1,0,0:0:0:0:
64,192,106781,1,0,0:0:0:0:
448,192,106867,1,0,0:0:0:0:
320,192,106953,1,0,0:0:0:0:
64,192,107039,1,0,0:0:0:0:
192,192,107125,1,0,0:0:0:0:
448,192,107125,1,0,0:0:0:0:
64,192,107212,1,0,0:0:0:0:
192,192,107298,1,0,0:0:0:0:
320,192,107298,1,0,0:0:0:0:
448,192,107298,1,0,0:0:0:0:
64,192,107384,1,0,0:0:0:0:
192,192,107470,1,0,0:0:0:0:
320,192,107557,1,0,0:0:0:0:
64,192,107643,1,0,0:0:0:0:
448,192,107643,1,0,0:0:0:0:
192,192,107643,128,0,108246:0:0:0:0:
320,192,107729,1,0,0:0:0:0:
64,192,107815,1,0,0:0:0:0:
448,192,107901,1,0,0:0:0:0:
64,192,107988,1,0,0:0:0:0:
448,192,107988,1,0,0:0:0:0:
320,192,107988,1,0,0:0:0:0:
64,192,108074,1,0,0:0:0:0:
320,192,108160,1,0,0:0:0:0:
448,192,108246,1,0,0:0:0:0:
192,192,108332,1,0,0:0:0:0:
320,192,108332,128,0,108936:0:0:0:0:
64,192,108419,1,0,0:0:0:0:
448,192,108505,1,0,0:0:0:0:
192,192,108505,1,0,0:0:0:0:
64,192,108591,1,0,0:0:0:0:
64,192,108677,1,0,0:0:0:0:
192,192,108677,1,0,0:0:0:0:
448,192,108677,1,0,0:0:0:0:
448,192,108763,1,0,0:0:0:0:
64,192,108850,1,0,0:0:0:0:
192,192,108936,1,0,0:0:0:0:
448,192,109022,1,0,0:0:0:0:
320,192,109022,1,0,0:0:0:0:
64,192,109022,1,0,0:0:0:0:
64,192,109194,1,0,0:0:0:0:
192,192,109194,1,0,0:0:0:0:
320,192,109194,1,0,0:0:0:0:
64,192,109367,1,0,0:0:0:0:
192,192,109367,1,0,0:0:0:0:
448,192,109367,1,0,0:0:0:0:
448,192,109539,1,0,0:0:0:0:
320,192,109539,1,0,0:0:0:0:
192,192,109539,1,0,0:0:0:0:
64,192,109712,1,0,0:0:0:0:
448,192,109712,1,0,0:0:0:0:
320,192,109712,1,0,0:0:0:0:
64,192,109884,1,0,0:0:0:0:
192,192,109884,1,0,0:0:0:0:
320,192,109884,1,0,0:0:0:0:
64,192,110057,1,0,0:0:0:0:
192,192,110057,1,0,0:0:0:0:
448,192,110057,1,0,0:0:0:0:
320,192,110057,1,0,0:0:0:0:
320,192,110401,128,0,110660:0:0:0:0:
64,192,110401,1,0,0:0:0:0:
448,192,110401,1,0,0:0:0:0:
192,192,110574,1,0,0:0:0:0:
320,192,110746,128,0,111005:0:0:0:0:
192,192,110746,1,0,0:0:0:0:
64,192,110746,1,0,0:0:0:0:
448,192,110746,1,0,0:0:0:0:
192,192,110919,1,0,0:0:0:0:
64,192,111005,1,0,0:0:0:0:
320,192,111091,128,0,111350:0:0:0:0:
448,192,111091,1,0,0:0:0:0:
192,192,111177,1,0,0:0:0:0:
64,192,111263,1,0,0:0:0:0:
448,192,111263,1,0,0:0:0:0:
320,192,111436,128,0,111694:0:0:0:0:
64,192,111436,1,0,0:0:0:0:
192,192,111436,1,0,0:0:0:0:
448,192,111436,1,0,0:0:0:0:
192,192,111608,1,0,0:0:0:0:
448,192,111694,1,0,0:0:0:0:
192,192,111781,128,0,112039:0:0:0:0:
64,192,111781,1,0,0:0:0:0:
320,192,111781,1,0,0:0:0:0:
320,192,111953,1,0,0:0:0:0:
192,192,112125,128,0,112384:0:0:0:0:
64,192,112125,1,0,0:0:0:0:
320,192,112125,1,0,0:0:0:0:
448,192,112125,1,0,0:0:0:0:
448,192,112298,1,0,0:0:0:0:
320,192,112384,1,0,0:0:0:0:
192,192,112470,128,0,112729:0:0:0:0:
64,192,112470,1,0,0:0:0:0:
320,192,112557,1,0,0:0:0:0:
64,192,112643,1,0,0:0:0:0:
448,192,112643,1,0,0:0:0:0:
192,192,112815,128,0,113074:0:0:0:0:
64,192,112815,1,0,0:0:0:0:
320,192,112815,1,0,0:0:0:0:
448,192,112815,1,0,0:0:0:0:
448,192,112988,1,0,0:0:0:0:
320,192,113074,1,0,0:0:0:0:
64,192,113160,128,0,113419:0:0:0:0:
192,192,113160,1,0,0:0:0:0:
448,192,113160,1,0,0:0:0:0:
320,192,113332,1,0,0:0:0:0:
64,192,113505,128,0,113763:0:0:0:0:
192,192,113505,1,0,0:0:0:0:
320,192,113505,1,0,0:0:0:0:
448,192,113505,1,0,0:0:0:0:
448,192,113677,1,0,0:0:0:0:
192,192,113763,1,0,0:0:0:0:
64,192,113850,128,0,114108:0:0:0:0:
448,192,113850,1,0,0:0:0:0:
320,192,113936,1,0,0:0:0:0:
192,192,114022,1,0,0:0:0:0:
448,192,114022,1,0,0:0:0:0:
64,192,114194,128,0,114453:0:0:0:0:
192,192,114194,1,0,0:0:0:0:
320,192,114194,1,0,0:0:0:0:
448,192,114194,1,0,0:0:0:0:
192,192,114367,1,0,0:0:0:0:
320,192,114453,1,0,0:0:0:0:
64,192,114539,128,0,114798:0:0:0:0:
448,192,114539,1,0,0:0:0:0:
192,192,114539,1,0,0:0:0:0:
320,192,114712,1,0,0:0:0:0:
64,192,114884,128,0,115143:0:0:0:0:
192,192,114884,1,0,0:0:0:0:
320,192,114884,1,0,0:0:0:0:
448,192,114884,1,0,0:0:0:0:
192,192,115057,1,0,0:0:0:0:
320,192,115143,1,0,0:0:0:0:
448,192,115229,128,0,115488:0:0:0:0:
64,192,115229,1,0,0:0:0:0:
192,192,115315,1,0,0:0:0:0:
64,192,115401,1,0,0:0:0:0:
320,192,115401,1,0,0:0:0:0:
448,192,115574,128,0,115832:0:0:0:0:
64,192,115574,1,0,0:0:0:0:
192,192,115574,1,0,0:0:0:0:
320,192,115574,1,0,0:0:0:0:
320,192,115746,1,0,0:0:0:0:
192,192,115832,1,0,0:0:0:0:
320,192,115919,128,0,116177:0:0:0:0:
64,192,115919,1,0,0:0:0:0:
448,192,115919,1,0,0:0:0:0:
192,192,116091,1,0,0:0:0:0:
320,192,116263,128,0,116522:0:0:0:0:
64,192,116263,1,0,0:0:0:0:
192,192,116263,1,0,0:0:0:0:
448,192,116263,1,0,0:0:0:0:
64,192,116436,1,0,0:0:0:0:
448,192,116522,1,0,0:0:0:0:
320,192,116608,128,0,116867:0:0:0:0:
192,192,116608,1,0,0:0:0:0:
448,192,116694,1,0,0:0:0:0:
192,192,116781,1,0,0:0:0:0:
64,192,116781,1,0,0:0:0:0:
320,192,116953,128,0,117212:0:0:0:0:
64,192,116953,1,0,0:0:0:0:
192,192,116953,1,0,0:0:0:0:
448,192,116953,1,0,0:0:0:0:
64,192,117125,1,0,0:0:0:0:
448,192,117212,1,0,0:0:0:0:
64,192,117298,128,0,117557:0:0:0:0:
192,192,117298,1,0,0:0:0:0:
320,192,117298,1,0,0:0:0:0:
448,192,117470,1,0,0:0:0:0:
64,192,117643,128,0,117901:0:0:0:0:
192,192,117643,1,0,0:0:0:0:
320,192,117643,1,0,0:0:0:0:
448,192,117643,1,0,0:0:0:0:
320,192,117815,1,0,0:0:0:0:
448,192,117901,1,0,0:0:0:0:
64,192,117988,128,0,118246:0:0:0:0:
192,192,117988,1,0,0:0:0:0:
320,192,118074,1,0,0:0:0:0:
192,192,118160,1,0,0:0:0:0:
448,192,118160,1,0,0:0:0:0:
64,192,118332,128,0,118591:0:0:0:0:
192,192,118332,1,0,0:0:0:0:
320,192,118332,1,0,0:0:0:0:
448,192,118332,1,0,0:0:0:0:
448,192,118505,1,0,0:0:0:0:
320,192,118591,1,0,0:0:0:0:
192,192,118677,128,0,118936:0:0:0:0:
64,192,118677,1,0,0:0:0:0:
448,192,118677,1,0,0:0:0:0:
320,192,118850,1,0,0:0:0:0:
192,192,119022,128,0,119281:0:0:0:0:
448,192,119022,1,0,0:0:0:0:
320,192,119022,1,0,0:0:0:0:
64,192,119022,1,0,0:0:0:0:
64,192,119194,1,0,0:0:0:0:
448,192,119281,1,0,0:0:0:0:
192,192,119367,128,0,119625:0:0:0:0:
320,192,119367,1,0,0:0:0:0:
64,192,119453,1,0,0:0:0:0:
320,192,119539,1,0,0:0:0:0:
448,192,119539,1,0,0:0:0:0:
192,192,119712,128,0,119970:0:0:0:0:
64,192,119712,1,0,0:0:0:0:
320,192,119712,1,0,0:0:0:0:
448,192,119712,1,0,0:0:0:0:
448,192,119884,1,0,0:0:0:0:
64,192,119970,1,0,0:0:0:0:
192,192,120057,128,0,120315:0:0:0:0:
320,192,120057,1,0,0:0:0:0:
448,192,120057,1,0,0:0:0:0:
64,192,120229,1,0,0:0:0:0:
192,192,120401,128,0,120660:0:0:0:0:
64,192,120401,1,0,0:0:0:0:
320,192,120401,1,0,0:0:0:0:
448,192,120401,1,0,0:0:0:0:
320,192,120574,1,0,0:0:0:0:
64,192,120660,1,0,0:0:0:0:
448,192,120746,128,0,121005:0:0:0:0:
320,192,120746,1,0,0:0:0:0:
192,192,120832,1,0,0:0:0:0:
64,192,120919,1,0,0:0:0:0:
320,192,120919,1,0,0:0:0:0:
448,192,121091,128,0,121350:0:0:0:0:
64,192,121091,1,0,0:0:0:0:
192,192,121091,1,0,0:0:0:0:
320,192,121091,1,0,0:0:0:0:
64,192,121263,1,0,0:0:0:0:
192,192,121350,1,0,0:0:0:0:
320,192,121436,128,0,121694:0:0:0:0:
64,192,121436,1,0,0:0:0:0:
448,192,121436,1,0,0:0:0:0:
192,192,121608,1,0,0:0:0:0:
320,192,121781,128,0,122039:0:0:0:0:
64,192,121781,1,0,0:0:0:0:
192,192,121781,1,0,0:0:0:0:
448,192,121781,1,0,0:0:0:0:
448,192,121953,1,0,0:0:0:0:
64,192,122039,1,0,0:0:0:0:
320,192,122125,128,0,122384:0:0:0:0:
192,192,122125,1,0,0:0:0:0:
64,192,122212,1,0,0:0:0:0:
448,192,122298,1,0,0:0:0:0:
192,192,122298,1,0,0:0:0:0:
320,192,122470,128,0,122729:0:0:0:0:
64,192,122470,1,0,0:0:0:0:
192,192,122470,1,0,0:0:0:0:
448,192,122470,1,0,0:0:0:0:
448,192,122643,1,0,0:0:0:0:
64,192,122729,1,0,0:0:0:0:
192,192,122815,128,0,123074:0:0:0:0:
320,192,122815,1,0,0:0:0:0:
448,192,122815,1,0,0:0:0:0:
64,192,122988,1,0,0:0:0:0:
192,192,123160,128,0,123419:0:0:0:0:
64,192,123160,1,0,0:0:0:0:
320,192,123160,1,0,0:0:0:0:
448,192,123160,1,0,0:0:0:0:
448,192,123332,1,0,0:0:0:0:
320,192,123419,1,0,0:0:0:0:
192,192,123505,128,0,123763:0:0:0:0:
64,192,123505,1,0,0:0:0:0:
320,192,123591,1,0,0:0:0:0:
64,192,123677,1,0,0:0:0:0:
448,192,123677,1,0,0:0:0:0:
192,192,123850,128,0,124108:0:0:0:0:
64,192,123850,1,0,0:0:0:0:
320,192,123850,1,0,0:0:0:0:
448,192,123850,1,0,0:0:0:0:
64,192,124022,1,0,0:0:0:0:
320,192,124108,1,0,0:0:0:0:
64,192,124194,128,0,124453:0:0:0:0:
192,192,124194,1,0,0:0:0:0:
448,192,124194,1,0,0:0:0:0:
320,192,124367,1,0,0:0:0:0:
64,192,124539,128,0,124798:0:0:0:0:
192,192,124539,1,0,0:0:0:0:
320,192,124539,1,0,0:0:0:0:
448,192,124539,1,0,0:0:0:0:
448,192,124712,1,0,0:0:0:0:
192,192,124798,1,0,0:0:0:0:
64,192,124884,128,0,125143:0:0:0:0:
448,192,124884,1,0,0:0:0:0:
320,192,124970,1,0,0:0:0:0:
192,192,125057,1,0,0:0:0:0:
448,192,125057,1,0,0:0:0:0:
64,192,125229,128,0,125488:0:0:0:0:
192,192,125229,1,0,0:0:0:0:
320,192,125229,1,0,0:0:0:0:
448,192,125229,1,0,0:0:0:0:
448,192,125401,1,0,0:0:0:0:
320,192,125488,1,0,0:0:0:0:
64,192,125574,128,0,125832:0:0:0:0:
192,192,125574,1,0,0:0:0:0:
448,192,125574,1,0,0:0:0:0:
320,192,125746,1,0,0:0:0:0:
64,192,125919,128,0,126177:0:0:0:0:
192,192,125919,1,0,0:0:0:0:
320,192,125919,1,0,0:0:0:0:
448,192,125919,1,0,0:0:0:0:
192,192,126091,1,0,0:0:0:0:
448,192,126177,1,0,0:0:0:0:
64,192,126263,128,0,126522:0:0:0:0:
320,192,126263,1,0,0:0:0:0:
192,192,126350,1,0,0:0:0:0:
448,192,126436,1,0,0:0:0:0:
320,192,126436,1,0,0:0:0:0:
64,192,126608,128,0,126867:0:0:0:0:
192,192,126608,1,0,0:0:0:0:
320,192,126608,1,0,0:0:0:0:
448,192,126608,1,0,0:0:0:0:
448,192,126781,1,0,0:0:0:0:
192,192,126867,1,0,0:0:0:0:
320,192,126953,128,0,127212:0:0:0:0:
64,192,126953,1,0,0:0:0:0:
448,192,126953,1,0,0:0:0:0:
192,192,127125,1,0,0:0:0:0:
320,192,127298,128,0,127557:0:0:0:0:
64,192,127298,1,0,0:0:0:0:
192,192,127298,1,0,0:0:0:0:
448,192,127298,1,0,0:0:0:0:
448,192,127470,1,0,0:0:0:0:
192,192,127557,1,0,0:0:0:0:
320,192,127643,128,0,127901:0:0:0:0:
64,192,127643,1,0,0:0:0:0:
192,192,127729,1,0,0:0:0:0:
448,192,127815,1,0,0:0:0:0:
64,192,127815,1,0,0:0:0:0:
320,192,127988,128,0,128246:0:0:0:0:
192,192,127988,1,0,0:0:0:0:
64,192,127988,1,0,0:0:0:0:
448,192,127988,1,0,0:0:0:0:
64,192,128160,1,0,0:0:0:0:
192,192,128246,1,0,0:0:0:0:
320,192,128332,128,0,128591:0:0:0:0:
64,192,128332,1,0,0:0:0:0:
448,192,128332,1,0,0:0:0:0:
192,192,128505,1,0,0:0:0:0:
320,192,128677,128,0,128936:0:0:0:0:
64,192,128677,1,0,0:0:0:0:
192,192,128677,1,0,0:0:0:0:
448,192,128677,1,0,0:0:0:0:
64,192,128850,1,0,0:0:0:0:
448,192,128936,1,0,0:0:0:0:
320,192,129022,128,0,129281:0:0:0:0:
192,192,129022,1,0,0:0:0:0:
64,192,129108,1,0,0:0:0:0:
192,192,129194,1,0,0:0:0:0:
448,192,129194,1,0,0:0:0:0:
320,192,129367,128,0,129625:0:0:0:0:
64,192,129367,1,0,0:0:0:0:
192,192,129367,1,0,0:0:0:0:
448,192,129367,1,0,0:0:0:0:
192,192,129539,1,0,0:0:0:0:
64,192,129625,1,0,0:0:0:0:
448,192,129712,128,0,129970:0:0:0:0:
192,192,129712,1,0,0:0:0:0:
320,192,129712,1,0,0:0:0:0:
448,192,130057,128,0,130315:0:0:0:0:
64,192,130057,1,0,0:0:0:0:
192,192,130057,1,0,0:0:0:0:
320,192,130057,1,0,0:0:0:0:
64,192,130229,1,0,0:0:0:0:
448,192,130401,128,0,130660:0:0:0:0:
192,192,130401,1,0,0:0:0:0:
64,192,130574,1,0,0:0:0:0:
320,192,130574,1,0,0:0:0:0:
448,192,130746,128,0,131005:0:0:0:0:
64,192,130746,1,0,0:0:0:0:
192,192,130746,1,0,0:0:0:0:
320,192,130746,1,0,0:0:0:0:
192,192,130919,1,0,0:0:0:0:
320,192,131091,1,0,0:0:0:0:
448,192,131091,1,0,0:0:0:0:
64,192,131091,1,0,0:0:0:0:
64,192,131263,1,0,0:0:0:0:
192,192,131263,1,0,0:0:0:0:
320,192,131263,1,0,0:0:0:0:
64,192,131436,1,0,0:0:0:0:
192,192,131436,1,0,0:0:0:0:
448,192,131436,1,0,0:0:0:0:
448,192,131608,1,0,0:0:0:0:
320,192,131608,1,0,0:0:0:0:
192,192,131608,1,0,0:0:0:0:
64,192,131781,1,0,0:0:0:0:
320,192,131781,1,0,0:0:0:0:
448,192,131781,1,0,0:0:0:0:
320,192,131953,1,0,0:0:0:0:
192,192,131953,1,0,0:0:0:0:
64,192,131953,1,0,0:0:0:0:
320,192,132470,128,0,133591:0:0:0:0:
448,192,132470,1,0,0:0:0:0:
64,192,132470,1,0,0:0:0:0:
192,192,132643,1,0,0:0:0:0:
192,192,132815,1,0,0:0:0:0:
64,192,132815,1,0,0:0:0:0:
448,192,132815,1,0,0:0:0:0:
64,192,132988,1,0,0:0:0:0:
448,192,133074,1,0,0:0:0:0:
192,192,133160,1,0,0:0:0:0:
64,192,133246,1,0,0:0:0:0:
192,192,133332,1,0,0:0:0:0:
448,192,133332,1,0,0:0:0:0:
64,192,133505,1,0,0:0:0:0:
192,192,133505,1,0,0:0:0:0:
448,192,133505,1,0,0:0:0:0:
448,192,133677,128,0,133763:0:0:0:0:
192,192,133677,1,0,0:0:0:0:
320,192,133763,1,0,0:0:0:0:
64,192,133850,128,0,135143:0:0:0:0:
448,192,133850,1,0,0:0:0:0:
192,192,133850,1,0,0:0:0:0:
320,192,134022,1,0,0:0:0:0:
192,192,134194,1,0,0:0:0:0:
320,192,134194,1,0,0:0:0:0:
448,192,134194,1,0,0:0:0:0:
192,192,134367,1,0,0:0:0:0:
448,192,134453,1,0,0:0:0:0:
320,192,134539,1,0,0:0:0:0:
448,192,134625,1,0,0:0:0:0:
192,192,134712,1,0,0:0:0:0:
320,192,134712,1,0,0:0:0:0:
320,192,134884,1,0,0:0:0:0:
448,192,134884,1,0,0:0:0:0:
192,192,134884,1,0,0:0:0:0:
448,192,135057,1,0,0:0:0:0:
320,192,135143,1,0,0:0:0:0:
192,192,135229,128,0,136608:0:0:0:0:
64,192,135229,1,0,0:0:0:0:
448,192,135229,1,0,0:0:0:0:
320,192,135401,1,0,0:0:0:0:
64,192,135574,1,0,0:0:0:0:
320,192,135574,1,0,0:0:0:0:
448,192,135574,1,0,0:0:0:0:
64,192,135746,1,0,0:0:0:0:
320,192,135832,1,0,0:0:0:0:
448,192,135919,1,0,0:0:0:0:
320,192,136005,1,0,0:0:0:0:
64,192,136091,1,0,0:0:0:0:
448,192,136091,1,0,0:0:0:0:
64,192,136263,1,0,0:0:0:0:
320,192,136263,1,0,0:0:0:0:
448,192,136263,1,0,0:0:0:0:
320,192,136436,1,0,0:0:0:0:
64,192,136522,1,0,0:0:0:0:
448,192,136608,1,0,0:0:0:0:
320,192,136608,1,0,0:0:0:0:
64,192,136781,1,0,0:0:0:0:
320,192,136867,128,0,137039:0:0:0:0:
192,192,136953,1,0,0:0:0:0:
64,192,136953,1,0,0:0:0:0:
448,192,136953,1,0,0:0:0:0:
64,192,137125,128,0,137470:0:0:0:0:
448,192,137125,1,0,0:0:0:0:
320,192,137212,1,0,0:0:0:0:
192,192,137298,1,0,0:0:0:0:
320,192,137384,1,0,0:0:0:0:
192,192,137470,1,0,0:0:0:0:
448,192,137470,1,0,0:0:0:0:
192,192,137643,128,0,137901:0:0:0:0:
64,192,137643,1,0,0:0:0:0:
320,192,137643,1,0,0:0:0:0:
448,192,137643,1,0,0:0:0:0:
64,192,137815,1,0,0:0:0:0:
448,192,137901,1,0,0:0:0:0:
320,192,137988,128,0,139108:0:0:0:0:
192,192,137988,1,0,0:0:0:0:
64,192,137988,1,0,0:0:0:0:
448,192,138160,1,0,0:0:0:0:
192,192,138332,1,0,0:0:0:0:
64,192,138332,1,0,0:0:0:0:
448,192,138332,1,0,0:0:0:0:
64,192,138505,1,0,0:0:0:0:
192,192,138591,1,0,0:0:0:0:
448,192,138677,1,0,0:0:0:0:
192,192,138763,1,0,0:0:0:0:
64,192,138850,1,0,0:0:0:0:
448,192,138850,1,0,0:0:0:0:
64,192,139022,1,0,0:0:0:0:
192,192,139022,1,0,0:0:0:0:
448,192,139022,1,0,0:0:0:0:
448,192,139194,128,0,139281:0:0:0:0:
64,192,139194,1,0,0:0:0:0:
192,192,139281,1,0,0:0:0:0:
64,192,139367,128,0,140660:0:0:0:0:
320,192,139367,1,0,0:0:0:0:
448,192,139367,1,0,0:0:0:0:
192,192,139539,1,0,0:0:0:0:
192,192,139712,1,0,0:0:0:0:
320,192,139712,1,0,0:0:0:0:
448,192,139712,1,0,0:0:0:0:
448,192,139884,1,0,0:0:0:0:
320,192,139970,1,0,0:0:0:0:
192,192,140057,1,0,0:0:0:0:
320,192,140143,1,0,0:0:0:0:
192,192,140229,1,0,0:0:0:0:
448,192,140229,1,0,0:0:0:0:
192,192,140401,1,0,0:0:0:0:
320,192,140401,1,0,0:0:0:0:
448,192,140401,1,0,0:0:0:0:
320,192,140574,1,0,0:0:0:0:
448,192,140660,1,0,0:0:0:0:
192,192,140746,128,0,142125:0:0:0:0:
320,192,140746,1,0,0:0:0:0:
64,192,140746,1,0,0:0:0:0:
448,192,140919,1,0,0:0:0:0:
448,192,141091,1,0,0:0:0:0:
320,192,141091,1,0,0:0:0:0:
64,192,141091,1,0,0:0:0:0:
64,192,141263,1,0,0:0:0:0:
448,192,141350,1,0,0:0:0:0:
320,192,141436,1,0,0:0:0:0:
448,192,141522,1,0,0:0:0:0:
64,192,141608,1,0,0:0:0:0:
320,192,141608,1,0,0:0:0:0:
64,192,141781,1,0,0:0:0:0:
320,192,141781,1,0,0:0:0:0:
448,192,141781,1,0,0:0:0:0:
448,192,141953,1,0,0:0:0:0:
320,192,142039,1,0,0:0:0:0:
448,192,142125,1,0,0:0:0:0:
64,192,142125,1,0,0:0:0:0:
192,192,142298,128,0,142557:0:0:0:0:
320,192,142298,1,0,0:0:0:0:
448,192,142470,1,0,0:0:0:0:
320,192,142470,1,0,0:0:0:0:
64,192,142470,1,0,0:0:0:0:
320,192,142643,128,0,143074:0:0:0:0:
64,192,142643,1,0,0:0:0:0:
192,192,142729,1,0,0:0:0:0:
448,192,142815,1,0,0:0:0:0:
192,192,142901,1,0,0:0:0:0:
64,192,142988,1,0,0:0:0:0:
448,192,142988,1,0,0:0:0:0:
448,192,143160,128,0,143419:0:0:0:0:
64,192,143160,1,0,0:0:0:0:
192,192,143160,1,0,0:0:0:0:
320,192,143160,1,0,0:0:0:0:
192,192,143332,1,0,0:0:0:0:
320,192,143419,1,0,0:0:0:0:
192,192,143505,128,0,144625:0:0:0:0:
64,192,143505,1,0,0:0:0:0:
448,192,143505,1,0,0:0:0:0:
320,192,143677,1,0,0:0:0:0:
320,192,143850,1,0,0:0:0:0:
448,192,143850,1,0,0:0:0:0:
64,192,143850,1,0,0:0:0:0:
448,192,144022,1,0,0:0:0:0:
64,192,144108,1,0,0:0:0:0:
320,192,144194,1,0,0:0:0:0:
448,192,144281,1,0,0:0:0:0:
320,192,144367,1,0,0:0:0:0:
64,192,144367,1,0,0:0:0:0:
448,192,144539,1,0,0:0:0:0:
320,192,144539,1,0,0:0:0:0:
64,192,144539,1,0,0:0:0:0:
64,192,144712,128,0,144798:0:0:0:0:
320,192,144712,1,0,0:0:0:0:
192,192,144798,1,0,0:0:0:0:
448,192,144884,128,0,146177:0:0:0:0:
64,192,144884,1,0,0:0:0:0:
320,192,144884,1,0,0:0:0:0:
192,192,145057,1,0,0:0:0:0:
320,192,145229,1,0,0:0:0:0:
192,192,145229,1,0,0:0:0:0:
64,192,145229,1,0,0:0:0:0:
320,192,145401,1,0,0:0:0:0:
64,192,145488,1,0,0:0:0:0:
192,192,145574,1,0,0:0:0:0:
64,192,145660,1,0,0:0:0:0:
320,192,145746,1,0,0:0:0:0:
192,192,145746,1,0,0:0:0:0:
192,192,145919,1,0,0:0:0:0:
64,192,145919,1,0,0:0:0:0:
320,192,145919,1,0,0:0:0:0:
64,192,146091,1,0,0:0:0:0:
192,192,146177,1,0,0:0:0:0:
320,192,146263,128,0,147643:0:0:0:0:
448,192,146263,1,0,0:0:0:0:
64,192,146263,1,0,0:0:0:0:
192,192,146436,1,0,0:0:0:0:
448,192,146608,1,0,0:0:0:0:
192,192,146608,1,0,0:0:0:0:
64,192,146608,1,0,0:0:0:0:
448,192,146781,1,0,0:0:0:0:
192,192,146867,1,0,0:0:0:0:
64,192,146953,1,0,0:0:0:0:
192,192,147039,1,0,0:0:0:0:
448,192,147125,1,0,0:0:0:0:
64,192,147125,1,0,0:0:0:0:
448,192,147298,1,0,0:0:0:0:
192,192,147298,1,0,0:0:0:0:
64,192,147298,1,0,0:0:0:0:
192,192,147470,1,0,0:0:0:0:
448,192,147557,1,0,0:0:0:0:
64,192,147643,1,0,0:0:0:0:
192,192,147643,1,0,0:0:0:0:
448,192,147815,1,0,0:0:0:0:
192,192,147901,128,0,148074:0:0:0:0:
320,192,147988,1,0,0:0:0:0:
448,192,147988,1,0,0:0:0:0:
64,192,147988,1,0,0:0:0:0:
448,192,148160,128,0,148505:0:0:0:0:
64,192,148160,1,0,0:0:0:0:
192,192,148246,1,0,0:0:0:0:
320,192,148332,1,0,0:0:0:0:
192,192,148419,1,0,0:0:0:0:
320,192,148505,1,0,0:0:0:0:
64,192,148505,1,0,0:0:0:0:
320,192,148677,128,0,148936:0:0:0:0:
448,192,148677,1,0,0:0:0:0:
192,192,148677,1,0,0:0:0:0:
64,192,148677,1,0,0:0:0:0:
448,192,148850,1,0,0:0:0:0:
64,192,148936,1,0,0:0:0:0:
192,192,149022,128,0,150143:0:0:0:0:
320,192,149022,1,0,0:0:0:0:
448,192,149022,1,0,0:0:0:0:
64,192,149194,1,0,0:0:0:0:
320,192,149367,1,0,0:0:0:0:
448,192,149367,1,0,0:0:0:0:
64,192,149367,1,0,0:0:0:0:
448,192,149539,1,0,0:0:0:0:
320,192,149625,1,0,0:0:0:0:
64,192,149712,1,0,0:0:0:0:
320,192,149798,1,0,0:0:0:0:
448,192,149884,1,0,0:0:0:0:
64,192,149884,1,0,0:0:0:0:
448,192,150057,1,0,0:0:0:0:
320,192,150057,1,0,0:0:0:0:
64,192,150057,1,0,0:0:0:0:
64,192,150229,128,0,150315:0:0:0:0:
448,192,150229,1,0,0:0:0:0:
320,192,150315,1,0,0:0:0:0:
448,192,150401,128,0,151694:0:0:0:0:
192,192,150401,1,0,0:0:0:0:
64,192,150401,1,0,0:0:0:0:
320,192,150574,1,0,0:0:0:0:
320,192,150746,1,0,0:0:0:0:
192,192,150746,1,0,0:0:0:0:
64,192,150746,1,0,0:0:0:0:
64,192,150919,1,0,0:0:0:0:
192,192,151005,1,0,0:0:0:0:
320,192,151091,1,0,0:0:0:0:
192,192,151177,1,0,0:0:0:0:
320,192,151263,1,0,0:0:0:0:
64,192,151263,1,0,0:0:0:0:
320,192,151436,1,0,0:0:0:0:
192,192,151436,1,0,0:0:0:0:
64,192,151436,1,0,0:0:0:0:
192,192,151608,1,0,0:0:0:0:
64,192,151694,1,0,0:0:0:0:
320,192,151781,128,0,153160:0:0:0:0:
192,192,151781,1,0,0:0:0:0:
448,192,151781,1,0,0:0:0:0:
64,192,151953,1,0,0:0:0:0:
64,192,152125,1,0,0:0:0:0:
192,192,152125,1,0,0:0:0:0:
448,192,152125,1,0,0:0:0:0:
448,192,152298,1,0,0:0:0:0:
64,192,152384,1,0,0:0:0:0:
192,192,152470,1,0,0:0:0:0:
64,192,152557,1,0,0:0:0:0:
448,192,152643,1,0,0:0:0:0:
192,192,152643,1,0,0:0:0:0:
448,192,152815,1,0,0:0:0:0:
192,192,152815,1,0,0:0:0:0:
64,192,152815,1,0,0:0:0:0:
64,192,152988,1,0,0:0:0:0:
192,192,153074,1,0,0:0:0:0:
64,192,153160,1,0,0:0:0:0:
448,192,153160,1,0,0:0:0:0:
320,192,153332,128,0,153591:0:0:0:0:
192,192,153332,1,0,0:0:0:0:
64,192,153505,1,0,0:0:0:0:
192,192,153505,1,0,0:0:0:0:
448,192,153505,1,0,0:0:0:0:
192,192,153677,128,0,154108:0:0:0:0:
448,192,153677,1,0,0:0:0:0:
320,192,153763,1,0,0:0:0:0:
64,192,153850,1,0,0:0:0:0:
320,192,153936,1,0,0:0:0:0:
448,192,154022,1,0,0:0:0:0:
64,192,154022,1,0,0:0:0:0:
64,192,154194,128,0,154453:0:0:0:0:
448,192,154194,1,0,0:0:0:0:
320,192,154194,1,0,0:0:0:0:
192,192,154194,1,0,0:0:0:0:
320,192,154367,1,0,0:0:0:0:
192,192,154453,1,0,0:0:0:0:
448,192,154539,128,0,157298:0:0:0:0:
320,192,154539,128,0,155919:0:0:0:0:
64,192,155919,128,0,159712:0:0:0:0:
192,192,157298,128,0,159712:0:0:0:0:
320,192,160057,128,0,162815:0:0:0:0:
448,192,160057,128,0,161436:0:0:0:0:
192,192,161436,128,0,165229:0:0:0:0:
64,192,162815,128,0,165229:0:0:0:0:
64,192,165574,128,0,166953:0:0:0:0:
448,192,165574,128,0,168332:0:0:0:0:
320,192,166953,128,0,170746:0:0:0:0:
192,192,168332,128,0,170746:0:0:0:0:
192,192,171091,128,0,172470:0:0:0:0:
320,192,171091,128,0,173850:0:0:0:0:
64,192,172470,128,0,176263:0:0:0:0:
448,192,173850,128,0,176263:0:0:0:0:
192,192,173850,128,0,176263:0:0:0:0:
320,192,176608,1,0,0:0:0:0:
448,192,176608,1,0,0:0:0:0:
64,192,176608,128,0,177470:0:0:0:0:
192,192,176953,1,0,0:0:0:0:
320,192,176953,1,0,0:0:0:0:
448,192,176953,1,0,0:0:0:0:
448,192,177470,128,0,177988:0:0:0:0:
320,192,177470,1,0,0:0:0:0:
192,192,177470,1,0,0:0:0:0:
64,192,177643,1,0,0:0:0:0:
192,192,177643,1,0,0:0:0:0:
320,192,177643,1,0,0:0:0:0:
320,192,177988,128,0,179367:0:0:0:0:
192,192,177988,1,0,0:0:0:0:
64,192,177988,1,0,0:0:0:0:
192,192,178332,1,0,0:0:0:0:
64,192,178332,1,0,0:0:0:0:
448,192,178332,1,0,0:0:0:0:
64,192,178850,1,0,0:0:0:0:
448,192,178850,1,0,0:0:0:0:
192,192,179022,1,0,0:0:0:0:
64,192,179022,1,0,0:0:0:0:
448,192,179022,1,0,0:0:0:0:
192,192,179367,128,0,181436:0:0:0:0:
448,192,179367,1,0,0:0:0:0:
64,192,179367,1,0,0:0:0:0:
448,192,179712,1,0,0:0:0:0:
320,192,179712,1,0,0:0:0:0:
64,192,179712,1,0,0:0:0:0:
320,192,180229,1,0,0:0:0:0:
64,192,180229,1,0,0:0:0:0:
64,192,180401,1,0,0:0:0:0:
320,192,180401,1,0,0:0:0:0:
448,192,180401,1,0,0:0:0:0:
448,192,180746,1,0,0:0:0:0:
64,192,180746,1,0,0:0:0:0:
64,192,181091,1,0,0:0:0:0:
320,192,181091,1,0,0:0:0:0:
448,192,181091,1,0,0:0:0:0:
448,192,181436,128,0,182125:0:0:0:0:
320,192,181608,1,0,0:0:0:0:
64,192,181608,1,0,0:0:0:0:
64,192,181781,1,0,0:0:0:0:
192,192,181781,1,0,0:0:0:0:
320,192,181781,1,0,0:0:0:0:
64,192,182125,128,0,183505:0:0:0:0:
192,192,182125,1,0,0:0:0:0:
320,192,182125,1,0,0:0:0:0:
448,192,182470,1,0,0:0:0:0:
320,192,182470,1,0,0:0:0:0:
192,192,182470,1,0,0:0:0:0:
192,192,182988,1,0,0:0:0:0:
448,192,182988,1,0,0:0:0:0:
448,192,183160,1,0,0:0:0:0:
320,192,183160,1,0,0:0:0:0:
192,192,183160,1,0,0:0:0:0:
192,192,183505,128,0,184884:0:0:0:0:
448,192,183505,1,0,0:0:0:0:
320,192,183505,1,0,0:0:0:0:
64,192,183850,1,0,0:0:0:0:
320,192,183850,1,0,0:0:0:0:
448,192,183850,1,0,0:0:0:0:
448,192,184367,1,0,0:0:0:0:
64,192,184367,1,0,0:0:0:0:
64,192,184539,1,0,0:0:0:0:
320,192,184539,1,0,0:0:0:0:
448,192,184539,1,0,0:0:0:0:
320,192,184884,128,0,186263:0:0:0:0:
64,192,184884,1,0,0:0:0:0:
448,192,184884,1,0,0:0:0:0:
192,192,185229,1,0,0:0:0:0:
64,192,185229,1,0,0:0:0:0:
448,192,185229,1,0,0:0:0:0:
192,192,185746,1,0,0:0:0:0:
448,192,185746,1,0,0:0:0:0:
192,192,185919,1,0,0:0:0:0:
64,192,185919,1,0,0:0:0:0:
448,192,185919,1,0,0:0:0:0:
448,192,186263,128,0,186953:0:0:0:0:
192,192,186263,1,0,0:0:0:0:
64,192,186263,1,0,0:0:0:0:
64,192,186608,1,0,0:0:0:0:
192,192,186608,1,0,0:0:0:0:
320,192,186608,1,0,0:0:0:0:
64,192,186953,128,0,187643:0:0:0:0:
192,192,187125,1,0,0:0:0:0:
320,192,187125,1,0,0:0:0:0:
448,192,187298,1,0,0:0:0:0:
320,192,187298,1,0,0:0:0:0:
192,192,187298,1,0,0:0:0:0:
192,192,187643,1,0,0:0:0:0:
448,192,187643,128,0,188505:0:0:0:0:
320,192,187643,1,0,0:0:0:0:
320,192,187988,1,0,0:0:0:0:
192,192,187988,1,0,0:0:0:0:
64,192,187988,1,0,0:0:0:0:
64,192,188505,128,0,189022:0:0:0:0:
192,192,188505,1,0,0:0:0:0:
320,192,188505,1,0,0:0:0:0:
448,192,188677,1,0,0:0:0:0:
320,192,188677,1,0,0:0:0:0:
192,192,188677,1,0,0:0:0:0:
192,192,189022,128,0,190401:0:0:0:0:
320,192,189022,1,0,0:0:0:0:
448,192,189022,1,0,0:0:0:0:
320,192,189367,1,0,0:0:0:0:
448,192,189367,1,0,0:0:0:0:
64,192,189367,1,0,0:0:0:0:
448,192,189884,1,0,0:0:0:0:
64,192,189884,1,0,0:0:0:0:
320,192,190057,1,0,0:0:0:0:
448,192,190057,1,0,0:0:0:0:
64,192,190057,1,0,0:0:0:0:
320,192,190401,128,0,192470:0:0:0:0:
64,192,190401,1,0,0:0:0:0:
448,192,190401,1,0,0:0:0:0:
64,192,190746,1,0,0:0:0:0:
192,192,190746,1,0,0:0:0:0:
448,192,190746,1,0,0:0:0:0:
192,192,191263,1,0,0:0:0:0:
448,192,191263,1,0,0:0:0:0:
448,192,191436,1,0,0:0:0:0:
192,192,191436,1,0,0:0:0:0:
64,192,191436,1,0,0:0:0:0:
64,192,191781,1,0,0:0:0:0:
448,192,191781,1,0,0:0:0:0:
448,192,192125,1,0,0:0:0:0:
192,192,192125,1,0,0:0:0:0:
64,192,192125,1,0,0:0:0:0:
64,192,192470,128,0,193160:0:0:0:0:
192,192,192643,1,0,0:0:0:0:
448,192,192643,1,0,0:0:0:0:
448,192,192815,1,0,0:0:0:0:
320,192,192815,1,0,0:0:0:0:
192,192,192815,1,0,0:0:0:0:
320,192,193160,1,0,0:0:0:0:
192,192,193160,1,0,0:0:0:0:
448,192,193160,1,0,0:0:0:0:
64,192,193332,1,0,0:0:0:0:
320,192,193332,1,0,0:0:0:0:
448,192,193505,1,0,0:0:0:0:
192,192,193505,1,0,0:0:0:0:
64,192,193505,1,0,0:0:0:0:
320,192,193677,1,0,0:0:0:0:
448,192,193677,1,0,0:0:0:0:
320,192,193850,1,0,0:0:0:0:
192,192,193850,1,0,0:0:0:0:
64,192,193850,1,0,0:0:0:0:
448,192,194022,1,0,0:0:0:0:
192,192,194022,1,0,0:0:0:0:
320,192,194194,1,0,0:0:0:0:
448,192,194194,1,0,0:0:0:0:
64,192,194194,1,0,0:0:0:0:
192,192,194367,1,0,0:0:0:0:
320,192,194367,1,0,0:0:0:0:
448,192,194539,1,0,0:0:0:0:
192,192,194539,1,0,0:0:0:0:
64,192,194539,1,0,0:0:0:0:
320,192,194712,1,0,0:0:0:0:
64,192,194712,1,0,0:0:0:0:
192,192,194884,1,0,0:0:0:0:
320,192,194884,1,0,0:0:0:0:
448,192,194884,1,0,0:0:0:0:
64,192,195057,1,0,0:0:0:0:
320,192,195057,1,0,0:0:0:0:
448,192,195229,1,0,0:0:0:0:
192,192,195229,1,0,0:0:0:0:
64,192,195229,1,0,0:0:0:0:
320,192,195401,1,0,0:0:0:0:
448,192,195401,1,0,0:0:0:0:
320,192,195574,1,0,0:0:0:0:
192,192,195574,1,0,0:0:0:0:
64,192,195574,1,0,0:0:0:0:
448,192,195746,1,0,0:0:0:0:
192,192,195746,1,0,0:0:0:0:
320,192,195919,1,0,0:0:0:0:
448,192,195919,1,0,0:0:0:0:
64,192,195919,1,0,0:0:0:0:
192,192,196005,1,0,0:0:0:0:
448,192,196091,1,0,0:0:0:0:
64,192,196091,1,0,0:0:0:0:
320,192,196177,1,0,0:0:0:0:
448,192,196263,1,0,0:0:0:0:
192,192,196263,1,0,0:0:0:0:
64,192,196263,1,0,0:0:0:0:
320,192,196350,1,0,0:0:0:0:
448,192,196436,1,0,0:0:0:0:
64,192,196436,1,0,0:0:0:0:
192,192,196522,1,0,0:0:0:0:
320,192,196608,1,0,0:0:0:0:
448,192,196608,1,0,0:0:0:0:
64,192,196608,1,0,0:0:0:0:
192,192,196694,1,0,0:0:0:0:
64,192,196781,1,0,0:0:0:0:
448,192,196781,1,0,0:0:0:0:
320,192,196867,1,0,0:0:0:0:
192,192,196953,1,0,0:0:0:0:
64,192,196953,1,0,0:0:0:0:
448,192,196953,1,0,0:0:0:0:
320,192,197039,1,0,0:0:0:0:
448,192,197125,1,0,0:0:0:0:
64,192,197125,1,0,0:0:0:0:
192,192,197212,1,0,0:0:0:0:
320,192,197298,1,0,0:0:0:0:
448,192,197298,1,0,0:0:0:0:
64,192,197298,1,0,0:0:0:0:
192,192,197384,1,0,0:0:0:0:
64,192,197470,1,0,0:0:0:0:
448,192,197470,1,0,0:0:0:0:
320,192,197557,1,0,0:0:0:0:
448,192,197643,1,0,0:0:0:0:
192,192,197643,1,0,0:0:0:0:
64,192,197643,1,0,0:0:0:0:
320,192,197729,1,0,0:0:0:0:
448,192,197815,1,0,0:0:0:0:
64,192,197815,1,0,0:0:0:0:
192,192,197901,1,0,0:0:0:0:
320,192,197988,1,0,0:0:0:0:
448,192,197988,1,0,0:0:0:0:
64,192,197988,1,0,0:0:0:0:
192,192,198074,1,0,0:0:0:0:
64,192,198160,1,0,0:0:0:0:
448,192,198160,1,0,0:0:0:0:
320,192,198246,1,0,0:0:0:0:
64,192,198677,1,0,0:0:0:0:
320,192,198677,1,0,0:0:0:0:
192,192,198763,1,0,0:0:0:0:
448,192,198850,1,0,0:0:0:0:
320,192,198936,1,0,0:0:0:0:
448,192,199022,1,0,0:0:0:0:
64,192,199022,1,0,0:0:0:0:
192,192,199022,1,0,0:0:0:0:
320,192,199108,1,0,0:0:0:0:
64,192,199194,1,0,0:0:0:0:
192,192,199281,1,0,0:0:0:0:
448,192,199367,1,0,0:0:0:0:
192,192,199453,1,0,0:0:0:0:
448,192,199539,1,0,0:0:0:0:
64,192,199539,1,0,0:0:0:0:
320,192,199625,1,0,0:0:0:0:
448,192,199712,1,0,0:0:0:0:
192,192,199712,1,0,0:0:0:0:
64,192,199712,1,0,0:0:0:0:
320,192,199798,1,0,0:0:0:0:
64,192,199884,1,0,0:0:0:0:
192,192,199970,1,0,0:0:0:0:
448,192,200057,1,0,0:0:0:0:
64,192,200057,1,0,0:0:0:0:
320,192,200143,1,0,0:0:0:0:
64,192,200229,1,0,0:0:0:0:
192,192,200315,1,0,0:0:0:0:
448,192,200401,1,0,0:0:0:0:
64,192,200401,1,0,0:0:0:0:
320,192,200401,1,0,0:0:0:0:
192,192,200488,1,0,0:0:0:0:
448,192,200574,1,0,0:0:0:0:
64,192,200660,1,0,0:0:0:0:
320,192,200746,1,0,0:0:0:0:
448,192,200832,1,0,0:0:0:0:
320,192,200919,1,0,0:0:0:0:
192,192,200919,1,0,0:0:0:0:
64,192,201005,1,0,0:0:0:0:
192,192,201091,1,0,0:0:0:0:
320,192,201091,1,0,0:0:0:0:
448,192,201091,1,0,0:0:0:0:
64,192,201177,1,0,0:0:0:0:
192,192,201263,1,0,0:0:0:0:
320,192,201350,1,0,0:0:0:0:
192,192,201436,128,0,202039:0:0:0:0:
448,192,201436,1,0,0:0:0:0:
64,192,201436,1,0,0:0:0:0:
320,192,201522,1,0,0:0:0:0:
64,192,201608,1,0,0:0:0:0:
448,192,201694,1,0,0:0:0:0:
320,192,201781,1,0,0:0:0:0:
448,192,201781,1,0,0:0:0:0:
64,192,201781,1,0,0:0:0:0:
64,192,201867,1,0,0:0:0:0:
320,192,201953,1,0,0:0:0:0:
448,192,202039,1,0,0:0:0:0:
320,192,202125,128,0,202729:0:0:0:0:
192,192,202125,1,0,0:0:0:0:
64,192,202212,1,0,0:0:0:0:
192,192,202298,1,0,0:0:0:0:
448,192,202298,1,0,0:0:0:0:
64,192,202384,1,0,0:0:0:0:
448,192,202470,1,0,0:0:0:0:
192,192,202470,1,0,0:0:0:0:
64,192,202470,1,0,0:0:0:0:
448,192,202557,1,0,0:0:0:0:
64,192,202643,1,0,0:0:0:0:
192,192,202729,1,0,0:0:0:0:
64,192,202815,128,0,203419:0:0:0:0:
320,192,202815,1,0,0:0:0:0:
448,192,202815,1,0,0:0:0:0:
192,192,202901,1,0,0:0:0:0:
448,192,202988,1,0,0:0:0:0:
320,192,203074,1,0,0:0:0:0:
320,192,203160,1,0,0:0:0:0:
192,192,203160,1,0,0:0:0:0:
448,192,203160,1,0,0:0:0:0:
192,192,203246,1,0,0:0:0:0:
448,192,203332,1,0,0:0:0:0:
320,192,203419,1,0,0:0:0:0:
448,192,203505,128,0,204108:0:0:0:0:
64,192,203505,1,0,0:0:0:0:
192,192,203591,1,0,0:0:0:0:
64,192,203677,1,0,0:0:0:0:
320,192,203763,1,0,0:0:0:0:
320,192,203850,1,0,0:0:0:0:
192,192,203850,1,0,0:0:0:0:
64,192,203850,1,0,0:0:0:0:
192,192,203936,1,0,0:0:0:0:
64,192,204022,1,0,0:0:0:0:
320,192,204108,1,0,0:0:0:0:
64,192,204194,1,0,0:0:0:0:
192,192,204194,1,0,0:0:0:0:
448,192,204281,1,0,0:0:0:0:
192,192,204367,1,0,0:0:0:0:
320,192,204453,1,0,0:0:0:0:
448,192,204539,1,0,0:0:0:0:
192,192,204539,1,0,0:0:0:0:
64,192,204539,1,0,0:0:0:0:
320,192,204625,1,0,0:0:0:0:
64,192,204712,1,0,0:0:0:0:
448,192,204798,1,0,0:0:0:0:
192,192,204884,1,0,0:0:0:0:
320,192,204970,1,0,0:0:0:0:
192,192,205057,1,0,0:0:0:0:
448,192,205057,1,0,0:0:0:0:
320,192,205143,1,0,0:0:0:0:
448,192,205229,1,0,0:0:0:0:
192,192,205229,1,0,0:0:0:0:
64,192,205229,1,0,0:0:0:0:
320,192,205315,1,0,0:0:0:0:
64,192,205401,1,0,0:0:0:0:
192,192,205488,1,0,0:0:0:0:
448,192,205574,1,0,0:0:0:0:
64,192,205574,1,0,0:0:0:0:
320,192,205660,1,0,0:0:0:0:
448,192,205746,1,0,0:0:0:0:
192,192,205832,1,0,0:0:0:0:
320,192,205919,1,0,0:0:0:0:
448,192,205919,1,0,0:0:0:0:
64,192,205919,1,0,0:0:0:0:
192,192,206005,1,0,0:0:0:0:
64,192,206091,1,0,0:0:0:0:
448,192,206177,1,0,0:0:0:0:
192,192,206263,1,0,0:0:0:0:
320,192,206350,1,0,0:0:0:0:
64,192,206436,1,0,0:0:0:0:
192,192,206436,1,0,0:0:0:0:
448,192,206522,1,0,0:0:0:0:
320,192,206608,1,0,0:0:0:0:
64,192,206608,1,0,0:0:0:0:
192,192,206608,1,0,0:0:0:0:
448,192,206694,1,0,0:0:0:0:
320,192,206781,1,0,0:0:0:0:
192,192,206867,1,0,0:0:0:0:
320,192,206953,128,0,207557:0:0:0:0:
64,192,206953,1,0,0:0:0:0:
448,192,206953,1,0,0:0:0:0:
192,192,207039,1,0,0:0:0:0:
448,192,207125,1,0,0:0:0:0:
64,192,207212,1,0,0:0:0:0:
192,192,207298,1,0,0:0:0:0:
64,192,207298,1,0,0:0:0:0:
448,192,207298,1,0,0:0:0:0:
448,192,207384,1,0,0:0:0:0:
192,192,207470,1,0,0:0:0:0:
64,192,207557,1,0,0:0:0:0:
192,192,207643,128,0,208246:0:0:0:0:
320,192,207643,1,0,0:0:0:0:
448,192,207729,1,0,0:0:0:0:
320,192,207815,1,0,0:0:0:0:
64,192,207815,1,0,0:0:0:0:
448,192,207901,1,0,0:0:0:0:
64,192,207988,1,0,0:0:0:0:
320,192,207988,1,0,0:0:0:0:
448,192,207988,1,0,0:0:0:0:
64,192,208074,1,0,0:0:0:0:
448,192,208160,1,0,0:0:0:0:
320,192,208246,1,0,0:0:0:0:
448,192,208332,128,0,208936:0:0:0:0:
192,192,208332,1,0,0:0:0:0:
64,192,208332,1,0,0:0:0:0:
320,192,208419,1,0,0:0:0:0:
64,192,208505,1,0,0:0:0:0:
192,192,208591,1,0,0:0:0:0:
192,192,208677,1,0,0:0:0:0:
320,192,208677,1,0,0:0:0:0:
64,192,208677,1,0,0:0:0:0:
320,192,208763,1,0,0:0:0:0:
64,192,208850,1,0,0:0:0:0:
192,192,208936,1,0,0:0:0:0:
64,192,209022,128,0,209625:0:0:0:0:
448,192,209022,1,0,0:0:0:0:
320,192,209108,1,0,0:0:0:0:
448,192,209194,1,0,0:0:0:0:
192,192,209281,1,0,0:0:0:0:
192,192,209367,1,0,0:0:0:0:
320,192,209367,1,0,0:0:0:0:
448,192,209367,1,0,0:0:0:0:
320,192,209453,1,0,0:0:0:0:
448,192,209539,1,0,0:0:0:0:
192,192,209625,1,0,0:0:0:0:
448,192,209712,1,0,0:0:0:0:
320,192,209712,1,0,0:0:0:0:
64,192,209798,1,0,0:0:0:0:
320,192,209884,1,0,0:0:0:0:
192,192,209970,1,0,0:0:0:0:
320,192,210057,1,0,0:0:0:0:
448,192,210057,1,0,0:0:0:0:
64,192,210057,1,0,0:0:0:0:
192,192,210143,1,0,0:0:0:0:
448,192,210229,1,0,0:0:0:0:
64,192,210315,1,0,0:0:0:0:
192,192,210401,1,0,0:0:0:0:
320,192,210488,1,0,0:0:0:0:
448,192,210574,1,0,0:0:0:0:
192,192,210574,1,0,0:0:0:0:
64,192,210660,1,0,0:0:0:0:
192,192,210746,1,0,0:0:0:0:
320,192,210746,1,0,0:0:0:0:
448,192,210746,1,0,0:0:0:0:
64,192,210832,1,0,0:0:0:0:
448,192,210919,1,0,0:0:0:0:
192,192,211005,1,0,0:0:0:0:
320,192,211091,1,0,0:0:0:0:
64,192,211091,1,0,0:0:0:0:
192,192,211177,1,0,0:0:0:0:
448,192,211263,1,0,0:0:0:0:
320,192,211350,1,0,0:0:0:0:
192,192,211436,1,0,0:0:0:0:
64,192,211436,1,0,0:0:0:0:
448,192,211436,1,0,0:0:0:0:
320,192,211522,1,0,0:0:0:0:
64,192,211608,1,0,0:0:0:0:
448,192,211694,1,0,0:0:0:0:
192,192,211781,1,0,0:0:0:0:
64,192,211867,1,0,0:0:0:0:
320,192,211953,1,0,0:0:0:0:
192,192,211953,1,0,0:0:0:0:
64,192,212039,1,0,0:0:0:0:
320,192,212125,1,0,0:0:0:0:
192,192,212125,1,0,0:0:0:0:
448,192,212125,1,0,0:0:0:0:
64,192,212212,1,0,0:0:0:0:
192,192,212298,1,0,0:0:0:0:
320,192,212384,1,0,0:0:0:0:
192,192,212470,128,0,213074:0:0:0:0:
448,192,212470,1,0,0:0:0:0:
64,192,212470,1,0,0:0:0:0:
320,192,212557,1,0,0:0:0:0:
64,192,212643,1,0,0:0:0:0:
448,192,212729,1,0,0:0:0:0:
320,192,212815,1,0,0:0:0:0:
448,192,212815,1,0,0:0:0:0:
64,192,212815,1,0,0:0:0:0:
64,192,212901,1,0,0:0:0:0:
320,192,212988,1,0,0:0:0:0:
448,192,213074,1,0,0:0:0:0:
320,192,213160,128,0,213763:0:0:0:0:
192,192,213160,1,0,0:0:0:0:
64,192,213246,1,0,0:0:0:0:
192,192,213332,1,0,0:0:0:0:
448,192,213332,1,0,0:0:0:0:
64,192,213419,1,0,0:0:0:0:
448,192,213505,1,0,0:0:0:0:
192,192,213505,1,0,0:0:0:0:
64,192,213505,1,0,0:0:0:0:
448,192,213591,1,0,0:0:0:0:
64,192,213677,1,0,0:0:0:0:
192,192,213763,1,0,0:0:0:0:
64,192,213850,128,0,214453:0:0:0:0:
320,192,213850,1,0,0:0:0:0:
448,192,213850,1,0,0:0:0:0:
192,192,213936,1,0,0:0:0:0:
448,192,214022,1,0,0:0:0:0:
320,192,214108,1,0,0:0:0:0:
320,192,214194,1,0,0:0:0:0:
192,192,214194,1,0,0:0:0:0:
448,192,214194,1,0,0:0:0:0:
192,192,214281,1,0,0:0:0:0:
448,192,214367,1,0,0:0:0:0:
320,192,214453,1,0,0:0:0:0:
448,192,214539,128,0,215143:0:0:0:0:
64,192,214539,1,0,0:0:0:0:
192,192,214625,1,0,0:0:0:0:
64,192,214712,1,0,0:0:0:0:
320,192,214798,1,0,0:0:0:0:
320,192,214884,1,0,0:0:0:0:
192,192,214884,1,0,0:0:0:0:
64,192,214884,1,0,0:0:0:0:
192,192,214970,1,0,0:0:0:0:
64,192,215057,1,0,0:0:0:0:
320,192,215143,1,0,0:0:0:0:
192,192,215229,1,0,0:0:0:0:
64,192,215229,1,0,0:0:0:0:
448,192,215315,1,0,0:0:0:0:
320,192,215401,1,0,0:0:0:0:
64,192,215488,1,0,0:0:0:0:
192,192,215574,1,0,0:0:0:0:
320,192,215574,1,0,0:0:0:0:
448,192,215574,1,0,0:0:0:0:
64,192,215660,1,0,0:0:0:0:
192,192,215746,1,0,0:0:0:0:
448,192,215832,1,0,0:0:0:0:
320,192,215919,1,0,0:0:0:0:
64,192,216005,1,0,0:0:0:0:
192,192,216091,1,0,0:0:0:0:
448,192,216091,1,0,0:0:0:0:
320,192,216177,1,0,0:0:0:0:
448,192,216263,1,0,0:0:0:0:
192,192,216263,1,0,0:0:0:0:
64,192,216263,1,0,0:0:0:0:
320,192,216350,1,0,0:0:0:0:
448,192,216436,1,0,0:0:0:0:
192,192,216522,1,0,0:0:0:0:
320,192,216608,1,0,0:0:0:0:
64,192,216608,1,0,0:0:0:0:
192,192,216694,1,0,0:0:0:0:
64,192,216781,1,0,0:0:0:0:
320,192,216867,1,0,0:0:0:0:
448,192,216953,1,0,0:0:0:0:
192,192,216953,1,0,0:0:0:0:
64,192,216953,1,0,0:0:0:0:
320,192,217039,1,0,0:0:0:0:
448,192,217125,1,0,0:0:0:0:
64,192,217212,1,0,0:0:0:0:
192,192,217298,1,0,0:0:0:0:
448,192,217384,1,0,0:0:0:0:
320,192,217470,1,0,0:0:0:0:
64,192,217470,1,0,0:0:0:0:
448,192,217557,1,0,0:0:0:0:
320,192,217643,1,0,0:0:0:0:
192,192,217643,1,0,0:0:0:0:
64,192,217643,1,0,0:0:0:0:
448,192,217729,1,0,0:0:0:0:
320,192,217815,1,0,0:0:0:0:
192,192,217901,1,0,0:0:0:0:
448,192,217988,1,0,0:0:0:0:
64,192,217988,1,0,0:0:0:0:
320,192,217988,128,0,218591:0:0:0:0:
192,192,218074,1,0,0:0:0:0:
448,192,218160,1,0,0:0:0:0:
64,192,218246,1,0,0:0:0:0:
448,192,218332,1,0,0:0:0:0:
64,192,218332,1,0,0:0:0:0:
192,192,218332,1,0,0:0:0:0:
448,192,218419,1,0,0:0:0:0:
192,192,218505,1,0,0:0:0:0:
64,192,218591,1,0,0:0:0:0:
320,192,218677,1,0,0:0:0:0:
192,192,218677,128,0,219281:0:0:0:0:
448,192,218763,1,0,0:0:0:0:
64,192,218850,1,0,0:0:0:0:
320,192,218850,1,0,0:0:0:0:
448,192,218936,1,0,0:0:0:0:
448,192,219022,1,0,0:0:0:0:
320,192,219022,1,0,0:0:0:0:
64,192,219022,1,0,0:0:0:0:
64,192,219108,1,0,0:0:0:0:
448,192,219194,1,0,0:0:0:0:
320,192,219281,1,0,0:0:0:0:
64,192,219367,1,0,0:0:0:0:
192,192,219367,1,0,0:0:0:0:
448,192,219367,1,0,0:0:0:0:
448,192,219539,1,0,0:0:0:0:
320,192,219539,1,0,0:0:0:0:
192,192,219539,1,0,0:0:0:0:
448,192,219712,1,0,0:0:0:0:
320,192,219712,1,0,0:0:0:0:
64,192,219712,1,0,0:0:0:0:
64,192,219884,1,0,0:0:0:0:
192,192,219884,1,0,0:0:0:0:
320,192,219884,1,0,0:0:0:0:
448,192,220057,1,0,0:0:0:0:
64,192,220057,1,0,0:0:0:0:
192,192,220057,1,0,0:0:0:0:
448,192,220229,1,0,0:0:0:0:
320,192,220229,1,0,0:0:0:0:
192,192,220229,1,0,0:0:0:0:
448,192,220401,1,0,0:0:0:0:
320,192,220401,1,0,0:0:0:0:
64,192,220401,1,0,0:0:0:0:
192,192,220401,1,0,0:0:0:0:
192,192,220746,128,0,221005:0:0:0:0:
448,192,220746,1,0,0:0:0:0:
64,192,220746,1,0,0:0:0:0:
320,192,220919,1,0,0:0:0:0:
192,192,221091,128,0,221350:0:0:0:0:
320,192,221091,1,0,0:0:0:0:
448,192,221091,1,0,0:0:0:0:
64,192,221091,1,0,0:0:0:0:
320,192,221263,1,0,0:0:0:0:
448,192,221350,1,0,0:0:0:0:
192,192,221436,128,0,221694:0:0:0:0:
64,192,221436,1,0,0:0:0:0:
320,192,221522,1,0,0:0:0:0:
448,192,221608,1,0,0:0:0:0:
64,192,221608,1,0,0:0:0:0:
192,192,221781,128,0,222039:0:0:0:0:
448,192,221781,1,0,0:0:0:0:
320,192,221781,1,0,0:0:0:0:
64,192,221781,1,0,0:0:0:0:
320,192,221953,1,0,0:0:0:0:
320,192,222125,128,0,222384:0:0:0:0:
448,192,222125,1,0,0:0:0:0:
64,192,222125,1,0,0:0:0:0:
192,192,222298,1,0,0:0:0:0:
320,192,222470,128,0,222729:0:0:0:0:
448,192,222470,1,0,0:0:0:0:
192,192,222470,1,0,0:0:0:0:
64,192,222470,1,0,0:0:0:0:
64,192,222643,1,0,0:0:0:0:
192,192,222729,1,0,0:0:0:0:
320,192,222815,128,0,223074:0:0:0:0:
448,192,222815,1,0,0:0:0:0:
192,192,222901,1,0,0:0:0:0:
448,192,222988,1,0,0:0:0:0:
64,192,222988,1,0,0:0:0:0:
320,192,223160,128,0,223419:0:0:0:0:
448,192,223160,1,0,0:0:0:0:
192,192,223160,1,0,0:0:0:0:
64,192,223160,1,0,0:0:0:0:
192,192,223332,1,0,0:0:0:0:
448,192,223505,128,0,223763:0:0:0:0:
320,192,223505,1,0,0:0:0:0:
64,192,223505,1,0,0:0:0:0:
192,192,223677,1,0,0:0:0:0:
448,192,223850,128,0,224108:0:0:0:0:
320,192,223850,1,0,0:0:0:0:
192,192,223850,1,0,0:0:0:0:
64,192,223850,1,0,0:0:0:0:
64,192,224022,1,0,0:0:0:0:
320,192,224108,1,0,0:0:0:0:
448,192,224194,128,0,224453:0:0:0:0:
64,192,224194,1,0,0:0:0:0:
192,192,224281,1,0,0:0:0:0:
320,192,224367,1,0,0:0:0:0:
64,192,224367,1,0,0:0:0:0:
448,192,224539,128,0,224798:0:0:0:0:
320,192,224539,1,0,0:0:0:0:
192,192,224539,1,0,0:0:0:0:
64,192,224539,1,0,0:0:0:0:
192,192,224712,1,0,0:0:0:0:
448,192,224884,128,0,225143:0:0:0:0:
64,192,224884,1,0,0:0:0:0:
320,192,224884,1,0,0:0:0:0:
192,192,225057,1,0,0:0:0:0:
448,192,225229,128,0,225488:0:0:0:0:
320,192,225229,1,0,0:0:0:0:
192,192,225229,1,0,0:0:0:0:
64,192,225229,1,0,0:0:0:0:
320,192,225401,1,0,0:0:0:0:
192,192,225488,1,0,0:0:0:0:
64,192,225574,128,0,225832:0:0:0:0:
448,192,225574,1,0,0:0:0:0:
320,192,225660,1,0,0:0:0:0:
448,192,225746,1,0,0:0:0:0:
192,192,225746,1,0,0:0:0:0:
64,192,225919,128,0,226177:0:0:0:0:
448,192,225919,1,0,0:0:0:0:
320,192,225919,1,0,0:0:0:0:
192,192,225919,1,0,0:0:0:0:
320,192,226091,1,0,0:0:0:0:
192,192,226263,128,0,226522:0:0:0:0:
448,192,226263,1,0,0:0:0:0:
64,192,226263,1,0,0:0:0:0:
320,192,226436,1,0,0:0:0:0:
192,192,226608,128,0,226867:0:0:0:0:
448,192,226608,1,0,0:0:0:0:
320,192,226608,1,0,0:0:0:0:
64,192,226608,1,0,0:0:0:0:
448,192,226781,1,0,0:0:0:0:
64,192,226867,1,0,0:0:0:0:
192,192,226953,128,0,227212:0:0:0:0:
320,192,226953,1,0,0:0:0:0:
64,192,227039,1,0,0:0:0:0:
320,192,227125,1,0,0:0:0:0:
448,192,227125,1,0,0:0:0:0:
192,192,227298,128,0,227557:0:0:0:0:
448,192,227298,1,0,0:0:0:0:
320,192,227298,1,0,0:0:0:0:
64,192,227298,1,0,0:0:0:0:
64,192,227470,1,0,0:0:0:0:
448,192,227643,128,0,227901:0:0:0:0:
320,192,227643,1,0,0:0:0:0:
192,192,227643,1,0,0:0:0:0:
64,192,227815,1,0,0:0:0:0:
448,192,227988,128,0,228246:0:0:0:0:
320,192,227988,1,0,0:0:0:0:
192,192,227988,1,0,0:0:0:0:
64,192,227988,1,0,0:0:0:0:
192,192,228160,1,0,0:0:0:0:
64,192,228246,1,0,0:0:0:0:
448,192,228332,128,0,228591:0:0:0:0:
320,192,228332,1,0,0:0:0:0:
192,192,228419,1,0,0:0:0:0:
320,192,228505,1,0,0:0:0:0:
64,192,228505,1,0,0:0:0:0:
448,192,228677,128,0,228936:0:0:0:0:
320,192,228677,1,0,0:0:0:0:
192,192,228677,1,0,0:0:0:0:
64,192,228677,1,0,0:0:0:0:
192,192,228850,1,0,0:0:0:0:
320,192,229022,128,0,229281:0:0:0:0:
448,192,229022,1,0,0:0:0:0:
64,192,229022,1,0,0:0:0:0:
192,192,229194,1,0,0:0:0:0:
320,192,229367,128,0,229625:0:0:0:0:
64,192,229367,1,0,0:0:0:0:
192,192,229367,1,0,0:0:0:0:
448,192,229367,1,0,0:0:0:0:
448,192,229539,1,0,0:0:0:0:
64,192,229625,1,0,0:0:0:0:
320,192,229712,128,0,229970:0:0:0:0:
192,192,229712,1,0,0:0:0:0:
448,192,229798,1,0,0:0:0:0:
192,192,229884,1,0,0:0:0:0:
64,192,229884,1,0,0:0:0:0:
320,192,230057,128,0,230315:0:0:0:0:
448,192,230057,1,0,0:0:0:0:
192,192,230057,1,0,0:0:0:0:
64,192,230057,1,0,0:0:0:0:
448,192,230229,1,0,0:0:0:0:
320,192,230401,128,0,230660:0:0:0:0:
192,192,230401,1,0,0:0:0:0:
64,192,230401,1,0,0:0:0:0:
448,192,230574,1,0,0:0:0:0:
320,192,230746,128,0,231005:0:0:0:0:
448,192,230746,1,0,0:0:0:0:
192,192,230746,1,0,0:0:0:0:
64,192,230746,1,0,0:0:0:0:
192,192,230919,1,0,0:0:0:0:
448,192,231005,1,0,0:0:0:0:
64,192,231091,128,0,231350:0:0:0:0:
192,192,231091,1,0,0:0:0:0:
320,192,231177,1,0,0:0:0:0:
448,192,231263,1,0,0:0:0:0:
192,192,231263,1,0,0:0:0:0:
64,192,231436,128,0,231694:0:0:0:0:
448,192,231436,1,0,0:0:0:0:
320,192,231436,1,0,0:0:0:0:
192,192,231436,1,0,0:0:0:0:
320,192,231608,1,0,0:0:0:0:
192,192,231781,128,0,232039:0:0:0:0:
448,192,231781,1,0,0:0:0:0:
64,192,231781,1,0,0:0:0:0:
320,192,231953,1,0,0:0:0:0:
192,192,232125,128,0,232384:0:0:0:0:
448,192,232125,1,0,0:0:0:0:
320,192,232125,1,0,0:0:0:0:
64,192,232125,1,0,0:0:0:0:
64,192,232298,1,0,0:0:0:0:
448,192,232384,1,0,0:0:0:0:
192,192,232470,128,0,232729:0:0:0:0:
320,192,232470,1,0,0:0:0:0:
448,192,232557,1,0,0:0:0:0:
64,192,232643,1,0,0:0:0:0:
320,192,232643,1,0,0:0:0:0:
192,192,232815,128,0,233074:0:0:0:0:
448,192,232815,1,0,0:0:0:0:
320,192,232815,1,0,0:0:0:0:
64,192,232815,1,0,0:0:0:0:
448,192,232988,1,0,0:0:0:0:
320,192,233160,128,0,233419:0:0:0:0:
192,192,233160,1,0,0:0:0:0:
64,192,233160,1,0,0:0:0:0:
448,192,233332,1,0,0:0:0:0:
320,192,233505,128,0,233763:0:0:0:0:
448,192,233505,1,0,0:0:0:0:
192,192,233505,1,0,0:0:0:0:
64,192,233505,1,0,0:0:0:0:
64,192,233677,1,0,0:0:0:0:
192,192,233763,1,0,0:0:0:0:
320,192,233850,128,0,234108:0:0:0:0:
448,192,233850,1,0,0:0:0:0:
192,192,233936,1,0,0:0:0:0:
448,192,234022,1,0,0:0:0:0:
64,192,234022,1,0,0:0:0:0:
320,192,234194,128,0,234453:0:0:0:0:
448,192,234194,1,0,0:0:0:0:
192,192,234194,1,0,0:0:0:0:
64,192,234194,1,0,0:0:0:0:
192,192,234367,1,0,0:0:0:0:
448,192,234539,128,0,234798:0:0:0:0:
320,192,234539,1,0,0:0:0:0:
64,192,234539,1,0,0:0:0:0:
192,192,234712,1,0,0:0:0:0:
448,192,234884,128,0,235143:0:0:0:0:
320,192,234884,1,0,0:0:0:0:
192,192,234884,1,0,0:0:0:0:
64,192,234884,1,0,0:0:0:0:
64,192,235057,1,0,0:0:0:0:
320,192,235143,1,0,0:0:0:0:
448,192,235229,128,0,235488:0:0:0:0:
64,192,235229,1,0,0:0:0:0:
192,192,235315,1,0,0:0:0:0:
320,192,235401,1,0,0:0:0:0:
64,192,235401,1,0,0:0:0:0:
448,192,235574,128,0,235832:0:0:0:0:
320,192,235574,1,0,0:0:0:0:
192,192,235574,1,0,0:0:0:0:
64,192,235574,1,0,0:0:0:0:
192,192,235746,1,0,0:0:0:0:
448,192,235919,128,0,236177:0:0:0:0:
320,192,235919,1,0,0:0:0:0:
64,192,235919,1,0,0:0:0:0:
192,192,236091,1,0,0:0:0:0:
448,192,236263,128,0,236522:0:0:0:0:
320,192,236263,1,0,0:0:0:0:
192,192,236263,1,0,0:0:0:0:
64,192,236263,1,0,0:0:0:0:
320,192,236436,1,0,0:0:0:0:
64,192,236522,1,0,0:0:0:0:
448,192,236608,128,0,236867:0:0:0:0:
192,192,236608,1,0,0:0:0:0:
320,192,236694,1,0,0:0:0:0:
64,192,236781,1,0,0:0:0:0:
192,192,236781,1,0,0:0:0:0:
448,192,236953,128,0,237212:0:0:0:0:
320,192,236953,1,0,0:0:0:0:
192,192,236953,1,0,0:0:0:0:
64,192,236953,1,0,0:0:0:0:
320,192,237125,1,0,0:0:0:0:
192,192,237298,128,0,237557:0:0:0:0:
448,192,237298,1,0,0:0:0:0:
64,192,237298,1,0,0:0:0:0:
320,192,237470,1,0,0:0:0:0:
192,192,237643,128,0,237901:0:0:0:0:
448,192,237643,1,0,0:0:0:0:
320,192,237643,1,0,0:0:0:0:
64,192,237643,1,0,0:0:0:0:
64,192,237815,1,0,0:0:0:0:
320,192,237901,1,0,0:0:0:0:
192,192,237988,128,0,238246:0:0:0:0:
448,192,237988,1,0,0:0:0:0:
320,192,238074,1,0,0:0:0:0:
64,192,238160,1,0,0:0:0:0:
448,192,238160,1,0,0:0:0:0:
192,192,238332,128,0,238591:0:0:0:0:
320,192,238332,1,0,0:0:0:0:
448,192,238332,1,0,0:0:0:0:
64,192,238332,1,0,0:0:0:0:
320,192,238505,1,0,0:0:0:0:
192,192,238677,128,0,238936:0:0:0:0:
448,192,238677,1,0,0:0:0:0:
64,192,238677,1,0,0:0:0:0:
320,192,238850,1,0,0:0:0:0:
192,192,239022,128,0,239281:0:0:0:0:
448,192,239022,1,0,0:0:0:0:
320,192,239022,1,0,0:0:0:0:
64,192,239022,1,0,0:0:0:0:
448,192,239194,1,0,0:0:0:0:
64,192,239281,1,0,0:0:0:0:
192,192,239367,128,0,239625:0:0:0:0:
320,192,239367,1,0,0:0:0:0:
448,192,239453,1,0,0:0:0:0:
320,192,239539,1,0,0:0:0:0:
64,192,239539,1,0,0:0:0:0:
192,192,239712,128,0,239970:0:0:0:0:
448,192,239712,1,0,0:0:0:0:
320,192,239712,1,0,0:0:0:0:
64,192,239712,1,0,0:0:0:0:
448,192,239884,1,0,0:0:0:0:
64,192,240057,128,0,240315:0:0:0:0:
320,192,240057,1,0,0:0:0:0:
192,192,240057,1,0,0:0:0:0:
64,192,240401,128,0,240660:0:0:0:0:
448,192,240401,1,0,0:0:0:0:
320,192,240401,1,0,0:0:0:0:
192,192,240401,1,0,0:0:0:0:
448,192,240574,1,0,0:0:0:0:
64,192,240746,128,0,241005:0:0:0:0:
320,192,240746,1,0,0:0:0:0:
448,192,240919,1,0,0:0:0:0:
192,192,240919,1,0,0:0:0:0:
64,192,241091,128,0,241350:0:0:0:0:
448,192,241091,1,0,0:0:0:0:
320,192,241091,1,0,0:0:0:0:
192,192,241091,1,0,0:0:0:0:
320,192,241263,1,0,0:0:0:0:
192,192,241436,1,0,0:0:0:0:
64,192,241436,1,0,0:0:0:0:
448,192,241436,1,0,0:0:0:0:
448,192,241608,1,0,0:0:0:0:
320,192,241608,1,0,0:0:0:0:
192,192,241608,1,0,0:0:0:0:
448,192,241781,1,0,0:0:0:0:
320,192,241781,1,0,0:0:0:0:
64,192,241781,1,0,0:0:0:0:
64,192,241953,1,0,0:0:0:0:
192,192,241953,1,0,0:0:0:0:
320,192,241953,1,0,0:0:0:0:
448,192,242125,1,0,0:0:0:0:
192,192,242125,1,0,0:0:0:0:
64,192,242125,1,0,0:0:0:0:
192,192,242298,1,0,0:0:0:0:
320,192,242298,1,0,0:0:0:0:
448,192,242298,1,0,0:0:0:0:
192,192,242815,128,0,243936:0:0:0:0:
64,192,242815,1,0,0:0:0:0:
448,192,242815,1,0,0:0:0:0:
320,192,242988,1,0,0:0:0:0:
320,192,243160,1,0,0:0:0:0:
448,192,243160,1,0,0:0:0:0:
64,192,243160,1,0,0:0:0:0:
448,192,243332,1,0,0:0:0:0:
64,192,243419,1,0,0:0:0:0:
320,192,243505,1,0,0:0:0:0:
448,192,243591,1,0,0:0:0:0:
320,192,243677,1,0,0:0:0:0:
64,192,243677,1,0,0:0:0:0:
448,192,243850,1,0,0:0:0:0:
320,192,243850,1,0,0:0:0:0:
64,192,243850,1,0,0:0:0:0:
64,192,244022,128,0,244108:0:0:0:0:
320,192,244022,1,0,0:0:0:0:
192,192,244108,1,0,0:0:0:0:
448,192,244194,128,0,245488:0:0:0:0:
64,192,244194,1,0,0:0:0:0:
320,192,244194,1,0,0:0:0:0:
192,192,244367,1,0,0:0:0:0:
320,192,244539,1,0,0:0:0:0:
192,192,244539,1,0,0:0:0:0:
64,192,244539,1,0,0:0:0:0:
320,192,244712,1,0,0:0:0:0:
64,192,244798,1,0,0:0:0:0:
192,192,244884,1,0,0:0:0:0:
64,192,244970,1,0,0:0:0:0:
320,192,245057,1,0,0:0:0:0:
192,192,245057,1,0,0:0:0:0:
192,192,245229,1,0,0:0:0:0:
64,192,245229,1,0,0:0:0:0:
320,192,245229,1,0,0:0:0:0:
64,192,245401,1,0,0:0:0:0:
192,192,245488,1,0,0:0:0:0:
320,192,245574,128,0,246953:0:0:0:0:
448,192,245574,1,0,0:0:0:0:
64,192,245574,1,0,0:0:0:0:
192,192,245746,1,0,0:0:0:0:
448,192,245919,1,0,0:0:0:0:
192,192,245919,1,0,0:0:0:0:
64,192,245919,1,0,0:0:0:0:
448,192,246091,1,0,0:0:0:0:
192,192,246177,1,0,0:0:0:0:
64,192,246263,1,0,0:0:0:0:
192,192,246350,1,0,0:0:0:0:
448,192,246436,1,0,0:0:0:0:
64,192,246436,1,0,0:0:0:0:
448,192,246608,1,0,0:0:0:0:
192,192,246608,1,0,0:0:0:0:
64,192,246608,1,0,0:0:0:0:
192,192,246781,1,0,0:0:0:0:
448,192,246867,1,0,0:0:0:0:
64,192,246953,1,0,0:0:0:0:
192,192,246953,1,0,0:0:0:0:
448,192,247125,1,0,0:0:0:0:
192,192,247212,128,0,247384:0:0:0:0:
320,192,247298,1,0,0:0:0:0:
448,192,247298,1,0,0:0:0:0:
64,192,247298,1,0,0:0:0:0:
448,192,247470,128,0,247815:0:0:0:0:
64,192,247470,1,0,0:0:0:0:
192,192,247557,1,0,0:0:0:0:
320,192,247643,1,0,0:0:0:0:
192,192,247729,1,0,0:0:0:0:
320,192,247815,1,0,0:0:0:0:
64,192,247815,1,0,0:0:0:0:
320,192,247988,128,0,248246:0:0:0:0:
448,192,247988,1,0,0:0:0:0:
192,192,247988,1,0,0:0:0:0:
64,192,247988,1,0,0:0:0:0:
448,192,248160,1,0,0:0:0:0:
64,192,248246,1,0,0:0:0:0:
192,192,248332,128,0,249453:0:0:0:0:
320,192,248332,1,0,0:0:0:0:
448,192,248332,1,0,0:0:0:0:
64,192,248505,1,0,0:0:0:0:
320,192,248677,1,0,0:0:0:0:
448,192,248677,1,0,0:0:0:0:
64,192,248677,1,0,0:0:0:0:
448,192,248850,1,0,0:0:0:0:
320,192,248936,1,0,0:0:0:0:
64,192,249022,1,0,0:0:0:0:
320,192,249108,1,0,0:0:0:0:
448,192,249194,1,0,0:0:0:0:
64,192,249194,1,0,0:0:0:0:
448,192,249367,1,0,0:0:0:0:
320,192,249367,1,0,0:0:0:0:
64,192,249367,1,0,0:0:0:0:
64,192,249539,128,0,249625:0:0:0:0:
448,192,249539,1,0,0:0:0:0:
320,192,249625,1,0,0:0:0:0:
448,192,249712,128,0,251005:0:0:0:0:
192,192,249712,1,0,0:0:0:0:
64,192,249712,1,0,0:0:0:0:
320,192,249884,1,0,0:0:0:0:
320,192,250057,1,0,0:0:0:0:
192,192,250057,1,0,0:0:0:0:
64,192,250057,1,0,0:0:0:0:
64,192,250229,1,0,0:0:0:0:
192,192,250315,1,0,0:0:0:0:
320,192,250401,1,0,0:0:0:0:
192,192,250488,1,0,0:0:0:0:
320,192,250574,1,0,0:0:0:0:
64,192,250574,1,0,0:0:0:0:
320,192,250746,1,0,0:0:0:0:
192,192,250746,1,0,0:0:0:0:
64,192,250746,1,0,0:0:0:0:
192,192,250919,1,0,0:0:0:0:
64,192,251005,1,0,0:0:0:0:
320,192,251091,128,0,252470:0:0:0:0:
192,192,251091,1,0,0:0:0:0:
448,192,251091,1,0,0:0:0:0:
64,192,251263,1,0,0:0:0:0:
64,192,251436,1,0,0:0:0:0:
192,192,251436,1,0,0:0:0:0:
448,192,251436,1,0,0:0:0:0:
448,192,251608,1,0,0:0:0:0:
64,192,251694,1,0,0:0:0:0:
192,192,251781,1,0,0:0:0:0:
64,192,251867,1,0,0:0:0:0:
448,192,251953,1,0,0:0:0:0:
192,192,251953,1,0,0:0:0:0:
448,192,252125,1,0,0:0:0:0:
192,192,252125,1,0,0:0:0:0:
64,192,252125,1,0,0:0:0:0:
64,192,252298,1,0,0:0:0:0:
192,192,252384,1,0,0:0:0:0:
64,192,252470,1,0,0:0:0:0:
448,192,252470,1,0,0:0:0:0:
320,192,252643,128,0,252901:0:0:0:0:
192,192,252643,1,0,0:0:0:0:
64,192,252815,1,0,0:0:0:0:
192,192,252815,1,0,0:0:0:0:
448,192,252815,1,0,0:0:0:0:
192,192,252988,128,0,253419:0:0:0:0:
448,192,252988,1,0,0:0:0:0:
320,192,253074,1,0,0:0:0:0:
64,192,253160,1,0,0:0:0:0:
320,192,253246,1,0,0:0:0:0:
448,192,253332,1,0,0:0:0:0:
64,192,253332,1,0,0:0:0:0:
64,192,253505,128,0,253763:0:0:0:0:
448,192,253505,1,0,0:0:0:0:
320,192,253505,1,0,0:0:0:0:
192,192,253505,1,0,0:0:0:0:
320,192,253677,1,0,0:0:0:0:
192,192,253763,1,0,0:0:0:0:
320,192,253850,128,0,254970:0:0:0:0:
448,192,253850,1,0,0:0:0:0:
64,192,253850,1,0,0:0:0:0:
192,192,254022,1,0,0:0:0:0:
192,192,254194,1,0,0:0:0:0:
64,192,254194,1,0,0:0:0:0:
448,192,254194,1,0,0:0:0:0:
64,192,254367,1,0,0:0:0:0:
448,192,254453,1,0,0:0:0:0:
192,192,254539,1,0,0:0:0:0:
64,192,254625,1,0,0:0:0:0:
192,192,254712,1,0,0:0:0:0:
448,192,254712,1,0,0:0:0:0:
64,192,254884,1,0,0:0:0:0:
192,192,254884,1,0,0:0:0:0:
448,192,254884,1,0,0:0:0:0:
448,192,255057,128,0,255143:0:0:0:0:
192,192,255057,1,0,0:0:0:0:
320,192,255143,1,0,0:0:0:0:
64,192,255229,128,0,256522:0:0:0:0:
448,192,255229,1,0,0:0:0:0:
192,192,255229,1,0,0:0:0:0:
320,192,255401,1,0,0:0:0:0:
192,192,255574,1,0,0:0:0:0:
320,192,255574,1,0,0:0:0:0:
448,192,255574,1,0,0:0:0:0:
192,192,255746,1,0,0:0:0:0:
448,192,255832,1,0,0:0:0:0:
320,192,255919,1,0,0:0:0:0:
448,192,256005,1,0,0:0:0:0:
192,192,256091,1,0,0:0:0:0:
320,192,256091,1,0,0:0:0:0:
320,192,256263,1,0,0:0:0:0:
448,192,256263,1,0,0:0:0:0:
192,192,256263,1,0,0:0:0:0:
448,192,256436,1,0,0:0:0:0:
320,192,256522,1,0,0:0:0:0:
192,192,256608,128,0,257988:0:0:0:0:
64,192,256608,1,0,0:0:0:0:
448,192,256608,1,0,0:0:0:0:
320,192,256781,1,0,0:0:0:0:
64,192,256953,1,0,0:0:0:0:
320,192,256953,1,0,0:0:0:0:
448,192,256953,1,0,0:0:0:0:
64,192,257125,1,0,0:0:0:0:
320,192,257212,1,0,0:0:0:0:
448,192,257298,1,0,0:0:0:0:
320,192,257384,1,0,0:0:0:0:
64,192,257470,1,0,0:0:0:0:
448,192,257470,1,0,0:0:0:0:
64,192,257643,1,0,0:0:0:0:
320,192,257643,1,0,0:0:0:0:
448,192,257643,1,0,0:0:0:0:
320,192,257815,1,0,0:0:0:0:
64,192,257901,1,0,0:0:0:0:
448,192,257988,1,0,0:0:0:0:
320,192,257988,1,0,0:0:0:0:
64,192,258160,1,0,0:0:0:0:
320,192,258246,128,0,258419:0:0:0:0:
192,192,258332,1,0,0:0:0:0:
64,192,258332,1,0,0:0:0:0:
448,192,258332,1,0,0:0:0:0:
64,192,258505,128,0,258850:0:0:0:0:
448,192,258505,1,0,0:0:0:0:
320,192,258591,1,0,0:0:0:0:
192,192,258677,1,0,0:0:0:0:
320,192,258763,1,0,0:0:0:0:
192,192,258850,1,0,0:0:0:0:
448,192,258850,1,0,0:0:0:0:
192,192,259022,128,0,259281:0:0:0:0:
64,192,259022,1,0,0:0:0:0:
320,192,259022,1,0,0:0:0:0:
448,192,259022,1,0,0:0:0:0:
64,192,259194,1,0,0:0:0:0:
448,192,259281,1,0,0:0:0:0:
320,192,259367,128,0,260488:0:0:0:0:
192,192,259367,1,0,0:0:0:0:
64,192,259367,1,0,0:0:0:0:
448,192,259539,1,0,0:0:0:0:
192,192,259712,1,0,0:0:0:0:
64,192,259712,1,0,0:0:0:0:
448,192,259712,1,0,0:0:0:0:
64,192,259884,1,0,0:0:0:0:
192,192,259970,1,0,0:0:0:0:
448,192,260057,1,0,0:0:0:0:
192,192,260143,1,0,0:0:0:0:
64,192,260229,1,0,0:0:0:0:
448,192,260229,1,0,0:0:0:0:
64,192,260401,1,0,0:0:0:0:
192,192,260401,1,0,0:0:0:0:
448,192,260401,1,0,0:0:0:0:
448,192,260574,128,0,260660:0:0:0:0:
64,192,260574,1,0,0:0:0:0:
192,192,260660,1,0,0:0:0:0:
64,192,260746,128,0,262039:0:0:0:0:
320,192,260746,1,0,0:0:0:0:
448,192,260746,1,0,0:0:0:0:
192,192,260919,1,0,0:0:0:0:
192,192,261091,1,0,0:0:0:0:
320,192,261091,1,0,0:0:0:0:
448,192,261091,1,0,0:0:0:0:
448,192,261263,1,0,0:0:0:0:
320,192,261350,1,0,0:0:0:0:
192,192,261436,1,0,0:0:0:0:
320,192,261522,1,0,0:0:0:0:
192,192,261608,1,0,0:0:0:0:
448,192,261608,1,0,0:0:0:0:
192,192,261781,1,0,0:0:0:0:
320,192,261781,1,0,0:0:0:0:
448,192,261781,1,0,0:0:0:0:
320,192,261953,1,0,0:0:0:0:
448,192,262039,1,0,0:0:0:0:
192,192,262125,128,0,263505:0:0:0:0:
320,192,262125,1,0,0:0:0:0:
64,192,262125,1,0,0:0:0:0:
448,192,262298,1,0,0:0:0:0:
448,192,262470,1,0,0:0:0:0:
320,192,262470,1,0,0:0:0:0:
64,192,262470,1,0,0:0:0:0:
64,192,262643,1,0,0:0:0:0:
448,192,262729,1,0,0:0:0:0:
320,192,262815,1,0,0:0:0:0:
448,192,262901,1,0,0:0:0:0:
64,192,262988,1,0,0:0:0:0:
320,192,262988,1,0,0:0:0:0:
64,192,263160,1,0,0:0:0:0:
320,192,263160,1,0,0:0:0:0:
448,192,263160,1,0,0:0:0:0:
448,192,263332,1,0,0:0:0:0:
320,192,263419,1,0,0:0:0:0:
448,192,263505,1,0,0:0:0:0:
64,192,263505,1,0,0:0:0:0:
192,192,263677,128,0,263936:0:0:0:0:
320,192,263677,1,0,0:0:0:0:
448,192,263850,1,0,0:0:0:0:
320,192,263850,1,0,0:0:0:0:
64,192,263850,1,0,0:0:0:0:
320,192,264022,128,0,264798:0:0:0:0:
64,192,264022,1,0,0:0:0:0:
448,192,264108,1,0,0:0:0:0:
448,192,264539,128,0,264798:0:0:0:0:
64,192,264884,128,0,265315:0:0:0:0:
192,192,264884,1,0,0:0:0:0:
448,192,264884,1,0,0:0:0:0:
320,192,265057,1,0,0:0:0:0:
192,192,265229,1,0,0:0:0:0:
320,192,265229,1,0,0:0:0:0:
448,192,265229,1,0,0:0:0:0:
320,192,265401,128,0,265660:0:0:0:0:
192,192,265401,1,0,0:0:0:0:
448,192,265488,1,0,0:0:0:0:
64,192,265574,1,0,0:0:0:0:
448,192,265660,1,0,0:0:0:0:
192,192,265746,128,0,265832:0:0:0:0:
64,192,265746,1,0,0:0:0:0:
320,192,265746,1,0,0:0:0:0:
320,192,265919,128,0,266091:0:0:0:0:
64,192,265919,1,0,0:0:0:0:
192,192,265919,1,0,0:0:0:0:
448,192,265919,1,0,0:0:0:0:
448,192,266091,1,0,0:0:0:0:
320,192,266177,1,0,0:0:0:0:
192,192,266263,128,0,266694:0:0:0:0:
64,192,266263,1,0,0:0:0:0:
448,192,266263,1,0,0:0:0:0:
448,192,266436,1,0,0:0:0:0:
320,192,266608,1,0,0:0:0:0:
448,192,266608,1,0,0:0:0:0:
64,192,266608,1,0,0:0:0:0:
320,192,266781,128,0,267039:0:0:0:0:
64,192,266781,1,0,0:0:0:0:
192,192,266867,1,0,0:0:0:0:
448,192,266953,1,0,0:0:0:0:
64,192,267039,1,0,0:0:0:0:
192,192,267125,128,0,267212:0:0:0:0:
320,192,267125,1,0,0:0:0:0:
448,192,267125,1,0,0:0:0:0:
320,192,267298,128,0,267470:0:0:0:0:
64,192,267298,1,0,0:0:0:0:
192,192,267298,1,0,0:0:0:0:
448,192,267298,1,0,0:0:0:0:
64,192,267470,1,0,0:0:0:0:
320,192,267557,1,0,0:0:0:0:
448,192,267643,128,0,268505:0:0:0:0:
192,192,267643,1,0,0:0:0:0:
64,192,267643,1,0,0:0:0:0:
320,192,267815,1,0,0:0:0:0:
64,192,267988,1,0,0:0:0:0:
192,192,267988,1,0,0:0:0:0:
320,192,267988,1,0,0:0:0:0:
192,192,268160,1,0,0:0:0:0:
64,192,268246,1,0,0:0:0:0:
320,192,268332,1,0,0:0:0:0:
192,192,268419,1,0,0:0:0:0:
64,192,268505,1,0,0:0:0:0:
320,192,268505,1,0,0:0:0:0:
448,192,268677,128,0,268936:0:0:0:0:
64,192,268677,1,0,0:0:0:0:
192,192,268677,1,0,0:0:0:0:
320,192,268677,1,0,0:0:0:0:
192,192,268850,1,0,0:0:0:0:
320,192,268936,1,0,0:0:0:0:
192,192,269022,128,0,269539:0:0:0:0:
64,192,269022,1,0,0:0:0:0:
448,192,269022,1,0,0:0:0:0:
448,192,269194,1,0,0:0:0:0:
320,192,269367,1,0,0:0:0:0:
448,192,269367,1,0,0:0:0:0:
64,192,269367,1,0,0:0:0:0:
320,192,269539,1,0,0:0:0:0:
448,192,269625,1,0,0:0:0:0:
192,192,269712,128,0,270057:0:0:0:0:
64,192,269712,1,0,0:0:0:0:
448,192,269798,1,0,0:0:0:0:
320,192,269884,1,0,0:0:0:0:
64,192,269884,1,0,0:0:0:0:
448,192,270057,1,0,0:0:0:0:
64,192,270057,1,0,0:0:0:0:
320,192,270057,1,0,0:0:0:0:
448,192,270229,1,0,0:0:0:0:
192,192,270315,1,0,0:0:0:0:
64,192,270401,1,0,0:0:0:0:
320,192,270401,1,0,0:0:0:0:
448,192,270401,1,0,0:0:0:0:
64,192,270574,128,0,270832:0:0:0:0:
192,192,270574,1,0,0:0:0:0:
192,192,270746,1,0,0:0:0:0:
320,192,270746,1,0,0:0:0:0:
448,192,270746,1,0,0:0:0:0:
320,192,270919,128,0,271350:0:0:0:0:
448,192,270919,1,0,0:0:0:0:
192,192,271005,1,0,0:0:0:0:
64,192,271091,1,0,0:0:0:0:
192,192,271177,1,0,0:0:0:0:
64,192,271263,1,0,0:0:0:0:
448,192,271263,1,0,0:0:0:0:
64,192,271436,1,0,0:0:0:0:
320,192,271436,1,0,0:0:0:0:
448,192,271436,1,0,0:0:0:0:
192,192,271436,128,0,271608:0:0:0:0:
448,192,271608,1,0,0:0:0:0:
192,192,271694,1,0,0:0:0:0:
320,192,271781,128,0,272212:0:0:0:0:
448,192,271781,1,0,0:0:0:0:
64,192,271781,1,0,0:0:0:0:
64,192,271953,1,0,0:0:0:0:
64,192,272125,1,0,0:0:0:0:
192,192,272125,1,0,0:0:0:0:
448,192,272125,1,0,0:0:0:0:
448,192,272298,128,0,272557:0:0:0:0:
192,192,272298,1,0,0:0:0:0:
320,192,272384,1,0,0:0:0:0:
64,192,272470,1,0,0:0:0:0:
320,192,272557,1,0,0:0:0:0:
192,192,272643,128,0,273074:0:0:0:0:
448,192,272643,1,0,0:0:0:0:
64,192,272643,1,0,0:0:0:0:
64,192,272815,1,0,0:0:0:0:
320,192,272815,1,0,0:0:0:0:
448,192,272815,1,0,0:0:0:0:
320,192,272988,1,0,0:0:0:0:
448,192,273074,1,0,0:0:0:0:
320,192,273160,128,0,273591:0:0:0:0:
64,192,273160,1,0,0:0:0:0:
192,192,273160,1,0,0:0:0:0:
192,192,273332,1,0,0:0:0:0:
64,192,273505,1,0,0:0:0:0:
192,192,273505,1,0,0:0:0:0:
448,192,273505,1,0,0:0:0:0:
320,192,273677,128,0,273936:0:0:0:0:
64,192,273677,1,0,0:0:0:0:
448,192,273763,1,0,0:0:0:0:
192,192,273850,1,0,0:0:0:0:
448,192,273936,1,0,0:0:0:0:
192,192,274022,128,0,274108:0:0:0:0:
320,192,274022,1,0,0:0:0:0:
64,192,274022,1,0,0:0:0:0:
320,192,274194,128,0,274625:0:0:0:0:
64,192,274194,1,0,0:0:0:0:
192,192,274194,1,0,0:0:0:0:
448,192,274194,1,0,0:0:0:0:
64,192,274367,1,0,0:0:0:0:
192,192,274453,1,0,0:0:0:0:
448,192,274539,1,0,0:0:0:0:
64,192,274539,1,0,0:0:0:0:
320,192,274712,128,0,274970:0:0:0:0:
192,192,274712,1,0,0:0:0:0:
64,192,274884,1,0,0:0:0:0:
192,192,274884,1,0,0:0:0:0:
448,192,274884,1,0,0:0:0:0:
192,192,275057,128,0,275143:0:0:0:0:
64,192,275057,1,0,0:0:0:0:
448,192,275143,1,0,0:0:0:0:
320,192,275229,128,0,275315:0:0:0:0:
192,192,275229,1,0,0:0:0:0:
64,192,275315,1,0,0:0:0:0:
192,192,275401,128,0,275488:0:0:0:0:
320,192,275401,1,0,0:0:0:0:
448,192,275401,1,0,0:0:0:0:
448,192,275574,128,0,275660:0:0:0:0:
320,192,275574,1,0,0:0:0:0:
192,192,275574,1,0,0:0:0:0:
64,192,275574,1,0,0:0:0:0:
320,192,275746,128,0,275832:0:0:0:0:
64,192,275746,1,0,0:0:0:0:
192,192,275832,1,0,0:0:0:0:
448,192,275919,128,0,276350:0:0:0:0:
320,192,275919,1,0,0:0:0:0:
64,192,275919,1,0,0:0:0:0:
192,192,276091,1,0,0:0:0:0:
320,192,276263,1,0,0:0:0:0:
192,192,276263,1,0,0:0:0:0:
64,192,276263,1,0,0:0:0:0:
192,192,276436,128,0,276694:0:0:0:0:
320,192,276436,1,0,0:0:0:0:
64,192,276522,1,0,0:0:0:0:
448,192,276608,1,0,0:0:0:0:
64,192,276694,1,0,0:0:0:0:
320,192,276781,128,0,276867:0:0:0:0:
448,192,276781,1,0,0:0:0:0:
192,192,276781,1,0,0:0:0:0:
192,192,276953,128,0,277125:0:0:0:0:
448,192,276953,1,0,0:0:0:0:
320,192,276953,1,0,0:0:0:0:
64,192,276953,1,0,0:0:0:0:
64,192,277125,1,0,0:0:0:0:
192,192,277212,1,0,0:0:0:0:
320,192,277298,128,0,277729:0:0:0:0:
448,192,277298,1,0,0:0:0:0:
64,192,277298,1,0,0:0:0:0:
64,192,277470,1,0,0:0:0:0:
192,192,277643,1,0,0:0:0:0:
64,192,277643,1,0,0:0:0:0:
448,192,277643,1,0,0:0:0:0:
192,192,277815,128,0,278074:0:0:0:0:
448,192,277815,1,0,0:0:0:0:
320,192,277901,1,0,0:0:0:0:
64,192,277988,1,0,0:0:0:0:
448,192,278074,1,0,0:0:0:0:
320,192,278160,128,0,278246:0:0:0:0:
192,192,278160,1,0,0:0:0:0:
64,192,278160,1,0,0:0:0:0:
192,192,278332,128,0,278505:0:0:0:0:
448,192,278332,1,0,0:0:0:0:
320,192,278332,1,0,0:0:0:0:
64,192,278332,1,0,0:0:0:0:
448,192,278505,1,0,0:0:0:0:
192,192,278591,1,0,0:0:0:0:
64,192,278677,128,0,279539:0:0:0:0:
320,192,278677,1,0,0:0:0:0:
448,192,278677,1,0,0:0:0:0:
192,192,278850,1,0,0:0:0:0:
448,192,279022,1,0,0:0:0:0:
320,192,279022,1,0,0:0:0:0:
192,192,279022,1,0,0:0:0:0:
320,192,279194,1,0,0:0:0:0:
448,192,279281,1,0,0:0:0:0:
192,192,279367,1,0,0:0:0:0:
320,192,279453,1,0,0:0:0:0:
448,192,279539,1,0,0:0:0:0:
192,192,279539,1,0,0:0:0:0:
64,192,279712,128,0,279970:0:0:0:0:
448,192,279712,1,0,0:0:0:0:
320,192,279712,1,0,0:0:0:0:
192,192,279712,1,0,0:0:0:0:
320,192,279884,1,0,0:0:0:0:
192,192,279970,1,0,0:0:0:0:
320,192,280057,128,0,280574:0:0:0:0:
448,192,280057,1,0,0:0:0:0:
64,192,280057,1,0,0:0:0:0:
64,192,280229,1,0,0:0:0:0:
192,192,280401,1,0,0:0:0:0:
64,192,280401,1,0,0:0:0:0:
448,192,280401,1,0,0:0:0:0:
192,192,280574,1,0,0:0:0:0:
64,192,280660,1,0,0:0:0:0:
320,192,280746,128,0,281091:0:0:0:0:
448,192,280746,1,0,0:0:0:0:
64,192,280832,1,0,0:0:0:0:
192,192,280919,1,0,0:0:0:0:
448,192,280919,1,0,0:0:0:0:
64,192,281091,1,0,0:0:0:0:
448,192,281091,1,0,0:0:0:0:
192,192,281091,1,0,0:0:0:0:
64,192,281263,1,0,0:0:0:0:
320,192,281350,1,0,0:0:0:0:
448,192,281436,1,0,0:0:0:0:
192,192,281436,1,0,0:0:0:0:
64,192,281436,1,0,0:0:0:0:
448,192,281608,128,0,281867:0:0:0:0:
320,192,281608,1,0,0:0:0:0:
320,192,281781,1,0,0:0:0:0:
192,192,281781,1,0,0:0:0:0:
64,192,281781,1,0,0:0:0:0:
192,192,281953,128,0,282384:0:0:0:0:
64,192,281953,1,0,0:0:0:0:
320,192,282039,1,0,0:0:0:0:
448,192,282125,1,0,0:0:0:0:
320,192,282212,1,0,0:0:0:0:
448,192,282298,1,0,0:0:0:0:
64,192,282298,1,0,0:0:0:0:
448,192,282470,1,0,0:0:0:0:
192,192,282470,1,0,0:0:0:0:
64,192,282470,1,0,0:0:0:0:
320,192,282470,128,0,282643:0:0:0:0:
64,192,282643,1,0,0:0:0:0:
320,192,282729,1,0,0:0:0:0:
192,192,282815,128,0,283246:0:0:0:0:
64,192,282815,1,0,0:0:0:0:
448,192,282815,1,0,0:0:0:0:
448,192,282988,1,0,0:0:0:0:
448,192,283160,1,0,0:0:0:0:
320,192,283160,1,0,0:0:0:0:
64,192,283160,1,0,0:0:0:0:
64,192,283332,128,0,283591:0:0:0:0:
320,192,283332,1,0,0:0:0:0:
192,192,283419,1,0,0:0:0:0:
448,192,283505,1,0,0:0:0:0:
192,192,283591,1,0,0:0:0:0:
320,192,283677,128,0,284108:0:0:0:0:
64,192,283677,1,0,0:0:0:0:
448,192,283677,1,0,0:0:0:0:
448,192,283850,1,0,0:0:0:0:
192,192,283850,1,0,0:0:0:0:
64,192,283850,1,0,0:0:0:0:
192,192,284022,1,0,0:0:0:0:
64,192,284108,1,0,0:0:0:0:
192,192,284194,128,0,284625:0:0:0:0:
448,192,284194,1,0,0:0:0:0:
320,192,284194,1,0,0:0:0:0:
320,192,284367,1,0,0:0:0:0:
448,192,284539,1,0,0:0:0:0:
320,192,284539,1,0,0:0:0:0:
64,192,284539,1,0,0:0:0:0:
192,192,284712,128,0,284970:0:0:0:0:
448,192,284712,1,0,0:0:0:0:
64,192,284798,1,0,0:0:0:0:
320,192,284884,1,0,0:0:0:0:
64,192,284970,1,0,0:0:0:0:
320,192,285057,128,0,285143:0:0:0:0:
192,192,285057,1,0,0:0:0:0:
448,192,285057,1,0,0:0:0:0:
192,192,285229,128,0,285660:0:0:0:0:
448,192,285229,1,0,0:0:0:0:
320,192,285229,1,0,0:0:0:0:
64,192,285229,1,0,0:0:0:0:
448,192,285401,1,0,0:0:0:0:
320,192,285488,1,0,0:0:0:0:
64,192,285574,1,0,0:0:0:0:
448,192,285574,1,0,0:0:0:0:
192,192,285746,128,0,286005:0:0:0:0:
320,192,285746,1,0,0:0:0:0:
448,192,285919,1,0,0:0:0:0:
320,192,285919,1,0,0:0:0:0:
64,192,285919,1,0,0:0:0:0:
320,192,286091,128,0,286177:0:0:0:0:
448,192,286091,1,0,0:0:0:0:
64,192,286177,1,0,0:0:0:0:
192,192,286263,128,0,286350:0:0:0:0:
448,192,286263,1,0,0:0:0:0:
320,192,286436,128,0,286522:0:0:0:0:
64,192,286436,1,0,0:0:0:0:
64,192,286608,128,0,286694:0:0:0:0:
192,192,286608,1,0,0:0:0:0:
192,192,286781,128,0,286867:0:0:0:0:
448,192,286781,1,0,0:0:0:0:
320,192,286953,128,0,293850:0:0:0:0:
64,192,286953,128,0,293850:0:0:0:0:
