osu file format v14

[General]
AudioFilename: Play.mp3
AudioLeadIn: 0
PreviewTime: 187488
Countdown: 0
SampleSet: Soft
StackLeniency: 0.7
Mode: 3
LetterboxInBreaks: 0
SpecialStyle: 0
WidescreenStoryboard: 1

[Editor]
Bookmarks: 32688,40917,54631,79317,120460,186288,208231,231546
DistanceSpacing: 0.8
BeatDivisor: 2
GridSize: 32
TimelineZoom: 3.299999

[Metadata]
Title:Pis's EDM Mania Pack Vol.2
TitleUnicode:Pis's EDM Mania Pack Vol.2
Artist:Various Artist
ArtistUnicode:Various Artist
Creator:PisRyder
Version:Play - 4K
Source:
Tags:
BeatmapID:979582
BeatmapSetID:452032

[Difficulty]
HPDrainRate:8
CircleSize:4
OverallDifficulty:8
ApproachRate:5
SliderMultiplier:1.4
SliderTickRate:1

[Events]
//Background and Video events
0,0,"4.jpg",0,0
//Break Periods
//Storyboard Layer 0 (Background)
Sprite,Background,TopLeft,"4.jpg",0,0
//Storyboard Layer 1 (Fail)
//Storyboard Layer 2 (Pass)
//Storyboard Layer 3 (Foreground)
Sprite,Foreground,TopLeft,"SB\Play\BG.jpg",-122,-9 S,0,-8000,,0.647 F,0,-8000,0,0,1 C,0,-8000,253023,100,100,100 F,0,253023,256023,1,0
Animation,Foreground,TopLeft,"SB\Particle\P.png",-122,-9,90,20,LoopForever S,0,-8000,,0.647 F,0,-8000,0,0,1 F,0,253023,256023,1,0
Sprite,Foreground,CentreLeft,"SB\Bar.png",510,271 V,0,-5000,-4000,0,0.647,0.647,0.647 F,0,-5000,253023,1
Sprite,Foreground,CentreLeft,"SB\BarColor.png",525,268.5 V,0,-3000,,0.616,0.647 F,0,-3000,-2900,0,1 C,0,-3000,253023,200,200,200 F,0,-2900,-2800,1,0 F,0,-2800,-2700,0,1 F,0,-2700,253023,1
Animation,Foreground,CentreLeft,"SB\BarC.png",525,268.5,90,20,LoopForever F,0,0,253023,1 C,0,0,253023,255,0,0 V,0,0,253023,0,0.647,0.616,0.647
Animation,Foreground,Centre,"SB\Disk.png",510,268,60,20,LoopForever V,0,-7000,-6000,0,0,0.8,0.8 F,0,-7000,-5500,0,1 V,0,-6000,-5500,0.8,0.8,0.648,0.648 F,0,-5500,253023,1
Sprite,Foreground,CentreLeft,"SB\Play\Text.png",528,279 S,0,-3000,,0.647 F,0,-3000,-2900,0,1 F,0,-2900,-2800,1,0 F,0,-2800,-2700,0,1 F,0,-2700,253023,1
//Storyboard Sound Samples

[TimingPoints]
1146,342.857142857143,4,2,1,5,1,0
55660,-66.6666666666667,4,2,1,5,0,0
55831,-100,4,2,1,5,0,0
56003,-80,4,2,1,5,0,1
56174,-100,4,2,1,5,0,1
61488,-80,4,2,1,5,0,1
61660,-100,4,2,1,5,0,1
64231,-80,4,2,1,5,0,1
64403,-100,4,2,1,5,0,1
66974,-80,4,2,1,5,0,1
67146,-100,4,2,1,5,0,1
72460,-80,4,2,1,5,0,1
72631,-100,4,2,1,5,0,1
77946,-100,4,2,1,5,0,0
80688,-80,4,2,1,5,0,0
80860,-100,4,2,1,5,0,0
83431,-80,4,2,1,5,0,0
83603,-100,4,2,1,5,0,0
87460,-90.9090909090909,4,2,1,5,0,0
88917,-80,4,2,1,5,0,0
89088,-100,4,2,1,5,0,0
91660,-80,4,2,1,5,0,0
91831,-100,4,2,1,5,0,0
94403,-80,4,2,1,5,0,0
94574,-100,4,2,1,5,0,0
99546,-66.6666666666667,4,2,1,5,0,0
99717,-100,4,2,1,5,0,0
99888,-100,4,2,1,5,0,1
109403,-83.3333333333333,4,2,1,5,0,1
110860,-100,4,2,1,5,0,1
121831,-100,4,2,1,5,0,0
146174,-66.6666666666667,4,2,1,5,0,0
146346,-100,4,2,1,5,0,0
146517,-100,4,2,1,5,0,1
149260,-80,4,2,1,5,0,1
149431,-100,4,2,1,5,0,1
152003,-80,4,2,1,5,0,1
152174,-100,4,2,1,5,0,1
154746,-80,4,2,1,5,0,1
154917,-100,4,2,1,5,0,1
160231,-80,4,2,1,5,0,1
160403,-100,4,2,1,5,0,1
165717,-100,4,2,1,5,0,0
168460,-80,4,2,1,5,0,0
168631,-100,4,2,1,5,0,0
171203,-80,4,2,1,5,0,0
171374,-100,4,2,1,5,0,0
175231,-90.9090909090909,4,2,1,5,0,0
176688,-80,4,2,1,5,0,0
176860,-100,4,2,1,5,0,0
179431,-80,4,2,1,5,0,0
179603,-100,4,2,1,5,0,0
182174,-80,4,2,1,5,0,0
182346,-100,4,2,1,5,0,0
187317,-66.6666666666667,4,2,1,5,0,0
187488,-100,4,2,1,5,0,0
187660,-100,4,2,1,5,0,1
197174,-83.3333333333333,4,2,1,5,0,1
198631,-100,4,2,1,5,0,1
219117,-83.3333333333333,4,2,1,5,0,1
220574,-100,4,2,1,5,0,1
231546,-100,4,2,1,5,0,0
244346,-400,4,2,1,5,0,0

[HitObjects]
64,192,3888,128,0,4746:0:0:0:0:
448,192,4403,1,0,0:0:0:0:
320,192,4488,1,0,0:0:0:0:
192,192,4574,1,0,0:0:0:0:
448,192,5003,1,0,0:0:0:0:
320,192,5003,1,0,0:0:0:0:
192,192,5088,1,0,0:0:0:0:
64,192,5088,1,0,0:0:0:0:
320,192,5688,128,0,6117:0:0:0:0:
192,192,5688,128,0,6117:0:0:0:0:
448,192,6203,128,0,6717:0:0:0:0:
320,192,6717,1,0,0:0:0:0:
192,192,6760,1,0,0:0:0:0:
64,192,6803,1,0,0:0:0:0:
192,192,6846,1,0,0:0:0:0:
320,192,6888,1,0,0:0:0:0:
448,192,6931,1,0,0:0:0:0:
320,192,6974,1,0,0:0:0:0:
192,192,7017,1,0,0:0:0:0:
64,192,7060,1,0,0:0:0:0:
192,192,7088,1,0,0:0:0:0:
320,192,7117,1,0,0:0:0:0:
448,192,7146,1,0,0:0:0:0:
320,192,7317,128,0,7574:0:0:0:0:
64,192,7574,1,0,0:0:0:0:
448,192,7574,1,0,0:0:0:0:
192,192,7660,1,0,0:0:0:0:
448,192,7831,1,0,0:0:0:0:
192,192,8088,1,0,0:0:0:0:
448,192,8174,1,0,0:0:0:0:
64,192,8260,1,0,0:0:0:0:
192,192,8346,1,0,0:0:0:0:
320,192,8431,1,0,0:0:0:0:
448,192,8517,128,0,8688:0:0:0:0:
64,192,8688,1,0,0:0:0:0:
192,192,8774,1,0,0:0:0:0:
448,192,8860,1,0,0:0:0:0:
320,192,8946,1,0,0:0:0:0:
64,192,9117,1,0,0:0:0:0:
448,192,9203,1,0,0:0:0:0:
320,192,9288,1,0,0:0:0:0:
64,192,9374,1,0,0:0:0:0:
192,192,9417,1,0,0:0:0:0:
448,192,9460,1,0,0:0:0:0:
320,192,9503,1,0,0:0:0:0:
64,192,9546,1,0,0:0:0:0:
192,192,9588,1,0,0:0:0:0:
448,192,9631,1,0,0:0:0:0:
320,192,9674,1,0,0:0:0:0:
64,192,9717,1,0,0:0:0:0:
192,192,9760,1,0,0:0:0:0:
448,192,9803,128,0,9888:0:0:0:0:
64,192,9888,128,0,10060:0:0:0:0:
192,192,10103,1,0,0:0:0:0:
448,192,10146,1,0,0:0:0:0:
320,192,10188,1,0,0:0:0:0:
64,192,10231,1,0,0:0:0:0:
192,192,10274,1,0,0:0:0:0:
448,192,10317,1,0,0:0:0:0:
320,192,10360,1,0,0:0:0:0:
64,192,10403,1,0,0:0:0:0:
192,192,10446,1,0,0:0:0:0:
448,192,10488,1,0,0:0:0:0:
320,192,10531,1,0,0:0:0:0:
64,192,10574,1,0,0:0:0:0:
192,192,10617,1,0,0:0:0:0:
448,192,10660,1,0,0:0:0:0:
320,192,10703,1,0,0:0:0:0:
64,192,10746,1,0,0:0:0:0:
192,192,10788,1,0,0:0:0:0:
448,192,10831,1,0,0:0:0:0:
320,192,10874,1,0,0:0:0:0:
64,192,10917,1,0,0:0:0:0:
192,192,10960,1,0,0:0:0:0:
448,192,11003,1,0,0:0:0:0:
320,192,11046,1,0,0:0:0:0:
64,192,11088,1,0,0:0:0:0:
192,192,11131,1,0,0:0:0:0:
448,192,11174,1,0,0:0:0:0:
320,192,11217,1,0,0:0:0:0:
64,192,11260,1,0,0:0:0:0:
192,192,11303,1,0,0:0:0:0:
448,192,11346,1,0,0:0:0:0:
320,192,11388,1,0,0:0:0:0:
64,192,11431,1,0,0:0:0:0:
192,192,11460,1,0,0:0:0:0:
448,192,11488,1,0,0:0:0:0:
320,192,11517,1,0,0:0:0:0:
64,192,11546,1,0,0:0:0:0:
192,192,11574,1,0,0:0:0:0:
448,192,11603,1,0,0:0:0:0:
320,192,11631,1,0,0:0:0:0:
64,192,11660,1,0,0:0:0:0:
192,192,11688,1,0,0:0:0:0:
448,192,11717,1,0,0:0:0:0:
320,192,11746,1,0,0:0:0:0:
64,192,11774,1,0,0:0:0:0:
192,192,11803,1,0,0:0:0:0:
448,192,11831,1,0,0:0:0:0:
320,192,11860,1,0,0:0:0:0:
64,192,11888,1,0,0:0:0:0:
192,192,11917,1,0,0:0:0:0:
448,192,11946,1,0,0:0:0:0:
320,192,11974,1,0,0:0:0:0:
64,192,12003,1,0,0:0:0:0:
192,192,12031,1,0,0:0:0:0:
448,192,12060,1,0,0:0:0:0:
320,192,12088,1,0,0:0:0:0:
448,192,12117,128,0,12460:0:0:0:0:
64,192,12117,1,0,0:0:0:0:
192,192,12117,1,0,0:0:0:0:
192,192,12288,1,0,0:0:0:0:
320,192,12460,1,0,0:0:0:0:
320,192,12631,128,0,12974:0:0:0:0:
192,192,12631,1,0,0:0:0:0:
448,192,12803,1,0,0:0:0:0:
64,192,12803,1,0,0:0:0:0:
192,192,12974,1,0,0:0:0:0:
448,192,13146,1,0,0:0:0:0:
192,192,13146,128,0,13488:0:0:0:0:
64,192,13146,128,0,13831:0:0:0:0:
320,192,13317,1,0,0:0:0:0:
320,192,13488,1,0,0:0:0:0:
448,192,13488,1,0,0:0:0:0:
192,192,13660,1,0,0:0:0:0:
320,192,13831,1,0,0:0:0:0:
448,192,14003,1,0,0:0:0:0:
320,192,14174,1,0,0:0:0:0:
64,192,14174,1,0,0:0:0:0:
192,192,14346,1,0,0:0:0:0:
64,192,14517,1,0,0:0:0:0:
320,192,14688,1,0,0:0:0:0:
448,192,14860,1,0,0:0:0:0:
192,192,14860,1,0,0:0:0:0:
64,192,15031,1,0,0:0:0:0:
320,192,15203,1,0,0:0:0:0:
448,192,15374,128,0,15717:0:0:0:0:
192,192,15374,1,0,0:0:0:0:
64,192,15546,1,0,0:0:0:0:
320,192,15546,1,0,0:0:0:0:
192,192,15717,1,0,0:0:0:0:
320,192,15888,128,0,16231:0:0:0:0:
448,192,15888,1,0,0:0:0:0:
64,192,16060,1,0,0:0:0:0:
192,192,16231,128,0,17431:0:0:0:0:
448,192,16231,128,0,17431:0:0:0:0:
64,192,16231,1,0,0:0:0:0:
320,192,16403,1,0,0:0:0:0:
64,192,16574,1,0,0:0:0:0:
320,192,16746,1,0,0:0:0:0:
64,192,16917,1,0,0:0:0:0:
320,192,16917,1,0,0:0:0:0:
64,192,17088,1,0,0:0:0:0:
320,192,17260,1,0,0:0:0:0:
64,192,17431,1,0,0:0:0:0:
320,192,17603,1,0,0:0:0:0:
448,192,17603,128,0,17946:0:0:0:0:
64,192,17603,1,0,0:0:0:0:
192,192,17774,1,0,0:0:0:0:
64,192,17946,1,0,0:0:0:0:
320,192,18117,128,0,18460:0:0:0:0:
448,192,18117,1,0,0:0:0:0:
192,192,18288,1,0,0:0:0:0:
64,192,18288,1,0,0:0:0:0:
448,192,18460,1,0,0:0:0:0:
192,192,18631,128,0,18974:0:0:0:0:
320,192,18631,1,0,0:0:0:0:
64,192,18631,128,0,19660:0:0:0:0:
448,192,18803,1,0,0:0:0:0:
320,192,18974,1,0,0:0:0:0:
448,192,18974,1,0,0:0:0:0:
192,192,19146,1,0,0:0:0:0:
320,192,19317,1,0,0:0:0:0:
448,192,19488,1,0,0:0:0:0:
192,192,19660,1,0,0:0:0:0:
320,192,19660,1,0,0:0:0:0:
64,192,19831,1,0,0:0:0:0:
448,192,20003,1,0,0:0:0:0:
192,192,20174,1,0,0:0:0:0:
320,192,20346,1,0,0:0:0:0:
64,192,20346,1,0,0:0:0:0:
448,192,20517,1,0,0:0:0:0:
64,192,20688,1,0,0:0:0:0:
320,192,20860,1,0,0:0:0:0:
448,192,21031,1,0,0:0:0:0:
192,192,21031,128,0,21374:0:0:0:0:
64,192,21031,1,0,0:0:0:0:
320,192,21203,1,0,0:0:0:0:
448,192,21374,1,0,0:0:0:0:
320,192,21546,1,0,0:0:0:0:
192,192,21717,128,0,22917:0:0:0:0:
448,192,21717,1,0,0:0:0:0:
64,192,21717,1,0,0:0:0:0:
320,192,21717,128,0,22917:0:0:0:0:
64,192,21888,1,0,0:0:0:0:
448,192,22060,1,0,0:0:0:0:
64,192,22231,1,0,0:0:0:0:
64,192,22403,1,0,0:0:0:0:
448,192,22403,1,0,0:0:0:0:
448,192,22574,1,0,0:0:0:0:
64,192,22746,1,0,0:0:0:0:
448,192,22917,1,0,0:0:0:0:
448,192,23088,128,0,23431:0:0:0:0:
320,192,23088,1,0,0:0:0:0:
64,192,23088,1,0,0:0:0:0:
192,192,23260,1,0,0:0:0:0:
64,192,23431,1,0,0:0:0:0:
320,192,23603,128,0,23946:0:0:0:0:
448,192,23603,1,0,0:0:0:0:
448,192,23774,1,0,0:0:0:0:
192,192,23774,1,0,0:0:0:0:
64,192,23946,1,0,0:0:0:0:
192,192,24117,128,0,24460:0:0:0:0:
64,192,24117,128,0,28403:0:0:0:0:
320,192,24117,1,0,0:0:0:0:
448,192,24288,1,0,0:0:0:0:
320,192,24460,1,0,0:0:0:0:
448,192,24460,1,0,0:0:0:0:
192,192,24631,1,0,0:0:0:0:
448,192,24803,1,0,0:0:0:0:
320,192,24974,1,0,0:0:0:0:
192,192,25146,1,0,0:0:0:0:
448,192,25146,1,0,0:0:0:0:
320,192,25317,1,0,0:0:0:0:
448,192,25488,1,0,0:0:0:0:
192,192,25660,1,0,0:0:0:0:
320,192,25831,1,0,0:0:0:0:
448,192,25831,1,0,0:0:0:0:
192,192,26003,1,0,0:0:0:0:
448,192,26174,1,0,0:0:0:0:
320,192,26346,1,0,0:0:0:0:
192,192,26517,1,0,0:0:0:0:
448,192,26517,1,0,0:0:0:0:
320,192,26688,1,0,0:0:0:0:
192,192,26860,1,0,0:0:0:0:
448,192,27031,1,0,0:0:0:0:
448,192,27203,128,0,28403:0:0:0:0:
192,192,27203,1,0,0:0:0:0:
320,192,27203,1,0,0:0:0:0:
192,192,27374,1,0,0:0:0:0:
320,192,27546,1,0,0:0:0:0:
192,192,27717,1,0,0:0:0:0:
192,192,27888,1,0,0:0:0:0:
320,192,27888,1,0,0:0:0:0:
320,192,28060,1,0,0:0:0:0:
192,192,28231,1,0,0:0:0:0:
320,192,28403,1,0,0:0:0:0:
448,192,28574,128,0,28917:0:0:0:0:
64,192,28574,1,0,0:0:0:0:
192,192,28574,1,0,0:0:0:0:
320,192,28746,1,0,0:0:0:0:
192,192,28917,1,0,0:0:0:0:
320,192,29088,128,0,29431:0:0:0:0:
64,192,29088,1,0,0:0:0:0:
448,192,29260,1,0,0:0:0:0:
192,192,29260,1,0,0:0:0:0:
64,192,29431,1,0,0:0:0:0:
192,192,29603,128,0,29946:0:0:0:0:
320,192,29603,1,0,0:0:0:0:
64,192,29603,128,0,32688:0:0:0:0:
448,192,29774,1,0,0:0:0:0:
320,192,29946,1,0,0:0:0:0:
448,192,29946,1,0,0:0:0:0:
192,192,30117,1,0,0:0:0:0:
448,192,30288,1,0,0:0:0:0:
320,192,30460,1,0,0:0:0:0:
192,192,30631,1,0,0:0:0:0:
448,192,30631,1,0,0:0:0:0:
320,192,30803,1,0,0:0:0:0:
192,192,30974,1,0,0:0:0:0:
448,192,31146,1,0,0:0:0:0:
320,192,31317,1,0,0:0:0:0:
192,192,31317,1,0,0:0:0:0:
448,192,31488,1,0,0:0:0:0:
320,192,31660,1,0,0:0:0:0:
192,192,31831,1,0,0:0:0:0:
320,192,32003,1,0,0:0:0:0:
448,192,32003,1,0,0:0:0:0:
192,192,32174,1,0,0:0:0:0:
320,192,32346,1,0,0:0:0:0:
448,192,32517,1,0,0:0:0:0:
320,192,32688,1,0,0:0:0:0:
192,192,32688,1,0,0:0:0:0:
448,192,32774,1,0,0:0:0:0:
64,192,32860,1,0,0:0:0:0:
192,192,32860,1,0,0:0:0:0:
320,192,32946,1,0,0:0:0:0:
448,192,33031,1,0,0:0:0:0:
64,192,33117,1,0,0:0:0:0:
320,192,33117,1,0,0:0:0:0:
192,192,33203,1,0,0:0:0:0:
320,192,33288,1,0,0:0:0:0:
448,192,33288,1,0,0:0:0:0:
64,192,33374,1,0,0:0:0:0:
192,192,33460,1,0,0:0:0:0:
448,192,33460,1,0,0:0:0:0:
320,192,33546,1,0,0:0:0:0:
64,192,33631,1,0,0:0:0:0:
192,192,33631,1,0,0:0:0:0:
448,192,33717,1,0,0:0:0:0:
320,192,33803,1,0,0:0:0:0:
192,192,33803,1,0,0:0:0:0:
64,192,33888,1,0,0:0:0:0:
192,192,33974,1,0,0:0:0:0:
448,192,33974,1,0,0:0:0:0:
320,192,34060,1,0,0:0:0:0:
64,192,34060,1,0,0:0:0:0:
192,192,34060,1,0,0:0:0:0:
448,192,34060,1,0,0:0:0:0:
64,192,34403,1,0,0:0:0:0:
320,192,34403,1,0,0:0:0:0:
448,192,34660,1,0,0:0:0:0:
320,192,34703,1,0,0:0:0:0:
192,192,34746,128,0,35517:0:0:0:0:
64,192,34746,1,0,0:0:0:0:
64,192,35088,1,0,0:0:0:0:
320,192,35088,1,0,0:0:0:0:
64,192,35431,1,0,0:0:0:0:
320,192,35431,1,0,0:0:0:0:
448,192,35688,128,0,35774:0:0:0:0:
64,192,35774,1,0,0:0:0:0:
320,192,35774,1,0,0:0:0:0:
64,192,36117,1,0,0:0:0:0:
320,192,36117,1,0,0:0:0:0:
448,192,36203,128,0,36288:0:0:0:0:
64,192,36460,1,0,0:0:0:0:
320,192,36460,1,0,0:0:0:0:
448,192,36631,128,0,36717:0:0:0:0:
192,192,36803,1,0,0:0:0:0:
64,192,36803,1,0,0:0:0:0:
320,192,36803,1,0,0:0:0:0:
448,192,36803,1,0,0:0:0:0:
192,192,37146,1,0,0:0:0:0:
64,192,37146,1,0,0:0:0:0:
192,192,37403,1,0,0:0:0:0:
320,192,37446,1,0,0:0:0:0:
448,192,37488,128,0,38260:0:0:0:0:
64,192,37488,1,0,0:0:0:0:
64,192,37831,1,0,0:0:0:0:
192,192,37831,1,0,0:0:0:0:
64,192,38174,1,0,0:0:0:0:
192,192,38174,1,0,0:0:0:0:
320,192,38431,128,0,38517:0:0:0:0:
192,192,38517,1,0,0:0:0:0:
64,192,38517,1,0,0:0:0:0:
64,192,38860,1,0,0:0:0:0:
192,192,38860,1,0,0:0:0:0:
320,192,38946,128,0,39031:0:0:0:0:
64,192,39203,1,0,0:0:0:0:
192,192,39203,1,0,0:0:0:0:
320,192,39374,128,0,39460:0:0:0:0:
192,192,39546,1,0,0:0:0:0:
448,192,39546,1,0,0:0:0:0:
64,192,39546,1,0,0:0:0:0:
320,192,39546,1,0,0:0:0:0:
192,192,39888,1,0,0:0:0:0:
448,192,39888,1,0,0:0:0:0:
320,192,40146,1,0,0:0:0:0:
192,192,40188,1,0,0:0:0:0:
64,192,40231,128,0,41003:0:0:0:0:
448,192,40231,1,0,0:0:0:0:
192,192,40574,1,0,0:0:0:0:
448,192,40574,1,0,0:0:0:0:
192,192,40917,1,0,0:0:0:0:
448,192,40917,1,0,0:0:0:0:
320,192,41174,128,0,41260:0:0:0:0:
192,192,41260,1,0,0:0:0:0:
448,192,41260,1,0,0:0:0:0:
192,192,41603,1,0,0:0:0:0:
448,192,41603,1,0,0:0:0:0:
320,192,41688,128,0,41774:0:0:0:0:
192,192,41946,1,0,0:0:0:0:
448,192,41946,1,0,0:0:0:0:
320,192,42117,128,0,42203:0:0:0:0:
192,192,42288,1,0,0:0:0:0:
448,192,42288,1,0,0:0:0:0:
64,192,42460,1,0,0:0:0:0:
320,192,42460,1,0,0:0:0:0:
192,192,42631,1,0,0:0:0:0:
320,192,42631,1,0,0:0:0:0:
64,192,42803,1,0,0:0:0:0:
192,192,42803,1,0,0:0:0:0:
320,192,42974,1,0,0:0:0:0:
448,192,42974,1,0,0:0:0:0:
64,192,43146,1,0,0:0:0:0:
320,192,43146,1,0,0:0:0:0:
192,192,43317,1,0,0:0:0:0:
448,192,43317,1,0,0:0:0:0:
320,192,43488,1,0,0:0:0:0:
448,192,43488,1,0,0:0:0:0:
64,192,43660,1,0,0:0:0:0:
192,192,43660,1,0,0:0:0:0:
448,192,43746,1,0,0:0:0:0:
192,192,43831,1,0,0:0:0:0:
320,192,43831,1,0,0:0:0:0:
64,192,43917,1,0,0:0:0:0:
192,192,44003,1,0,0:0:0:0:
448,192,44003,1,0,0:0:0:0:
320,192,44088,1,0,0:0:0:0:
64,192,44174,1,0,0:0:0:0:
192,192,44174,1,0,0:0:0:0:
448,192,44260,1,0,0:0:0:0:
320,192,44346,1,0,0:0:0:0:
64,192,44346,1,0,0:0:0:0:
192,192,44431,1,0,0:0:0:0:
320,192,44517,1,0,0:0:0:0:
448,192,44517,1,0,0:0:0:0:
64,192,44603,1,0,0:0:0:0:
192,192,44688,1,0,0:0:0:0:
320,192,44688,1,0,0:0:0:0:
448,192,44774,1,0,0:0:0:0:
64,192,44860,1,0,0:0:0:0:
320,192,44860,1,0,0:0:0:0:
192,192,44946,1,0,0:0:0:0:
320,192,45031,1,0,0:0:0:0:
448,192,45031,1,0,0:0:0:0:
64,192,45031,1,0,0:0:0:0:
64,192,45203,1,0,0:0:0:0:
192,192,45203,1,0,0:0:0:0:
320,192,45203,1,0,0:0:0:0:
64,192,45374,1,0,0:0:0:0:
192,192,45374,1,0,0:0:0:0:
448,192,45374,1,0,0:0:0:0:
192,192,45546,1,0,0:0:0:0:
320,192,45546,1,0,0:0:0:0:
448,192,45546,1,0,0:0:0:0:
64,192,45717,1,0,0:0:0:0:
192,192,45717,1,0,0:0:0:0:
320,192,45717,1,0,0:0:0:0:
64,192,45888,1,0,0:0:0:0:
320,192,45888,1,0,0:0:0:0:
448,192,45888,1,0,0:0:0:0:
64,192,46060,1,0,0:0:0:0:
192,192,46060,1,0,0:0:0:0:
448,192,46060,1,0,0:0:0:0:
448,192,46231,1,0,0:0:0:0:
320,192,46231,1,0,0:0:0:0:
192,192,46231,1,0,0:0:0:0:
64,192,46403,1,0,0:0:0:0:
320,192,46403,1,0,0:0:0:0:
448,192,46403,1,0,0:0:0:0:
64,192,46574,1,0,0:0:0:0:
192,192,46574,1,0,0:0:0:0:
320,192,46574,1,0,0:0:0:0:
64,192,46746,1,0,0:0:0:0:
448,192,46746,1,0,0:0:0:0:
192,192,46746,1,0,0:0:0:0:
448,192,46917,1,0,0:0:0:0:
320,192,46917,1,0,0:0:0:0:
64,192,46917,1,0,0:0:0:0:
64,192,47088,1,0,0:0:0:0:
192,192,47088,1,0,0:0:0:0:
320,192,47088,1,0,0:0:0:0:
192,192,47260,1,0,0:0:0:0:
320,192,47260,1,0,0:0:0:0:
448,192,47260,1,0,0:0:0:0:
64,192,47431,1,0,0:0:0:0:
192,192,47431,1,0,0:0:0:0:
448,192,47431,1,0,0:0:0:0:
448,192,47603,1,0,0:0:0:0:
320,192,47603,1,0,0:0:0:0:
64,192,47603,1,0,0:0:0:0:
64,192,47774,1,0,0:0:0:0:
192,192,47774,1,0,0:0:0:0:
320,192,47774,1,0,0:0:0:0:
64,192,47946,1,0,0:0:0:0:
192,192,47946,1,0,0:0:0:0:
448,192,47946,1,0,0:0:0:0:
192,192,48117,1,0,0:0:0:0:
320,192,48117,1,0,0:0:0:0:
448,192,48117,1,0,0:0:0:0:
64,192,48288,1,0,0:0:0:0:
192,192,48288,1,0,0:0:0:0:
320,192,48288,1,0,0:0:0:0:
64,192,48460,1,0,0:0:0:0:
320,192,48460,1,0,0:0:0:0:
448,192,48460,1,0,0:0:0:0:
192,192,48631,1,0,0:0:0:0:
64,192,48631,1,0,0:0:0:0:
448,192,48631,1,0,0:0:0:0:
448,192,48803,1,0,0:0:0:0:
320,192,48803,1,0,0:0:0:0:
192,192,48803,1,0,0:0:0:0:
64,192,48974,1,0,0:0:0:0:
448,192,48974,1,0,0:0:0:0:
320,192,48974,1,0,0:0:0:0:
64,192,49146,1,0,0:0:0:0:
192,192,49146,1,0,0:0:0:0:
320,192,49146,1,0,0:0:0:0:
448,192,49317,1,0,0:0:0:0:
320,192,49317,1,0,0:0:0:0:
192,192,49317,1,0,0:0:0:0:
64,192,49488,1,0,0:0:0:0:
192,192,49488,1,0,0:0:0:0:
448,192,49488,1,0,0:0:0:0:
64,192,49660,1,0,0:0:0:0:
320,192,49660,1,0,0:0:0:0:
448,192,49660,1,0,0:0:0:0:
192,192,49831,1,0,0:0:0:0:
64,192,49831,1,0,0:0:0:0:
320,192,49831,1,0,0:0:0:0:
448,192,50003,1,0,0:0:0:0:
64,192,50003,1,0,0:0:0:0:
192,192,50003,1,0,0:0:0:0:
192,192,50174,1,0,0:0:0:0:
320,192,50174,1,0,0:0:0:0:
448,192,50174,1,0,0:0:0:0:
64,192,50346,1,0,0:0:0:0:
320,192,50346,1,0,0:0:0:0:
448,192,50346,1,0,0:0:0:0:
64,192,50517,1,0,0:0:0:0:
192,192,50517,1,0,0:0:0:0:
320,192,50517,1,0,0:0:0:0:
448,192,50688,1,0,0:0:0:0:
320,192,50688,1,0,0:0:0:0:
192,192,50688,1,0,0:0:0:0:
64,192,50860,1,0,0:0:0:0:
192,192,50860,1,0,0:0:0:0:
448,192,50860,1,0,0:0:0:0:
448,192,51031,1,0,0:0:0:0:
320,192,51031,1,0,0:0:0:0:
64,192,51031,1,0,0:0:0:0:
64,192,51203,1,0,0:0:0:0:
192,192,51203,1,0,0:0:0:0:
320,192,51203,1,0,0:0:0:0:
64,192,51374,1,0,0:0:0:0:
192,192,51374,1,0,0:0:0:0:
448,192,51374,1,0,0:0:0:0:
448,192,51546,1,0,0:0:0:0:
320,192,51546,1,0,0:0:0:0:
192,192,51546,1,0,0:0:0:0:
64,192,51717,1,0,0:0:0:0:
320,192,51717,1,0,0:0:0:0:
448,192,51717,1,0,0:0:0:0:
192,192,51888,1,0,0:0:0:0:
64,192,51888,1,0,0:0:0:0:
320,192,51888,1,0,0:0:0:0:
192,192,52060,1,0,0:0:0:0:
320,192,52060,1,0,0:0:0:0:
448,192,52060,1,0,0:0:0:0:
64,192,52231,1,0,0:0:0:0:
192,192,52231,1,0,0:0:0:0:
448,192,52231,1,0,0:0:0:0:
448,192,52403,1,0,0:0:0:0:
320,192,52403,1,0,0:0:0:0:
64,192,52403,1,0,0:0:0:0:
64,192,52574,1,0,0:0:0:0:
192,192,52574,1,0,0:0:0:0:
320,192,52574,1,0,0:0:0:0:
448,192,52746,1,0,0:0:0:0:
64,192,52746,1,0,0:0:0:0:
192,192,52746,1,0,0:0:0:0:
192,192,52917,1,0,0:0:0:0:
320,192,52917,1,0,0:0:0:0:
448,192,52917,1,0,0:0:0:0:
64,192,53088,1,0,0:0:0:0:
320,192,53088,1,0,0:0:0:0:
448,192,53088,1,0,0:0:0:0:
192,192,53260,1,0,0:0:0:0:
64,192,53260,1,0,0:0:0:0:
320,192,53346,1,0,0:0:0:0:
192,192,53431,1,0,0:0:0:0:
448,192,53431,1,0,0:0:0:0:
64,192,53517,1,0,0:0:0:0:
320,192,53603,1,0,0:0:0:0:
448,192,53603,1,0,0:0:0:0:
192,192,53688,1,0,0:0:0:0:
64,192,53774,1,0,0:0:0:0:
320,192,53774,1,0,0:0:0:0:
448,192,53860,1,0,0:0:0:0:
192,192,53946,1,0,0:0:0:0:
320,192,53946,1,0,0:0:0:0:
64,192,54031,1,0,0:0:0:0:
192,192,54117,1,0,0:0:0:0:
448,192,54117,1,0,0:0:0:0:
320,192,54203,1,0,0:0:0:0:
192,192,54288,1,0,0:0:0:0:
64,192,54288,1,0,0:0:0:0:
448,192,54374,1,0,0:0:0:0:
320,192,54460,1,0,0:0:0:0:
64,192,54460,1,0,0:0:0:0:
192,192,54546,1,0,0:0:0:0:
320,192,54631,1,0,0:0:0:0:
448,192,54631,1,0,0:0:0:0:
64,192,54717,1,0,0:0:0:0:
192,192,54803,1,0,0:0:0:0:
320,192,54803,1,0,0:0:0:0:
448,192,54888,1,0,0:0:0:0:
64,192,54974,1,0,0:0:0:0:
320,192,54974,1,0,0:0:0:0:
192,192,55060,1,0,0:0:0:0:
320,192,55146,1,0,0:0:0:0:
448,192,55146,1,0,0:0:0:0:
64,192,55231,1,0,0:0:0:0:
192,192,55317,1,0,0:0:0:0:
320,192,55403,1,0,0:0:0:0:
448,192,55488,1,0,0:0:0:0:
320,192,55574,1,0,0:0:0:0:
64,192,55660,1,0,0:0:0:0:
192,192,55703,1,0,0:0:0:0:
320,192,55746,1,0,0:0:0:0:
448,192,55788,1,0,0:0:0:0:
448,192,56003,1,0,0:0:0:0:
64,192,56003,128,0,56174:0:0:0:0:
192,192,56003,1,0,0:0:0:0:
448,192,56217,1,0,0:0:0:0:
320,192,56260,1,0,0:0:0:0:
192,192,56303,1,0,0:0:0:0:
64,192,56346,1,0,0:0:0:0:
448,192,56346,1,0,0:0:0:0:
320,192,56346,1,0,0:0:0:0:
448,192,56517,128,0,56688:0:0:0:0:
192,192,56517,1,0,0:0:0:0:
64,192,56603,1,0,0:0:0:0:
320,192,56688,1,0,0:0:0:0:
64,192,56774,1,0,0:0:0:0:
192,192,56860,128,0,57031:0:0:0:0:
448,192,56860,1,0,0:0:0:0:
320,192,56860,1,0,0:0:0:0:
320,192,57031,1,0,0:0:0:0:
448,192,57031,1,0,0:0:0:0:
64,192,57031,1,0,0:0:0:0:
320,192,57203,128,0,57374:0:0:0:0:
192,192,57203,1,0,0:0:0:0:
64,192,57374,1,0,0:0:0:0:
448,192,57374,1,0,0:0:0:0:
320,192,57546,128,0,57717:0:0:0:0:
192,192,57546,1,0,0:0:0:0:
192,192,57717,1,0,0:0:0:0:
64,192,57717,1,0,0:0:0:0:
448,192,57717,1,0,0:0:0:0:
192,192,57888,128,0,58060:0:0:0:0:
320,192,57888,1,0,0:0:0:0:
64,192,57974,1,0,0:0:0:0:
448,192,58060,1,0,0:0:0:0:
64,192,58146,1,0,0:0:0:0:
448,192,58231,1,0,0:0:0:0:
320,192,58231,128,0,58403:0:0:0:0:
192,192,58231,1,0,0:0:0:0:
192,192,58403,128,0,58574:0:0:0:0:
64,192,58403,1,0,0:0:0:0:
448,192,58403,1,0,0:0:0:0:
320,192,58574,1,0,0:0:0:0:
64,192,58746,128,0,59174:0:0:0:0:
192,192,58746,1,0,0:0:0:0:
448,192,58746,1,0,0:0:0:0:
320,192,58917,1,0,0:0:0:0:
192,192,59088,1,0,0:0:0:0:
320,192,59088,1,0,0:0:0:0:
448,192,59088,1,0,0:0:0:0:
448,192,59260,128,0,59517:0:0:0:0:
192,192,59260,1,0,0:0:0:0:
64,192,59346,1,0,0:0:0:0:
320,192,59431,1,0,0:0:0:0:
192,192,59517,1,0,0:0:0:0:
64,192,59603,128,0,59860:0:0:0:0:
448,192,59603,1,0,0:0:0:0:
320,192,59603,1,0,0:0:0:0:
192,192,59774,1,0,0:0:0:0:
320,192,59774,1,0,0:0:0:0:
448,192,59774,1,0,0:0:0:0:
320,192,59946,128,0,60203:0:0:0:0:
64,192,59946,1,0,0:0:0:0:
192,192,60117,1,0,0:0:0:0:
448,192,60117,1,0,0:0:0:0:
320,192,60288,128,0,60546:0:0:0:0:
64,192,60288,1,0,0:0:0:0:
192,192,60460,1,0,0:0:0:0:
64,192,60460,1,0,0:0:0:0:
448,192,60460,1,0,0:0:0:0:
192,192,60631,128,0,60888:0:0:0:0:
448,192,60631,1,0,0:0:0:0:
64,192,60717,1,0,0:0:0:0:
448,192,60803,1,0,0:0:0:0:
320,192,60888,1,0,0:0:0:0:
192,192,60974,128,0,61060:0:0:0:0:
448,192,60974,1,0,0:0:0:0:
64,192,60974,1,0,0:0:0:0:
64,192,61146,1,0,0:0:0:0:
192,192,61146,1,0,0:0:0:0:
448,192,61146,1,0,0:0:0:0:
320,192,61146,128,0,61403:0:0:0:0:
64,192,61317,1,0,0:0:0:0:
320,192,61488,1,0,0:0:0:0:
448,192,61488,1,0,0:0:0:0:
192,192,61488,1,0,0:0:0:0:
64,192,61703,1,0,0:0:0:0:
192,192,61746,1,0,0:0:0:0:
320,192,61788,1,0,0:0:0:0:
192,192,61831,1,0,0:0:0:0:
448,192,61831,1,0,0:0:0:0:
64,192,61831,1,0,0:0:0:0:
320,192,61917,1,0,0:0:0:0:
192,192,62003,1,0,0:0:0:0:
64,192,62088,1,0,0:0:0:0:
192,192,62174,1,0,0:0:0:0:
320,192,62260,1,0,0:0:0:0:
448,192,62346,1,0,0:0:0:0:
192,192,62346,1,0,0:0:0:0:
64,192,62431,1,0,0:0:0:0:
192,192,62517,1,0,0:0:0:0:
448,192,62517,1,0,0:0:0:0:
320,192,62517,1,0,0:0:0:0:
64,192,62603,1,0,0:0:0:0:
192,192,62688,1,0,0:0:0:0:
320,192,62774,1,0,0:0:0:0:
448,192,62860,1,0,0:0:0:0:
192,192,62860,1,0,0:0:0:0:
320,192,62946,1,0,0:0:0:0:
192,192,63031,1,0,0:0:0:0:
64,192,63117,1,0,0:0:0:0:
192,192,63203,1,0,0:0:0:0:
320,192,63203,1,0,0:0:0:0:
448,192,63203,1,0,0:0:0:0:
64,192,63288,1,0,0:0:0:0:
192,192,63374,1,0,0:0:0:0:
320,192,63460,1,0,0:0:0:0:
448,192,63546,1,0,0:0:0:0:
320,192,63631,1,0,0:0:0:0:
192,192,63717,1,0,0:0:0:0:
448,192,63717,1,0,0:0:0:0:
64,192,63803,1,0,0:0:0:0:
448,192,63888,1,0,0:0:0:0:
192,192,63888,1,0,0:0:0:0:
320,192,63888,1,0,0:0:0:0:
64,192,63974,1,0,0:0:0:0:
192,192,64060,1,0,0:0:0:0:
320,192,64146,1,0,0:0:0:0:
448,192,64231,1,0,0:0:0:0:
192,192,64231,1,0,0:0:0:0:
448,192,64446,1,0,0:0:0:0:
320,192,64488,1,0,0:0:0:0:
192,192,64531,1,0,0:0:0:0:
64,192,64574,1,0,0:0:0:0:
320,192,64574,1,0,0:0:0:0:
448,192,64574,1,0,0:0:0:0:
192,192,64660,1,0,0:0:0:0:
448,192,64746,1,0,0:0:0:0:
320,192,64831,1,0,0:0:0:0:
64,192,64917,1,0,0:0:0:0:
192,192,65003,1,0,0:0:0:0:
64,192,65088,1,0,0:0:0:0:
448,192,65088,1,0,0:0:0:0:
320,192,65174,1,0,0:0:0:0:
64,192,65260,1,0,0:0:0:0:
192,192,65260,1,0,0:0:0:0:
448,192,65260,1,0,0:0:0:0:
320,192,65346,1,0,0:0:0:0:
64,192,65431,1,0,0:0:0:0:
192,192,65517,1,0,0:0:0:0:
64,192,65603,1,0,0:0:0:0:
320,192,65603,1,0,0:0:0:0:
448,192,65688,1,0,0:0:0:0:
192,192,65774,1,0,0:0:0:0:
64,192,65860,1,0,0:0:0:0:
192,192,65946,1,0,0:0:0:0:
320,192,65946,1,0,0:0:0:0:
448,192,65946,1,0,0:0:0:0:
64,192,66031,1,0,0:0:0:0:
320,192,66117,1,0,0:0:0:0:
448,192,66203,1,0,0:0:0:0:
192,192,66288,1,0,0:0:0:0:
64,192,66374,1,0,0:0:0:0:
448,192,66460,1,0,0:0:0:0:
192,192,66460,1,0,0:0:0:0:
320,192,66546,1,0,0:0:0:0:
64,192,66631,1,0,0:0:0:0:
448,192,66631,1,0,0:0:0:0:
192,192,66631,1,0,0:0:0:0:
320,192,66717,1,0,0:0:0:0:
64,192,66803,1,0,0:0:0:0:
192,192,66888,1,0,0:0:0:0:
64,192,66974,1,0,0:0:0:0:
448,192,66974,128,0,67146:0:0:0:0:
320,192,66974,1,0,0:0:0:0:
64,192,67188,1,0,0:0:0:0:
192,192,67231,1,0,0:0:0:0:
320,192,67274,1,0,0:0:0:0:
448,192,67317,1,0,0:0:0:0:
64,192,67317,1,0,0:0:0:0:
192,192,67317,1,0,0:0:0:0:
64,192,67488,128,0,67660:0:0:0:0:
320,192,67488,1,0,0:0:0:0:
448,192,67574,1,0,0:0:0:0:
192,192,67660,1,0,0:0:0:0:
448,192,67746,1,0,0:0:0:0:
320,192,67831,128,0,68003:0:0:0:0:
64,192,67831,1,0,0:0:0:0:
192,192,67831,1,0,0:0:0:0:
192,192,68003,1,0,0:0:0:0:
64,192,68003,1,0,0:0:0:0:
448,192,68003,1,0,0:0:0:0:
192,192,68174,128,0,68346:0:0:0:0:
320,192,68174,1,0,0:0:0:0:
448,192,68346,1,0,0:0:0:0:
64,192,68346,1,0,0:0:0:0:
192,192,68517,128,0,68688:0:0:0:0:
320,192,68517,1,0,0:0:0:0:
320,192,68688,1,0,0:0:0:0:
448,192,68688,1,0,0:0:0:0:
64,192,68688,1,0,0:0:0:0:
320,192,68860,128,0,69031:0:0:0:0:
192,192,68860,1,0,0:0:0:0:
448,192,68946,1,0,0:0:0:0:
64,192,69031,1,0,0:0:0:0:
448,192,69117,1,0,0:0:0:0:
64,192,69203,1,0,0:0:0:0:
192,192,69203,128,0,69374:0:0:0:0:
320,192,69203,1,0,0:0:0:0:
320,192,69374,128,0,69546:0:0:0:0:
448,192,69374,1,0,0:0:0:0:
64,192,69374,1,0,0:0:0:0:
192,192,69546,1,0,0:0:0:0:
448,192,69717,128,0,70146:0:0:0:0:
320,192,69717,1,0,0:0:0:0:
64,192,69717,1,0,0:0:0:0:
192,192,69888,1,0,0:0:0:0:
320,192,70060,1,0,0:0:0:0:
192,192,70060,1,0,0:0:0:0:
64,192,70060,1,0,0:0:0:0:
64,192,70231,128,0,70488:0:0:0:0:
320,192,70231,1,0,0:0:0:0:
448,192,70317,1,0,0:0:0:0:
192,192,70403,1,0,0:0:0:0:
320,192,70488,1,0,0:0:0:0:
448,192,70574,128,0,70831:0:0:0:0:
64,192,70574,1,0,0:0:0:0:
192,192,70574,1,0,0:0:0:0:
320,192,70746,1,0,0:0:0:0:
192,192,70746,1,0,0:0:0:0:
64,192,70746,1,0,0:0:0:0:
192,192,70917,128,0,71174:0:0:0:0:
448,192,70917,1,0,0:0:0:0:
320,192,71088,1,0,0:0:0:0:
64,192,71088,1,0,0:0:0:0:
192,192,71260,128,0,71517:0:0:0:0:
448,192,71260,1,0,0:0:0:0:
320,192,71431,1,0,0:0:0:0:
448,192,71431,1,0,0:0:0:0:
64,192,71431,1,0,0:0:0:0:
320,192,71603,128,0,71860:0:0:0:0:
64,192,71603,1,0,0:0:0:0:
448,192,71688,1,0,0:0:0:0:
64,192,71774,1,0,0:0:0:0:
192,192,71860,1,0,0:0:0:0:
320,192,71946,128,0,72031:0:0:0:0:
64,192,71946,1,0,0:0:0:0:
448,192,71946,1,0,0:0:0:0:
448,192,72117,1,0,0:0:0:0:
320,192,72117,1,0,0:0:0:0:
64,192,72117,1,0,0:0:0:0:
192,192,72117,128,0,72374:0:0:0:0:
448,192,72288,1,0,0:0:0:0:
192,192,72460,1,0,0:0:0:0:
320,192,72460,1,0,0:0:0:0:
64,192,72460,128,0,72631:0:0:0:0:
448,192,72674,1,0,0:0:0:0:
320,192,72717,1,0,0:0:0:0:
192,192,72760,1,0,0:0:0:0:
64,192,72803,1,0,0:0:0:0:
448,192,72803,1,0,0:0:0:0:
320,192,72803,1,0,0:0:0:0:
448,192,72974,128,0,73146:0:0:0:0:
320,192,72974,1,0,0:0:0:0:
192,192,73146,1,0,0:0:0:0:
192,192,73317,128,0,73488:0:0:0:0:
320,192,73317,1,0,0:0:0:0:
448,192,73317,1,0,0:0:0:0:
64,192,73488,1,0,0:0:0:0:
320,192,73488,1,0,0:0:0:0:
448,192,73488,1,0,0:0:0:0:
192,192,73660,1,0,0:0:0:0:
320,192,73660,128,0,73831:0:0:0:0:
448,192,73831,1,0,0:0:0:0:
64,192,73831,1,0,0:0:0:0:
320,192,74003,128,0,74174:0:0:0:0:
192,192,74003,1,0,0:0:0:0:
192,192,74174,1,0,0:0:0:0:
64,192,74174,1,0,0:0:0:0:
448,192,74174,1,0,0:0:0:0:
320,192,74346,1,0,0:0:0:0:
192,192,74346,128,0,74517:0:0:0:0:
64,192,74517,1,0,0:0:0:0:
192,192,74688,1,0,0:0:0:0:
448,192,74688,1,0,0:0:0:0:
320,192,74688,128,0,74860:0:0:0:0:
64,192,74860,1,0,0:0:0:0:
192,192,74860,128,0,75031:0:0:0:0:
448,192,74860,1,0,0:0:0:0:
320,192,75031,1,0,0:0:0:0:
448,192,75203,128,0,76060:0:0:0:0:
320,192,75203,1,0,0:0:0:0:
64,192,75203,1,0,0:0:0:0:
192,192,75374,1,0,0:0:0:0:
64,192,75546,1,0,0:0:0:0:
192,192,75546,1,0,0:0:0:0:
320,192,75546,1,0,0:0:0:0:
64,192,75717,1,0,0:0:0:0:
320,192,75888,1,0,0:0:0:0:
64,192,76060,1,0,0:0:0:0:
192,192,76060,1,0,0:0:0:0:
320,192,76146,1,0,0:0:0:0:
192,192,76231,1,0,0:0:0:0:
64,192,76231,1,0,0:0:0:0:
320,192,76317,1,0,0:0:0:0:
64,192,76403,1,0,0:0:0:0:
192,192,76403,1,0,0:0:0:0:
320,192,76488,1,0,0:0:0:0:
192,192,76574,1,0,0:0:0:0:
64,192,76574,1,0,0:0:0:0:
448,192,76574,1,0,0:0:0:0:
320,192,76660,1,0,0:0:0:0:
192,192,76746,1,0,0:0:0:0:
448,192,76746,1,0,0:0:0:0:
64,192,76831,1,0,0:0:0:0:
192,192,76917,1,0,0:0:0:0:
320,192,76917,1,0,0:0:0:0:
448,192,76917,1,0,0:0:0:0:
64,192,77003,1,0,0:0:0:0:
192,192,77088,1,0,0:0:0:0:
448,192,77088,1,0,0:0:0:0:
320,192,77174,1,0,0:0:0:0:
192,192,77260,1,0,0:0:0:0:
64,192,77260,1,0,0:0:0:0:
448,192,77260,1,0,0:0:0:0:
320,192,77346,1,0,0:0:0:0:
64,192,77431,1,0,0:0:0:0:
448,192,77431,1,0,0:0:0:0:
192,192,77517,1,0,0:0:0:0:
64,192,77603,1,0,0:0:0:0:
320,192,77603,1,0,0:0:0:0:
448,192,77603,1,0,0:0:0:0:
192,192,77688,1,0,0:0:0:0:
448,192,77774,1,0,0:0:0:0:
320,192,77860,1,0,0:0:0:0:
192,192,77946,1,0,0:0:0:0:
64,192,77946,1,0,0:0:0:0:
448,192,78117,1,0,0:0:0:0:
192,192,78288,1,0,0:0:0:0:
64,192,78288,1,0,0:0:0:0:
448,192,78460,1,0,0:0:0:0:
192,192,78631,1,0,0:0:0:0:
64,192,78631,1,0,0:0:0:0:
448,192,78803,1,0,0:0:0:0:
192,192,78974,1,0,0:0:0:0:
64,192,78974,1,0,0:0:0:0:
448,192,79146,1,0,0:0:0:0:
192,192,79317,1,0,0:0:0:0:
64,192,79317,1,0,0:0:0:0:
448,192,79488,1,0,0:0:0:0:
192,192,79660,1,0,0:0:0:0:
64,192,79660,1,0,0:0:0:0:
320,192,79746,1,0,0:0:0:0:
448,192,79831,1,0,0:0:0:0:
320,192,79917,1,0,0:0:0:0:
192,192,80003,1,0,0:0:0:0:
64,192,80003,1,0,0:0:0:0:
448,192,80088,1,0,0:0:0:0:
192,192,80174,1,0,0:0:0:0:
64,192,80174,1,0,0:0:0:0:
448,192,80260,1,0,0:0:0:0:
192,192,80346,1,0,0:0:0:0:
64,192,80346,1,0,0:0:0:0:
320,192,80346,1,0,0:0:0:0:
448,192,80431,1,0,0:0:0:0:
320,192,80517,1,0,0:0:0:0:
192,192,80603,1,0,0:0:0:0:
448,192,80688,1,0,0:0:0:0:
64,192,80688,1,0,0:0:0:0:
320,192,80688,1,0,0:0:0:0:
64,192,80903,1,0,0:0:0:0:
192,192,80946,1,0,0:0:0:0:
320,192,80988,1,0,0:0:0:0:
192,192,81031,1,0,0:0:0:0:
64,192,81031,1,0,0:0:0:0:
448,192,81031,1,0,0:0:0:0:
192,192,81203,1,0,0:0:0:0:
448,192,81288,1,0,0:0:0:0:
320,192,81331,1,0,0:0:0:0:
192,192,81374,128,0,82146:0:0:0:0:
64,192,81374,1,0,0:0:0:0:
320,192,81460,1,0,0:0:0:0:
448,192,81546,1,0,0:0:0:0:
64,192,81546,1,0,0:0:0:0:
448,192,81717,1,0,0:0:0:0:
64,192,81717,1,0,0:0:0:0:
320,192,81717,1,0,0:0:0:0:
320,192,81888,1,0,0:0:0:0:
320,192,82060,1,0,0:0:0:0:
64,192,82060,1,0,0:0:0:0:
448,192,82231,1,0,0:0:0:0:
192,192,82317,128,0,82403:0:0:0:0:
320,192,82403,1,0,0:0:0:0:
448,192,82403,1,0,0:0:0:0:
64,192,82403,1,0,0:0:0:0:
320,192,82574,1,0,0:0:0:0:
64,192,82660,1,0,0:0:0:0:
448,192,82746,1,0,0:0:0:0:
320,192,82831,1,0,0:0:0:0:
192,192,82831,128,0,82917:0:0:0:0:
448,192,82917,1,0,0:0:0:0:
64,192,82917,1,0,0:0:0:0:
64,192,83088,1,0,0:0:0:0:
192,192,83088,1,0,0:0:0:0:
448,192,83088,1,0,0:0:0:0:
320,192,83260,1,0,0:0:0:0:
192,192,83260,1,0,0:0:0:0:
64,192,83431,1,0,0:0:0:0:
448,192,83431,1,0,0:0:0:0:
192,192,83431,1,0,0:0:0:0:
448,192,83646,1,0,0:0:0:0:
320,192,83688,1,0,0:0:0:0:
192,192,83731,1,0,0:0:0:0:
320,192,83774,1,0,0:0:0:0:
448,192,83774,1,0,0:0:0:0:
64,192,83774,1,0,0:0:0:0:
320,192,83946,1,0,0:0:0:0:
64,192,84031,1,0,0:0:0:0:
192,192,84074,1,0,0:0:0:0:
320,192,84117,128,0,84888:0:0:0:0:
448,192,84117,1,0,0:0:0:0:
192,192,84203,1,0,0:0:0:0:
64,192,84288,1,0,0:0:0:0:
448,192,84288,1,0,0:0:0:0:
64,192,84460,1,0,0:0:0:0:
448,192,84460,1,0,0:0:0:0:
192,192,84460,1,0,0:0:0:0:
192,192,84631,1,0,0:0:0:0:
192,192,84803,1,0,0:0:0:0:
448,192,84803,1,0,0:0:0:0:
64,192,84974,1,0,0:0:0:0:
320,192,85060,128,0,85146:0:0:0:0:
192,192,85146,1,0,0:0:0:0:
64,192,85146,1,0,0:0:0:0:
448,192,85146,1,0,0:0:0:0:
192,192,85317,1,0,0:0:0:0:
448,192,85403,1,0,0:0:0:0:
64,192,85488,1,0,0:0:0:0:
192,192,85574,1,0,0:0:0:0:
320,192,85574,128,0,85660:0:0:0:0:
64,192,85660,1,0,0:0:0:0:
448,192,85660,1,0,0:0:0:0:
448,192,85831,1,0,0:0:0:0:
320,192,85831,1,0,0:0:0:0:
64,192,85831,1,0,0:0:0:0:
192,192,86003,1,0,0:0:0:0:
320,192,86003,1,0,0:0:0:0:
320,192,86174,128,0,87117:0:0:0:0:
448,192,86174,1,0,0:0:0:0:
64,192,86174,1,0,0:0:0:0:
192,192,86346,1,0,0:0:0:0:
64,192,86517,1,0,0:0:0:0:
448,192,86517,1,0,0:0:0:0:
192,192,86517,1,0,0:0:0:0:
448,192,86688,1,0,0:0:0:0:
192,192,86774,1,0,0:0:0:0:
448,192,86860,1,0,0:0:0:0:
64,192,86946,1,0,0:0:0:0:
192,192,87031,1,0,0:0:0:0:
448,192,87031,1,0,0:0:0:0:
192,192,87203,128,0,88146:0:0:0:0:
448,192,87203,1,0,0:0:0:0:
320,192,87203,1,0,0:0:0:0:
64,192,87203,1,0,0:0:0:0:
64,192,87374,1,0,0:0:0:0:
320,192,87546,1,0,0:0:0:0:
448,192,87546,1,0,0:0:0:0:
64,192,87631,1,0,0:0:0:0:
448,192,87717,1,0,0:0:0:0:
320,192,87803,1,0,0:0:0:0:
64,192,87888,1,0,0:0:0:0:
448,192,87888,1,0,0:0:0:0:
320,192,87888,1,0,0:0:0:0:
64,192,87974,1,0,0:0:0:0:
448,192,88060,1,0,0:0:0:0:
64,192,88146,1,0,0:0:0:0:
448,192,88231,128,0,88831:0:0:0:0:
320,192,88231,1,0,0:0:0:0:
192,192,88317,1,0,0:0:0:0:
320,192,88403,1,0,0:0:0:0:
64,192,88403,1,0,0:0:0:0:
192,192,88488,1,0,0:0:0:0:
320,192,88574,1,0,0:0:0:0:
192,192,88574,1,0,0:0:0:0:
64,192,88574,1,0,0:0:0:0:
64,192,88660,1,0,0:0:0:0:
192,192,88746,1,0,0:0:0:0:
320,192,88831,1,0,0:0:0:0:
192,192,88917,1,0,0:0:0:0:
64,192,88917,1,0,0:0:0:0:
448,192,88917,1,0,0:0:0:0:
448,192,89131,1,0,0:0:0:0:
320,192,89174,1,0,0:0:0:0:
192,192,89217,1,0,0:0:0:0:
64,192,89260,1,0,0:0:0:0:
448,192,89260,1,0,0:0:0:0:
320,192,89260,1,0,0:0:0:0:
192,192,89431,1,0,0:0:0:0:
320,192,89517,1,0,0:0:0:0:
192,192,89560,1,0,0:0:0:0:
64,192,89603,128,0,90374:0:0:0:0:
448,192,89603,1,0,0:0:0:0:
320,192,89688,1,0,0:0:0:0:
192,192,89774,1,0,0:0:0:0:
448,192,89774,1,0,0:0:0:0:
192,192,89946,1,0,0:0:0:0:
320,192,89946,1,0,0:0:0:0:
448,192,89946,1,0,0:0:0:0:
448,192,90117,1,0,0:0:0:0:
192,192,90288,1,0,0:0:0:0:
448,192,90288,1,0,0:0:0:0:
320,192,90460,1,0,0:0:0:0:
64,192,90546,128,0,90631:0:0:0:0:
448,192,90631,1,0,0:0:0:0:
320,192,90631,1,0,0:0:0:0:
192,192,90631,1,0,0:0:0:0:
192,192,90803,1,0,0:0:0:0:
320,192,90888,1,0,0:0:0:0:
192,192,90974,1,0,0:0:0:0:
448,192,91060,1,0,0:0:0:0:
64,192,91060,128,0,91146:0:0:0:0:
192,192,91146,1,0,0:0:0:0:
320,192,91146,1,0,0:0:0:0:
64,192,91317,1,0,0:0:0:0:
320,192,91317,1,0,0:0:0:0:
448,192,91317,1,0,0:0:0:0:
192,192,91488,1,0,0:0:0:0:
320,192,91488,1,0,0:0:0:0:
320,192,91660,1,0,0:0:0:0:
448,192,91660,1,0,0:0:0:0:
64,192,91660,1,0,0:0:0:0:
64,192,91874,1,0,0:0:0:0:
192,192,91917,1,0,0:0:0:0:
320,192,91960,1,0,0:0:0:0:
448,192,92003,1,0,0:0:0:0:
64,192,92003,1,0,0:0:0:0:
192,192,92003,1,0,0:0:0:0:
320,192,92174,1,0,0:0:0:0:
192,192,92260,1,0,0:0:0:0:
320,192,92303,1,0,0:0:0:0:
448,192,92346,128,0,93117:0:0:0:0:
64,192,92346,1,0,0:0:0:0:
192,192,92431,1,0,0:0:0:0:
320,192,92517,1,0,0:0:0:0:
64,192,92517,1,0,0:0:0:0:
320,192,92688,1,0,0:0:0:0:
192,192,92688,1,0,0:0:0:0:
64,192,92688,1,0,0:0:0:0:
64,192,92860,1,0,0:0:0:0:
320,192,93031,1,0,0:0:0:0:
64,192,93031,1,0,0:0:0:0:
192,192,93203,1,0,0:0:0:0:
448,192,93288,128,0,93374:0:0:0:0:
64,192,93374,1,0,0:0:0:0:
192,192,93374,1,0,0:0:0:0:
320,192,93374,1,0,0:0:0:0:
320,192,93546,1,0,0:0:0:0:
192,192,93631,1,0,0:0:0:0:
320,192,93717,1,0,0:0:0:0:
64,192,93803,1,0,0:0:0:0:
448,192,93803,128,0,93888:0:0:0:0:
320,192,93888,1,0,0:0:0:0:
192,192,93888,1,0,0:0:0:0:
448,192,94060,1,0,0:0:0:0:
192,192,94060,1,0,0:0:0:0:
64,192,94060,1,0,0:0:0:0:
320,192,94231,1,0,0:0:0:0:
192,192,94231,1,0,0:0:0:0:
192,192,94403,1,0,0:0:0:0:
64,192,94403,1,0,0:0:0:0:
448,192,94403,1,0,0:0:0:0:
448,192,94617,1,0,0:0:0:0:
320,192,94660,1,0,0:0:0:0:
192,192,94703,1,0,0:0:0:0:
64,192,94746,1,0,0:0:0:0:
448,192,94746,1,0,0:0:0:0:
320,192,94746,1,0,0:0:0:0:
192,192,94917,1,0,0:0:0:0:
320,192,95003,1,0,0:0:0:0:
192,192,95046,1,0,0:0:0:0:
64,192,95088,128,0,95860:0:0:0:0:
448,192,95088,1,0,0:0:0:0:
320,192,95174,1,0,0:0:0:0:
192,192,95260,1,0,0:0:0:0:
448,192,95260,1,0,0:0:0:0:
192,192,95431,1,0,0:0:0:0:
320,192,95431,1,0,0:0:0:0:
448,192,95431,1,0,0:0:0:0:
448,192,95603,1,0,0:0:0:0:
192,192,95774,1,0,0:0:0:0:
448,192,95774,1,0,0:0:0:0:
320,192,95946,1,0,0:0:0:0:
64,192,96031,128,0,96117:0:0:0:0:
448,192,96117,1,0,0:0:0:0:
320,192,96117,1,0,0:0:0:0:
192,192,96117,1,0,0:0:0:0:
192,192,96288,1,0,0:0:0:0:
320,192,96374,1,0,0:0:0:0:
192,192,96460,1,0,0:0:0:0:
448,192,96546,1,0,0:0:0:0:
64,192,96546,128,0,96631:0:0:0:0:
192,192,96631,1,0,0:0:0:0:
320,192,96631,1,0,0:0:0:0:
64,192,96803,1,0,0:0:0:0:
320,192,96803,1,0,0:0:0:0:
448,192,96803,1,0,0:0:0:0:
192,192,96974,1,0,0:0:0:0:
320,192,96974,1,0,0:0:0:0:
448,192,97146,1,0,0:0:0:0:
320,192,97146,1,0,0:0:0:0:
64,192,97146,1,0,0:0:0:0:
448,192,97317,1,0,0:0:0:0:
320,192,97488,1,0,0:0:0:0:
192,192,97488,1,0,0:0:0:0:
64,192,97488,1,0,0:0:0:0:
448,192,97660,1,0,0:0:0:0:
192,192,97831,1,0,0:0:0:0:
320,192,98003,1,0,0:0:0:0:
448,192,98003,1,0,0:0:0:0:
64,192,98088,1,0,0:0:0:0:
320,192,98174,1,0,0:0:0:0:
448,192,98174,1,0,0:0:0:0:
64,192,98260,1,0,0:0:0:0:
448,192,98346,1,0,0:0:0:0:
320,192,98346,1,0,0:0:0:0:
64,192,98517,1,0,0:0:0:0:
192,192,98517,1,0,0:0:0:0:
448,192,98517,1,0,0:0:0:0:
320,192,98603,1,0,0:0:0:0:
64,192,98688,1,0,0:0:0:0:
448,192,98688,1,0,0:0:0:0:
192,192,98774,1,0,0:0:0:0:
320,192,98860,1,0,0:0:0:0:
448,192,98860,1,0,0:0:0:0:
64,192,98860,1,0,0:0:0:0:
192,192,98946,1,0,0:0:0:0:
64,192,99031,1,0,0:0:0:0:
320,192,99031,1,0,0:0:0:0:
448,192,99117,1,0,0:0:0:0:
320,192,99203,1,0,0:0:0:0:
192,192,99203,1,0,0:0:0:0:
64,192,99203,1,0,0:0:0:0:
448,192,99288,1,0,0:0:0:0:
320,192,99374,1,0,0:0:0:0:
64,192,99374,1,0,0:0:0:0:
192,192,99460,1,0,0:0:0:0:
64,192,99546,1,0,0:0:0:0:
320,192,99546,1,0,0:0:0:0:
448,192,99546,1,0,0:0:0:0:
64,192,99888,1,0,0:0:0:0:
448,192,99888,1,0,0:0:0:0:
192,192,99888,1,0,0:0:0:0:
320,192,99974,1,0,0:0:0:0:
64,192,100060,1,0,0:0:0:0:
192,192,100146,1,0,0:0:0:0:
320,192,100231,1,0,0:0:0:0:
448,192,100231,1,0,0:0:0:0:
64,192,100231,1,0,0:0:0:0:
192,192,100317,1,0,0:0:0:0:
448,192,100403,1,0,0:0:0:0:
64,192,100488,1,0,0:0:0:0:
320,192,100574,1,0,0:0:0:0:
448,192,100660,1,0,0:0:0:0:
192,192,100746,1,0,0:0:0:0:
64,192,100746,1,0,0:0:0:0:
448,192,100831,1,0,0:0:0:0:
192,192,100917,1,0,0:0:0:0:
320,192,100917,1,0,0:0:0:0:
64,192,100917,1,0,0:0:0:0:
448,192,101003,1,0,0:0:0:0:
320,192,101088,1,0,0:0:0:0:
64,192,101174,1,0,0:0:0:0:
192,192,101260,1,0,0:0:0:0:
448,192,101260,1,0,0:0:0:0:
320,192,101346,1,0,0:0:0:0:
448,192,101431,1,0,0:0:0:0:
64,192,101517,1,0,0:0:0:0:
192,192,101603,1,0,0:0:0:0:
320,192,101603,1,0,0:0:0:0:
448,192,101603,1,0,0:0:0:0:
64,192,101688,1,0,0:0:0:0:
448,192,101774,1,0,0:0:0:0:
192,192,101860,1,0,0:0:0:0:
320,192,101946,1,0,0:0:0:0:
448,192,102031,1,0,0:0:0:0:
192,192,102117,1,0,0:0:0:0:
64,192,102117,1,0,0:0:0:0:
320,192,102203,1,0,0:0:0:0:
192,192,102288,1,0,0:0:0:0:
448,192,102288,1,0,0:0:0:0:
64,192,102288,1,0,0:0:0:0:
320,192,102374,1,0,0:0:0:0:
64,192,102460,1,0,0:0:0:0:
192,192,102546,1,0,0:0:0:0:
320,192,102631,1,0,0:0:0:0:
448,192,102631,1,0,0:0:0:0:
192,192,102717,1,0,0:0:0:0:
64,192,102803,1,0,0:0:0:0:
320,192,102888,1,0,0:0:0:0:
192,192,102974,1,0,0:0:0:0:
64,192,102974,1,0,0:0:0:0:
448,192,102974,1,0,0:0:0:0:
320,192,103060,1,0,0:0:0:0:
448,192,103146,1,0,0:0:0:0:
64,192,103231,1,0,0:0:0:0:
320,192,103317,1,0,0:0:0:0:
448,192,103403,1,0,0:0:0:0:
320,192,103488,1,0,0:0:0:0:
192,192,103488,1,0,0:0:0:0:
64,192,103574,1,0,0:0:0:0:
192,192,103660,1,0,0:0:0:0:
320,192,103660,1,0,0:0:0:0:
448,192,103660,1,0,0:0:0:0:
64,192,103746,1,0,0:0:0:0:
448,192,103831,1,0,0:0:0:0:
320,192,103917,1,0,0:0:0:0:
64,192,104003,1,0,0:0:0:0:
192,192,104003,1,0,0:0:0:0:
448,192,104088,1,0,0:0:0:0:
64,192,104174,1,0,0:0:0:0:
192,192,104260,1,0,0:0:0:0:
64,192,104346,1,0,0:0:0:0:
448,192,104346,1,0,0:0:0:0:
320,192,104346,1,0,0:0:0:0:
192,192,104431,1,0,0:0:0:0:
320,192,104517,1,0,0:0:0:0:
64,192,104603,1,0,0:0:0:0:
192,192,104688,1,0,0:0:0:0:
64,192,104774,1,0,0:0:0:0:
448,192,104860,1,0,0:0:0:0:
320,192,104860,1,0,0:0:0:0:
192,192,104946,1,0,0:0:0:0:
64,192,105031,1,0,0:0:0:0:
320,192,105031,1,0,0:0:0:0:
448,192,105031,1,0,0:0:0:0:
192,192,105117,1,0,0:0:0:0:
320,192,105203,1,0,0:0:0:0:
448,192,105288,1,0,0:0:0:0:
64,192,105374,1,0,0:0:0:0:
320,192,105374,1,0,0:0:0:0:
192,192,105460,1,0,0:0:0:0:
64,192,105546,1,0,0:0:0:0:
192,192,105631,1,0,0:0:0:0:
448,192,105717,1,0,0:0:0:0:
320,192,105717,1,0,0:0:0:0:
64,192,105717,1,0,0:0:0:0:
192,192,105803,1,0,0:0:0:0:
320,192,105888,1,0,0:0:0:0:
448,192,105974,1,0,0:0:0:0:
320,192,106060,1,0,0:0:0:0:
64,192,106146,1,0,0:0:0:0:
192,192,106231,1,0,0:0:0:0:
448,192,106231,1,0,0:0:0:0:
320,192,106317,1,0,0:0:0:0:
192,192,106403,1,0,0:0:0:0:
64,192,106403,1,0,0:0:0:0:
448,192,106403,1,0,0:0:0:0:
320,192,106488,1,0,0:0:0:0:
192,192,106574,1,0,0:0:0:0:
64,192,106660,1,0,0:0:0:0:
448,192,106746,1,0,0:0:0:0:
320,192,106746,1,0,0:0:0:0:
192,192,106831,1,0,0:0:0:0:
448,192,106917,1,0,0:0:0:0:
64,192,107003,1,0,0:0:0:0:
192,192,107088,1,0,0:0:0:0:
320,192,107088,1,0,0:0:0:0:
448,192,107088,1,0,0:0:0:0:
64,192,107174,1,0,0:0:0:0:
320,192,107260,1,0,0:0:0:0:
192,192,107346,1,0,0:0:0:0:
448,192,107431,1,0,0:0:0:0:
320,192,107517,1,0,0:0:0:0:
192,192,107603,1,0,0:0:0:0:
64,192,107603,1,0,0:0:0:0:
448,192,107688,1,0,0:0:0:0:
320,192,107774,1,0,0:0:0:0:
192,192,107774,1,0,0:0:0:0:
64,192,107774,1,0,0:0:0:0:
448,192,107860,1,0,0:0:0:0:
64,192,107946,1,0,0:0:0:0:
192,192,108031,1,0,0:0:0:0:
448,192,108117,1,0,0:0:0:0:
320,192,108117,1,0,0:0:0:0:
64,192,108203,1,0,0:0:0:0:
192,192,108288,1,0,0:0:0:0:
320,192,108374,1,0,0:0:0:0:
64,192,108460,1,0,0:0:0:0:
448,192,108460,1,0,0:0:0:0:
192,192,108460,1,0,0:0:0:0:
320,192,108546,1,0,0:0:0:0:
448,192,108631,1,0,0:0:0:0:
192,192,108717,1,0,0:0:0:0:
64,192,108803,1,0,0:0:0:0:
448,192,108888,1,0,0:0:0:0:
64,192,108974,1,0,0:0:0:0:
320,192,108974,1,0,0:0:0:0:
192,192,109060,1,0,0:0:0:0:
320,192,109146,1,0,0:0:0:0:
448,192,109146,1,0,0:0:0:0:
64,192,109146,1,0,0:0:0:0:
192,192,109231,1,0,0:0:0:0:
448,192,109317,1,0,0:0:0:0:
320,192,109403,1,0,0:0:0:0:
64,192,109488,1,0,0:0:0:0:
192,192,109488,1,0,0:0:0:0:
448,192,109574,1,0,0:0:0:0:
320,192,109660,1,0,0:0:0:0:
192,192,109660,1,0,0:0:0:0:
64,192,109746,1,0,0:0:0:0:
192,192,109831,1,0,0:0:0:0:
320,192,109831,1,0,0:0:0:0:
448,192,109831,1,0,0:0:0:0:
64,192,109917,1,0,0:0:0:0:
192,192,110003,1,0,0:0:0:0:
448,192,110003,1,0,0:0:0:0:
320,192,110088,1,0,0:0:0:0:
192,192,110174,1,0,0:0:0:0:
64,192,110174,1,0,0:0:0:0:
448,192,110260,1,0,0:0:0:0:
64,192,110346,1,0,0:0:0:0:
320,192,110346,1,0,0:0:0:0:
192,192,110431,1,0,0:0:0:0:
64,192,110517,1,0,0:0:0:0:
320,192,110517,1,0,0:0:0:0:
448,192,110517,1,0,0:0:0:0:
192,192,110603,1,0,0:0:0:0:
448,192,110688,1,0,0:0:0:0:
64,192,110688,1,0,0:0:0:0:
320,192,110774,1,0,0:0:0:0:
192,192,110860,1,0,0:0:0:0:
448,192,110860,1,0,0:0:0:0:
64,192,110860,1,0,0:0:0:0:
320,192,110946,1,0,0:0:0:0:
448,192,111031,1,0,0:0:0:0:
64,192,111117,1,0,0:0:0:0:
192,192,111203,1,0,0:0:0:0:
320,192,111203,1,0,0:0:0:0:
448,192,111203,1,0,0:0:0:0:
64,192,111288,1,0,0:0:0:0:
448,192,111374,1,0,0:0:0:0:
192,192,111460,1,0,0:0:0:0:
64,192,111546,1,0,0:0:0:0:
320,192,111631,1,0,0:0:0:0:
192,192,111717,1,0,0:0:0:0:
448,192,111717,1,0,0:0:0:0:
64,192,111803,1,0,0:0:0:0:
192,192,111888,1,0,0:0:0:0:
448,192,111888,1,0,0:0:0:0:
320,192,111888,1,0,0:0:0:0:
64,192,111974,1,0,0:0:0:0:
320,192,112060,1,0,0:0:0:0:
448,192,112146,1,0,0:0:0:0:
64,192,112231,1,0,0:0:0:0:
320,192,112231,1,0,0:0:0:0:
192,192,112317,1,0,0:0:0:0:
448,192,112403,1,0,0:0:0:0:
320,192,112488,1,0,0:0:0:0:
192,192,112574,1,0,0:0:0:0:
448,192,112574,1,0,0:0:0:0:
64,192,112574,1,0,0:0:0:0:
320,192,112660,1,0,0:0:0:0:
64,192,112746,1,0,0:0:0:0:
192,192,112831,1,0,0:0:0:0:
320,192,112917,1,0,0:0:0:0:
64,192,113003,1,0,0:0:0:0:
320,192,113088,1,0,0:0:0:0:
448,192,113088,1,0,0:0:0:0:
192,192,113174,1,0,0:0:0:0:
64,192,113260,1,0,0:0:0:0:
320,192,113260,1,0,0:0:0:0:
448,192,113260,1,0,0:0:0:0:
192,192,113346,1,0,0:0:0:0:
64,192,113431,1,0,0:0:0:0:
448,192,113517,1,0,0:0:0:0:
64,192,113603,1,0,0:0:0:0:
320,192,113603,1,0,0:0:0:0:
192,192,113688,1,0,0:0:0:0:
448,192,113774,1,0,0:0:0:0:
320,192,113860,1,0,0:0:0:0:
64,192,113946,1,0,0:0:0:0:
192,192,113946,1,0,0:0:0:0:
448,192,113946,1,0,0:0:0:0:
320,192,114031,1,0,0:0:0:0:
448,192,114117,1,0,0:0:0:0:
192,192,114203,1,0,0:0:0:0:
320,192,114288,1,0,0:0:0:0:
448,192,114374,1,0,0:0:0:0:
64,192,114460,1,0,0:0:0:0:
192,192,114460,1,0,0:0:0:0:
320,192,114546,1,0,0:0:0:0:
192,192,114631,1,0,0:0:0:0:
64,192,114631,1,0,0:0:0:0:
448,192,114631,1,0,0:0:0:0:
320,192,114717,1,0,0:0:0:0:
64,192,114803,1,0,0:0:0:0:
192,192,114888,1,0,0:0:0:0:
64,192,114974,1,0,0:0:0:0:
448,192,114974,1,0,0:0:0:0:
320,192,115060,1,0,0:0:0:0:
192,192,115146,1,0,0:0:0:0:
64,192,115231,1,0,0:0:0:0:
192,192,115317,1,0,0:0:0:0:
320,192,115317,1,0,0:0:0:0:
448,192,115317,1,0,0:0:0:0:
64,192,115403,1,0,0:0:0:0:
448,192,115488,1,0,0:0:0:0:
192,192,115574,1,0,0:0:0:0:
320,192,115660,1,0,0:0:0:0:
448,192,115746,1,0,0:0:0:0:
64,192,115831,1,0,0:0:0:0:
320,192,115831,1,0,0:0:0:0:
192,192,115917,1,0,0:0:0:0:
64,192,116003,1,0,0:0:0:0:
320,192,116003,1,0,0:0:0:0:
448,192,116003,1,0,0:0:0:0:
192,192,116088,1,0,0:0:0:0:
448,192,116174,1,0,0:0:0:0:
64,192,116260,1,0,0:0:0:0:
320,192,116346,1,0,0:0:0:0:
448,192,116346,1,0,0:0:0:0:
192,192,116431,1,0,0:0:0:0:
64,192,116517,1,0,0:0:0:0:
320,192,116603,1,0,0:0:0:0:
64,192,116688,1,0,0:0:0:0:
192,192,116688,1,0,0:0:0:0:
448,192,116688,1,0,0:0:0:0:
320,192,116774,1,0,0:0:0:0:
64,192,116860,1,0,0:0:0:0:
448,192,116946,1,0,0:0:0:0:
320,192,117031,1,0,0:0:0:0:
64,192,117117,1,0,0:0:0:0:
192,192,117203,1,0,0:0:0:0:
320,192,117203,1,0,0:0:0:0:
448,192,117288,1,0,0:0:0:0:
64,192,117374,1,0,0:0:0:0:
192,192,117374,1,0,0:0:0:0:
320,192,117374,1,0,0:0:0:0:
448,192,117460,1,0,0:0:0:0:
64,192,117546,1,0,0:0:0:0:
320,192,117631,1,0,0:0:0:0:
192,192,117717,1,0,0:0:0:0:
448,192,117717,1,0,0:0:0:0:
64,192,117803,1,0,0:0:0:0:
448,192,117888,1,0,0:0:0:0:
320,192,117974,1,0,0:0:0:0:
64,192,118060,1,0,0:0:0:0:
192,192,118060,1,0,0:0:0:0:
448,192,118060,1,0,0:0:0:0:
320,192,118146,1,0,0:0:0:0:
64,192,118231,1,0,0:0:0:0:
192,192,118317,1,0,0:0:0:0:
320,192,118403,1,0,0:0:0:0:
64,192,118488,1,0,0:0:0:0:
448,192,118574,1,0,0:0:0:0:
320,192,118574,1,0,0:0:0:0:
192,192,118660,1,0,0:0:0:0:
64,192,118746,1,0,0:0:0:0:
448,192,118746,1,0,0:0:0:0:
320,192,118746,1,0,0:0:0:0:
192,192,118831,1,0,0:0:0:0:
448,192,118917,1,0,0:0:0:0:
192,192,119003,1,0,0:0:0:0:
64,192,119088,1,0,0:0:0:0:
448,192,119088,1,0,0:0:0:0:
320,192,119174,1,0,0:0:0:0:
64,192,119260,1,0,0:0:0:0:
448,192,119346,1,0,0:0:0:0:
320,192,119431,1,0,0:0:0:0:
192,192,119431,1,0,0:0:0:0:
64,192,119431,1,0,0:0:0:0:
448,192,119517,1,0,0:0:0:0:
64,192,119603,1,0,0:0:0:0:
192,192,119688,1,0,0:0:0:0:
448,192,119774,1,0,0:0:0:0:
192,192,119860,1,0,0:0:0:0:
448,192,119946,1,0,0:0:0:0:
320,192,119946,1,0,0:0:0:0:
64,192,120031,1,0,0:0:0:0:
320,192,120117,1,0,0:0:0:0:
448,192,120117,1,0,0:0:0:0:
64,192,120203,1,0,0:0:0:0:
320,192,120288,1,0,0:0:0:0:
448,192,120288,1,0,0:0:0:0:
64,192,120374,1,0,0:0:0:0:
192,192,120460,1,0,0:0:0:0:
320,192,120460,1,0,0:0:0:0:
448,192,120460,1,0,0:0:0:0:
448,192,120546,1,0,0:0:0:0:
320,192,120546,1,0,0:0:0:0:
192,192,120631,1,0,0:0:0:0:
64,192,120631,1,0,0:0:0:0:
320,192,120717,1,0,0:0:0:0:
192,192,120803,1,0,0:0:0:0:
64,192,120803,1,0,0:0:0:0:
448,192,120803,1,0,0:0:0:0:
192,192,120888,1,0,0:0:0:0:
64,192,120888,1,0,0:0:0:0:
448,192,120974,1,0,0:0:0:0:
320,192,120974,1,0,0:0:0:0:
192,192,121060,1,0,0:0:0:0:
320,192,121146,1,0,0:0:0:0:
448,192,121146,1,0,0:0:0:0:
64,192,121146,1,0,0:0:0:0:
320,192,121231,1,0,0:0:0:0:
448,192,121231,1,0,0:0:0:0:
192,192,121317,1,0,0:0:0:0:
64,192,121317,1,0,0:0:0:0:
320,192,121403,1,0,0:0:0:0:
192,192,121488,1,0,0:0:0:0:
448,192,121488,1,0,0:0:0:0:
64,192,121488,1,0,0:0:0:0:
64,192,121574,1,0,0:0:0:0:
192,192,121574,1,0,0:0:0:0:
320,192,121660,1,0,0:0:0:0:
448,192,121746,1,0,0:0:0:0:
192,192,121831,1,0,0:0:0:0:
320,192,121831,1,0,0:0:0:0:
192,192,122174,1,0,0:0:0:0:
320,192,122174,1,0,0:0:0:0:
448,192,122517,1,0,0:0:0:0:
320,192,122517,1,0,0:0:0:0:
320,192,122688,1,0,0:0:0:0:
192,192,122688,1,0,0:0:0:0:
192,192,122860,1,0,0:0:0:0:
64,192,122860,1,0,0:0:0:0:
192,192,123203,1,0,0:0:0:0:
320,192,123203,1,0,0:0:0:0:
192,192,123546,1,0,0:0:0:0:
320,192,123546,1,0,0:0:0:0:
64,192,123888,1,0,0:0:0:0:
192,192,123888,1,0,0:0:0:0:
192,192,124060,1,0,0:0:0:0:
320,192,124060,1,0,0:0:0:0:
320,192,124231,1,0,0:0:0:0:
448,192,124231,1,0,0:0:0:0:
64,192,124488,1,0,0:0:0:0:
192,192,124574,1,0,0:0:0:0:
320,192,124574,1,0,0:0:0:0:
192,192,124917,1,0,0:0:0:0:
320,192,124917,1,0,0:0:0:0:
320,192,125260,1,0,0:0:0:0:
448,192,125260,1,0,0:0:0:0:
192,192,125431,1,0,0:0:0:0:
320,192,125431,1,0,0:0:0:0:
192,192,125603,1,0,0:0:0:0:
64,192,125603,1,0,0:0:0:0:
192,192,125946,1,0,0:0:0:0:
320,192,125946,1,0,0:0:0:0:
192,192,126288,1,0,0:0:0:0:
320,192,126288,1,0,0:0:0:0:
192,192,126631,1,0,0:0:0:0:
64,192,126631,1,0,0:0:0:0:
192,192,126803,1,0,0:0:0:0:
320,192,126803,1,0,0:0:0:0:
448,192,126974,1,0,0:0:0:0:
320,192,126974,1,0,0:0:0:0:
448,192,127231,1,0,0:0:0:0:
192,192,127317,1,0,0:0:0:0:
320,192,127317,1,0,0:0:0:0:
192,192,127660,1,0,0:0:0:0:
320,192,127660,1,0,0:0:0:0:
448,192,128003,1,0,0:0:0:0:
320,192,128003,1,0,0:0:0:0:
192,192,128174,1,0,0:0:0:0:
320,192,128174,1,0,0:0:0:0:
192,192,128346,1,0,0:0:0:0:
64,192,128346,1,0,0:0:0:0:
192,192,128688,1,0,0:0:0:0:
320,192,128688,1,0,0:0:0:0:
320,192,129031,1,0,0:0:0:0:
192,192,129031,1,0,0:0:0:0:
64,192,129374,1,0,0:0:0:0:
192,192,129374,1,0,0:0:0:0:
192,192,129546,1,0,0:0:0:0:
320,192,129546,1,0,0:0:0:0:
320,192,129717,1,0,0:0:0:0:
448,192,129717,1,0,0:0:0:0:
64,192,129974,1,0,0:0:0:0:
320,192,130060,1,0,0:0:0:0:
192,192,130060,1,0,0:0:0:0:
448,192,130231,1,0,0:0:0:0:
192,192,130231,1,0,0:0:0:0:
320,192,130403,1,0,0:0:0:0:
64,192,130403,1,0,0:0:0:0:
448,192,130574,1,0,0:0:0:0:
320,192,130574,1,0,0:0:0:0:
192,192,130746,1,0,0:0:0:0:
64,192,130746,1,0,0:0:0:0:
448,192,130917,1,0,0:0:0:0:
192,192,130917,1,0,0:0:0:0:
320,192,131088,1,0,0:0:0:0:
64,192,131088,1,0,0:0:0:0:
192,192,131260,1,0,0:0:0:0:
64,192,131260,1,0,0:0:0:0:
448,192,131431,1,0,0:0:0:0:
320,192,131431,1,0,0:0:0:0:
64,192,131517,1,0,0:0:0:0:
320,192,131603,1,0,0:0:0:0:
192,192,131603,1,0,0:0:0:0:
448,192,131688,1,0,0:0:0:0:
320,192,131774,1,0,0:0:0:0:
64,192,131774,1,0,0:0:0:0:
192,192,131860,1,0,0:0:0:0:
448,192,131946,1,0,0:0:0:0:
320,192,131946,1,0,0:0:0:0:
64,192,132031,1,0,0:0:0:0:
192,192,132117,1,0,0:0:0:0:
448,192,132117,1,0,0:0:0:0:
320,192,132203,1,0,0:0:0:0:
192,192,132288,1,0,0:0:0:0:
64,192,132288,1,0,0:0:0:0:
448,192,132374,1,0,0:0:0:0:
320,192,132460,1,0,0:0:0:0:
192,192,132460,1,0,0:0:0:0:
64,192,132546,1,0,0:0:0:0:
448,192,132631,1,0,0:0:0:0:
192,192,132631,1,0,0:0:0:0:
320,192,132717,1,0,0:0:0:0:
192,192,132803,1,0,0:0:0:0:
64,192,132803,1,0,0:0:0:0:
448,192,132803,1,0,0:0:0:0:
448,192,132974,1,0,0:0:0:0:
320,192,132974,1,0,0:0:0:0:
192,192,132974,1,0,0:0:0:0:
448,192,133146,1,0,0:0:0:0:
320,192,133146,1,0,0:0:0:0:
64,192,133146,1,0,0:0:0:0:
320,192,133317,1,0,0:0:0:0:
192,192,133317,1,0,0:0:0:0:
64,192,133317,1,0,0:0:0:0:
448,192,133488,1,0,0:0:0:0:
320,192,133488,1,0,0:0:0:0:
192,192,133488,1,0,0:0:0:0:
448,192,133660,1,0,0:0:0:0:
192,192,133660,1,0,0:0:0:0:
64,192,133660,1,0,0:0:0:0:
448,192,133831,1,0,0:0:0:0:
320,192,133831,1,0,0:0:0:0:
64,192,133831,1,0,0:0:0:0:
64,192,134003,1,0,0:0:0:0:
192,192,134003,1,0,0:0:0:0:
320,192,134003,1,0,0:0:0:0:
448,192,134174,1,0,0:0:0:0:
192,192,134174,1,0,0:0:0:0:
64,192,134174,1,0,0:0:0:0:
448,192,134346,1,0,0:0:0:0:
320,192,134346,1,0,0:0:0:0:
192,192,134346,1,0,0:0:0:0:
448,192,134517,1,0,0:0:0:0:
64,192,134517,1,0,0:0:0:0:
320,192,134517,1,0,0:0:0:0:
64,192,134688,1,0,0:0:0:0:
192,192,134688,1,0,0:0:0:0:
448,192,134688,1,0,0:0:0:0:
448,192,134860,1,0,0:0:0:0:
320,192,134860,1,0,0:0:0:0:
192,192,134860,1,0,0:0:0:0:
320,192,135031,1,0,0:0:0:0:
192,192,135031,1,0,0:0:0:0:
64,192,135031,1,0,0:0:0:0:
448,192,135203,1,0,0:0:0:0:
320,192,135203,1,0,0:0:0:0:
64,192,135203,1,0,0:0:0:0:
64,192,135374,1,0,0:0:0:0:
192,192,135374,1,0,0:0:0:0:
448,192,135374,1,0,0:0:0:0:
448,192,135546,1,0,0:0:0:0:
320,192,135546,1,0,0:0:0:0:
192,192,135546,1,0,0:0:0:0:
448,192,135717,1,0,0:0:0:0:
320,192,135717,1,0,0:0:0:0:
64,192,135717,1,0,0:0:0:0:
320,192,135888,1,0,0:0:0:0:
192,192,135888,1,0,0:0:0:0:
64,192,135888,1,0,0:0:0:0:
448,192,136060,1,0,0:0:0:0:
320,192,136060,1,0,0:0:0:0:
192,192,136060,1,0,0:0:0:0:
448,192,136231,1,0,0:0:0:0:
192,192,136231,1,0,0:0:0:0:
64,192,136231,1,0,0:0:0:0:
320,192,136403,1,0,0:0:0:0:
448,192,136403,1,0,0:0:0:0:
64,192,136403,1,0,0:0:0:0:
64,192,136574,1,0,0:0:0:0:
192,192,136574,1,0,0:0:0:0:
320,192,136574,1,0,0:0:0:0:
448,192,136746,1,0,0:0:0:0:
64,192,136746,1,0,0:0:0:0:
192,192,136746,1,0,0:0:0:0:
448,192,136917,1,0,0:0:0:0:
320,192,136917,1,0,0:0:0:0:
192,192,136917,1,0,0:0:0:0:
64,192,137088,1,0,0:0:0:0:
192,192,137088,1,0,0:0:0:0:
320,192,137088,1,0,0:0:0:0:
448,192,137260,1,0,0:0:0:0:
320,192,137260,1,0,0:0:0:0:
64,192,137260,1,0,0:0:0:0:
448,192,137431,1,0,0:0:0:0:
192,192,137431,1,0,0:0:0:0:
64,192,137431,1,0,0:0:0:0:
320,192,137603,1,0,0:0:0:0:
448,192,137603,1,0,0:0:0:0:
192,192,137603,1,0,0:0:0:0:
64,192,137774,1,0,0:0:0:0:
448,192,137774,1,0,0:0:0:0:
320,192,137774,1,0,0:0:0:0:
320,192,137946,1,0,0:0:0:0:
192,192,137946,1,0,0:0:0:0:
64,192,137946,1,0,0:0:0:0:
448,192,138117,1,0,0:0:0:0:
192,192,138117,1,0,0:0:0:0:
64,192,138117,1,0,0:0:0:0:
448,192,138288,1,0,0:0:0:0:
320,192,138288,1,0,0:0:0:0:
192,192,138288,1,0,0:0:0:0:
64,192,138460,1,0,0:0:0:0:
192,192,138460,1,0,0:0:0:0:
320,192,138460,1,0,0:0:0:0:
448,192,138631,1,0,0:0:0:0:
320,192,138631,1,0,0:0:0:0:
64,192,138631,1,0,0:0:0:0:
64,192,138803,1,0,0:0:0:0:
192,192,138803,1,0,0:0:0:0:
448,192,138803,1,0,0:0:0:0:
448,192,138974,1,0,0:0:0:0:
320,192,138974,1,0,0:0:0:0:
192,192,138974,1,0,0:0:0:0:
448,192,139146,1,0,0:0:0:0:
320,192,139146,1,0,0:0:0:0:
64,192,139146,1,0,0:0:0:0:
64,192,139317,1,0,0:0:0:0:
192,192,139317,1,0,0:0:0:0:
320,192,139317,1,0,0:0:0:0:
448,192,139488,1,0,0:0:0:0:
192,192,139488,1,0,0:0:0:0:
64,192,139488,1,0,0:0:0:0:
320,192,139660,1,0,0:0:0:0:
448,192,139660,1,0,0:0:0:0:
192,192,139660,1,0,0:0:0:0:
320,192,139831,1,0,0:0:0:0:
192,192,139831,1,0,0:0:0:0:
64,192,139831,1,0,0:0:0:0:
448,192,140003,1,0,0:0:0:0:
320,192,140003,1,0,0:0:0:0:
64,192,140003,1,0,0:0:0:0:
64,192,140174,1,0,0:0:0:0:
192,192,140174,1,0,0:0:0:0:
448,192,140174,1,0,0:0:0:0:
448,192,140346,1,0,0:0:0:0:
320,192,140346,1,0,0:0:0:0:
192,192,140346,1,0,0:0:0:0:
64,192,140517,1,0,0:0:0:0:
448,192,140517,1,0,0:0:0:0:
320,192,140517,1,0,0:0:0:0:
320,192,140688,1,0,0:0:0:0:
192,192,140688,1,0,0:0:0:0:
64,192,140688,1,0,0:0:0:0:
448,192,140860,1,0,0:0:0:0:
192,192,140860,1,0,0:0:0:0:
64,192,140860,1,0,0:0:0:0:
320,192,141031,1,0,0:0:0:0:
448,192,141031,1,0,0:0:0:0:
192,192,141117,1,0,0:0:0:0:
320,192,141203,1,0,0:0:0:0:
64,192,141203,1,0,0:0:0:0:
448,192,141288,1,0,0:0:0:0:
192,192,141374,1,0,0:0:0:0:
64,192,141374,1,0,0:0:0:0:
320,192,141460,1,0,0:0:0:0:
448,192,141546,1,0,0:0:0:0:
192,192,141546,1,0,0:0:0:0:
64,192,141631,1,0,0:0:0:0:
320,192,141717,1,0,0:0:0:0:
192,192,141717,1,0,0:0:0:0:
448,192,141803,1,0,0:0:0:0:
320,192,141888,1,0,0:0:0:0:
64,192,141888,1,0,0:0:0:0:
192,192,141974,1,0,0:0:0:0:
320,192,142060,1,0,0:0:0:0:
448,192,142060,1,0,0:0:0:0:
64,192,142146,1,0,0:0:0:0:
192,192,142231,1,0,0:0:0:0:
448,192,142231,1,0,0:0:0:0:
320,192,142317,1,0,0:0:0:0:
192,192,142403,1,0,0:0:0:0:
64,192,142403,1,0,0:0:0:0:
448,192,142488,1,0,0:0:0:0:
320,192,142574,1,0,0:0:0:0:
192,192,142574,1,0,0:0:0:0:
64,192,142660,1,0,0:0:0:0:
448,192,142746,1,0,0:0:0:0:
192,192,142746,1,0,0:0:0:0:
320,192,142831,1,0,0:0:0:0:
192,192,142917,1,0,0:0:0:0:
64,192,142917,1,0,0:0:0:0:
448,192,143003,1,0,0:0:0:0:
320,192,143088,1,0,0:0:0:0:
192,192,143174,1,0,0:0:0:0:
64,192,143260,1,0,0:0:0:0:
192,192,143346,1,0,0:0:0:0:
320,192,143431,1,0,0:0:0:0:
448,192,143517,1,0,0:0:0:0:
320,192,143603,1,0,0:0:0:0:
192,192,143688,1,0,0:0:0:0:
448,192,143774,128,0,144117:0:0:0:0:
64,192,144288,128,0,144460:0:0:0:0:
320,192,144631,128,0,144803:0:0:0:0:
192,192,144974,128,0,145146:0:0:0:0:
192,192,145317,128,0,145488:0:0:0:0:
320,192,145660,128,0,145831:0:0:0:0:
192,192,146003,128,0,146174:0:0:0:0:
448,192,146174,1,0,0:0:0:0:
320,192,146217,1,0,0:0:0:0:
192,192,146260,1,0,0:0:0:0:
64,192,146303,1,0,0:0:0:0:
448,192,146517,128,0,146946:0:0:0:0:
320,192,146517,1,0,0:0:0:0:
64,192,146517,1,0,0:0:0:0:
192,192,146688,1,0,0:0:0:0:
320,192,146860,1,0,0:0:0:0:
192,192,146860,1,0,0:0:0:0:
64,192,146860,1,0,0:0:0:0:
64,192,147031,128,0,147288:0:0:0:0:
320,192,147031,1,0,0:0:0:0:
448,192,147117,1,0,0:0:0:0:
192,192,147203,1,0,0:0:0:0:
320,192,147288,1,0,0:0:0:0:
448,192,147374,128,0,147631:0:0:0:0:
64,192,147374,1,0,0:0:0:0:
192,192,147374,1,0,0:0:0:0:
320,192,147546,1,0,0:0:0:0:
192,192,147546,1,0,0:0:0:0:
64,192,147546,1,0,0:0:0:0:
192,192,147717,128,0,147974:0:0:0:0:
448,192,147717,1,0,0:0:0:0:
320,192,147888,1,0,0:0:0:0:
64,192,147888,1,0,0:0:0:0:
192,192,148060,128,0,148317:0:0:0:0:
448,192,148060,1,0,0:0:0:0:
320,192,148231,1,0,0:0:0:0:
448,192,148231,1,0,0:0:0:0:
64,192,148231,1,0,0:0:0:0:
320,192,148403,128,0,148660:0:0:0:0:
64,192,148403,1,0,0:0:0:0:
448,192,148488,1,0,0:0:0:0:
64,192,148574,1,0,0:0:0:0:
192,192,148660,1,0,0:0:0:0:
320,192,148746,128,0,148831:0:0:0:0:
64,192,148746,1,0,0:0:0:0:
448,192,148746,1,0,0:0:0:0:
448,192,148917,1,0,0:0:0:0:
320,192,148917,1,0,0:0:0:0:
64,192,148917,1,0,0:0:0:0:
192,192,148917,128,0,149174:0:0:0:0:
448,192,149088,1,0,0:0:0:0:
192,192,149260,1,0,0:0:0:0:
64,192,149260,1,0,0:0:0:0:
320,192,149260,1,0,0:0:0:0:
448,192,149474,1,0,0:0:0:0:
320,192,149517,1,0,0:0:0:0:
192,192,149560,1,0,0:0:0:0:
320,192,149603,1,0,0:0:0:0:
64,192,149603,1,0,0:0:0:0:
448,192,149603,1,0,0:0:0:0:
192,192,149688,1,0,0:0:0:0:
320,192,149774,1,0,0:0:0:0:
448,192,149860,1,0,0:0:0:0:
320,192,149946,1,0,0:0:0:0:
192,192,150031,1,0,0:0:0:0:
64,192,150117,1,0,0:0:0:0:
320,192,150117,1,0,0:0:0:0:
448,192,150203,1,0,0:0:0:0:
320,192,150288,1,0,0:0:0:0:
64,192,150288,1,0,0:0:0:0:
192,192,150288,1,0,0:0:0:0:
448,192,150374,1,0,0:0:0:0:
320,192,150460,1,0,0:0:0:0:
192,192,150546,1,0,0:0:0:0:
64,192,150631,1,0,0:0:0:0:
320,192,150631,1,0,0:0:0:0:
192,192,150717,1,0,0:0:0:0:
320,192,150803,1,0,0:0:0:0:
448,192,150888,1,0,0:0:0:0:
320,192,150974,1,0,0:0:0:0:
192,192,150974,1,0,0:0:0:0:
64,192,150974,1,0,0:0:0:0:
448,192,151060,1,0,0:0:0:0:
320,192,151146,1,0,0:0:0:0:
192,192,151231,1,0,0:0:0:0:
64,192,151317,1,0,0:0:0:0:
192,192,151403,1,0,0:0:0:0:
320,192,151488,1,0,0:0:0:0:
64,192,151488,1,0,0:0:0:0:
448,192,151574,1,0,0:0:0:0:
64,192,151660,1,0,0:0:0:0:
320,192,151660,1,0,0:0:0:0:
192,192,151660,1,0,0:0:0:0:
448,192,151746,1,0,0:0:0:0:
320,192,151831,1,0,0:0:0:0:
192,192,151917,1,0,0:0:0:0:
64,192,152003,1,0,0:0:0:0:
320,192,152003,1,0,0:0:0:0:
64,192,152217,1,0,0:0:0:0:
192,192,152260,1,0,0:0:0:0:
320,192,152303,1,0,0:0:0:0:
448,192,152346,1,0,0:0:0:0:
192,192,152346,1,0,0:0:0:0:
64,192,152346,1,0,0:0:0:0:
320,192,152431,1,0,0:0:0:0:
64,192,152517,1,0,0:0:0:0:
192,192,152603,1,0,0:0:0:0:
448,192,152688,1,0,0:0:0:0:
320,192,152774,1,0,0:0:0:0:
448,192,152860,1,0,0:0:0:0:
64,192,152860,1,0,0:0:0:0:
192,192,152946,1,0,0:0:0:0:
448,192,153031,1,0,0:0:0:0:
320,192,153031,1,0,0:0:0:0:
64,192,153031,1,0,0:0:0:0:
192,192,153117,1,0,0:0:0:0:
448,192,153203,1,0,0:0:0:0:
320,192,153288,1,0,0:0:0:0:
448,192,153374,1,0,0:0:0:0:
192,192,153374,1,0,0:0:0:0:
64,192,153460,1,0,0:0:0:0:
320,192,153546,1,0,0:0:0:0:
448,192,153631,1,0,0:0:0:0:
320,192,153717,1,0,0:0:0:0:
192,192,153717,1,0,0:0:0:0:
64,192,153717,1,0,0:0:0:0:
448,192,153803,1,0,0:0:0:0:
192,192,153888,1,0,0:0:0:0:
64,192,153974,1,0,0:0:0:0:
320,192,154060,1,0,0:0:0:0:
448,192,154146,1,0,0:0:0:0:
64,192,154231,1,0,0:0:0:0:
320,192,154231,1,0,0:0:0:0:
192,192,154317,1,0,0:0:0:0:
448,192,154403,1,0,0:0:0:0:
64,192,154403,1,0,0:0:0:0:
320,192,154403,1,0,0:0:0:0:
192,192,154488,1,0,0:0:0:0:
448,192,154574,1,0,0:0:0:0:
320,192,154660,1,0,0:0:0:0:
448,192,154746,1,0,0:0:0:0:
64,192,154746,128,0,154917:0:0:0:0:
192,192,154746,1,0,0:0:0:0:
448,192,154960,1,0,0:0:0:0:
320,192,155003,1,0,0:0:0:0:
192,192,155046,1,0,0:0:0:0:
64,192,155088,1,0,0:0:0:0:
448,192,155088,1,0,0:0:0:0:
320,192,155088,1,0,0:0:0:0:
448,192,155260,128,0,155431:0:0:0:0:
192,192,155260,1,0,0:0:0:0:
64,192,155346,1,0,0:0:0:0:
320,192,155431,1,0,0:0:0:0:
64,192,155517,1,0,0:0:0:0:
192,192,155603,128,0,155774:0:0:0:0:
448,192,155603,1,0,0:0:0:0:
320,192,155603,1,0,0:0:0:0:
320,192,155774,1,0,0:0:0:0:
448,192,155774,1,0,0:0:0:0:
64,192,155774,1,0,0:0:0:0:
320,192,155946,128,0,156117:0:0:0:0:
192,192,155946,1,0,0:0:0:0:
64,192,156117,1,0,0:0:0:0:
448,192,156117,1,0,0:0:0:0:
320,192,156288,128,0,156460:0:0:0:0:
192,192,156288,1,0,0:0:0:0:
192,192,156460,1,0,0:0:0:0:
64,192,156460,1,0,0:0:0:0:
448,192,156460,1,0,0:0:0:0:
192,192,156631,128,0,156803:0:0:0:0:
320,192,156631,1,0,0:0:0:0:
64,192,156717,1,0,0:0:0:0:
448,192,156803,1,0,0:0:0:0:
64,192,156888,1,0,0:0:0:0:
448,192,156974,1,0,0:0:0:0:
320,192,156974,128,0,157146:0:0:0:0:
192,192,156974,1,0,0:0:0:0:
192,192,157146,128,0,157317:0:0:0:0:
64,192,157146,1,0,0:0:0:0:
448,192,157146,1,0,0:0:0:0:
320,192,157317,1,0,0:0:0:0:
64,192,157488,128,0,157917:0:0:0:0:
192,192,157488,1,0,0:0:0:0:
448,192,157488,1,0,0:0:0:0:
320,192,157660,1,0,0:0:0:0:
192,192,157831,1,0,0:0:0:0:
320,192,157831,1,0,0:0:0:0:
448,192,157831,1,0,0:0:0:0:
448,192,158003,128,0,158260:0:0:0:0:
192,192,158003,1,0,0:0:0:0:
64,192,158088,1,0,0:0:0:0:
320,192,158174,1,0,0:0:0:0:
192,192,158260,1,0,0:0:0:0:
64,192,158346,128,0,158603:0:0:0:0:
448,192,158346,1,0,0:0:0:0:
320,192,158346,1,0,0:0:0:0:
192,192,158517,1,0,0:0:0:0:
320,192,158517,1,0,0:0:0:0:
448,192,158517,1,0,0:0:0:0:
320,192,158688,128,0,158946:0:0:0:0:
64,192,158688,1,0,0:0:0:0:
192,192,158860,1,0,0:0:0:0:
448,192,158860,1,0,0:0:0:0:
320,192,159031,128,0,159288:0:0:0:0:
64,192,159031,1,0,0:0:0:0:
192,192,159203,1,0,0:0:0:0:
64,192,159203,1,0,0:0:0:0:
448,192,159203,1,0,0:0:0:0:
192,192,159374,128,0,159631:0:0:0:0:
448,192,159374,1,0,0:0:0:0:
64,192,159460,1,0,0:0:0:0:
448,192,159546,1,0,0:0:0:0:
320,192,159631,1,0,0:0:0:0:
192,192,159717,128,0,159803:0:0:0:0:
448,192,159717,1,0,0:0:0:0:
64,192,159717,1,0,0:0:0:0:
64,192,159888,1,0,0:0:0:0:
192,192,159888,1,0,0:0:0:0:
448,192,159888,1,0,0:0:0:0:
320,192,159888,128,0,160146:0:0:0:0:
64,192,160060,1,0,0:0:0:0:
320,192,160231,1,0,0:0:0:0:
192,192,160231,1,0,0:0:0:0:
448,192,160231,128,0,160403:0:0:0:0:
64,192,160446,1,0,0:0:0:0:
192,192,160488,1,0,0:0:0:0:
320,192,160531,1,0,0:0:0:0:
448,192,160574,1,0,0:0:0:0:
64,192,160574,1,0,0:0:0:0:
192,192,160574,1,0,0:0:0:0:
64,192,160746,128,0,160917:0:0:0:0:
192,192,160746,1,0,0:0:0:0:
320,192,160917,1,0,0:0:0:0:
320,192,161088,128,0,161260:0:0:0:0:
192,192,161088,1,0,0:0:0:0:
64,192,161088,1,0,0:0:0:0:
448,192,161260,1,0,0:0:0:0:
192,192,161260,1,0,0:0:0:0:
64,192,161260,1,0,0:0:0:0:
320,192,161431,1,0,0:0:0:0:
192,192,161431,128,0,161603:0:0:0:0:
64,192,161603,1,0,0:0:0:0:
448,192,161603,1,0,0:0:0:0:
192,192,161774,128,0,161946:0:0:0:0:
320,192,161774,1,0,0:0:0:0:
320,192,161946,1,0,0:0:0:0:
448,192,161946,1,0,0:0:0:0:
64,192,161946,1,0,0:0:0:0:
192,192,162117,1,0,0:0:0:0:
320,192,162117,128,0,162288:0:0:0:0:
448,192,162288,1,0,0:0:0:0:
320,192,162460,1,0,0:0:0:0:
64,192,162460,1,0,0:0:0:0:
192,192,162460,128,0,162631:0:0:0:0:
448,192,162631,1,0,0:0:0:0:
320,192,162631,128,0,162803:0:0:0:0:
64,192,162631,1,0,0:0:0:0:
192,192,162803,1,0,0:0:0:0:
64,192,162974,128,0,163831:0:0:0:0:
192,192,162974,1,0,0:0:0:0:
448,192,162974,1,0,0:0:0:0:
320,192,163146,1,0,0:0:0:0:
448,192,163317,1,0,0:0:0:0:
320,192,163317,1,0,0:0:0:0:
192,192,163317,1,0,0:0:0:0:
448,192,163488,1,0,0:0:0:0:
192,192,163660,1,0,0:0:0:0:
448,192,163831,1,0,0:0:0:0:
320,192,163831,1,0,0:0:0:0:
192,192,163917,1,0,0:0:0:0:
320,192,164003,1,0,0:0:0:0:
448,192,164003,1,0,0:0:0:0:
192,192,164088,1,0,0:0:0:0:
448,192,164174,1,0,0:0:0:0:
320,192,164174,1,0,0:0:0:0:
192,192,164260,1,0,0:0:0:0:
320,192,164346,1,0,0:0:0:0:
448,192,164346,1,0,0:0:0:0:
64,192,164346,1,0,0:0:0:0:
192,192,164431,1,0,0:0:0:0:
320,192,164517,1,0,0:0:0:0:
64,192,164517,1,0,0:0:0:0:
448,192,164603,1,0,0:0:0:0:
320,192,164688,1,0,0:0:0:0:
192,192,164688,1,0,0:0:0:0:
64,192,164688,1,0,0:0:0:0:
448,192,164774,1,0,0:0:0:0:
320,192,164860,1,0,0:0:0:0:
64,192,164860,1,0,0:0:0:0:
192,192,164946,1,0,0:0:0:0:
320,192,165031,1,0,0:0:0:0:
448,192,165031,1,0,0:0:0:0:
64,192,165031,1,0,0:0:0:0:
192,192,165117,1,0,0:0:0:0:
448,192,165203,1,0,0:0:0:0:
64,192,165203,1,0,0:0:0:0:
320,192,165288,1,0,0:0:0:0:
448,192,165374,1,0,0:0:0:0:
192,192,165374,1,0,0:0:0:0:
64,192,165374,1,0,0:0:0:0:
320,192,165460,1,0,0:0:0:0:
64,192,165546,1,0,0:0:0:0:
192,192,165631,1,0,0:0:0:0:
320,192,165717,1,0,0:0:0:0:
448,192,165717,1,0,0:0:0:0:
64,192,165888,1,0,0:0:0:0:
320,192,166060,1,0,0:0:0:0:
448,192,166060,1,0,0:0:0:0:
64,192,166231,1,0,0:0:0:0:
320,192,166403,1,0,0:0:0:0:
448,192,166403,1,0,0:0:0:0:
64,192,166574,1,0,0:0:0:0:
320,192,166746,1,0,0:0:0:0:
448,192,166746,1,0,0:0:0:0:
64,192,166917,1,0,0:0:0:0:
320,192,167088,1,0,0:0:0:0:
448,192,167088,1,0,0:0:0:0:
64,192,167260,1,0,0:0:0:0:
320,192,167431,1,0,0:0:0:0:
448,192,167431,1,0,0:0:0:0:
192,192,167517,1,0,0:0:0:0:
64,192,167603,1,0,0:0:0:0:
192,192,167688,1,0,0:0:0:0:
320,192,167774,1,0,0:0:0:0:
448,192,167774,1,0,0:0:0:0:
64,192,167860,1,0,0:0:0:0:
320,192,167946,1,0,0:0:0:0:
448,192,167946,1,0,0:0:0:0:
64,192,168031,1,0,0:0:0:0:
320,192,168117,1,0,0:0:0:0:
448,192,168117,1,0,0:0:0:0:
192,192,168117,1,0,0:0:0:0:
64,192,168203,1,0,0:0:0:0:
192,192,168288,1,0,0:0:0:0:
320,192,168374,1,0,0:0:0:0:
64,192,168460,1,0,0:0:0:0:
448,192,168460,1,0,0:0:0:0:
192,192,168460,1,0,0:0:0:0:
448,192,168674,1,0,0:0:0:0:
320,192,168717,1,0,0:0:0:0:
192,192,168760,1,0,0:0:0:0:
320,192,168803,1,0,0:0:0:0:
448,192,168803,1,0,0:0:0:0:
64,192,168803,1,0,0:0:0:0:
320,192,168974,1,0,0:0:0:0:
64,192,169060,1,0,0:0:0:0:
192,192,169103,1,0,0:0:0:0:
320,192,169146,128,0,169917:0:0:0:0:
448,192,169146,1,0,0:0:0:0:
192,192,169231,1,0,0:0:0:0:
64,192,169317,1,0,0:0:0:0:
448,192,169317,1,0,0:0:0:0:
64,192,169488,1,0,0:0:0:0:
448,192,169488,1,0,0:0:0:0:
192,192,169488,1,0,0:0:0:0:
192,192,169660,1,0,0:0:0:0:
192,192,169831,1,0,0:0:0:0:
448,192,169831,1,0,0:0:0:0:
64,192,170003,1,0,0:0:0:0:
320,192,170088,128,0,170174:0:0:0:0:
192,192,170174,1,0,0:0:0:0:
64,192,170174,1,0,0:0:0:0:
448,192,170174,1,0,0:0:0:0:
192,192,170346,1,0,0:0:0:0:
448,192,170431,1,0,0:0:0:0:
64,192,170517,1,0,0:0:0:0:
192,192,170603,1,0,0:0:0:0:
320,192,170603,128,0,170688:0:0:0:0:
64,192,170688,1,0,0:0:0:0:
448,192,170688,1,0,0:0:0:0:
448,192,170860,1,0,0:0:0:0:
320,192,170860,1,0,0:0:0:0:
64,192,170860,1,0,0:0:0:0:
192,192,171031,1,0,0:0:0:0:
320,192,171031,1,0,0:0:0:0:
448,192,171203,1,0,0:0:0:0:
64,192,171203,1,0,0:0:0:0:
320,192,171203,1,0,0:0:0:0:
64,192,171417,1,0,0:0:0:0:
192,192,171460,1,0,0:0:0:0:
320,192,171503,1,0,0:0:0:0:
192,192,171546,1,0,0:0:0:0:
64,192,171546,1,0,0:0:0:0:
448,192,171546,1,0,0:0:0:0:
192,192,171717,1,0,0:0:0:0:
448,192,171803,1,0,0:0:0:0:
320,192,171846,1,0,0:0:0:0:
192,192,171888,128,0,172660:0:0:0:0:
64,192,171888,1,0,0:0:0:0:
320,192,171974,1,0,0:0:0:0:
448,192,172060,1,0,0:0:0:0:
64,192,172060,1,0,0:0:0:0:
448,192,172231,1,0,0:0:0:0:
64,192,172231,1,0,0:0:0:0:
320,192,172231,1,0,0:0:0:0:
320,192,172403,1,0,0:0:0:0:
320,192,172574,1,0,0:0:0:0:
64,192,172574,1,0,0:0:0:0:
448,192,172746,1,0,0:0:0:0:
192,192,172831,128,0,172917:0:0:0:0:
320,192,172917,1,0,0:0:0:0:
448,192,172917,1,0,0:0:0:0:
64,192,172917,1,0,0:0:0:0:
320,192,173088,1,0,0:0:0:0:
64,192,173174,1,0,0:0:0:0:
448,192,173260,1,0,0:0:0:0:
320,192,173346,1,0,0:0:0:0:
192,192,173346,128,0,173431:0:0:0:0:
448,192,173431,1,0,0:0:0:0:
64,192,173431,1,0,0:0:0:0:
64,192,173603,1,0,0:0:0:0:
192,192,173603,1,0,0:0:0:0:
448,192,173603,1,0,0:0:0:0:
320,192,173774,1,0,0:0:0:0:
192,192,173774,1,0,0:0:0:0:
192,192,173946,128,0,174888:0:0:0:0:
64,192,173946,1,0,0:0:0:0:
448,192,173946,1,0,0:0:0:0:
320,192,174117,1,0,0:0:0:0:
448,192,174288,1,0,0:0:0:0:
64,192,174288,1,0,0:0:0:0:
320,192,174288,1,0,0:0:0:0:
64,192,174460,1,0,0:0:0:0:
320,192,174546,1,0,0:0:0:0:
64,192,174631,1,0,0:0:0:0:
448,192,174717,1,0,0:0:0:0:
320,192,174803,1,0,0:0:0:0:
64,192,174803,1,0,0:0:0:0:
320,192,174974,128,0,175917:0:0:0:0:
64,192,174974,1,0,0:0:0:0:
192,192,174974,1,0,0:0:0:0:
448,192,174974,1,0,0:0:0:0:
448,192,175146,1,0,0:0:0:0:
192,192,175317,1,0,0:0:0:0:
64,192,175317,1,0,0:0:0:0:
448,192,175403,1,0,0:0:0:0:
64,192,175488,1,0,0:0:0:0:
192,192,175574,1,0,0:0:0:0:
448,192,175660,1,0,0:0:0:0:
64,192,175660,1,0,0:0:0:0:
192,192,175660,1,0,0:0:0:0:
448,192,175746,1,0,0:0:0:0:
64,192,175831,1,0,0:0:0:0:
448,192,175917,1,0,0:0:0:0:
64,192,176003,128,0,176603:0:0:0:0:
192,192,176003,1,0,0:0:0:0:
320,192,176088,1,0,0:0:0:0:
192,192,176174,1,0,0:0:0:0:
448,192,176174,1,0,0:0:0:0:
320,192,176260,1,0,0:0:0:0:
192,192,176346,1,0,0:0:0:0:
320,192,176346,1,0,0:0:0:0:
448,192,176346,1,0,0:0:0:0:
448,192,176431,1,0,0:0:0:0:
320,192,176517,1,0,0:0:0:0:
192,192,176603,1,0,0:0:0:0:
320,192,176688,1,0,0:0:0:0:
448,192,176688,1,0,0:0:0:0:
64,192,176688,1,0,0:0:0:0:
64,192,176903,1,0,0:0:0:0:
192,192,176946,1,0,0:0:0:0:
320,192,176988,1,0,0:0:0:0:
448,192,177031,1,0,0:0:0:0:
64,192,177031,1,0,0:0:0:0:
192,192,177031,1,0,0:0:0:0:
320,192,177203,1,0,0:0:0:0:
192,192,177288,1,0,0:0:0:0:
320,192,177331,1,0,0:0:0:0:
448,192,177374,128,0,178146:0:0:0:0:
64,192,177374,1,0,0:0:0:0:
192,192,177460,1,0,0:0:0:0:
320,192,177546,1,0,0:0:0:0:
64,192,177546,1,0,0:0:0:0:
320,192,177717,1,0,0:0:0:0:
192,192,177717,1,0,0:0:0:0:
64,192,177717,1,0,0:0:0:0:
64,192,177888,1,0,0:0:0:0:
320,192,178060,1,0,0:0:0:0:
64,192,178060,1,0,0:0:0:0:
192,192,178231,1,0,0:0:0:0:
448,192,178317,128,0,178403:0:0:0:0:
64,192,178403,1,0,0:0:0:0:
192,192,178403,1,0,0:0:0:0:
320,192,178403,1,0,0:0:0:0:
320,192,178574,1,0,0:0:0:0:
192,192,178660,1,0,0:0:0:0:
320,192,178746,1,0,0:0:0:0:
64,192,178831,1,0,0:0:0:0:
448,192,178831,128,0,178917:0:0:0:0:
320,192,178917,1,0,0:0:0:0:
192,192,178917,1,0,0:0:0:0:
448,192,179088,1,0,0:0:0:0:
192,192,179088,1,0,0:0:0:0:
64,192,179088,1,0,0:0:0:0:
320,192,179260,1,0,0:0:0:0:
192,192,179260,1,0,0:0:0:0:
192,192,179431,1,0,0:0:0:0:
64,192,179431,1,0,0:0:0:0:
448,192,179431,1,0,0:0:0:0:
448,192,179646,1,0,0:0:0:0:
320,192,179688,1,0,0:0:0:0:
192,192,179731,1,0,0:0:0:0:
64,192,179774,1,0,0:0:0:0:
448,192,179774,1,0,0:0:0:0:
320,192,179774,1,0,0:0:0:0:
192,192,179946,1,0,0:0:0:0:
320,192,180031,1,0,0:0:0:0:
192,192,180074,1,0,0:0:0:0:
64,192,180117,128,0,180888:0:0:0:0:
448,192,180117,1,0,0:0:0:0:
320,192,180203,1,0,0:0:0:0:
192,192,180288,1,0,0:0:0:0:
448,192,180288,1,0,0:0:0:0:
192,192,180460,1,0,0:0:0:0:
320,192,180460,1,0,0:0:0:0:
448,192,180460,1,0,0:0:0:0:
448,192,180631,1,0,0:0:0:0:
192,192,180803,1,0,0:0:0:0:
448,192,180803,1,0,0:0:0:0:
320,192,180974,1,0,0:0:0:0:
64,192,181060,128,0,181146:0:0:0:0:
448,192,181146,1,0,0:0:0:0:
320,192,181146,1,0,0:0:0:0:
192,192,181146,1,0,0:0:0:0:
192,192,181317,1,0,0:0:0:0:
320,192,181403,1,0,0:0:0:0:
192,192,181488,1,0,0:0:0:0:
448,192,181574,1,0,0:0:0:0:
64,192,181574,128,0,181660:0:0:0:0:
192,192,181660,1,0,0:0:0:0:
320,192,181660,1,0,0:0:0:0:
64,192,181831,1,0,0:0:0:0:
320,192,181831,1,0,0:0:0:0:
448,192,181831,1,0,0:0:0:0:
192,192,182003,1,0,0:0:0:0:
320,192,182003,1,0,0:0:0:0:
320,192,182174,1,0,0:0:0:0:
448,192,182174,1,0,0:0:0:0:
64,192,182174,1,0,0:0:0:0:
64,192,182388,1,0,0:0:0:0:
192,192,182431,1,0,0:0:0:0:
320,192,182474,1,0,0:0:0:0:
448,192,182517,1,0,0:0:0:0:
64,192,182517,1,0,0:0:0:0:
192,192,182517,1,0,0:0:0:0:
320,192,182688,1,0,0:0:0:0:
192,192,182774,1,0,0:0:0:0:
320,192,182817,1,0,0:0:0:0:
448,192,182860,128,0,183631:0:0:0:0:
64,192,182860,1,0,0:0:0:0:
192,192,182946,1,0,0:0:0:0:
320,192,183031,1,0,0:0:0:0:
64,192,183031,1,0,0:0:0:0:
320,192,183203,1,0,0:0:0:0:
192,192,183203,1,0,0:0:0:0:
64,192,183203,1,0,0:0:0:0:
64,192,183374,1,0,0:0:0:0:
320,192,183546,1,0,0:0:0:0:
64,192,183546,1,0,0:0:0:0:
192,192,183717,1,0,0:0:0:0:
448,192,183803,128,0,183888:0:0:0:0:
64,192,183888,1,0,0:0:0:0:
192,192,183888,1,0,0:0:0:0:
320,192,183888,1,0,0:0:0:0:
320,192,184060,1,0,0:0:0:0:
192,192,184146,1,0,0:0:0:0:
320,192,184231,1,0,0:0:0:0:
64,192,184317,1,0,0:0:0:0:
448,192,184317,128,0,184403:0:0:0:0:
320,192,184403,1,0,0:0:0:0:
192,192,184403,1,0,0:0:0:0:
448,192,184574,1,0,0:0:0:0:
192,192,184574,1,0,0:0:0:0:
64,192,184574,1,0,0:0:0:0:
320,192,184746,1,0,0:0:0:0:
192,192,184746,1,0,0:0:0:0:
64,192,184917,1,0,0:0:0:0:
192,192,184917,1,0,0:0:0:0:
448,192,184917,1,0,0:0:0:0:
64,192,185088,1,0,0:0:0:0:
192,192,185260,1,0,0:0:0:0:
448,192,185260,1,0,0:0:0:0:
320,192,185260,1,0,0:0:0:0:
64,192,185431,1,0,0:0:0:0:
320,192,185603,1,0,0:0:0:0:
192,192,185774,1,0,0:0:0:0:
64,192,185774,1,0,0:0:0:0:
448,192,185860,1,0,0:0:0:0:
192,192,185946,1,0,0:0:0:0:
64,192,185946,1,0,0:0:0:0:
448,192,186031,1,0,0:0:0:0:
64,192,186117,1,0,0:0:0:0:
192,192,186117,1,0,0:0:0:0:
448,192,186288,1,0,0:0:0:0:
320,192,186288,1,0,0:0:0:0:
64,192,186288,1,0,0:0:0:0:
192,192,186374,1,0,0:0:0:0:
448,192,186460,1,0,0:0:0:0:
64,192,186460,1,0,0:0:0:0:
320,192,186546,1,0,0:0:0:0:
192,192,186631,1,0,0:0:0:0:
64,192,186631,1,0,0:0:0:0:
448,192,186631,1,0,0:0:0:0:
320,192,186717,1,0,0:0:0:0:
448,192,186803,1,0,0:0:0:0:
192,192,186803,1,0,0:0:0:0:
64,192,186888,1,0,0:0:0:0:
192,192,186974,1,0,0:0:0:0:
320,192,186974,1,0,0:0:0:0:
448,192,186974,1,0,0:0:0:0:
64,192,187060,1,0,0:0:0:0:
192,192,187146,1,0,0:0:0:0:
448,192,187146,1,0,0:0:0:0:
320,192,187231,1,0,0:0:0:0:
448,192,187317,1,0,0:0:0:0:
192,192,187317,1,0,0:0:0:0:
64,192,187317,1,0,0:0:0:0:
448,192,187660,1,0,0:0:0:0:
64,192,187660,1,0,0:0:0:0:
320,192,187660,1,0,0:0:0:0:
192,192,187746,1,0,0:0:0:0:
448,192,187831,1,0,0:0:0:0:
320,192,187917,1,0,0:0:0:0:
192,192,188003,1,0,0:0:0:0:
64,192,188003,1,0,0:0:0:0:
448,192,188003,1,0,0:0:0:0:
320,192,188088,1,0,0:0:0:0:
64,192,188174,1,0,0:0:0:0:
448,192,188260,1,0,0:0:0:0:
192,192,188346,1,0,0:0:0:0:
64,192,188431,1,0,0:0:0:0:
320,192,188517,1,0,0:0:0:0:
448,192,188517,1,0,0:0:0:0:
64,192,188603,1,0,0:0:0:0:
320,192,188688,1,0,0:0:0:0:
192,192,188688,1,0,0:0:0:0:
448,192,188688,1,0,0:0:0:0:
64,192,188774,1,0,0:0:0:0:
192,192,188860,1,0,0:0:0:0:
448,192,188946,1,0,0:0:0:0:
320,192,189031,1,0,0:0:0:0:
64,192,189031,1,0,0:0:0:0:
192,192,189117,1,0,0:0:0:0:
64,192,189203,1,0,0:0:0:0:
448,192,189288,1,0,0:0:0:0:
320,192,189374,1,0,0:0:0:0:
192,192,189374,1,0,0:0:0:0:
64,192,189374,1,0,0:0:0:0:
448,192,189460,1,0,0:0:0:0:
64,192,189546,1,0,0:0:0:0:
320,192,189631,1,0,0:0:0:0:
192,192,189717,1,0,0:0:0:0:
64,192,189803,1,0,0:0:0:0:
320,192,189888,1,0,0:0:0:0:
448,192,189888,1,0,0:0:0:0:
192,192,189974,1,0,0:0:0:0:
320,192,190060,1,0,0:0:0:0:
64,192,190060,1,0,0:0:0:0:
448,192,190060,1,0,0:0:0:0:
192,192,190146,1,0,0:0:0:0:
448,192,190231,1,0,0:0:0:0:
320,192,190317,1,0,0:0:0:0:
192,192,190403,1,0,0:0:0:0:
64,192,190403,1,0,0:0:0:0:
320,192,190488,1,0,0:0:0:0:
448,192,190574,1,0,0:0:0:0:
192,192,190660,1,0,0:0:0:0:
320,192,190746,1,0,0:0:0:0:
448,192,190746,1,0,0:0:0:0:
64,192,190746,1,0,0:0:0:0:
192,192,190831,1,0,0:0:0:0:
64,192,190917,1,0,0:0:0:0:
448,192,191003,1,0,0:0:0:0:
192,192,191088,1,0,0:0:0:0:
64,192,191174,1,0,0:0:0:0:
192,192,191260,1,0,0:0:0:0:
320,192,191260,1,0,0:0:0:0:
448,192,191346,1,0,0:0:0:0:
320,192,191431,1,0,0:0:0:0:
192,192,191431,1,0,0:0:0:0:
64,192,191431,1,0,0:0:0:0:
448,192,191517,1,0,0:0:0:0:
64,192,191603,1,0,0:0:0:0:
192,192,191688,1,0,0:0:0:0:
448,192,191774,1,0,0:0:0:0:
320,192,191774,1,0,0:0:0:0:
64,192,191860,1,0,0:0:0:0:
448,192,191946,1,0,0:0:0:0:
320,192,192031,1,0,0:0:0:0:
448,192,192117,1,0,0:0:0:0:
64,192,192117,1,0,0:0:0:0:
192,192,192117,1,0,0:0:0:0:
320,192,192203,1,0,0:0:0:0:
192,192,192288,1,0,0:0:0:0:
448,192,192374,1,0,0:0:0:0:
320,192,192460,1,0,0:0:0:0:
448,192,192546,1,0,0:0:0:0:
64,192,192631,1,0,0:0:0:0:
192,192,192631,1,0,0:0:0:0:
320,192,192717,1,0,0:0:0:0:
448,192,192803,1,0,0:0:0:0:
192,192,192803,1,0,0:0:0:0:
64,192,192803,1,0,0:0:0:0:
320,192,192888,1,0,0:0:0:0:
192,192,192974,1,0,0:0:0:0:
64,192,193060,1,0,0:0:0:0:
448,192,193146,1,0,0:0:0:0:
192,192,193146,1,0,0:0:0:0:
320,192,193231,1,0,0:0:0:0:
448,192,193317,1,0,0:0:0:0:
320,192,193403,1,0,0:0:0:0:
64,192,193488,1,0,0:0:0:0:
192,192,193488,1,0,0:0:0:0:
448,192,193488,1,0,0:0:0:0:
320,192,193574,1,0,0:0:0:0:
192,192,193660,1,0,0:0:0:0:
64,192,193746,1,0,0:0:0:0:
192,192,193831,1,0,0:0:0:0:
448,192,193917,1,0,0:0:0:0:
320,192,194003,1,0,0:0:0:0:
64,192,194003,1,0,0:0:0:0:
192,192,194088,1,0,0:0:0:0:
320,192,194174,1,0,0:0:0:0:
448,192,194174,1,0,0:0:0:0:
64,192,194174,1,0,0:0:0:0:
192,192,194260,1,0,0:0:0:0:
320,192,194346,1,0,0:0:0:0:
448,192,194431,1,0,0:0:0:0:
64,192,194517,1,0,0:0:0:0:
192,192,194517,1,0,0:0:0:0:
320,192,194603,1,0,0:0:0:0:
64,192,194688,1,0,0:0:0:0:
448,192,194774,1,0,0:0:0:0:
320,192,194860,1,0,0:0:0:0:
192,192,194860,1,0,0:0:0:0:
64,192,194860,1,0,0:0:0:0:
448,192,194946,1,0,0:0:0:0:
192,192,195031,1,0,0:0:0:0:
320,192,195117,1,0,0:0:0:0:
64,192,195203,1,0,0:0:0:0:
192,192,195288,1,0,0:0:0:0:
320,192,195374,1,0,0:0:0:0:
448,192,195374,1,0,0:0:0:0:
64,192,195460,1,0,0:0:0:0:
192,192,195546,1,0,0:0:0:0:
320,192,195546,1,0,0:0:0:0:
448,192,195546,1,0,0:0:0:0:
64,192,195631,1,0,0:0:0:0:
448,192,195717,1,0,0:0:0:0:
320,192,195803,1,0,0:0:0:0:
64,192,195888,1,0,0:0:0:0:
192,192,195888,1,0,0:0:0:0:
448,192,195974,1,0,0:0:0:0:
320,192,196060,1,0,0:0:0:0:
192,192,196146,1,0,0:0:0:0:
448,192,196231,1,0,0:0:0:0:
64,192,196231,1,0,0:0:0:0:
320,192,196231,1,0,0:0:0:0:
192,192,196317,1,0,0:0:0:0:
64,192,196403,1,0,0:0:0:0:
320,192,196488,1,0,0:0:0:0:
448,192,196574,1,0,0:0:0:0:
64,192,196660,1,0,0:0:0:0:
448,192,196746,1,0,0:0:0:0:
192,192,196746,1,0,0:0:0:0:
320,192,196831,1,0,0:0:0:0:
192,192,196917,1,0,0:0:0:0:
64,192,196917,1,0,0:0:0:0:
448,192,196917,1,0,0:0:0:0:
320,192,197003,1,0,0:0:0:0:
64,192,197088,1,0,0:0:0:0:
192,192,197174,1,0,0:0:0:0:
448,192,197260,1,0,0:0:0:0:
320,192,197260,1,0,0:0:0:0:
64,192,197346,1,0,0:0:0:0:
192,192,197431,1,0,0:0:0:0:
320,192,197431,1,0,0:0:0:0:
448,192,197517,1,0,0:0:0:0:
320,192,197603,1,0,0:0:0:0:
192,192,197603,1,0,0:0:0:0:
64,192,197603,1,0,0:0:0:0:
448,192,197688,1,0,0:0:0:0:
320,192,197774,1,0,0:0:0:0:
64,192,197774,1,0,0:0:0:0:
192,192,197860,1,0,0:0:0:0:
320,192,197946,1,0,0:0:0:0:
448,192,197946,1,0,0:0:0:0:
64,192,198031,1,0,0:0:0:0:
448,192,198117,1,0,0:0:0:0:
192,192,198117,1,0,0:0:0:0:
320,192,198203,1,0,0:0:0:0:
448,192,198288,1,0,0:0:0:0:
192,192,198288,1,0,0:0:0:0:
64,192,198288,1,0,0:0:0:0:
320,192,198374,1,0,0:0:0:0:
64,192,198460,1,0,0:0:0:0:
448,192,198460,1,0,0:0:0:0:
192,192,198546,1,0,0:0:0:0:
320,192,198631,1,0,0:0:0:0:
64,192,198631,1,0,0:0:0:0:
448,192,198631,1,0,0:0:0:0:
192,192,198717,1,0,0:0:0:0:
64,192,198803,1,0,0:0:0:0:
448,192,198888,1,0,0:0:0:0:
320,192,198974,1,0,0:0:0:0:
192,192,198974,1,0,0:0:0:0:
64,192,198974,1,0,0:0:0:0:
448,192,199060,1,0,0:0:0:0:
64,192,199146,1,0,0:0:0:0:
320,192,199231,1,0,0:0:0:0:
448,192,199317,1,0,0:0:0:0:
192,192,199403,1,0,0:0:0:0:
320,192,199488,1,0,0:0:0:0:
64,192,199488,1,0,0:0:0:0:
448,192,199574,1,0,0:0:0:0:
320,192,199660,1,0,0:0:0:0:
64,192,199660,1,0,0:0:0:0:
192,192,199660,1,0,0:0:0:0:
448,192,199746,1,0,0:0:0:0:
192,192,199831,1,0,0:0:0:0:
64,192,199917,1,0,0:0:0:0:
448,192,200003,1,0,0:0:0:0:
192,192,200003,1,0,0:0:0:0:
320,192,200088,1,0,0:0:0:0:
64,192,200174,1,0,0:0:0:0:
192,192,200260,1,0,0:0:0:0:
320,192,200346,1,0,0:0:0:0:
64,192,200346,1,0,0:0:0:0:
448,192,200346,1,0,0:0:0:0:
192,192,200431,1,0,0:0:0:0:
448,192,200517,1,0,0:0:0:0:
320,192,200603,1,0,0:0:0:0:
192,192,200688,1,0,0:0:0:0:
448,192,200774,1,0,0:0:0:0:
192,192,200860,1,0,0:0:0:0:
64,192,200860,1,0,0:0:0:0:
320,192,200946,1,0,0:0:0:0:
448,192,201031,1,0,0:0:0:0:
192,192,201031,1,0,0:0:0:0:
64,192,201031,1,0,0:0:0:0:
320,192,201117,1,0,0:0:0:0:
448,192,201203,1,0,0:0:0:0:
64,192,201288,1,0,0:0:0:0:
448,192,201374,1,0,0:0:0:0:
192,192,201374,1,0,0:0:0:0:
320,192,201460,1,0,0:0:0:0:
64,192,201546,1,0,0:0:0:0:
192,192,201631,1,0,0:0:0:0:
448,192,201717,1,0,0:0:0:0:
320,192,201717,1,0,0:0:0:0:
64,192,201717,1,0,0:0:0:0:
192,192,201803,1,0,0:0:0:0:
64,192,201888,1,0,0:0:0:0:
320,192,201974,1,0,0:0:0:0:
192,192,202060,1,0,0:0:0:0:
64,192,202146,1,0,0:0:0:0:
448,192,202231,1,0,0:0:0:0:
320,192,202231,1,0,0:0:0:0:
192,192,202317,1,0,0:0:0:0:
320,192,202403,1,0,0:0:0:0:
448,192,202403,1,0,0:0:0:0:
64,192,202403,1,0,0:0:0:0:
192,192,202488,1,0,0:0:0:0:
448,192,202574,1,0,0:0:0:0:
320,192,202660,1,0,0:0:0:0:
448,192,202746,1,0,0:0:0:0:
64,192,202746,1,0,0:0:0:0:
192,192,202831,1,0,0:0:0:0:
320,192,202917,1,0,0:0:0:0:
448,192,203003,1,0,0:0:0:0:
320,192,203088,1,0,0:0:0:0:
192,192,203088,1,0,0:0:0:0:
64,192,203088,1,0,0:0:0:0:
448,192,203174,1,0,0:0:0:0:
64,192,203260,1,0,0:0:0:0:
320,192,203346,1,0,0:0:0:0:
192,192,203431,1,0,0:0:0:0:
64,192,203517,1,0,0:0:0:0:
448,192,203603,1,0,0:0:0:0:
192,192,203603,1,0,0:0:0:0:
320,192,203688,1,0,0:0:0:0:
448,192,203774,1,0,0:0:0:0:
192,192,203774,1,0,0:0:0:0:
64,192,203774,1,0,0:0:0:0:
320,192,203860,1,0,0:0:0:0:
64,192,203946,1,0,0:0:0:0:
448,192,204031,1,0,0:0:0:0:
192,192,204117,1,0,0:0:0:0:
64,192,204117,1,0,0:0:0:0:
320,192,204203,1,0,0:0:0:0:
448,192,204288,1,0,0:0:0:0:
192,192,204374,1,0,0:0:0:0:
448,192,204460,1,0,0:0:0:0:
320,192,204460,1,0,0:0:0:0:
64,192,204460,1,0,0:0:0:0:
192,192,204546,1,0,0:0:0:0:
448,192,204631,1,0,0:0:0:0:
64,192,204717,1,0,0:0:0:0:
192,192,204803,1,0,0:0:0:0:
448,192,204888,1,0,0:0:0:0:
320,192,204974,1,0,0:0:0:0:
192,192,204974,1,0,0:0:0:0:
64,192,205060,1,0,0:0:0:0:
448,192,205146,1,0,0:0:0:0:
320,192,205146,1,0,0:0:0:0:
192,192,205146,1,0,0:0:0:0:
64,192,205231,1,0,0:0:0:0:
448,192,205317,1,0,0:0:0:0:
192,192,205403,1,0,0:0:0:0:
320,192,205488,1,0,0:0:0:0:
64,192,205488,1,0,0:0:0:0:
448,192,205574,1,0,0:0:0:0:
64,192,205660,1,0,0:0:0:0:
192,192,205746,1,0,0:0:0:0:
448,192,205831,1,0,0:0:0:0:
320,192,205831,1,0,0:0:0:0:
64,192,205831,1,0,0:0:0:0:
192,192,205917,1,0,0:0:0:0:
448,192,206003,1,0,0:0:0:0:
320,192,206088,1,0,0:0:0:0:
192,192,206174,1,0,0:0:0:0:
448,192,206260,1,0,0:0:0:0:
64,192,206346,1,0,0:0:0:0:
192,192,206346,1,0,0:0:0:0:
320,192,206431,1,0,0:0:0:0:
448,192,206517,1,0,0:0:0:0:
64,192,206517,1,0,0:0:0:0:
192,192,206517,1,0,0:0:0:0:
320,192,206603,1,0,0:0:0:0:
64,192,206688,1,0,0:0:0:0:
320,192,206774,1,0,0:0:0:0:
448,192,206860,1,0,0:0:0:0:
64,192,206860,1,0,0:0:0:0:
192,192,206946,1,0,0:0:0:0:
448,192,207031,1,0,0:0:0:0:
64,192,207117,1,0,0:0:0:0:
192,192,207203,1,0,0:0:0:0:
320,192,207203,1,0,0:0:0:0:
448,192,207203,1,0,0:0:0:0:
64,192,207288,1,0,0:0:0:0:
448,192,207374,1,0,0:0:0:0:
320,192,207460,1,0,0:0:0:0:
64,192,207546,1,0,0:0:0:0:
320,192,207631,1,0,0:0:0:0:
64,192,207717,1,0,0:0:0:0:
192,192,207717,1,0,0:0:0:0:
448,192,207803,1,0,0:0:0:0:
192,192,207888,1,0,0:0:0:0:
64,192,207888,1,0,0:0:0:0:
448,192,207974,1,0,0:0:0:0:
192,192,208060,1,0,0:0:0:0:
64,192,208060,1,0,0:0:0:0:
448,192,208146,1,0,0:0:0:0:
320,192,208231,1,0,0:0:0:0:
192,192,208231,1,0,0:0:0:0:
64,192,208231,1,0,0:0:0:0:
64,192,208317,1,0,0:0:0:0:
192,192,208317,1,0,0:0:0:0:
320,192,208403,1,0,0:0:0:0:
448,192,208403,1,0,0:0:0:0:
192,192,208488,1,0,0:0:0:0:
320,192,208574,1,0,0:0:0:0:
448,192,208574,1,0,0:0:0:0:
64,192,208574,1,0,0:0:0:0:
320,192,208660,1,0,0:0:0:0:
448,192,208660,1,0,0:0:0:0:
64,192,208746,1,0,0:0:0:0:
192,192,208746,1,0,0:0:0:0:
320,192,208831,1,0,0:0:0:0:
192,192,208917,1,0,0:0:0:0:
64,192,208917,1,0,0:0:0:0:
448,192,208917,1,0,0:0:0:0:
192,192,209003,1,0,0:0:0:0:
64,192,209003,1,0,0:0:0:0:
320,192,209088,1,0,0:0:0:0:
448,192,209088,1,0,0:0:0:0:
192,192,209174,1,0,0:0:0:0:
320,192,209260,1,0,0:0:0:0:
64,192,209260,1,0,0:0:0:0:
448,192,209260,1,0,0:0:0:0:
448,192,209346,1,0,0:0:0:0:
320,192,209346,1,0,0:0:0:0:
192,192,209431,1,0,0:0:0:0:
64,192,209517,1,0,0:0:0:0:
192,192,209603,128,0,210888:0:0:0:0:
448,192,209603,1,0,0:0:0:0:
320,192,209603,1,0,0:0:0:0:
64,192,209688,1,0,0:0:0:0:
320,192,209774,1,0,0:0:0:0:
448,192,209860,1,0,0:0:0:0:
64,192,209946,1,0,0:0:0:0:
320,192,209946,1,0,0:0:0:0:
448,192,209946,1,0,0:0:0:0:
64,192,210031,1,0,0:0:0:0:
448,192,210117,1,0,0:0:0:0:
64,192,210203,1,0,0:0:0:0:
320,192,210288,1,0,0:0:0:0:
448,192,210374,1,0,0:0:0:0:
64,192,210460,1,0,0:0:0:0:
320,192,210460,1,0,0:0:0:0:
448,192,210546,1,0,0:0:0:0:
448,192,210631,1,0,0:0:0:0:
320,192,210631,1,0,0:0:0:0:
64,192,210631,1,0,0:0:0:0:
320,192,210717,1,0,0:0:0:0:
64,192,210803,1,0,0:0:0:0:
448,192,210888,1,0,0:0:0:0:
320,192,210974,128,0,211403:0:0:0:0:
64,192,210974,1,0,0:0:0:0:
192,192,210974,1,0,0:0:0:0:
448,192,211060,1,0,0:0:0:0:
192,192,211146,1,0,0:0:0:0:
64,192,211231,1,0,0:0:0:0:
192,192,211317,1,0,0:0:0:0:
64,192,211317,1,0,0:0:0:0:
448,192,211317,1,0,0:0:0:0:
448,192,211403,1,0,0:0:0:0:
64,192,211488,128,0,211917:0:0:0:0:
192,192,211488,1,0,0:0:0:0:
320,192,211574,1,0,0:0:0:0:
448,192,211660,1,0,0:0:0:0:
192,192,211746,1,0,0:0:0:0:
320,192,211831,1,0,0:0:0:0:
448,192,211831,1,0,0:0:0:0:
192,192,211917,1,0,0:0:0:0:
192,192,212003,128,0,213631:0:0:0:0:
320,192,212003,1,0,0:0:0:0:
448,192,212003,1,0,0:0:0:0:
64,192,212003,1,0,0:0:0:0:
448,192,212088,1,0,0:0:0:0:
64,192,212174,1,0,0:0:0:0:
320,192,212260,1,0,0:0:0:0:
448,192,212346,1,0,0:0:0:0:
64,192,212346,1,0,0:0:0:0:
320,192,212431,1,0,0:0:0:0:
64,192,212517,1,0,0:0:0:0:
448,192,212603,1,0,0:0:0:0:
64,192,212688,1,0,0:0:0:0:
320,192,212688,1,0,0:0:0:0:
448,192,212688,1,0,0:0:0:0:
64,192,212774,1,0,0:0:0:0:
320,192,212860,1,0,0:0:0:0:
64,192,212946,1,0,0:0:0:0:
320,192,213031,1,0,0:0:0:0:
448,192,213117,1,0,0:0:0:0:
320,192,213203,1,0,0:0:0:0:
64,192,213203,1,0,0:0:0:0:
448,192,213288,1,0,0:0:0:0:
64,192,213374,1,0,0:0:0:0:
320,192,213374,1,0,0:0:0:0:
448,192,213374,1,0,0:0:0:0:
320,192,213460,1,0,0:0:0:0:
64,192,213546,1,0,0:0:0:0:
448,192,213631,1,0,0:0:0:0:
320,192,213717,128,0,214146:0:0:0:0:
64,192,213717,1,0,0:0:0:0:
448,192,213717,1,0,0:0:0:0:
192,192,213803,1,0,0:0:0:0:
448,192,213888,1,0,0:0:0:0:
64,192,213974,1,0,0:0:0:0:
64,192,214060,1,0,0:0:0:0:
192,192,214060,1,0,0:0:0:0:
448,192,214060,1,0,0:0:0:0:
448,192,214146,1,0,0:0:0:0:
64,192,214231,128,0,214660:0:0:0:0:
320,192,214231,1,0,0:0:0:0:
192,192,214317,1,0,0:0:0:0:
448,192,214403,1,0,0:0:0:0:
320,192,214488,1,0,0:0:0:0:
192,192,214574,1,0,0:0:0:0:
448,192,214574,1,0,0:0:0:0:
320,192,214660,1,0,0:0:0:0:
448,192,214746,128,0,215003:0:0:0:0:
64,192,214746,1,0,0:0:0:0:
192,192,214746,1,0,0:0:0:0:
320,192,214746,1,0,0:0:0:0:
64,192,214831,1,0,0:0:0:0:
192,192,214917,1,0,0:0:0:0:
320,192,215003,1,0,0:0:0:0:
192,192,215088,128,0,216374:0:0:0:0:
448,192,215088,1,0,0:0:0:0:
64,192,215088,1,0,0:0:0:0:
320,192,215174,1,0,0:0:0:0:
64,192,215260,1,0,0:0:0:0:
448,192,215346,1,0,0:0:0:0:
320,192,215431,1,0,0:0:0:0:
448,192,215431,1,0,0:0:0:0:
64,192,215431,1,0,0:0:0:0:
320,192,215517,1,0,0:0:0:0:
64,192,215603,1,0,0:0:0:0:
320,192,215688,1,0,0:0:0:0:
448,192,215774,1,0,0:0:0:0:
64,192,215860,1,0,0:0:0:0:
320,192,215946,1,0,0:0:0:0:
448,192,215946,1,0,0:0:0:0:
64,192,216031,1,0,0:0:0:0:
320,192,216117,1,0,0:0:0:0:
448,192,216117,1,0,0:0:0:0:
64,192,216117,1,0,0:0:0:0:
320,192,216203,1,0,0:0:0:0:
448,192,216288,1,0,0:0:0:0:
64,192,216374,1,0,0:0:0:0:
320,192,216460,128,0,216888:0:0:0:0:
448,192,216460,1,0,0:0:0:0:
192,192,216460,1,0,0:0:0:0:
64,192,216546,1,0,0:0:0:0:
192,192,216631,1,0,0:0:0:0:
448,192,216717,1,0,0:0:0:0:
64,192,216803,1,0,0:0:0:0:
192,192,216803,1,0,0:0:0:0:
448,192,216803,1,0,0:0:0:0:
64,192,216888,1,0,0:0:0:0:
192,192,216974,128,0,217403:0:0:0:0:
320,192,216974,1,0,0:0:0:0:
64,192,217060,1,0,0:0:0:0:
448,192,217146,1,0,0:0:0:0:
320,192,217231,1,0,0:0:0:0:
448,192,217317,1,0,0:0:0:0:
64,192,217317,1,0,0:0:0:0:
320,192,217403,1,0,0:0:0:0:
192,192,217488,128,0,219117:0:0:0:0:
64,192,217488,1,0,0:0:0:0:
320,192,217488,1,0,0:0:0:0:
448,192,217488,1,0,0:0:0:0:
64,192,217574,1,0,0:0:0:0:
320,192,217660,1,0,0:0:0:0:
448,192,217746,1,0,0:0:0:0:
320,192,217831,1,0,0:0:0:0:
64,192,217831,1,0,0:0:0:0:
448,192,217917,1,0,0:0:0:0:
320,192,218003,1,0,0:0:0:0:
64,192,218088,1,0,0:0:0:0:
448,192,218174,1,0,0:0:0:0:
320,192,218174,1,0,0:0:0:0:
64,192,218174,1,0,0:0:0:0:
448,192,218260,1,0,0:0:0:0:
320,192,218346,1,0,0:0:0:0:
64,192,218431,1,0,0:0:0:0:
448,192,218517,1,0,0:0:0:0:
64,192,218603,1,0,0:0:0:0:
320,192,218688,1,0,0:0:0:0:
448,192,218688,1,0,0:0:0:0:
64,192,218774,1,0,0:0:0:0:
320,192,218860,1,0,0:0:0:0:
448,192,218860,1,0,0:0:0:0:
64,192,218860,1,0,0:0:0:0:
320,192,218946,1,0,0:0:0:0:
64,192,219031,1,0,0:0:0:0:
448,192,219117,1,0,0:0:0:0:
320,192,219203,128,0,219631:0:0:0:0:
192,192,219203,1,0,0:0:0:0:
64,192,219203,1,0,0:0:0:0:
448,192,219288,1,0,0:0:0:0:
192,192,219374,1,0,0:0:0:0:
64,192,219460,1,0,0:0:0:0:
64,192,219546,1,0,0:0:0:0:
448,192,219546,1,0,0:0:0:0:
192,192,219546,1,0,0:0:0:0:
192,192,219631,1,0,0:0:0:0:
448,192,219717,128,0,220146:0:0:0:0:
64,192,219717,1,0,0:0:0:0:
320,192,219717,1,0,0:0:0:0:
192,192,219803,1,0,0:0:0:0:
320,192,219803,1,0,0:0:0:0:
64,192,219888,1,0,0:0:0:0:
192,192,219888,1,0,0:0:0:0:
64,192,219974,1,0,0:0:0:0:
320,192,219974,1,0,0:0:0:0:
320,192,220060,1,0,0:0:0:0:
192,192,220060,1,0,0:0:0:0:
192,192,220146,1,0,0:0:0:0:
64,192,220146,1,0,0:0:0:0:
448,192,220231,128,0,220488:0:0:0:0:
64,192,220231,1,0,0:0:0:0:
320,192,220231,1,0,0:0:0:0:
192,192,220317,1,0,0:0:0:0:
320,192,220403,1,0,0:0:0:0:
64,192,220488,1,0,0:0:0:0:
192,192,220574,128,0,221860:0:0:0:0:
448,192,220574,1,0,0:0:0:0:
320,192,220574,1,0,0:0:0:0:
64,192,220660,1,0,0:0:0:0:
320,192,220746,1,0,0:0:0:0:
448,192,220831,1,0,0:0:0:0:
64,192,220917,1,0,0:0:0:0:
320,192,220917,1,0,0:0:0:0:
448,192,220917,1,0,0:0:0:0:
64,192,221003,1,0,0:0:0:0:
448,192,221088,1,0,0:0:0:0:
64,192,221174,1,0,0:0:0:0:
320,192,221260,1,0,0:0:0:0:
448,192,221346,1,0,0:0:0:0:
64,192,221431,1,0,0:0:0:0:
320,192,221431,1,0,0:0:0:0:
448,192,221517,1,0,0:0:0:0:
448,192,221603,1,0,0:0:0:0:
320,192,221603,1,0,0:0:0:0:
64,192,221603,1,0,0:0:0:0:
320,192,221688,1,0,0:0:0:0:
64,192,221774,1,0,0:0:0:0:
448,192,221860,1,0,0:0:0:0:
320,192,221946,128,0,222374:0:0:0:0:
64,192,221946,1,0,0:0:0:0:
192,192,221946,1,0,0:0:0:0:
448,192,222031,1,0,0:0:0:0:
192,192,222117,1,0,0:0:0:0:
64,192,222203,1,0,0:0:0:0:
192,192,222288,1,0,0:0:0:0:
64,192,222288,1,0,0:0:0:0:
448,192,222288,1,0,0:0:0:0:
448,192,222374,1,0,0:0:0:0:
64,192,222460,128,0,222888:0:0:0:0:
192,192,222460,1,0,0:0:0:0:
320,192,222546,1,0,0:0:0:0:
448,192,222631,1,0,0:0:0:0:
192,192,222717,1,0,0:0:0:0:
320,192,222803,1,0,0:0:0:0:
448,192,222803,1,0,0:0:0:0:
192,192,222888,1,0,0:0:0:0:
192,192,222974,128,0,224603:0:0:0:0:
320,192,222974,1,0,0:0:0:0:
448,192,222974,1,0,0:0:0:0:
64,192,222974,1,0,0:0:0:0:
448,192,223060,1,0,0:0:0:0:
64,192,223146,1,0,0:0:0:0:
320,192,223231,1,0,0:0:0:0:
448,192,223317,1,0,0:0:0:0:
64,192,223317,1,0,0:0:0:0:
320,192,223403,1,0,0:0:0:0:
64,192,223488,1,0,0:0:0:0:
448,192,223574,1,0,0:0:0:0:
64,192,223660,1,0,0:0:0:0:
320,192,223660,1,0,0:0:0:0:
448,192,223660,1,0,0:0:0:0:
64,192,223746,1,0,0:0:0:0:
320,192,223831,1,0,0:0:0:0:
64,192,223917,1,0,0:0:0:0:
320,192,224003,1,0,0:0:0:0:
448,192,224088,1,0,0:0:0:0:
320,192,224174,1,0,0:0:0:0:
64,192,224174,1,0,0:0:0:0:
448,192,224260,1,0,0:0:0:0:
64,192,224346,1,0,0:0:0:0:
320,192,224346,1,0,0:0:0:0:
448,192,224346,1,0,0:0:0:0:
320,192,224431,1,0,0:0:0:0:
64,192,224517,1,0,0:0:0:0:
448,192,224603,1,0,0:0:0:0:
320,192,224688,128,0,225117:0:0:0:0:
64,192,224688,1,0,0:0:0:0:
448,192,224688,1,0,0:0:0:0:
192,192,224774,1,0,0:0:0:0:
448,192,224860,1,0,0:0:0:0:
64,192,224946,1,0,0:0:0:0:
64,192,225031,1,0,0:0:0:0:
192,192,225031,1,0,0:0:0:0:
448,192,225031,1,0,0:0:0:0:
448,192,225117,1,0,0:0:0:0:
64,192,225203,128,0,225631:0:0:0:0:
320,192,225203,1,0,0:0:0:0:
192,192,225288,1,0,0:0:0:0:
448,192,225374,1,0,0:0:0:0:
320,192,225460,1,0,0:0:0:0:
192,192,225546,1,0,0:0:0:0:
448,192,225546,1,0,0:0:0:0:
320,192,225631,1,0,0:0:0:0:
448,192,225717,128,0,225974:0:0:0:0:
64,192,225717,1,0,0:0:0:0:
192,192,225717,1,0,0:0:0:0:
320,192,225717,1,0,0:0:0:0:
64,192,225803,1,0,0:0:0:0:
192,192,225888,1,0,0:0:0:0:
320,192,225974,1,0,0:0:0:0:
192,192,226060,128,0,227346:0:0:0:0:
448,192,226060,1,0,0:0:0:0:
64,192,226060,1,0,0:0:0:0:
320,192,226146,1,0,0:0:0:0:
64,192,226231,1,0,0:0:0:0:
448,192,226317,1,0,0:0:0:0:
320,192,226403,1,0,0:0:0:0:
448,192,226403,1,0,0:0:0:0:
64,192,226403,1,0,0:0:0:0:
320,192,226488,1,0,0:0:0:0:
64,192,226574,1,0,0:0:0:0:
320,192,226660,1,0,0:0:0:0:
448,192,226746,1,0,0:0:0:0:
64,192,226831,1,0,0:0:0:0:
320,192,226917,1,0,0:0:0:0:
448,192,226917,1,0,0:0:0:0:
64,192,227003,1,0,0:0:0:0:
320,192,227088,1,0,0:0:0:0:
448,192,227088,1,0,0:0:0:0:
64,192,227088,1,0,0:0:0:0:
320,192,227174,1,0,0:0:0:0:
448,192,227260,1,0,0:0:0:0:
64,192,227346,1,0,0:0:0:0:
320,192,227431,128,0,227860:0:0:0:0:
448,192,227431,1,0,0:0:0:0:
192,192,227431,1,0,0:0:0:0:
64,192,227517,1,0,0:0:0:0:
192,192,227603,1,0,0:0:0:0:
448,192,227688,1,0,0:0:0:0:
64,192,227774,1,0,0:0:0:0:
192,192,227774,1,0,0:0:0:0:
448,192,227774,1,0,0:0:0:0:
64,192,227860,1,0,0:0:0:0:
192,192,227946,128,0,228803:0:0:0:0:
320,192,227946,1,0,0:0:0:0:
64,192,228031,1,0,0:0:0:0:
448,192,228117,1,0,0:0:0:0:
320,192,228203,1,0,0:0:0:0:
448,192,228288,1,0,0:0:0:0:
64,192,228288,1,0,0:0:0:0:
320,192,228374,1,0,0:0:0:0:
64,192,228460,1,0,0:0:0:0:
320,192,228460,1,0,0:0:0:0:
448,192,228460,1,0,0:0:0:0:
64,192,228546,1,0,0:0:0:0:
320,192,228631,1,0,0:0:0:0:
448,192,228631,1,0,0:0:0:0:
64,192,228717,1,0,0:0:0:0:
320,192,228803,1,0,0:0:0:0:
448,192,228803,1,0,0:0:0:0:
192,192,228888,1,0,0:0:0:0:
64,192,228888,1,0,0:0:0:0:
320,192,228974,1,0,0:0:0:0:
448,192,228974,1,0,0:0:0:0:
64,192,229060,1,0,0:0:0:0:
192,192,229060,1,0,0:0:0:0:
320,192,229146,1,0,0:0:0:0:
448,192,229146,1,0,0:0:0:0:
64,192,229146,1,0,0:0:0:0:
192,192,229146,1,0,0:0:0:0:
320,192,229231,1,0,0:0:0:0:
448,192,229231,1,0,0:0:0:0:
64,192,229317,1,0,0:0:0:0:
192,192,229317,1,0,0:0:0:0:
320,192,229403,1,0,0:0:0:0:
448,192,229403,1,0,0:0:0:0:
192,192,229488,1,0,0:0:0:0:
64,192,229488,1,0,0:0:0:0:
320,192,229574,1,0,0:0:0:0:
448,192,229574,1,0,0:0:0:0:
64,192,229660,1,0,0:0:0:0:
192,192,229660,1,0,0:0:0:0:
448,192,229746,1,0,0:0:0:0:
320,192,229746,1,0,0:0:0:0:
64,192,229831,1,0,0:0:0:0:
320,192,229831,1,0,0:0:0:0:
448,192,229831,1,0,0:0:0:0:
192,192,229831,1,0,0:0:0:0:
192,192,229917,1,0,0:0:0:0:
64,192,229917,1,0,0:0:0:0:
448,192,230003,1,0,0:0:0:0:
320,192,230003,1,0,0:0:0:0:
64,192,230088,1,0,0:0:0:0:
192,192,230088,1,0,0:0:0:0:
320,192,230174,1,0,0:0:0:0:
448,192,230174,1,0,0:0:0:0:
192,192,230260,1,0,0:0:0:0:
64,192,230260,1,0,0:0:0:0:
448,192,230346,1,0,0:0:0:0:
320,192,230346,1,0,0:0:0:0:
64,192,230431,1,0,0:0:0:0:
192,192,230431,1,0,0:0:0:0:
448,192,230517,1,0,0:0:0:0:
64,192,230517,1,0,0:0:0:0:
320,192,230517,1,0,0:0:0:0:
192,192,230517,1,0,0:0:0:0:
448,192,230603,1,0,0:0:0:0:
320,192,230603,1,0,0:0:0:0:
192,192,230688,1,0,0:0:0:0:
64,192,230688,1,0,0:0:0:0:
320,192,230774,1,0,0:0:0:0:
448,192,230774,1,0,0:0:0:0:
64,192,230860,1,0,0:0:0:0:
192,192,230860,1,0,0:0:0:0:
448,192,230946,1,0,0:0:0:0:
320,192,230946,1,0,0:0:0:0:
192,192,231031,1,0,0:0:0:0:
64,192,231031,1,0,0:0:0:0:
320,192,231117,1,0,0:0:0:0:
448,192,231117,1,0,0:0:0:0:
192,192,231203,1,0,0:0:0:0:
448,192,231203,1,0,0:0:0:0:
64,192,231203,1,0,0:0:0:0:
320,192,231203,1,0,0:0:0:0:
64,192,231288,1,0,0:0:0:0:
192,192,231374,1,0,0:0:0:0:
320,192,231460,1,0,0:0:0:0:
448,192,231546,128,0,237031:0:0:0:0:
192,192,231546,128,0,232574:0:0:0:0:
64,192,232574,1,0,0:0:0:0:
192,192,232660,1,0,0:0:0:0:
320,192,232746,1,0,0:0:0:0:
192,192,232831,1,0,0:0:0:0:
64,192,232917,128,0,235317:0:0:0:0:
320,192,235317,128,0,235488:0:0:0:0:
192,192,235488,128,0,235660:0:0:0:0:
64,192,235660,128,0,235746:0:0:0:0:
192,192,235746,1,0,0:0:0:0:
320,192,235831,128,0,237031:0:0:0:0:
64,192,237031,128,0,249374:0:0:0:0:
448,192,237631,1,0,0:0:0:0:
320,192,237717,1,0,0:0:0:0:
192,192,237803,128,0,238146:0:0:0:0:
320,192,238146,1,0,0:0:0:0:
448,192,238231,128,0,238917:0:0:0:0:
320,192,238917,1,0,0:0:0:0:
192,192,239003,1,0,0:0:0:0:
320,192,239088,1,0,0:0:0:0:
448,192,239203,1,0,0:0:0:0:
320,192,239317,1,0,0:0:0:0:
192,192,239431,1,0,0:0:0:0:
320,192,239517,1,0,0:0:0:0:
448,192,239603,1,0,0:0:0:0:
320,192,239717,1,0,0:0:0:0:
192,192,239831,1,0,0:0:0:0:
320,192,239946,128,0,240117:0:0:0:0:
448,192,240060,1,0,0:0:0:0:
192,192,240117,1,0,0:0:0:0:
448,192,240231,1,0,0:0:0:0:
320,192,240331,1,0,0:0:0:0:
448,192,240417,1,0,0:0:0:0:
192,192,240503,1,0,0:0:0:0:
320,192,240574,1,0,0:0:0:0:
448,192,240588,128,0,240803:0:0:0:0:
192,192,240746,1,0,0:0:0:0:
320,192,240860,1,0,0:0:0:0:
448,192,240974,1,0,0:0:0:0:
192,192,241088,1,0,0:0:0:0:
448,192,241146,1,0,0:0:0:0:
192,192,241260,1,0,0:0:0:0:
320,192,241317,128,0,241488:0:0:0:0:
192,192,241431,1,0,0:0:0:0:
448,192,241546,1,0,0:0:0:0:
448,192,241660,1,0,0:0:0:0:
192,192,241774,1,0,0:0:0:0:
320,192,241831,1,0,0:0:0:0:
448,192,241946,1,0,0:0:0:0:
320,192,242003,1,0,0:0:0:0:
192,192,242060,128,0,242288:0:0:0:0:
448,192,242174,1,0,0:0:0:0:
320,192,242231,1,0,0:0:0:0:
448,192,242346,1,0,0:0:0:0:
320,192,242460,1,0,0:0:0:0:
192,192,242560,1,0,0:0:0:0:
320,192,242646,1,0,0:0:0:0:
320,192,242746,1,0,0:0:0:0:
448,192,242860,1,0,0:0:0:0:
192,192,242974,1,0,0:0:0:0:
320,192,243088,1,0,0:0:0:0:
448,192,243203,1,0,0:0:0:0:
320,192,243260,1,0,0:0:0:0:
192,192,243331,1,0,0:0:0:0:
448,192,243374,1,0,0:0:0:0:
320,192,243431,1,0,0:0:0:0:
448,192,243488,1,0,0:0:0:0:
192,192,243588,128,0,243717:0:0:0:0:
448,192,243674,1,0,0:0:0:0:
320,192,243717,1,0,0:0:0:0:
192,192,243846,1,0,0:0:0:0:
448,192,243888,1,0,0:0:0:0:
320,192,244103,1,0,0:0:0:0:
320,192,244346,1,0,0:0:0:0:
192,192,244346,1,0,0:0:0:0:
448,192,244346,1,0,0:0:0:0:
