osu file format v14

[General]
AudioFilename: Neon Rainbow.mp3
AudioLeadIn: 0
PreviewTime: 176158
Countdown: 0
SampleSet: Soft
StackLeniency: 0.7
Mode: 3
LetterboxInBreaks: 0
SpecialStyle: 0
WidescreenStoryboard: 1

[Editor]
Bookmarks: 20813,31848,42882,53917,64951,75986,87020,98055,109089,120124,131158,153227,164261,175296,186330,197365,208399,219434,230468,241503
DistanceSpacing: 0.8
BeatDivisor: 2
GridSize: 32
TimelineZoom: 2.4

[Metadata]
Title:Pis's EDM Mania Pack Vol.2
TitleUnicode:Pis's EDM Mania Pack Vol.2
Artist:Various Artist
ArtistUnicode:Various Artist
Creator:PisRyder
Version:Neon Rainbow - 4K
Source:
Tags:
BeatmapID:1001622
BeatmapSetID:452032

[Difficulty]
HPDrainRate:8
CircleSize:4
OverallDifficulty:8
ApproachRate:5
SliderMultiplier:1.4
SliderTickRate:1

[Events]
//Background and Video events
0,0,"8.jpg",0,0
//Break Periods
//Storyboard Layer 0 (Background)
Sprite,Background,TopLeft,"8.jpg",0,0
//Storyboard Layer 1 (Fail)
//Storyboard Layer 2 (Pass)
//Storyboard Layer 3 (Foreground)
Sprite,Foreground,TopLeft,"SB\Neon Rainbow\BG.jpg",-122,-9 S,0,-8000,,0.647 F,0,-8000,0,0,1 C,0,-8000,252422,100,100,100 F,0,252422,255422,1,0
Animation,Foreground,TopLeft,"SB\Particle\P.png",-122,-9,90,20,LoopForever S,0,-8000,,0.647 F,0,-8000,0,0,1 F,0,252422,255422,1,0
Sprite,Foreground,CentreLeft,"SB\Bar.png",510,271 V,0,-5000,-4000,0,0.647,0.647,0.647 F,0,-5000,252422,1
Sprite,Foreground,CentreLeft,"SB\BarColor.png",525,268.5 V,0,-3000,,0.616,0.647 F,0,-3000,-2900,0,1 C,0,-3000,252422,200,200,200 F,0,-2900,-2800,1,0 F,0,-2800,-2700,0,1 F,0,-2700,252422,1
Animation,Foreground,CentreLeft,"SB\BarC.png",525,268.5,90,20,LoopForever F,0,0,252422,1 C,0,0,252422,0,255,0 V,0,0,252422,0,0.647,0.616,0.647
Animation,Foreground,Centre,"SB\Disk.png",510,268,60,20,LoopForever V,0,-7000,-6000,0,0,0.8,0.8 F,0,-7000,-5500,0,1 V,0,-6000,-5500,0.8,0.8,0.648,0.648 F,0,-5500,252422,1
Sprite,Foreground,CentreLeft,"SB\Neon Rainbow\Text.png",528,279 S,0,-3000,,0.647 F,0,-3000,-2900,0,1 F,0,-2900,-2800,1,0 F,0,-2800,-2700,0,1 F,0,-2700,252422,1
//Storyboard Sound Samples

[TimingPoints]
124,344.827586206897,4,2,1,5,1,0
43830,-66.6666666666667,4,2,1,5,0,0
43917,-1000,4,2,1,5,0,0
44003,-66.6666666666667,4,2,1,5,0,0
44089,-1000,4,2,1,5,0,0
44175,-100,4,2,1,5,0,0
44261,-100,4,2,1,5,0,1
63572,-100,4,2,1,5,0,0
77365,-100,4,2,1,5,0,1
87020,-100,4,2,1,5,0,0
109261,-125,4,2,1,5,0,0
109434,-166.666666666667,4,2,1,5,0,0
109606,-250,4,2,1,5,0,0
109779,-500,4,2,1,5,0,0
110037,-100,4,2,1,5,0,0
110468,-100,4,2,1,5,0,1
127020,-100,4,2,1,5,0,0
132537,-133.333333333333,4,2,1,5,0,0
154520,-100,4,2,1,5,0,0
176244,-66.6666666666667,4,2,1,5,0,0
176330,-1000,4,2,1,5,0,0
176417,-66.6666666666667,4,2,1,5,0,0
176503,-1000,4,2,1,5,0,0
176589,-100,4,2,1,5,0,0
176675,-100,4,2,1,5,0,1
195986,-100,4,2,1,5,0,0
198744,-100,4,2,1,5,0,1
218055,-100,4,2,1,5,0,0
246675,-400,4,2,1,5,0,0

[HitObjects]
64,192,124,5,0,0:0:0:0:
192,192,124,1,0,0:0:0:0:
320,192,296,1,0,0:0:0:0:
192,192,468,1,0,0:0:0:0:
448,192,468,1,0,0:0:0:0:
64,192,468,1,0,0:0:0:0:
320,192,641,1,0,0:0:0:0:
64,192,727,1,0,0:0:0:0:
448,192,813,1,0,0:0:0:0:
64,192,899,1,0,0:0:0:0:
192,192,986,1,0,0:0:0:0:
320,192,986,1,0,0:0:0:0:
64,192,1158,1,0,0:0:0:0:
320,192,1158,1,0,0:0:0:0:
448,192,1158,1,0,0:0:0:0:
64,192,1330,1,0,0:0:0:0:
192,192,1330,1,0,0:0:0:0:
320,192,1417,1,0,0:0:0:0:
64,192,1503,1,0,0:0:0:0:
192,192,1503,1,0,0:0:0:0:
448,192,1675,1,0,0:0:0:0:
64,192,1848,1,0,0:0:0:0:
192,192,1848,1,0,0:0:0:0:
320,192,1848,1,0,0:0:0:0:
448,192,2020,1,0,0:0:0:0:
192,192,2106,1,0,0:0:0:0:
320,192,2192,1,0,0:0:0:0:
64,192,2279,1,0,0:0:0:0:
192,192,2365,1,0,0:0:0:0:
448,192,2365,1,0,0:0:0:0:
320,192,2537,1,0,0:0:0:0:
448,192,2537,1,0,0:0:0:0:
64,192,2537,1,0,0:0:0:0:
192,192,2710,1,0,0:0:0:0:
320,192,2710,1,0,0:0:0:0:
448,192,2796,1,0,0:0:0:0:
192,192,2882,1,0,0:0:0:0:
320,192,2882,1,0,0:0:0:0:
64,192,3055,1,0,0:0:0:0:
192,192,3227,1,0,0:0:0:0:
320,192,3227,1,0,0:0:0:0:
448,192,3227,1,0,0:0:0:0:
64,192,3399,1,0,0:0:0:0:
320,192,3486,1,0,0:0:0:0:
192,192,3572,1,0,0:0:0:0:
448,192,3658,1,0,0:0:0:0:
64,192,3744,1,0,0:0:0:0:
192,192,3744,1,0,0:0:0:0:
64,192,3917,1,0,0:0:0:0:
320,192,3917,1,0,0:0:0:0:
448,192,3917,1,0,0:0:0:0:
320,192,4089,1,0,0:0:0:0:
448,192,4089,1,0,0:0:0:0:
64,192,4175,1,0,0:0:0:0:
448,192,4261,5,0,0:0:0:0:
320,192,4261,1,0,0:0:0:0:
192,192,4434,1,0,0:0:0:0:
320,192,4606,1,0,0:0:0:0:
64,192,4606,1,0,0:0:0:0:
448,192,4606,1,0,0:0:0:0:
192,192,4779,1,0,0:0:0:0:
448,192,4865,1,0,0:0:0:0:
64,192,4951,1,0,0:0:0:0:
448,192,5037,1,0,0:0:0:0:
320,192,5124,1,0,0:0:0:0:
192,192,5124,1,0,0:0:0:0:
192,192,5296,1,0,0:0:0:0:
64,192,5296,1,0,0:0:0:0:
448,192,5296,1,0,0:0:0:0:
448,192,5468,1,0,0:0:0:0:
320,192,5468,1,0,0:0:0:0:
192,192,5555,1,0,0:0:0:0:
448,192,5641,1,0,0:0:0:0:
320,192,5641,1,0,0:0:0:0:
64,192,5641,128,0,5727:0:0:0:0:
192,192,5813,128,0,5899:0:0:0:0:
320,192,5986,128,0,6072:0:0:0:0:
64,192,5986,1,0,0:0:0:0:
448,192,5986,1,0,0:0:0:0:
448,192,6158,128,0,6244:0:0:0:0:
192,192,6244,1,0,0:0:0:0:
64,192,6330,128,0,6417:0:0:0:0:
320,192,6417,1,0,0:0:0:0:
192,192,6503,128,0,6589:0:0:0:0:
448,192,6503,1,0,0:0:0:0:
320,192,6675,128,0,6761:0:0:0:0:
64,192,6675,1,0,0:0:0:0:
448,192,6675,1,0,0:0:0:0:
192,192,6848,1,0,0:0:0:0:
64,192,6848,1,0,0:0:0:0:
320,192,6934,1,0,0:0:0:0:
64,192,7020,1,0,0:0:0:0:
192,192,7020,1,0,0:0:0:0:
448,192,7020,128,0,7106:0:0:0:0:
320,192,7192,128,0,7279:0:0:0:0:
192,192,7365,128,0,7451:0:0:0:0:
448,192,7365,1,0,0:0:0:0:
64,192,7365,1,0,0:0:0:0:
64,192,7537,128,0,7624:0:0:0:0:
320,192,7624,1,0,0:0:0:0:
448,192,7710,128,0,7796:0:0:0:0:
192,192,7796,1,0,0:0:0:0:
320,192,7882,128,0,7968:0:0:0:0:
64,192,7882,1,0,0:0:0:0:
192,192,8055,128,0,8141:0:0:0:0:
448,192,8055,1,0,0:0:0:0:
64,192,8055,1,0,0:0:0:0:
320,192,8227,1,0,0:0:0:0:
448,192,8227,1,0,0:0:0:0:
192,192,8313,1,0,0:0:0:0:
448,192,8399,1,0,0:0:0:0:
320,192,8399,1,0,0:0:0:0:
64,192,8399,128,0,8486:0:0:0:0:
192,192,8572,128,0,8658:0:0:0:0:
320,192,8744,128,0,8830:0:0:0:0:
64,192,8744,1,0,0:0:0:0:
448,192,8744,1,0,0:0:0:0:
448,192,8917,128,0,9003:0:0:0:0:
192,192,9003,1,0,0:0:0:0:
64,192,9089,128,0,9175:0:0:0:0:
320,192,9175,1,0,0:0:0:0:
192,192,9261,128,0,9348:0:0:0:0:
448,192,9261,1,0,0:0:0:0:
320,192,9434,128,0,9520:0:0:0:0:
64,192,9434,1,0,0:0:0:0:
448,192,9434,1,0,0:0:0:0:
192,192,9606,1,0,0:0:0:0:
64,192,9606,1,0,0:0:0:0:
320,192,9692,1,0,0:0:0:0:
64,192,9779,1,0,0:0:0:0:
192,192,9779,1,0,0:0:0:0:
448,192,9779,128,0,9865:0:0:0:0:
320,192,9951,128,0,10037:0:0:0:0:
192,192,10124,128,0,10210:0:0:0:0:
448,192,10124,1,0,0:0:0:0:
64,192,10124,1,0,0:0:0:0:
64,192,10296,128,0,10382:0:0:0:0:
320,192,10382,1,0,0:0:0:0:
448,192,10468,128,0,10555:0:0:0:0:
192,192,10555,1,0,0:0:0:0:
320,192,10641,128,0,10727:0:0:0:0:
64,192,10641,1,0,0:0:0:0:
192,192,10813,128,0,10899:0:0:0:0:
448,192,10813,1,0,0:0:0:0:
64,192,10813,1,0,0:0:0:0:
320,192,10986,1,0,0:0:0:0:
448,192,10986,1,0,0:0:0:0:
192,192,11072,1,0,0:0:0:0:
64,192,11158,128,0,11244:0:0:0:0:
320,192,11158,1,0,0:0:0:0:
448,192,11158,1,0,0:0:0:0:
192,192,11330,128,0,11417:0:0:0:0:
448,192,11503,1,0,0:0:0:0:
64,192,11503,1,0,0:0:0:0:
320,192,11503,128,0,11589:0:0:0:0:
448,192,11675,128,0,11761:0:0:0:0:
192,192,11761,1,0,0:0:0:0:
64,192,11848,128,0,11934:0:0:0:0:
320,192,11934,1,0,0:0:0:0:
448,192,12020,1,0,0:0:0:0:
192,192,12020,128,0,12106:0:0:0:0:
448,192,12192,1,0,0:0:0:0:
64,192,12192,1,0,0:0:0:0:
320,192,12192,128,0,12279:0:0:0:0:
64,192,12365,1,0,0:0:0:0:
192,192,12365,1,0,0:0:0:0:
320,192,12451,1,0,0:0:0:0:
448,192,12537,128,0,12624:0:0:0:0:
192,192,12537,1,0,0:0:0:0:
64,192,12537,1,0,0:0:0:0:
320,192,12710,128,0,12796:0:0:0:0:
64,192,12882,1,0,0:0:0:0:
448,192,12882,1,0,0:0:0:0:
192,192,12882,128,0,12968:0:0:0:0:
64,192,13055,128,0,13141:0:0:0:0:
320,192,13141,1,0,0:0:0:0:
448,192,13227,128,0,13313:0:0:0:0:
192,192,13313,1,0,0:0:0:0:
64,192,13399,1,0,0:0:0:0:
320,192,13399,128,0,13486:0:0:0:0:
64,192,13572,1,0,0:0:0:0:
448,192,13572,1,0,0:0:0:0:
192,192,13572,128,0,13658:0:0:0:0:
448,192,13744,1,0,0:0:0:0:
320,192,13744,1,0,0:0:0:0:
192,192,13830,1,0,0:0:0:0:
448,192,13917,1,0,0:0:0:0:
320,192,13917,1,0,0:0:0:0:
64,192,13917,128,0,14003:0:0:0:0:
192,192,14089,128,0,14175:0:0:0:0:
320,192,14261,128,0,14348:0:0:0:0:
64,192,14261,1,0,0:0:0:0:
448,192,14261,1,0,0:0:0:0:
448,192,14434,128,0,14520:0:0:0:0:
192,192,14520,1,0,0:0:0:0:
64,192,14606,128,0,14692:0:0:0:0:
320,192,14692,1,0,0:0:0:0:
192,192,14779,128,0,14865:0:0:0:0:
448,192,14779,1,0,0:0:0:0:
320,192,14951,128,0,15037:0:0:0:0:
64,192,14951,1,0,0:0:0:0:
448,192,14951,1,0,0:0:0:0:
192,192,15124,1,0,0:0:0:0:
64,192,15124,1,0,0:0:0:0:
320,192,15210,1,0,0:0:0:0:
64,192,15296,1,0,0:0:0:0:
192,192,15296,1,0,0:0:0:0:
448,192,15296,128,0,15382:0:0:0:0:
320,192,15468,128,0,15555:0:0:0:0:
192,192,15641,128,0,15727:0:0:0:0:
448,192,15641,1,0,0:0:0:0:
64,192,15641,1,0,0:0:0:0:
64,192,15813,128,0,15899:0:0:0:0:
320,192,15899,1,0,0:0:0:0:
448,192,15986,128,0,16072:0:0:0:0:
192,192,16072,1,0,0:0:0:0:
320,192,16158,128,0,16244:0:0:0:0:
64,192,16158,1,0,0:0:0:0:
192,192,16330,128,0,16417:0:0:0:0:
448,192,16330,1,0,0:0:0:0:
64,192,16330,1,0,0:0:0:0:
320,192,16503,1,0,0:0:0:0:
448,192,16503,1,0,0:0:0:0:
192,192,16589,1,0,0:0:0:0:
64,192,16675,128,0,16761:0:0:0:0:
320,192,16675,1,0,0:0:0:0:
448,192,16675,1,0,0:0:0:0:
192,192,16848,128,0,16934:0:0:0:0:
448,192,17020,1,0,0:0:0:0:
64,192,17020,1,0,0:0:0:0:
320,192,17020,128,0,17106:0:0:0:0:
448,192,17192,128,0,17279:0:0:0:0:
192,192,17279,1,0,0:0:0:0:
64,192,17365,128,0,17451:0:0:0:0:
320,192,17451,1,0,0:0:0:0:
448,192,17537,1,0,0:0:0:0:
192,192,17537,128,0,17624:0:0:0:0:
448,192,17710,1,0,0:0:0:0:
64,192,17710,1,0,0:0:0:0:
320,192,17710,128,0,17796:0:0:0:0:
64,192,17882,1,0,0:0:0:0:
192,192,17882,1,0,0:0:0:0:
320,192,17968,1,0,0:0:0:0:
448,192,18055,128,0,18141:0:0:0:0:
192,192,18055,1,0,0:0:0:0:
64,192,18055,1,0,0:0:0:0:
320,192,18227,128,0,18313:0:0:0:0:
64,192,18399,1,0,0:0:0:0:
448,192,18399,1,0,0:0:0:0:
192,192,18399,128,0,18486:0:0:0:0:
64,192,18572,128,0,18658:0:0:0:0:
320,192,18658,1,0,0:0:0:0:
448,192,18744,128,0,18830:0:0:0:0:
192,192,18830,1,0,0:0:0:0:
64,192,18917,1,0,0:0:0:0:
320,192,18917,128,0,19003:0:0:0:0:
64,192,19089,1,0,0:0:0:0:
448,192,19089,1,0,0:0:0:0:
192,192,19089,128,0,19175:0:0:0:0:
448,192,19261,1,0,0:0:0:0:
320,192,19261,1,0,0:0:0:0:
192,192,19348,1,0,0:0:0:0:
448,192,19434,1,0,0:0:0:0:
320,192,19434,1,0,0:0:0:0:
64,192,19434,128,0,19520:0:0:0:0:
192,192,19606,128,0,19692:0:0:0:0:
320,192,19779,128,0,19865:0:0:0:0:
64,192,19779,1,0,0:0:0:0:
448,192,19779,1,0,0:0:0:0:
448,192,19951,128,0,20037:0:0:0:0:
192,192,20037,1,0,0:0:0:0:
64,192,20124,128,0,20210:0:0:0:0:
320,192,20210,1,0,0:0:0:0:
192,192,20296,128,0,20382:0:0:0:0:
448,192,20296,1,0,0:0:0:0:
320,192,20468,128,0,20555:0:0:0:0:
64,192,20468,1,0,0:0:0:0:
448,192,20468,1,0,0:0:0:0:
192,192,20641,1,0,0:0:0:0:
64,192,20641,1,0,0:0:0:0:
320,192,20727,1,0,0:0:0:0:
64,192,20813,1,0,0:0:0:0:
192,192,20813,1,0,0:0:0:0:
448,192,20813,128,0,20899:0:0:0:0:
320,192,20986,128,0,21072:0:0:0:0:
192,192,21158,128,0,21244:0:0:0:0:
448,192,21158,1,0,0:0:0:0:
64,192,21158,1,0,0:0:0:0:
64,192,21330,128,0,21417:0:0:0:0:
320,192,21417,1,0,0:0:0:0:
448,192,21503,128,0,21589:0:0:0:0:
192,192,21589,1,0,0:0:0:0:
320,192,21675,128,0,21761:0:0:0:0:
64,192,21675,1,0,0:0:0:0:
192,192,21848,128,0,21934:0:0:0:0:
448,192,21848,1,0,0:0:0:0:
64,192,21848,1,0,0:0:0:0:
192,192,22020,1,0,0:0:0:0:
448,192,22020,1,0,0:0:0:0:
320,192,22106,1,0,0:0:0:0:
448,192,22192,5,0,0:0:0:0:
192,192,22192,128,0,22365:0:0:0:0:
64,192,22192,1,0,0:0:0:0:
320,192,22279,1,0,0:0:0:0:
64,192,22365,1,0,0:0:0:0:
320,192,22537,128,0,22710:0:0:0:0:
192,192,22537,1,0,0:0:0:0:
64,192,22537,1,0,0:0:0:0:
448,192,22537,1,0,0:0:0:0:
448,192,22710,1,0,0:0:0:0:
192,192,22796,1,0,0:0:0:0:
448,192,22882,128,0,23055:0:0:0:0:
320,192,22882,1,0,0:0:0:0:
64,192,22968,1,0,0:0:0:0:
192,192,23055,1,0,0:0:0:0:
320,192,23227,128,0,23313:0:0:0:0:
192,192,23227,1,0,0:0:0:0:
64,192,23227,1,0,0:0:0:0:
448,192,23227,1,0,0:0:0:0:
192,192,23399,128,0,23572:0:0:0:0:
448,192,23399,1,0,0:0:0:0:
320,192,23486,1,0,0:0:0:0:
64,192,23572,1,0,0:0:0:0:
192,192,23744,128,0,23830:0:0:0:0:
320,192,23744,1,0,0:0:0:0:
448,192,23917,128,0,24089:0:0:0:0:
64,192,23917,1,0,0:0:0:0:
192,192,23917,1,0,0:0:0:0:
320,192,23917,1,0,0:0:0:0:
64,192,24089,1,0,0:0:0:0:
320,192,24175,1,0,0:0:0:0:
64,192,24261,128,0,24434:0:0:0:0:
192,192,24261,1,0,0:0:0:0:
448,192,24348,1,0,0:0:0:0:
192,192,24434,1,0,0:0:0:0:
192,192,24606,128,0,24779:0:0:0:0:
320,192,24606,1,0,0:0:0:0:
448,192,24606,1,0,0:0:0:0:
64,192,24606,1,0,0:0:0:0:
320,192,24779,1,0,0:0:0:0:
448,192,24865,1,0,0:0:0:0:
192,192,24951,128,0,25124:0:0:0:0:
64,192,24951,1,0,0:0:0:0:
320,192,25124,1,0,0:0:0:0:
320,192,25296,128,0,25468:0:0:0:0:
192,192,25296,1,0,0:0:0:0:
64,192,25296,1,0,0:0:0:0:
448,192,25296,1,0,0:0:0:0:
448,192,25468,1,0,0:0:0:0:
64,192,25555,1,0,0:0:0:0:
448,192,25641,128,0,25813:0:0:0:0:
320,192,25641,1,0,0:0:0:0:
64,192,25727,1,0,0:0:0:0:
192,192,25813,1,0,0:0:0:0:
320,192,25986,128,0,26072:0:0:0:0:
64,192,25986,1,0,0:0:0:0:
192,192,25986,1,0,0:0:0:0:
448,192,25986,1,0,0:0:0:0:
192,192,26158,128,0,26330:0:0:0:0:
64,192,26158,1,0,0:0:0:0:
320,192,26244,1,0,0:0:0:0:
448,192,26330,1,0,0:0:0:0:
192,192,26503,128,0,26589:0:0:0:0:
64,192,26503,1,0,0:0:0:0:
448,192,26675,128,0,26848:0:0:0:0:
64,192,26675,1,0,0:0:0:0:
192,192,26675,1,0,0:0:0:0:
320,192,26675,1,0,0:0:0:0:
64,192,26848,1,0,0:0:0:0:
448,192,26934,1,0,0:0:0:0:
64,192,27020,128,0,27192:0:0:0:0:
192,192,27020,1,0,0:0:0:0:
448,192,27106,1,0,0:0:0:0:
320,192,27192,1,0,0:0:0:0:
64,192,27365,1,0,0:0:0:0:
192,192,27365,1,0,0:0:0:0:
320,192,27365,1,0,0:0:0:0:
448,192,27365,1,0,0:0:0:0:
192,192,27537,1,0,0:0:0:0:
320,192,27624,1,0,0:0:0:0:
192,192,27710,128,0,27882:0:0:0:0:
448,192,27710,1,0,0:0:0:0:
64,192,27882,1,0,0:0:0:0:
320,192,28055,128,0,28227:0:0:0:0:
64,192,28055,1,0,0:0:0:0:
192,192,28055,1,0,0:0:0:0:
448,192,28055,1,0,0:0:0:0:
192,192,28227,1,0,0:0:0:0:
64,192,28313,1,0,0:0:0:0:
448,192,28399,128,0,28572:0:0:0:0:
320,192,28399,1,0,0:0:0:0:
192,192,28486,1,0,0:0:0:0:
320,192,28572,1,0,0:0:0:0:
320,192,28744,128,0,28830:0:0:0:0:
64,192,28744,1,0,0:0:0:0:
192,192,28744,1,0,0:0:0:0:
448,192,28744,1,0,0:0:0:0:
192,192,28917,128,0,29089:0:0:0:0:
448,192,28917,1,0,0:0:0:0:
320,192,29003,1,0,0:0:0:0:
64,192,29089,1,0,0:0:0:0:
192,192,29261,128,0,29348:0:0:0:0:
320,192,29261,1,0,0:0:0:0:
448,192,29434,128,0,29606:0:0:0:0:
64,192,29434,1,0,0:0:0:0:
192,192,29434,1,0,0:0:0:0:
320,192,29434,1,0,0:0:0:0:
64,192,29606,1,0,0:0:0:0:
320,192,29692,1,0,0:0:0:0:
64,192,29779,128,0,29951:0:0:0:0:
192,192,29779,1,0,0:0:0:0:
448,192,29865,1,0,0:0:0:0:
320,192,29951,1,0,0:0:0:0:
448,192,30124,128,0,30296:0:0:0:0:
64,192,30124,1,0,0:0:0:0:
192,192,30124,1,0,0:0:0:0:
320,192,30124,1,0,0:0:0:0:
64,192,30296,1,0,0:0:0:0:
320,192,30382,1,0,0:0:0:0:
192,192,30468,128,0,30641:0:0:0:0:
448,192,30468,1,0,0:0:0:0:
64,192,30641,1,0,0:0:0:0:
320,192,30813,128,0,30986:0:0:0:0:
192,192,30813,1,0,0:0:0:0:
64,192,30813,1,0,0:0:0:0:
448,192,30813,1,0,0:0:0:0:
192,192,30986,1,0,0:0:0:0:
64,192,31072,1,0,0:0:0:0:
448,192,31158,128,0,31330:0:0:0:0:
320,192,31158,1,0,0:0:0:0:
64,192,31244,1,0,0:0:0:0:
192,192,31330,1,0,0:0:0:0:
64,192,31503,128,0,31589:0:0:0:0:
192,192,31503,1,0,0:0:0:0:
320,192,31503,1,0,0:0:0:0:
448,192,31503,1,0,0:0:0:0:
448,192,31675,128,0,31848:0:0:0:0:
64,192,31675,1,0,0:0:0:0:
320,192,31761,1,0,0:0:0:0:
192,192,31848,1,0,0:0:0:0:
448,192,32020,1,0,0:0:0:0:
320,192,32020,128,0,32106:0:0:0:0:
192,192,32192,128,0,32365:0:0:0:0:
64,192,32192,1,0,0:0:0:0:
320,192,32192,1,0,0:0:0:0:
448,192,32192,1,0,0:0:0:0:
448,192,32365,1,0,0:0:0:0:
320,192,32451,1,0,0:0:0:0:
64,192,32537,128,0,32710:0:0:0:0:
448,192,32537,1,0,0:0:0:0:
192,192,32624,1,0,0:0:0:0:
320,192,32710,1,0,0:0:0:0:
64,192,32882,1,0,0:0:0:0:
192,192,32882,1,0,0:0:0:0:
320,192,32882,1,0,0:0:0:0:
448,192,32882,1,0,0:0:0:0:
448,192,33055,1,0,0:0:0:0:
320,192,33141,1,0,0:0:0:0:
64,192,33227,1,0,0:0:0:0:
448,192,33227,1,0,0:0:0:0:
192,192,33227,1,0,0:0:0:0:
192,192,33572,1,0,0:0:0:0:
64,192,33572,1,0,0:0:0:0:
448,192,33572,1,0,0:0:0:0:
320,192,33572,1,0,0:0:0:0:
320,192,33917,1,0,0:0:0:0:
192,192,33917,1,0,0:0:0:0:
448,192,33917,1,0,0:0:0:0:
448,192,34261,1,0,0:0:0:0:
64,192,34261,1,0,0:0:0:0:
192,192,34261,1,0,0:0:0:0:
320,192,34261,1,0,0:0:0:0:
320,192,34434,1,0,0:0:0:0:
192,192,34520,1,0,0:0:0:0:
320,192,34606,1,0,0:0:0:0:
64,192,34606,1,0,0:0:0:0:
448,192,34606,1,0,0:0:0:0:
448,192,34779,1,0,0:0:0:0:
64,192,34779,1,0,0:0:0:0:
192,192,34779,1,0,0:0:0:0:
64,192,34951,1,0,0:0:0:0:
320,192,34951,1,0,0:0:0:0:
192,192,34951,1,0,0:0:0:0:
448,192,34951,1,0,0:0:0:0:
320,192,35296,1,0,0:0:0:0:
64,192,35296,1,0,0:0:0:0:
448,192,35296,1,0,0:0:0:0:
448,192,35468,1,0,0:0:0:0:
64,192,35468,1,0,0:0:0:0:
192,192,35468,1,0,0:0:0:0:
64,192,35641,1,0,0:0:0:0:
448,192,35641,1,0,0:0:0:0:
320,192,35641,1,0,0:0:0:0:
192,192,35641,1,0,0:0:0:0:
64,192,35986,1,0,0:0:0:0:
192,192,35986,1,0,0:0:0:0:
320,192,35986,1,0,0:0:0:0:
192,192,36330,1,0,0:0:0:0:
64,192,36330,1,0,0:0:0:0:
448,192,36330,1,0,0:0:0:0:
320,192,36330,1,0,0:0:0:0:
320,192,36675,1,0,0:0:0:0:
64,192,36675,1,0,0:0:0:0:
448,192,36675,1,0,0:0:0:0:
64,192,37020,1,0,0:0:0:0:
192,192,37020,1,0,0:0:0:0:
448,192,37020,1,0,0:0:0:0:
320,192,37020,1,0,0:0:0:0:
448,192,37192,1,0,0:0:0:0:
320,192,37279,1,0,0:0:0:0:
64,192,37365,1,0,0:0:0:0:
192,192,37365,1,0,0:0:0:0:
448,192,37365,1,0,0:0:0:0:
64,192,37537,1,0,0:0:0:0:
448,192,37537,1,0,0:0:0:0:
320,192,37537,1,0,0:0:0:0:
64,192,37710,1,0,0:0:0:0:
192,192,37710,1,0,0:0:0:0:
320,192,37710,1,0,0:0:0:0:
448,192,37710,1,0,0:0:0:0:
448,192,38055,1,0,0:0:0:0:
64,192,38055,1,0,0:0:0:0:
320,192,38055,1,0,0:0:0:0:
192,192,38227,1,0,0:0:0:0:
64,192,38227,1,0,0:0:0:0:
448,192,38227,1,0,0:0:0:0:
192,192,38399,1,0,0:0:0:0:
64,192,38399,1,0,0:0:0:0:
320,192,38399,1,0,0:0:0:0:
448,192,38399,1,0,0:0:0:0:
64,192,38744,1,0,0:0:0:0:
192,192,38744,1,0,0:0:0:0:
448,192,38744,1,0,0:0:0:0:
320,192,38917,1,0,0:0:0:0:
64,192,38917,1,0,0:0:0:0:
448,192,38917,1,0,0:0:0:0:
64,192,39089,1,0,0:0:0:0:
192,192,39089,1,0,0:0:0:0:
320,192,39089,1,0,0:0:0:0:
448,192,39089,1,0,0:0:0:0:
64,192,39261,1,0,0:0:0:0:
192,192,39261,1,0,0:0:0:0:
320,192,39261,1,0,0:0:0:0:
192,192,39434,1,0,0:0:0:0:
320,192,39434,1,0,0:0:0:0:
448,192,39434,1,0,0:0:0:0:
64,192,39606,1,0,0:0:0:0:
192,192,39606,1,0,0:0:0:0:
448,192,39606,1,0,0:0:0:0:
64,192,39779,1,0,0:0:0:0:
192,192,39779,1,0,0:0:0:0:
448,192,39779,1,0,0:0:0:0:
320,192,39779,1,0,0:0:0:0:
64,192,39951,1,0,0:0:0:0:
320,192,39951,1,0,0:0:0:0:
448,192,39951,1,0,0:0:0:0:
64,192,40124,1,0,0:0:0:0:
192,192,40124,1,0,0:0:0:0:
320,192,40124,1,0,0:0:0:0:
64,192,40296,1,0,0:0:0:0:
192,192,40296,1,0,0:0:0:0:
448,192,40296,1,0,0:0:0:0:
64,192,40468,1,0,0:0:0:0:
192,192,40468,1,0,0:0:0:0:
320,192,40468,1,0,0:0:0:0:
448,192,40468,1,0,0:0:0:0:
192,192,40641,1,0,0:0:0:0:
320,192,40641,1,0,0:0:0:0:
448,192,40641,1,0,0:0:0:0:
64,192,40813,1,0,0:0:0:0:
192,192,40813,1,0,0:0:0:0:
320,192,40813,1,0,0:0:0:0:
64,192,40986,1,0,0:0:0:0:
448,192,40986,1,0,0:0:0:0:
320,192,40986,1,0,0:0:0:0:
64,192,41158,1,0,0:0:0:0:
192,192,41158,1,0,0:0:0:0:
320,192,41158,1,0,0:0:0:0:
448,192,41158,1,0,0:0:0:0:
64,192,41330,1,0,0:0:0:0:
192,192,41330,1,0,0:0:0:0:
448,192,41330,1,0,0:0:0:0:
320,192,41503,1,0,0:0:0:0:
448,192,41503,1,0,0:0:0:0:
64,192,41589,1,0,0:0:0:0:
192,192,41675,1,0,0:0:0:0:
448,192,41675,1,0,0:0:0:0:
320,192,41761,1,0,0:0:0:0:
64,192,41848,1,0,0:0:0:0:
192,192,41848,1,0,0:0:0:0:
320,192,41934,1,0,0:0:0:0:
448,192,42020,1,0,0:0:0:0:
192,192,42020,1,0,0:0:0:0:
320,192,42106,1,0,0:0:0:0:
64,192,42192,1,0,0:0:0:0:
448,192,42192,1,0,0:0:0:0:
192,192,42279,1,0,0:0:0:0:
320,192,42365,1,0,0:0:0:0:
64,192,42365,1,0,0:0:0:0:
448,192,42451,1,0,0:0:0:0:
192,192,42537,1,0,0:0:0:0:
320,192,42537,1,0,0:0:0:0:
64,192,42624,1,0,0:0:0:0:
448,192,42710,1,0,0:0:0:0:
320,192,42710,1,0,0:0:0:0:
192,192,42796,1,0,0:0:0:0:
448,192,42882,1,0,0:0:0:0:
320,192,42882,1,0,0:0:0:0:
64,192,42968,1,0,0:0:0:0:
192,192,42968,1,0,0:0:0:0:
320,192,43055,1,0,0:0:0:0:
448,192,43055,1,0,0:0:0:0:
192,192,43141,1,0,0:0:0:0:
64,192,43141,1,0,0:0:0:0:
448,192,43227,1,0,0:0:0:0:
320,192,43227,1,0,0:0:0:0:
64,192,43313,1,0,0:0:0:0:
192,192,43313,1,0,0:0:0:0:
320,192,43399,1,0,0:0:0:0:
448,192,43399,1,0,0:0:0:0:
192,192,43486,1,0,0:0:0:0:
64,192,43486,1,0,0:0:0:0:
448,192,43572,1,0,0:0:0:0:
320,192,43572,1,0,0:0:0:0:
64,192,43658,1,0,0:0:0:0:
192,192,43658,1,0,0:0:0:0:
320,192,43744,1,0,0:0:0:0:
448,192,43744,1,0,0:0:0:0:
192,192,43830,1,0,0:0:0:0:
64,192,43830,1,0,0:0:0:0:
192,192,44261,128,0,44434:0:0:0:0:
64,192,44261,1,0,0:0:0:0:
448,192,44261,1,0,0:0:0:0:
320,192,44348,1,0,0:0:0:0:
64,192,44434,1,0,0:0:0:0:
448,192,44520,1,0,0:0:0:0:
320,192,44606,128,0,44779:0:0:0:0:
64,192,44606,1,0,0:0:0:0:
192,192,44606,1,0,0:0:0:0:
448,192,44606,1,0,0:0:0:0:
64,192,44692,1,0,0:0:0:0:
448,192,44779,1,0,0:0:0:0:
192,192,44865,1,0,0:0:0:0:
448,192,44951,128,0,45124:0:0:0:0:
64,192,44951,1,0,0:0:0:0:
320,192,45037,1,0,0:0:0:0:
192,192,45124,1,0,0:0:0:0:
64,192,45124,1,0,0:0:0:0:
320,192,45210,1,0,0:0:0:0:
320,192,45296,128,0,45382:0:0:0:0:
192,192,45296,1,0,0:0:0:0:
64,192,45296,1,0,0:0:0:0:
448,192,45296,1,0,0:0:0:0:
64,192,45382,1,0,0:0:0:0:
192,192,45468,128,0,45641:0:0:0:0:
448,192,45468,1,0,0:0:0:0:
320,192,45555,1,0,0:0:0:0:
64,192,45641,1,0,0:0:0:0:
448,192,45641,1,0,0:0:0:0:
320,192,45727,1,0,0:0:0:0:
192,192,45813,128,0,45899:0:0:0:0:
64,192,45813,1,0,0:0:0:0:
448,192,45899,1,0,0:0:0:0:
448,192,45986,128,0,46158:0:0:0:0:
64,192,45986,1,0,0:0:0:0:
192,192,45986,1,0,0:0:0:0:
320,192,45986,1,0,0:0:0:0:
320,192,46072,1,0,0:0:0:0:
64,192,46158,1,0,0:0:0:0:
320,192,46244,1,0,0:0:0:0:
64,192,46330,128,0,46503:0:0:0:0:
448,192,46330,1,0,0:0:0:0:
192,192,46417,1,0,0:0:0:0:
448,192,46503,1,0,0:0:0:0:
320,192,46503,1,0,0:0:0:0:
192,192,46589,1,0,0:0:0:0:
64,192,46675,1,0,0:0:0:0:
320,192,46675,1,0,0:0:0:0:
448,192,46675,1,0,0:0:0:0:
192,192,46761,1,0,0:0:0:0:
64,192,46848,1,0,0:0:0:0:
320,192,46934,1,0,0:0:0:0:
192,192,47020,128,0,47192:0:0:0:0:
448,192,47020,1,0,0:0:0:0:
64,192,47020,1,0,0:0:0:0:
320,192,47106,1,0,0:0:0:0:
64,192,47192,1,0,0:0:0:0:
192,192,47279,1,0,0:0:0:0:
320,192,47365,128,0,47537:0:0:0:0:
192,192,47365,1,0,0:0:0:0:
64,192,47365,1,0,0:0:0:0:
448,192,47365,1,0,0:0:0:0:
64,192,47451,1,0,0:0:0:0:
448,192,47537,1,0,0:0:0:0:
192,192,47624,1,0,0:0:0:0:
448,192,47710,128,0,47882:0:0:0:0:
320,192,47710,1,0,0:0:0:0:
192,192,47796,1,0,0:0:0:0:
64,192,47882,1,0,0:0:0:0:
320,192,47882,1,0,0:0:0:0:
192,192,47968,1,0,0:0:0:0:
320,192,48055,128,0,48141:0:0:0:0:
192,192,48055,1,0,0:0:0:0:
64,192,48055,1,0,0:0:0:0:
448,192,48055,1,0,0:0:0:0:
448,192,48141,1,0,0:0:0:0:
192,192,48227,128,0,48399:0:0:0:0:
64,192,48227,1,0,0:0:0:0:
320,192,48313,1,0,0:0:0:0:
64,192,48399,1,0,0:0:0:0:
448,192,48399,1,0,0:0:0:0:
320,192,48486,1,0,0:0:0:0:
192,192,48572,128,0,48658:0:0:0:0:
64,192,48572,1,0,0:0:0:0:
448,192,48658,1,0,0:0:0:0:
448,192,48744,128,0,48917:0:0:0:0:
64,192,48744,1,0,0:0:0:0:
192,192,48744,1,0,0:0:0:0:
320,192,48744,1,0,0:0:0:0:
320,192,48830,1,0,0:0:0:0:
64,192,48917,1,0,0:0:0:0:
192,192,49003,1,0,0:0:0:0:
64,192,49089,128,0,49261:0:0:0:0:
448,192,49089,1,0,0:0:0:0:
320,192,49175,1,0,0:0:0:0:
192,192,49261,1,0,0:0:0:0:
448,192,49261,1,0,0:0:0:0:
320,192,49348,1,0,0:0:0:0:
192,192,49434,1,0,0:0:0:0:
64,192,49434,1,0,0:0:0:0:
448,192,49434,1,0,0:0:0:0:
320,192,49520,1,0,0:0:0:0:
64,192,49606,1,0,0:0:0:0:
320,192,49692,1,0,0:0:0:0:
192,192,49779,128,0,49951:0:0:0:0:
64,192,49779,1,0,0:0:0:0:
448,192,49779,1,0,0:0:0:0:
320,192,49865,1,0,0:0:0:0:
64,192,49951,1,0,0:0:0:0:
448,192,50037,1,0,0:0:0:0:
320,192,50124,128,0,50296:0:0:0:0:
192,192,50124,1,0,0:0:0:0:
64,192,50124,1,0,0:0:0:0:
448,192,50124,1,0,0:0:0:0:
192,192,50210,1,0,0:0:0:0:
64,192,50296,1,0,0:0:0:0:
320,192,50382,1,0,0:0:0:0:
448,192,50468,128,0,50641:0:0:0:0:
192,192,50468,1,0,0:0:0:0:
64,192,50555,1,0,0:0:0:0:
192,192,50641,1,0,0:0:0:0:
320,192,50641,1,0,0:0:0:0:
64,192,50727,1,0,0:0:0:0:
320,192,50813,128,0,50899:0:0:0:0:
64,192,50813,1,0,0:0:0:0:
192,192,50813,1,0,0:0:0:0:
448,192,50813,1,0,0:0:0:0:
448,192,50899,1,0,0:0:0:0:
192,192,50986,128,0,51158:0:0:0:0:
320,192,50986,1,0,0:0:0:0:
64,192,51072,1,0,0:0:0:0:
320,192,51158,1,0,0:0:0:0:
448,192,51158,1,0,0:0:0:0:
64,192,51244,1,0,0:0:0:0:
192,192,51330,128,0,51417:0:0:0:0:
448,192,51330,1,0,0:0:0:0:
320,192,51417,1,0,0:0:0:0:
448,192,51503,128,0,51675:0:0:0:0:
64,192,51503,1,0,0:0:0:0:
320,192,51503,1,0,0:0:0:0:
192,192,51503,1,0,0:0:0:0:
64,192,51589,1,0,0:0:0:0:
320,192,51675,1,0,0:0:0:0:
192,192,51761,1,0,0:0:0:0:
64,192,51848,128,0,52020:0:0:0:0:
320,192,51848,1,0,0:0:0:0:
448,192,51934,1,0,0:0:0:0:
192,192,52020,1,0,0:0:0:0:
320,192,52020,1,0,0:0:0:0:
448,192,52106,1,0,0:0:0:0:
64,192,52192,1,0,0:0:0:0:
192,192,52192,1,0,0:0:0:0:
320,192,52192,1,0,0:0:0:0:
448,192,52279,1,0,0:0:0:0:
320,192,52365,1,0,0:0:0:0:
64,192,52451,1,0,0:0:0:0:
192,192,52537,128,0,52710:0:0:0:0:
448,192,52537,1,0,0:0:0:0:
320,192,52537,1,0,0:0:0:0:
64,192,52624,1,0,0:0:0:0:
320,192,52710,1,0,0:0:0:0:
448,192,52796,1,0,0:0:0:0:
320,192,52882,128,0,53055:0:0:0:0:
192,192,52882,1,0,0:0:0:0:
64,192,52882,1,0,0:0:0:0:
448,192,52882,1,0,0:0:0:0:
64,192,52968,1,0,0:0:0:0:
448,192,53055,1,0,0:0:0:0:
192,192,53141,1,0,0:0:0:0:
448,192,53227,128,0,53399:0:0:0:0:
64,192,53227,1,0,0:0:0:0:
320,192,53313,1,0,0:0:0:0:
64,192,53399,1,0,0:0:0:0:
192,192,53399,1,0,0:0:0:0:
320,192,53486,1,0,0:0:0:0:
64,192,53572,128,0,53658:0:0:0:0:
192,192,53572,1,0,0:0:0:0:
320,192,53572,1,0,0:0:0:0:
448,192,53572,1,0,0:0:0:0:
192,192,53658,1,0,0:0:0:0:
448,192,53744,128,0,53917:0:0:0:0:
64,192,53744,1,0,0:0:0:0:
320,192,53830,1,0,0:0:0:0:
64,192,53917,1,0,0:0:0:0:
192,192,53917,1,0,0:0:0:0:
448,192,54003,1,0,0:0:0:0:
320,192,54089,128,0,54175:0:0:0:0:
192,192,54089,1,0,0:0:0:0:
64,192,54175,1,0,0:0:0:0:
64,192,54261,1,0,0:0:0:0:
320,192,54261,1,0,0:0:0:0:
448,192,54261,1,0,0:0:0:0:
192,192,54261,128,0,54434:0:0:0:0:
320,192,54348,1,0,0:0:0:0:
448,192,54434,1,0,0:0:0:0:
192,192,54520,1,0,0:0:0:0:
64,192,54520,1,0,0:0:0:0:
320,192,54606,1,0,0:0:0:0:
448,192,54606,1,0,0:0:0:0:
192,192,54692,1,0,0:0:0:0:
320,192,54779,1,0,0:0:0:0:
448,192,54779,1,0,0:0:0:0:
64,192,54865,1,0,0:0:0:0:
320,192,54951,1,0,0:0:0:0:
192,192,54951,1,0,0:0:0:0:
448,192,54951,1,0,0:0:0:0:
64,192,55037,1,0,0:0:0:0:
448,192,55124,1,0,0:0:0:0:
320,192,55152,1,0,0:0:0:0:
192,192,55181,1,0,0:0:0:0:
64,192,55210,1,0,0:0:0:0:
320,192,55296,128,0,55468:0:0:0:0:
448,192,55296,1,0,0:0:0:0:
64,192,55296,1,0,0:0:0:0:
192,192,55382,1,0,0:0:0:0:
448,192,55468,1,0,0:0:0:0:
64,192,55555,1,0,0:0:0:0:
192,192,55641,128,0,55813:0:0:0:0:
448,192,55641,1,0,0:0:0:0:
320,192,55641,1,0,0:0:0:0:
64,192,55641,1,0,0:0:0:0:
448,192,55727,1,0,0:0:0:0:
64,192,55813,1,0,0:0:0:0:
320,192,55899,1,0,0:0:0:0:
64,192,55986,128,0,56158:0:0:0:0:
448,192,55986,1,0,0:0:0:0:
192,192,56072,1,0,0:0:0:0:
320,192,56158,1,0,0:0:0:0:
448,192,56158,1,0,0:0:0:0:
192,192,56244,1,0,0:0:0:0:
192,192,56330,128,0,56417:0:0:0:0:
320,192,56330,1,0,0:0:0:0:
448,192,56330,1,0,0:0:0:0:
64,192,56330,1,0,0:0:0:0:
448,192,56417,1,0,0:0:0:0:
320,192,56503,128,0,56675:0:0:0:0:
64,192,56503,1,0,0:0:0:0:
192,192,56589,1,0,0:0:0:0:
448,192,56675,1,0,0:0:0:0:
64,192,56675,1,0,0:0:0:0:
192,192,56761,1,0,0:0:0:0:
320,192,56848,128,0,56934:0:0:0:0:
448,192,56848,1,0,0:0:0:0:
64,192,56934,1,0,0:0:0:0:
64,192,57020,128,0,57192:0:0:0:0:
448,192,57020,1,0,0:0:0:0:
320,192,57020,1,0,0:0:0:0:
192,192,57020,1,0,0:0:0:0:
192,192,57106,1,0,0:0:0:0:
448,192,57192,1,0,0:0:0:0:
192,192,57279,1,0,0:0:0:0:
448,192,57365,128,0,57537:0:0:0:0:
64,192,57365,1,0,0:0:0:0:
320,192,57451,1,0,0:0:0:0:
64,192,57537,1,0,0:0:0:0:
192,192,57537,1,0,0:0:0:0:
320,192,57624,1,0,0:0:0:0:
448,192,57710,1,0,0:0:0:0:
192,192,57710,1,0,0:0:0:0:
64,192,57710,1,0,0:0:0:0:
320,192,57796,1,0,0:0:0:0:
448,192,57882,1,0,0:0:0:0:
192,192,57968,1,0,0:0:0:0:
320,192,58055,128,0,58227:0:0:0:0:
64,192,58055,1,0,0:0:0:0:
448,192,58055,1,0,0:0:0:0:
192,192,58141,1,0,0:0:0:0:
448,192,58227,1,0,0:0:0:0:
320,192,58313,1,0,0:0:0:0:
192,192,58399,128,0,58572:0:0:0:0:
320,192,58399,1,0,0:0:0:0:
448,192,58399,1,0,0:0:0:0:
64,192,58399,1,0,0:0:0:0:
448,192,58486,1,0,0:0:0:0:
64,192,58572,1,0,0:0:0:0:
320,192,58658,1,0,0:0:0:0:
64,192,58744,128,0,58917:0:0:0:0:
192,192,58744,1,0,0:0:0:0:
320,192,58830,1,0,0:0:0:0:
448,192,58917,1,0,0:0:0:0:
192,192,58917,1,0,0:0:0:0:
320,192,59003,1,0,0:0:0:0:
192,192,59089,128,0,59175:0:0:0:0:
320,192,59089,1,0,0:0:0:0:
448,192,59089,1,0,0:0:0:0:
64,192,59089,1,0,0:0:0:0:
64,192,59175,1,0,0:0:0:0:
320,192,59261,128,0,59434:0:0:0:0:
448,192,59261,1,0,0:0:0:0:
192,192,59348,1,0,0:0:0:0:
448,192,59434,1,0,0:0:0:0:
64,192,59434,1,0,0:0:0:0:
192,192,59520,1,0,0:0:0:0:
320,192,59606,128,0,59692:0:0:0:0:
448,192,59606,1,0,0:0:0:0:
64,192,59692,1,0,0:0:0:0:
64,192,59779,128,0,59951:0:0:0:0:
448,192,59779,1,0,0:0:0:0:
320,192,59779,1,0,0:0:0:0:
192,192,59779,1,0,0:0:0:0:
192,192,59865,1,0,0:0:0:0:
448,192,59951,1,0,0:0:0:0:
320,192,60037,1,0,0:0:0:0:
448,192,60124,128,0,60296:0:0:0:0:
64,192,60124,1,0,0:0:0:0:
192,192,60210,1,0,0:0:0:0:
320,192,60296,1,0,0:0:0:0:
64,192,60296,1,0,0:0:0:0:
192,192,60382,1,0,0:0:0:0:
320,192,60468,1,0,0:0:0:0:
448,192,60468,1,0,0:0:0:0:
64,192,60468,1,0,0:0:0:0:
192,192,60555,1,0,0:0:0:0:
448,192,60641,1,0,0:0:0:0:
192,192,60727,1,0,0:0:0:0:
320,192,60813,128,0,60986:0:0:0:0:
448,192,60813,1,0,0:0:0:0:
64,192,60813,1,0,0:0:0:0:
192,192,60899,1,0,0:0:0:0:
448,192,60986,1,0,0:0:0:0:
64,192,61072,1,0,0:0:0:0:
192,192,61158,128,0,61330:0:0:0:0:
320,192,61158,1,0,0:0:0:0:
448,192,61158,1,0,0:0:0:0:
64,192,61158,1,0,0:0:0:0:
320,192,61244,1,0,0:0:0:0:
448,192,61330,1,0,0:0:0:0:
192,192,61417,1,0,0:0:0:0:
64,192,61503,128,0,61675:0:0:0:0:
320,192,61503,1,0,0:0:0:0:
448,192,61589,1,0,0:0:0:0:
320,192,61675,1,0,0:0:0:0:
192,192,61675,1,0,0:0:0:0:
448,192,61761,1,0,0:0:0:0:
192,192,61848,128,0,61934:0:0:0:0:
448,192,61848,1,0,0:0:0:0:
320,192,61848,1,0,0:0:0:0:
64,192,61848,1,0,0:0:0:0:
64,192,61934,1,0,0:0:0:0:
320,192,62020,128,0,62192:0:0:0:0:
192,192,62020,1,0,0:0:0:0:
448,192,62106,1,0,0:0:0:0:
192,192,62192,1,0,0:0:0:0:
64,192,62192,1,0,0:0:0:0:
448,192,62279,1,0,0:0:0:0:
320,192,62365,128,0,62451:0:0:0:0:
64,192,62365,1,0,0:0:0:0:
192,192,62451,1,0,0:0:0:0:
64,192,62537,128,0,62710:0:0:0:0:
448,192,62537,1,0,0:0:0:0:
192,192,62537,1,0,0:0:0:0:
320,192,62537,1,0,0:0:0:0:
448,192,62624,1,0,0:0:0:0:
192,192,62710,1,0,0:0:0:0:
320,192,62796,1,0,0:0:0:0:
448,192,62882,128,0,63055:0:0:0:0:
192,192,62882,1,0,0:0:0:0:
64,192,62968,1,0,0:0:0:0:
320,192,63055,1,0,0:0:0:0:
192,192,63055,1,0,0:0:0:0:
64,192,63141,1,0,0:0:0:0:
448,192,63227,1,0,0:0:0:0:
320,192,63227,1,0,0:0:0:0:
192,192,63227,1,0,0:0:0:0:
64,192,63313,1,0,0:0:0:0:
192,192,63399,1,0,0:0:0:0:
448,192,63486,1,0,0:0:0:0:
192,192,63572,1,0,0:0:0:0:
320,192,63572,1,0,0:0:0:0:
64,192,63572,128,0,64261:0:0:0:0:
448,192,63744,1,0,0:0:0:0:
192,192,63917,1,0,0:0:0:0:
448,192,63917,1,0,0:0:0:0:
320,192,63917,1,0,0:0:0:0:
448,192,64089,1,0,0:0:0:0:
192,192,64089,1,0,0:0:0:0:
320,192,64175,1,0,0:0:0:0:
448,192,64261,1,0,0:0:0:0:
192,192,64261,1,0,0:0:0:0:
320,192,64305,1,0,0:0:0:0:
448,192,64348,1,0,0:0:0:0:
64,192,64391,1,0,0:0:0:0:
192,192,64434,1,0,0:0:0:0:
320,192,64477,1,0,0:0:0:0:
448,192,64520,1,0,0:0:0:0:
320,192,64563,1,0,0:0:0:0:
192,192,64606,1,0,0:0:0:0:
64,192,64649,1,0,0:0:0:0:
448,192,64692,1,0,0:0:0:0:
320,192,64736,1,0,0:0:0:0:
192,192,64779,1,0,0:0:0:0:
64,192,64822,1,0,0:0:0:0:
448,192,64865,1,0,0:0:0:0:
320,192,64908,1,0,0:0:0:0:
64,192,64951,1,0,0:0:0:0:
192,192,64951,1,0,0:0:0:0:
448,192,65124,1,0,0:0:0:0:
192,192,65296,1,0,0:0:0:0:
320,192,65296,1,0,0:0:0:0:
64,192,65468,1,0,0:0:0:0:
320,192,65555,1,0,0:0:0:0:
192,192,65641,1,0,0:0:0:0:
448,192,65641,1,0,0:0:0:0:
64,192,65727,1,0,0:0:0:0:
448,192,65813,1,0,0:0:0:0:
192,192,65899,1,0,0:0:0:0:
320,192,65986,1,0,0:0:0:0:
64,192,65986,1,0,0:0:0:0:
192,192,66072,1,0,0:0:0:0:
448,192,66158,1,0,0:0:0:0:
64,192,66244,1,0,0:0:0:0:
320,192,66330,1,0,0:0:0:0:
448,192,66330,128,0,66675:0:0:0:0:
192,192,66417,1,0,0:0:0:0:
64,192,66503,1,0,0:0:0:0:
192,192,66546,1,0,0:0:0:0:
320,192,66589,1,0,0:0:0:0:
64,192,66675,1,0,0:0:0:0:
192,192,66675,1,0,0:0:0:0:
320,192,66675,1,0,0:0:0:0:
448,192,66761,1,0,0:0:0:0:
64,192,66848,1,0,0:0:0:0:
320,192,66934,1,0,0:0:0:0:
192,192,67020,1,0,0:0:0:0:
448,192,67106,1,0,0:0:0:0:
320,192,67192,1,0,0:0:0:0:
64,192,67192,1,0,0:0:0:0:
192,192,67279,1,0,0:0:0:0:
64,192,67365,1,0,0:0:0:0:
448,192,67365,1,0,0:0:0:0:
320,192,67365,1,0,0:0:0:0:
192,192,67451,1,0,0:0:0:0:
448,192,67537,1,0,0:0:0:0:
64,192,67624,1,0,0:0:0:0:
320,192,67710,128,0,68055:0:0:0:0:
448,192,67710,1,0,0:0:0:0:
192,192,67710,1,0,0:0:0:0:
64,192,67796,1,0,0:0:0:0:
448,192,67882,1,0,0:0:0:0:
192,192,67968,1,0,0:0:0:0:
64,192,68055,1,0,0:0:0:0:
448,192,68055,1,0,0:0:0:0:
192,192,68055,1,0,0:0:0:0:
320,192,68141,1,0,0:0:0:0:
64,192,68227,1,0,0:0:0:0:
192,192,68313,1,0,0:0:0:0:
448,192,68399,1,0,0:0:0:0:
192,192,68486,1,0,0:0:0:0:
448,192,68572,1,0,0:0:0:0:
64,192,68572,1,0,0:0:0:0:
320,192,68658,1,0,0:0:0:0:
192,192,68744,1,0,0:0:0:0:
64,192,68744,1,0,0:0:0:0:
448,192,68744,1,0,0:0:0:0:
320,192,68830,1,0,0:0:0:0:
192,192,68917,1,0,0:0:0:0:
64,192,69003,1,0,0:0:0:0:
192,192,69089,128,0,69434:0:0:0:0:
320,192,69089,1,0,0:0:0:0:
448,192,69089,1,0,0:0:0:0:
64,192,69175,1,0,0:0:0:0:
448,192,69261,1,0,0:0:0:0:
320,192,69348,1,0,0:0:0:0:
320,192,69434,1,0,0:0:0:0:
448,192,69434,1,0,0:0:0:0:
64,192,69434,1,0,0:0:0:0:
192,192,69520,1,0,0:0:0:0:
448,192,69606,1,0,0:0:0:0:
320,192,69692,1,0,0:0:0:0:
64,192,69779,1,0,0:0:0:0:
320,192,69865,1,0,0:0:0:0:
192,192,69951,1,0,0:0:0:0:
448,192,69951,1,0,0:0:0:0:
64,192,70037,1,0,0:0:0:0:
64,192,70124,128,0,70468:0:0:0:0:
192,192,70124,1,0,0:0:0:0:
320,192,70124,1,0,0:0:0:0:
448,192,70124,1,0,0:0:0:0:
320,192,70210,1,0,0:0:0:0:
192,192,70296,1,0,0:0:0:0:
448,192,70382,1,0,0:0:0:0:
192,192,70468,128,0,70813:0:0:0:0:
320,192,70468,1,0,0:0:0:0:
448,192,70468,1,0,0:0:0:0:
64,192,70555,1,0,0:0:0:0:
448,192,70641,1,0,0:0:0:0:
320,192,70727,1,0,0:0:0:0:
320,192,70813,1,0,0:0:0:0:
448,192,70813,1,0,0:0:0:0:
64,192,70813,1,0,0:0:0:0:
192,192,70899,1,0,0:0:0:0:
448,192,70986,1,0,0:0:0:0:
64,192,71072,1,0,0:0:0:0:
192,192,71158,1,0,0:0:0:0:
448,192,71244,1,0,0:0:0:0:
64,192,71330,1,0,0:0:0:0:
320,192,71330,1,0,0:0:0:0:
448,192,71417,1,0,0:0:0:0:
64,192,71503,1,0,0:0:0:0:
192,192,71503,1,0,0:0:0:0:
320,192,71503,1,0,0:0:0:0:
448,192,71589,1,0,0:0:0:0:
64,192,71675,1,0,0:0:0:0:
192,192,71761,1,0,0:0:0:0:
320,192,71848,128,0,72192:0:0:0:0:
64,192,71848,1,0,0:0:0:0:
448,192,71848,1,0,0:0:0:0:
192,192,71934,1,0,0:0:0:0:
448,192,72020,1,0,0:0:0:0:
64,192,72106,1,0,0:0:0:0:
192,192,72192,1,0,0:0:0:0:
64,192,72192,1,0,0:0:0:0:
448,192,72192,1,0,0:0:0:0:
320,192,72279,1,0,0:0:0:0:
64,192,72365,1,0,0:0:0:0:
192,192,72451,1,0,0:0:0:0:
448,192,72537,1,0,0:0:0:0:
192,192,72624,1,0,0:0:0:0:
64,192,72710,1,0,0:0:0:0:
320,192,72710,1,0,0:0:0:0:
448,192,72796,1,0,0:0:0:0:
448,192,72882,128,0,73227:0:0:0:0:
64,192,72882,1,0,0:0:0:0:
192,192,72882,1,0,0:0:0:0:
320,192,72882,1,0,0:0:0:0:
192,192,72968,1,0,0:0:0:0:
320,192,73055,1,0,0:0:0:0:
64,192,73141,1,0,0:0:0:0:
192,192,73227,128,0,73572:0:0:0:0:
320,192,73227,1,0,0:0:0:0:
64,192,73227,1,0,0:0:0:0:
448,192,73313,1,0,0:0:0:0:
64,192,73399,1,0,0:0:0:0:
320,192,73486,1,0,0:0:0:0:
448,192,73572,1,0,0:0:0:0:
320,192,73572,1,0,0:0:0:0:
64,192,73572,1,0,0:0:0:0:
192,192,73658,1,0,0:0:0:0:
320,192,73744,1,0,0:0:0:0:
64,192,73830,1,0,0:0:0:0:
448,192,73917,1,0,0:0:0:0:
192,192,74003,1,0,0:0:0:0:
64,192,74089,1,0,0:0:0:0:
448,192,74089,1,0,0:0:0:0:
320,192,74175,1,0,0:0:0:0:
64,192,74261,1,0,0:0:0:0:
192,192,74261,1,0,0:0:0:0:
448,192,74261,1,0,0:0:0:0:
320,192,74348,1,0,0:0:0:0:
64,192,74434,1,0,0:0:0:0:
448,192,74520,1,0,0:0:0:0:
192,192,74606,128,0,74779:0:0:0:0:
320,192,74606,1,0,0:0:0:0:
64,192,74606,1,0,0:0:0:0:
448,192,74692,1,0,0:0:0:0:
320,192,74779,128,0,75124:0:0:0:0:
64,192,74779,1,0,0:0:0:0:
192,192,74865,1,0,0:0:0:0:
64,192,74951,1,0,0:0:0:0:
192,192,74951,1,0,0:0:0:0:
448,192,74951,1,0,0:0:0:0:
448,192,75037,1,0,0:0:0:0:
64,192,75124,128,0,75296:0:0:0:0:
192,192,75124,1,0,0:0:0:0:
320,192,75210,1,0,0:0:0:0:
192,192,75296,128,0,75468:0:0:0:0:
448,192,75296,1,0,0:0:0:0:
64,192,75382,1,0,0:0:0:0:
320,192,75468,128,0,75813:0:0:0:0:
64,192,75468,1,0,0:0:0:0:
448,192,75468,1,0,0:0:0:0:
192,192,75555,1,0,0:0:0:0:
448,192,75641,1,0,0:0:0:0:
192,192,75641,1,0,0:0:0:0:
64,192,75641,1,0,0:0:0:0:
448,192,75727,1,0,0:0:0:0:
192,192,75813,128,0,75986:0:0:0:0:
64,192,75813,1,0,0:0:0:0:
320,192,75899,1,0,0:0:0:0:
448,192,75986,128,0,76675:0:0:0:0:
64,192,75986,1,0,0:0:0:0:
320,192,75986,1,0,0:0:0:0:
192,192,76072,1,0,0:0:0:0:
320,192,76158,1,0,0:0:0:0:
64,192,76244,1,0,0:0:0:0:
64,192,76330,1,0,0:0:0:0:
192,192,76330,1,0,0:0:0:0:
320,192,76330,1,0,0:0:0:0:
192,192,76417,1,0,0:0:0:0:
64,192,76503,1,0,0:0:0:0:
320,192,76589,1,0,0:0:0:0:
64,192,76675,1,0,0:0:0:0:
192,192,76675,1,0,0:0:0:0:
320,192,76761,1,0,0:0:0:0:
448,192,76761,1,0,0:0:0:0:
192,192,76848,1,0,0:0:0:0:
64,192,76848,1,0,0:0:0:0:
320,192,76934,1,0,0:0:0:0:
448,192,76934,1,0,0:0:0:0:
192,192,77020,1,0,0:0:0:0:
64,192,77020,1,0,0:0:0:0:
320,192,77106,1,0,0:0:0:0:
448,192,77106,1,0,0:0:0:0:
192,192,77192,1,0,0:0:0:0:
64,192,77192,1,0,0:0:0:0:
448,192,77279,1,0,0:0:0:0:
320,192,77279,1,0,0:0:0:0:
192,192,77365,1,0,0:0:0:0:
64,192,77365,1,0,0:0:0:0:
320,192,77451,1,0,0:0:0:0:
64,192,77537,1,0,0:0:0:0:
448,192,77624,1,0,0:0:0:0:
320,192,77710,1,0,0:0:0:0:
192,192,77710,1,0,0:0:0:0:
64,192,77710,1,0,0:0:0:0:
448,192,77796,1,0,0:0:0:0:
320,192,77882,1,0,0:0:0:0:
64,192,77968,1,0,0:0:0:0:
192,192,78055,1,0,0:0:0:0:
448,192,78141,1,0,0:0:0:0:
192,192,78227,1,0,0:0:0:0:
320,192,78227,1,0,0:0:0:0:
64,192,78313,1,0,0:0:0:0:
192,192,78399,1,0,0:0:0:0:
320,192,78399,1,0,0:0:0:0:
448,192,78399,1,0,0:0:0:0:
64,192,78486,1,0,0:0:0:0:
320,192,78572,1,0,0:0:0:0:
448,192,78658,1,0,0:0:0:0:
64,192,78744,1,0,0:0:0:0:
192,192,78744,1,0,0:0:0:0:
320,192,78830,1,0,0:0:0:0:
64,192,78917,1,0,0:0:0:0:
192,192,79003,1,0,0:0:0:0:
64,192,79089,1,0,0:0:0:0:
320,192,79089,1,0,0:0:0:0:
448,192,79089,1,0,0:0:0:0:
192,192,79175,1,0,0:0:0:0:
448,192,79261,1,0,0:0:0:0:
64,192,79348,1,0,0:0:0:0:
320,192,79434,1,0,0:0:0:0:
64,192,79520,1,0,0:0:0:0:
448,192,79606,1,0,0:0:0:0:
192,192,79606,1,0,0:0:0:0:
320,192,79692,1,0,0:0:0:0:
192,192,79779,1,0,0:0:0:0:
64,192,79779,1,0,0:0:0:0:
448,192,79779,1,0,0:0:0:0:
320,192,79865,1,0,0:0:0:0:
64,192,79951,1,0,0:0:0:0:
448,192,80037,1,0,0:0:0:0:
192,192,80124,1,0,0:0:0:0:
320,192,80124,1,0,0:0:0:0:
64,192,80210,1,0,0:0:0:0:
448,192,80296,1,0,0:0:0:0:
192,192,80382,1,0,0:0:0:0:
320,192,80468,1,0,0:0:0:0:
448,192,80468,1,0,0:0:0:0:
64,192,80468,1,0,0:0:0:0:
192,192,80555,1,0,0:0:0:0:
64,192,80641,1,0,0:0:0:0:
320,192,80727,1,0,0:0:0:0:
448,192,80813,1,0,0:0:0:0:
320,192,80899,1,0,0:0:0:0:
64,192,80986,1,0,0:0:0:0:
192,192,80986,1,0,0:0:0:0:
448,192,81072,1,0,0:0:0:0:
64,192,81158,1,0,0:0:0:0:
192,192,81158,1,0,0:0:0:0:
320,192,81158,1,0,0:0:0:0:
448,192,81244,1,0,0:0:0:0:
64,192,81330,1,0,0:0:0:0:
192,192,81417,1,0,0:0:0:0:
320,192,81503,1,0,0:0:0:0:
448,192,81503,1,0,0:0:0:0:
64,192,81589,1,0,0:0:0:0:
448,192,81675,1,0,0:0:0:0:
192,192,81761,1,0,0:0:0:0:
320,192,81848,1,0,0:0:0:0:
448,192,81848,1,0,0:0:0:0:
64,192,81848,1,0,0:0:0:0:
192,192,81934,1,0,0:0:0:0:
448,192,82020,1,0,0:0:0:0:
64,192,82106,1,0,0:0:0:0:
192,192,82192,1,0,0:0:0:0:
320,192,82279,1,0,0:0:0:0:
192,192,82365,1,0,0:0:0:0:
448,192,82365,1,0,0:0:0:0:
64,192,82451,1,0,0:0:0:0:
192,192,82537,1,0,0:0:0:0:
320,192,82537,1,0,0:0:0:0:
448,192,82537,1,0,0:0:0:0:
64,192,82624,1,0,0:0:0:0:
320,192,82710,1,0,0:0:0:0:
192,192,82796,1,0,0:0:0:0:
64,192,82882,1,0,0:0:0:0:
448,192,82882,1,0,0:0:0:0:
320,192,82968,1,0,0:0:0:0:
64,192,83055,1,0,0:0:0:0:
192,192,83141,1,0,0:0:0:0:
320,192,83227,1,0,0:0:0:0:
448,192,83227,1,0,0:0:0:0:
64,192,83227,1,0,0:0:0:0:
192,192,83313,1,0,0:0:0:0:
448,192,83399,1,0,0:0:0:0:
64,192,83486,1,0,0:0:0:0:
320,192,83572,1,0,0:0:0:0:
192,192,83658,1,0,0:0:0:0:
64,192,83744,1,0,0:0:0:0:
448,192,83744,1,0,0:0:0:0:
320,192,83830,1,0,0:0:0:0:
192,192,83917,1,0,0:0:0:0:
64,192,83917,1,0,0:0:0:0:
448,192,83917,1,0,0:0:0:0:
320,192,84003,1,0,0:0:0:0:
64,192,84089,1,0,0:0:0:0:
448,192,84175,1,0,0:0:0:0:
320,192,84261,1,0,0:0:0:0:
192,192,84261,1,0,0:0:0:0:
64,192,84348,1,0,0:0:0:0:
192,192,84434,1,0,0:0:0:0:
448,192,84520,1,0,0:0:0:0:
320,192,84606,1,0,0:0:0:0:
192,192,84606,1,0,0:0:0:0:
64,192,84606,1,0,0:0:0:0:
448,192,84692,1,0,0:0:0:0:
192,192,84779,1,0,0:0:0:0:
64,192,84865,1,0,0:0:0:0:
320,192,84951,1,0,0:0:0:0:
448,192,85037,1,0,0:0:0:0:
64,192,85124,1,0,0:0:0:0:
192,192,85124,1,0,0:0:0:0:
320,192,85210,1,0,0:0:0:0:
192,192,85296,1,0,0:0:0:0:
64,192,85296,1,0,0:0:0:0:
448,192,85296,1,0,0:0:0:0:
320,192,85382,1,0,0:0:0:0:
64,192,85468,1,0,0:0:0:0:
448,192,85555,1,0,0:0:0:0:
64,192,85641,1,0,0:0:0:0:
320,192,85641,1,0,0:0:0:0:
192,192,85727,1,0,0:0:0:0:
320,192,85813,1,0,0:0:0:0:
64,192,85899,1,0,0:0:0:0:
320,192,85986,1,0,0:0:0:0:
192,192,85986,1,0,0:0:0:0:
448,192,85986,1,0,0:0:0:0:
64,192,86072,1,0,0:0:0:0:
192,192,86158,1,0,0:0:0:0:
448,192,86158,1,0,0:0:0:0:
320,192,86244,1,0,0:0:0:0:
64,192,86330,1,0,0:0:0:0:
192,192,86417,1,0,0:0:0:0:
448,192,86503,1,0,0:0:0:0:
320,192,86589,1,0,0:0:0:0:
192,192,86675,1,0,0:0:0:0:
64,192,86675,1,0,0:0:0:0:
448,192,86675,1,0,0:0:0:0:
320,192,86761,1,0,0:0:0:0:
64,192,86848,1,0,0:0:0:0:
192,192,86934,1,0,0:0:0:0:
320,192,87020,1,0,0:0:0:0:
448,192,87020,1,0,0:0:0:0:
320,192,87882,1,0,0:0:0:0:
448,192,87882,1,0,0:0:0:0:
192,192,88055,1,0,0:0:0:0:
64,192,88055,1,0,0:0:0:0:
448,192,88141,1,0,0:0:0:0:
320,192,88141,1,0,0:0:0:0:
64,192,88227,1,0,0:0:0:0:
192,192,88227,1,0,0:0:0:0:
320,192,88399,1,0,0:0:0:0:
448,192,88399,1,0,0:0:0:0:
64,192,88399,1,0,0:0:0:0:
320,192,88572,128,0,88917:0:0:0:0:
192,192,88572,1,0,0:0:0:0:
448,192,88744,1,0,0:0:0:0:
64,192,88744,1,0,0:0:0:0:
192,192,88744,1,0,0:0:0:0:
64,192,88917,128,0,89261:0:0:0:0:
448,192,88917,1,0,0:0:0:0:
192,192,89089,1,0,0:0:0:0:
448,192,89261,128,0,89606:0:0:0:0:
320,192,89261,1,0,0:0:0:0:
192,192,89261,1,0,0:0:0:0:
192,192,89434,1,0,0:0:0:0:
320,192,89434,1,0,0:0:0:0:
64,192,89434,1,0,0:0:0:0:
64,192,89606,1,0,0:0:0:0:
192,192,89779,1,0,0:0:0:0:
320,192,89779,1,0,0:0:0:0:
448,192,89951,1,0,0:0:0:0:
64,192,90124,1,0,0:0:0:0:
192,192,90124,1,0,0:0:0:0:
320,192,90124,1,0,0:0:0:0:
448,192,90296,1,0,0:0:0:0:
192,192,90468,1,0,0:0:0:0:
320,192,90641,1,0,0:0:0:0:
448,192,90641,1,0,0:0:0:0:
448,192,90813,1,0,0:0:0:0:
64,192,90813,1,0,0:0:0:0:
192,192,90813,1,0,0:0:0:0:
320,192,90986,1,0,0:0:0:0:
64,192,91158,128,0,91330:0:0:0:0:
192,192,91158,1,0,0:0:0:0:
448,192,91158,1,0,0:0:0:0:
320,192,91330,1,0,0:0:0:0:
192,192,91503,128,0,91675:0:0:0:0:
320,192,91503,1,0,0:0:0:0:
448,192,91503,1,0,0:0:0:0:
64,192,91503,1,0,0:0:0:0:
64,192,91675,1,0,0:0:0:0:
448,192,91848,128,0,92020:0:0:0:0:
192,192,91848,1,0,0:0:0:0:
64,192,92020,1,0,0:0:0:0:
320,192,92020,1,0,0:0:0:0:
320,192,92192,128,0,92279:0:0:0:0:
192,192,92192,1,0,0:0:0:0:
64,192,92192,1,0,0:0:0:0:
448,192,92192,1,0,0:0:0:0:
192,192,92365,128,0,92537:0:0:0:0:
448,192,92365,1,0,0:0:0:0:
320,192,92537,1,0,0:0:0:0:
64,192,92537,1,0,0:0:0:0:
192,192,92710,128,0,92796:0:0:0:0:
448,192,92710,1,0,0:0:0:0:
320,192,92882,128,0,93055:0:0:0:0:
192,192,92882,1,0,0:0:0:0:
64,192,92882,1,0,0:0:0:0:
448,192,92882,1,0,0:0:0:0:
192,192,93055,1,0,0:0:0:0:
448,192,93227,128,0,93830:0:0:0:0:
64,192,93399,128,0,93830:0:0:0:0:
320,192,93572,128,0,93830:0:0:0:0:
192,192,93917,1,0,0:0:0:0:
448,192,93917,1,0,0:0:0:0:
64,192,93917,128,0,94003:0:0:0:0:
192,192,94089,128,0,94175:0:0:0:0:
320,192,94089,1,0,0:0:0:0:
320,192,94261,128,0,94348:0:0:0:0:
192,192,94261,1,0,0:0:0:0:
64,192,94261,1,0,0:0:0:0:
448,192,94261,1,0,0:0:0:0:
448,192,94434,128,0,94692:0:0:0:0:
64,192,94434,1,0,0:0:0:0:
192,192,94606,1,0,0:0:0:0:
320,192,94779,128,0,94865:0:0:0:0:
64,192,94779,1,0,0:0:0:0:
448,192,94779,1,0,0:0:0:0:
192,192,94951,128,0,95037:0:0:0:0:
64,192,94951,1,0,0:0:0:0:
320,192,94951,1,0,0:0:0:0:
448,192,94951,1,0,0:0:0:0:
64,192,95124,128,0,96330:0:0:0:0:
448,192,95124,1,0,0:0:0:0:
192,192,95296,1,0,0:0:0:0:
320,192,95296,1,0,0:0:0:0:
448,192,95468,1,0,0:0:0:0:
448,192,95641,1,0,0:0:0:0:
320,192,95641,1,0,0:0:0:0:
192,192,95641,1,0,0:0:0:0:
192,192,95813,1,0,0:0:0:0:
320,192,95986,1,0,0:0:0:0:
192,192,96158,1,0,0:0:0:0:
448,192,96158,1,0,0:0:0:0:
192,192,96330,1,0,0:0:0:0:
320,192,96330,1,0,0:0:0:0:
448,192,96330,1,0,0:0:0:0:
64,192,96503,1,0,0:0:0:0:
192,192,96675,128,0,96848:0:0:0:0:
320,192,96675,1,0,0:0:0:0:
448,192,96675,1,0,0:0:0:0:
64,192,96848,1,0,0:0:0:0:
320,192,97020,128,0,97192:0:0:0:0:
192,192,97020,1,0,0:0:0:0:
64,192,97020,1,0,0:0:0:0:
448,192,97020,1,0,0:0:0:0:
192,192,97192,1,0,0:0:0:0:
448,192,97365,128,0,97537:0:0:0:0:
320,192,97365,1,0,0:0:0:0:
192,192,97537,1,0,0:0:0:0:
64,192,97537,1,0,0:0:0:0:
192,192,97710,128,0,97796:0:0:0:0:
64,192,97710,1,0,0:0:0:0:
320,192,97710,1,0,0:0:0:0:
448,192,97710,1,0,0:0:0:0:
448,192,97882,128,0,98055:0:0:0:0:
320,192,97882,1,0,0:0:0:0:
192,192,98055,1,0,0:0:0:0:
64,192,98055,1,0,0:0:0:0:
192,192,98227,128,0,98313:0:0:0:0:
448,192,98227,1,0,0:0:0:0:
320,192,98399,128,0,98572:0:0:0:0:
192,192,98399,1,0,0:0:0:0:
64,192,98399,1,0,0:0:0:0:
448,192,98399,1,0,0:0:0:0:
192,192,98658,1,0,0:0:0:0:
320,192,98658,1,0,0:0:0:0:
64,192,98744,128,0,99348:0:0:0:0:
192,192,98917,128,0,99348:0:0:0:0:
320,192,99089,128,0,99348:0:0:0:0:
192,192,99434,1,0,0:0:0:0:
64,192,99434,1,0,0:0:0:0:
448,192,99434,1,0,0:0:0:0:
192,192,99606,128,0,99951:0:0:0:0:
320,192,99606,1,0,0:0:0:0:
64,192,99779,1,0,0:0:0:0:
448,192,99779,1,0,0:0:0:0:
320,192,99779,1,0,0:0:0:0:
448,192,99951,128,0,100296:0:0:0:0:
64,192,99951,1,0,0:0:0:0:
320,192,100124,1,0,0:0:0:0:
64,192,100296,128,0,100641:0:0:0:0:
192,192,100296,1,0,0:0:0:0:
320,192,100296,1,0,0:0:0:0:
320,192,100468,1,0,0:0:0:0:
192,192,100468,1,0,0:0:0:0:
448,192,100468,1,0,0:0:0:0:
448,192,100641,1,0,0:0:0:0:
320,192,100813,1,0,0:0:0:0:
192,192,100813,1,0,0:0:0:0:
64,192,100986,1,0,0:0:0:0:
448,192,101158,1,0,0:0:0:0:
320,192,101158,1,0,0:0:0:0:
192,192,101158,1,0,0:0:0:0:
64,192,101330,1,0,0:0:0:0:
320,192,101503,1,0,0:0:0:0:
192,192,101675,1,0,0:0:0:0:
64,192,101675,1,0,0:0:0:0:
64,192,101848,1,0,0:0:0:0:
448,192,101848,1,0,0:0:0:0:
320,192,101848,1,0,0:0:0:0:
192,192,102020,1,0,0:0:0:0:
448,192,102192,128,0,102365:0:0:0:0:
320,192,102192,1,0,0:0:0:0:
64,192,102192,1,0,0:0:0:0:
192,192,102365,1,0,0:0:0:0:
320,192,102537,128,0,102710:0:0:0:0:
192,192,102537,1,0,0:0:0:0:
64,192,102537,1,0,0:0:0:0:
448,192,102537,1,0,0:0:0:0:
448,192,102710,1,0,0:0:0:0:
64,192,102882,128,0,103055:0:0:0:0:
320,192,102882,1,0,0:0:0:0:
448,192,103055,1,0,0:0:0:0:
192,192,103055,1,0,0:0:0:0:
192,192,103227,128,0,103313:0:0:0:0:
320,192,103227,1,0,0:0:0:0:
448,192,103227,1,0,0:0:0:0:
64,192,103227,1,0,0:0:0:0:
320,192,103399,128,0,103572:0:0:0:0:
64,192,103399,1,0,0:0:0:0:
192,192,103572,1,0,0:0:0:0:
448,192,103572,1,0,0:0:0:0:
320,192,103744,128,0,103830:0:0:0:0:
64,192,103744,1,0,0:0:0:0:
192,192,103917,128,0,104089:0:0:0:0:
320,192,103917,1,0,0:0:0:0:
448,192,103917,1,0,0:0:0:0:
64,192,103917,1,0,0:0:0:0:
320,192,104089,1,0,0:0:0:0:
64,192,104261,128,0,104865:0:0:0:0:
448,192,104434,128,0,104865:0:0:0:0:
192,192,104606,128,0,104865:0:0:0:0:
320,192,104951,1,0,0:0:0:0:
64,192,104951,1,0,0:0:0:0:
448,192,104951,128,0,105037:0:0:0:0:
320,192,105124,128,0,105210:0:0:0:0:
192,192,105124,1,0,0:0:0:0:
192,192,105296,128,0,105382:0:0:0:0:
320,192,105296,1,0,0:0:0:0:
448,192,105296,1,0,0:0:0:0:
64,192,105296,1,0,0:0:0:0:
64,192,105468,128,0,105727:0:0:0:0:
448,192,105468,1,0,0:0:0:0:
320,192,105641,1,0,0:0:0:0:
192,192,105813,128,0,105899:0:0:0:0:
448,192,105813,1,0,0:0:0:0:
64,192,105813,1,0,0:0:0:0:
320,192,105986,128,0,106072:0:0:0:0:
448,192,105986,1,0,0:0:0:0:
192,192,105986,1,0,0:0:0:0:
64,192,105986,1,0,0:0:0:0:
448,192,106158,128,0,107365:0:0:0:0:
64,192,106158,1,0,0:0:0:0:
320,192,106330,1,0,0:0:0:0:
192,192,106330,1,0,0:0:0:0:
64,192,106503,1,0,0:0:0:0:
64,192,106675,1,0,0:0:0:0:
192,192,106675,1,0,0:0:0:0:
320,192,106675,1,0,0:0:0:0:
320,192,106848,1,0,0:0:0:0:
192,192,107020,1,0,0:0:0:0:
320,192,107192,1,0,0:0:0:0:
64,192,107192,1,0,0:0:0:0:
320,192,107365,1,0,0:0:0:0:
192,192,107365,1,0,0:0:0:0:
64,192,107365,1,0,0:0:0:0:
192,192,107537,1,0,0:0:0:0:
64,192,107710,128,0,109003:0:0:0:0:
320,192,107710,1,0,0:0:0:0:
448,192,107710,1,0,0:0:0:0:
320,192,108055,1,0,0:0:0:0:
448,192,108055,1,0,0:0:0:0:
192,192,108055,1,0,0:0:0:0:
320,192,108399,1,0,0:0:0:0:
448,192,108399,1,0,0:0:0:0:
320,192,108744,1,0,0:0:0:0:
448,192,108744,1,0,0:0:0:0:
192,192,108744,1,0,0:0:0:0:
448,192,109089,128,0,109175:0:0:0:0:
320,192,109089,1,0,0:0:0:0:
192,192,109261,128,0,109348:0:0:0:0:
64,192,109261,1,0,0:0:0:0:
320,192,109434,128,0,109520:0:0:0:0:
448,192,109434,1,0,0:0:0:0:
192,192,109606,128,0,109692:0:0:0:0:
448,192,109606,1,0,0:0:0:0:
64,192,109779,128,0,110124:0:0:0:0:
320,192,109779,1,0,0:0:0:0:
192,192,110124,1,0,0:0:0:0:
320,192,110152,1,0,0:0:0:0:
448,192,110181,1,0,0:0:0:0:
192,192,110296,128,0,110382:0:0:0:0:
320,192,110296,128,0,110382:0:0:0:0:
64,192,110468,1,0,0:0:0:0:
448,192,110468,1,0,0:0:0:0:
320,192,110468,1,0,0:0:0:0:
192,192,110555,1,0,0:0:0:0:
320,192,110641,128,0,110813:0:0:0:0:
64,192,110641,1,0,0:0:0:0:
448,192,110727,1,0,0:0:0:0:
192,192,110813,1,0,0:0:0:0:
64,192,110813,1,0,0:0:0:0:
448,192,110813,1,0,0:0:0:0:
320,192,110899,1,0,0:0:0:0:
64,192,110986,128,0,111158:0:0:0:0:
192,192,110986,1,0,0:0:0:0:
448,192,111072,1,0,0:0:0:0:
192,192,111158,1,0,0:0:0:0:
320,192,111244,1,0,0:0:0:0:
448,192,111330,1,0,0:0:0:0:
64,192,111330,1,0,0:0:0:0:
192,192,111417,1,0,0:0:0:0:
320,192,111503,128,0,111675:0:0:0:0:
192,192,111503,1,0,0:0:0:0:
64,192,111503,1,0,0:0:0:0:
448,192,111503,1,0,0:0:0:0:
448,192,111589,1,0,0:0:0:0:
192,192,111675,1,0,0:0:0:0:
320,192,111761,1,0,0:0:0:0:
192,192,111848,1,0,0:0:0:0:
64,192,111848,1,0,0:0:0:0:
448,192,111934,1,0,0:0:0:0:
320,192,112020,128,0,112192:0:0:0:0:
64,192,112020,1,0,0:0:0:0:
192,192,112106,1,0,0:0:0:0:
192,192,112192,1,0,0:0:0:0:
64,192,112192,1,0,0:0:0:0:
448,192,112192,1,0,0:0:0:0:
320,192,112279,1,0,0:0:0:0:
64,192,112365,128,0,112451:0:0:0:0:
448,192,112365,1,0,0:0:0:0:
320,192,112451,1,0,0:0:0:0:
192,192,112537,128,0,112710:0:0:0:0:
64,192,112537,1,0,0:0:0:0:
448,192,112624,1,0,0:0:0:0:
64,192,112710,1,0,0:0:0:0:
320,192,112710,1,0,0:0:0:0:
192,192,112796,1,0,0:0:0:0:
320,192,112882,128,0,113055:0:0:0:0:
192,192,112882,1,0,0:0:0:0:
64,192,112882,1,0,0:0:0:0:
448,192,112882,1,0,0:0:0:0:
448,192,112968,1,0,0:0:0:0:
64,192,113055,1,0,0:0:0:0:
192,192,113141,1,0,0:0:0:0:
448,192,113227,1,0,0:0:0:0:
320,192,113227,1,0,0:0:0:0:
64,192,113313,1,0,0:0:0:0:
320,192,113399,128,0,113572:0:0:0:0:
448,192,113399,1,0,0:0:0:0:
192,192,113486,1,0,0:0:0:0:
192,192,113572,1,0,0:0:0:0:
64,192,113572,1,0,0:0:0:0:
448,192,113572,1,0,0:0:0:0:
320,192,113658,1,0,0:0:0:0:
64,192,113744,128,0,113917:0:0:0:0:
448,192,113744,1,0,0:0:0:0:
192,192,113830,1,0,0:0:0:0:
320,192,113917,1,0,0:0:0:0:
64,192,114003,1,0,0:0:0:0:
320,192,114089,1,0,0:0:0:0:
448,192,114089,1,0,0:0:0:0:
192,192,114175,1,0,0:0:0:0:
320,192,114261,128,0,114434:0:0:0:0:
64,192,114261,1,0,0:0:0:0:
192,192,114261,1,0,0:0:0:0:
448,192,114261,1,0,0:0:0:0:
64,192,114348,1,0,0:0:0:0:
448,192,114434,1,0,0:0:0:0:
192,192,114520,1,0,0:0:0:0:
64,192,114606,1,0,0:0:0:0:
448,192,114606,1,0,0:0:0:0:
192,192,114692,1,0,0:0:0:0:
320,192,114779,128,0,114951:0:0:0:0:
448,192,114779,1,0,0:0:0:0:
64,192,114865,1,0,0:0:0:0:
192,192,114951,1,0,0:0:0:0:
64,192,114951,1,0,0:0:0:0:
448,192,114951,1,0,0:0:0:0:
320,192,115037,1,0,0:0:0:0:
64,192,115124,128,0,115296:0:0:0:0:
192,192,115124,1,0,0:0:0:0:
448,192,115210,1,0,0:0:0:0:
320,192,115296,1,0,0:0:0:0:
448,192,115382,1,0,0:0:0:0:
192,192,115468,128,0,115555:0:0:0:0:
64,192,115468,1,0,0:0:0:0:
320,192,115468,1,0,0:0:0:0:
320,192,115641,128,0,115727:0:0:0:0:
64,192,115641,1,0,0:0:0:0:
192,192,115641,1,0,0:0:0:0:
448,192,115641,1,0,0:0:0:0:
448,192,115813,128,0,115899:0:0:0:0:
192,192,115813,1,0,0:0:0:0:
448,192,115986,1,0,0:0:0:0:
64,192,115986,1,0,0:0:0:0:
320,192,115986,1,0,0:0:0:0:
192,192,116072,1,0,0:0:0:0:
448,192,116158,128,0,116330:0:0:0:0:
64,192,116158,1,0,0:0:0:0:
320,192,116244,1,0,0:0:0:0:
64,192,116330,1,0,0:0:0:0:
192,192,116330,1,0,0:0:0:0:
320,192,116330,1,0,0:0:0:0:
448,192,116417,1,0,0:0:0:0:
192,192,116503,128,0,116675:0:0:0:0:
64,192,116503,1,0,0:0:0:0:
320,192,116589,1,0,0:0:0:0:
64,192,116675,1,0,0:0:0:0:
448,192,116761,1,0,0:0:0:0:
192,192,116848,1,0,0:0:0:0:
320,192,116848,1,0,0:0:0:0:
64,192,116934,1,0,0:0:0:0:
448,192,117020,128,0,117192:0:0:0:0:
64,192,117020,1,0,0:0:0:0:
192,192,117020,1,0,0:0:0:0:
320,192,117020,1,0,0:0:0:0:
320,192,117106,1,0,0:0:0:0:
64,192,117192,1,0,0:0:0:0:
192,192,117279,1,0,0:0:0:0:
320,192,117365,1,0,0:0:0:0:
448,192,117365,1,0,0:0:0:0:
64,192,117451,1,0,0:0:0:0:
448,192,117537,128,0,117710:0:0:0:0:
320,192,117537,1,0,0:0:0:0:
192,192,117624,1,0,0:0:0:0:
64,192,117710,1,0,0:0:0:0:
192,192,117710,1,0,0:0:0:0:
320,192,117710,1,0,0:0:0:0:
448,192,117796,1,0,0:0:0:0:
192,192,117882,128,0,118055:0:0:0:0:
320,192,117882,1,0,0:0:0:0:
64,192,117968,1,0,0:0:0:0:
448,192,118055,1,0,0:0:0:0:
320,192,118141,1,0,0:0:0:0:
192,192,118227,1,0,0:0:0:0:
64,192,118227,1,0,0:0:0:0:
448,192,118313,1,0,0:0:0:0:
448,192,118399,128,0,118572:0:0:0:0:
64,192,118399,1,0,0:0:0:0:
320,192,118399,1,0,0:0:0:0:
192,192,118399,1,0,0:0:0:0:
320,192,118486,1,0,0:0:0:0:
64,192,118572,1,0,0:0:0:0:
192,192,118658,1,0,0:0:0:0:
320,192,118744,1,0,0:0:0:0:
448,192,118744,1,0,0:0:0:0:
64,192,118830,1,0,0:0:0:0:
448,192,118917,128,0,119089:0:0:0:0:
320,192,118917,1,0,0:0:0:0:
192,192,119003,1,0,0:0:0:0:
64,192,119089,1,0,0:0:0:0:
192,192,119089,1,0,0:0:0:0:
320,192,119089,1,0,0:0:0:0:
448,192,119175,1,0,0:0:0:0:
192,192,119261,128,0,119434:0:0:0:0:
64,192,119261,1,0,0:0:0:0:
320,192,119348,1,0,0:0:0:0:
64,192,119434,1,0,0:0:0:0:
448,192,119520,1,0,0:0:0:0:
192,192,119606,1,0,0:0:0:0:
64,192,119606,1,0,0:0:0:0:
320,192,119692,1,0,0:0:0:0:
448,192,119779,128,0,119951:0:0:0:0:
64,192,119779,1,0,0:0:0:0:
192,192,119779,1,0,0:0:0:0:
320,192,119779,1,0,0:0:0:0:
64,192,119865,1,0,0:0:0:0:
320,192,119951,1,0,0:0:0:0:
192,192,120037,1,0,0:0:0:0:
64,192,120124,1,0,0:0:0:0:
320,192,120124,1,0,0:0:0:0:
192,192,120210,1,0,0:0:0:0:
448,192,120296,128,0,120468:0:0:0:0:
64,192,120296,1,0,0:0:0:0:
320,192,120382,1,0,0:0:0:0:
64,192,120468,1,0,0:0:0:0:
192,192,120468,1,0,0:0:0:0:
320,192,120468,1,0,0:0:0:0:
448,192,120555,1,0,0:0:0:0:
192,192,120641,128,0,120727:0:0:0:0:
64,192,120641,1,0,0:0:0:0:
320,192,120727,1,0,0:0:0:0:
448,192,120727,1,0,0:0:0:0:
320,192,120986,128,0,121072:0:0:0:0:
192,192,121158,128,0,121244:0:0:0:0:
448,192,121158,1,0,0:0:0:0:
64,192,121158,1,0,0:0:0:0:
320,192,121158,1,0,0:0:0:0:
64,192,121330,128,0,121417:0:0:0:0:
320,192,121330,1,0,0:0:0:0:
448,192,121330,1,0,0:0:0:0:
192,192,121417,1,0,0:0:0:0:
448,192,121503,1,0,0:0:0:0:
320,192,121503,1,0,0:0:0:0:
64,192,121503,1,0,0:0:0:0:
320,192,121589,1,0,0:0:0:0:
192,192,121675,128,0,121848:0:0:0:0:
448,192,121675,1,0,0:0:0:0:
64,192,121761,1,0,0:0:0:0:
320,192,121848,1,0,0:0:0:0:
448,192,121848,1,0,0:0:0:0:
64,192,121848,1,0,0:0:0:0:
192,192,121934,1,0,0:0:0:0:
448,192,122020,128,0,122192:0:0:0:0:
320,192,122020,1,0,0:0:0:0:
64,192,122106,1,0,0:0:0:0:
320,192,122192,1,0,0:0:0:0:
192,192,122279,1,0,0:0:0:0:
64,192,122365,1,0,0:0:0:0:
448,192,122365,1,0,0:0:0:0:
320,192,122451,1,0,0:0:0:0:
192,192,122537,128,0,122710:0:0:0:0:
320,192,122537,1,0,0:0:0:0:
448,192,122537,1,0,0:0:0:0:
64,192,122537,1,0,0:0:0:0:
64,192,122624,1,0,0:0:0:0:
320,192,122710,1,0,0:0:0:0:
192,192,122796,1,0,0:0:0:0:
320,192,122882,1,0,0:0:0:0:
448,192,122882,1,0,0:0:0:0:
64,192,122968,1,0,0:0:0:0:
192,192,123055,128,0,123227:0:0:0:0:
448,192,123055,1,0,0:0:0:0:
320,192,123141,1,0,0:0:0:0:
320,192,123227,1,0,0:0:0:0:
448,192,123227,1,0,0:0:0:0:
64,192,123227,1,0,0:0:0:0:
192,192,123313,1,0,0:0:0:0:
448,192,123399,128,0,123486:0:0:0:0:
64,192,123399,1,0,0:0:0:0:
192,192,123486,1,0,0:0:0:0:
320,192,123572,128,0,123744:0:0:0:0:
448,192,123572,1,0,0:0:0:0:
64,192,123658,1,0,0:0:0:0:
448,192,123744,1,0,0:0:0:0:
192,192,123744,1,0,0:0:0:0:
320,192,123830,1,0,0:0:0:0:
192,192,123917,128,0,124089:0:0:0:0:
320,192,123917,1,0,0:0:0:0:
448,192,123917,1,0,0:0:0:0:
64,192,123917,1,0,0:0:0:0:
64,192,124003,1,0,0:0:0:0:
448,192,124089,1,0,0:0:0:0:
320,192,124175,1,0,0:0:0:0:
64,192,124261,1,0,0:0:0:0:
192,192,124261,1,0,0:0:0:0:
448,192,124348,1,0,0:0:0:0:
192,192,124434,128,0,124606:0:0:0:0:
64,192,124434,1,0,0:0:0:0:
320,192,124520,1,0,0:0:0:0:
320,192,124606,1,0,0:0:0:0:
448,192,124606,1,0,0:0:0:0:
64,192,124606,1,0,0:0:0:0:
192,192,124692,1,0,0:0:0:0:
448,192,124779,128,0,124951:0:0:0:0:
64,192,124779,1,0,0:0:0:0:
320,192,124865,1,0,0:0:0:0:
192,192,124951,1,0,0:0:0:0:
448,192,125037,1,0,0:0:0:0:
192,192,125124,1,0,0:0:0:0:
64,192,125124,1,0,0:0:0:0:
320,192,125210,1,0,0:0:0:0:
192,192,125296,128,0,125468:0:0:0:0:
448,192,125296,1,0,0:0:0:0:
320,192,125296,1,0,0:0:0:0:
64,192,125296,1,0,0:0:0:0:
448,192,125382,1,0,0:0:0:0:
64,192,125468,1,0,0:0:0:0:
320,192,125555,1,0,0:0:0:0:
448,192,125641,1,0,0:0:0:0:
64,192,125641,1,0,0:0:0:0:
320,192,125727,1,0,0:0:0:0:
192,192,125813,128,0,125986:0:0:0:0:
64,192,125813,1,0,0:0:0:0:
448,192,125899,1,0,0:0:0:0:
320,192,125986,1,0,0:0:0:0:
448,192,125986,1,0,0:0:0:0:
64,192,125986,1,0,0:0:0:0:
192,192,126072,1,0,0:0:0:0:
448,192,126158,128,0,126330:0:0:0:0:
320,192,126158,1,0,0:0:0:0:
64,192,126244,1,0,0:0:0:0:
192,192,126330,1,0,0:0:0:0:
64,192,126417,1,0,0:0:0:0:
320,192,126503,128,0,126589:0:0:0:0:
448,192,126503,1,0,0:0:0:0:
192,192,126503,1,0,0:0:0:0:
192,192,126675,128,0,126761:0:0:0:0:
448,192,126675,1,0,0:0:0:0:
320,192,126675,1,0,0:0:0:0:
64,192,126675,1,0,0:0:0:0:
64,192,126848,128,0,126934:0:0:0:0:
320,192,126848,1,0,0:0:0:0:
64,192,127020,1,0,0:0:0:0:
448,192,127020,1,0,0:0:0:0:
192,192,127020,1,0,0:0:0:0:
192,192,127192,1,0,0:0:0:0:
320,192,127192,1,0,0:0:0:0:
448,192,127192,1,0,0:0:0:0:
64,192,127365,1,0,0:0:0:0:
192,192,127365,1,0,0:0:0:0:
320,192,127365,1,0,0:0:0:0:
448,192,127365,1,0,0:0:0:0:
64,192,127537,1,0,0:0:0:0:
448,192,127537,1,0,0:0:0:0:
320,192,127537,1,0,0:0:0:0:
64,192,127710,1,0,0:0:0:0:
192,192,127710,1,0,0:0:0:0:
320,192,127710,1,0,0:0:0:0:
192,192,127882,1,0,0:0:0:0:
64,192,127882,1,0,0:0:0:0:
448,192,127882,1,0,0:0:0:0:
64,192,128055,1,0,0:0:0:0:
192,192,128055,1,0,0:0:0:0:
448,192,128055,1,0,0:0:0:0:
320,192,128055,1,0,0:0:0:0:
192,192,128227,1,0,0:0:0:0:
320,192,128227,1,0,0:0:0:0:
448,192,128227,1,0,0:0:0:0:
64,192,128399,1,0,0:0:0:0:
192,192,128399,1,0,0:0:0:0:
320,192,128486,1,0,0:0:0:0:
448,192,128486,1,0,0:0:0:0:
192,192,128572,1,0,0:0:0:0:
64,192,128572,1,0,0:0:0:0:
320,192,128658,1,0,0:0:0:0:
448,192,128658,1,0,0:0:0:0:
192,192,128744,1,0,0:0:0:0:
64,192,128744,1,0,0:0:0:0:
320,192,128830,1,0,0:0:0:0:
448,192,128830,1,0,0:0:0:0:
192,192,128917,1,0,0:0:0:0:
64,192,128917,1,0,0:0:0:0:
320,192,129003,1,0,0:0:0:0:
448,192,129003,1,0,0:0:0:0:
192,192,129089,1,0,0:0:0:0:
64,192,129089,1,0,0:0:0:0:
320,192,129175,1,0,0:0:0:0:
448,192,129175,1,0,0:0:0:0:
64,192,129261,1,0,0:0:0:0:
192,192,129261,1,0,0:0:0:0:
320,192,129348,1,0,0:0:0:0:
448,192,129348,1,0,0:0:0:0:
192,192,129434,1,0,0:0:0:0:
64,192,129434,1,0,0:0:0:0:
320,192,129520,1,0,0:0:0:0:
448,192,129520,1,0,0:0:0:0:
192,192,129606,1,0,0:0:0:0:
64,192,129606,1,0,0:0:0:0:
320,192,129692,1,0,0:0:0:0:
448,192,129692,1,0,0:0:0:0:
64,192,132020,1,0,0:0:0:0:
192,192,132020,1,0,0:0:0:0:
320,192,132192,1,0,0:0:0:0:
448,192,132192,1,0,0:0:0:0:
192,192,132279,1,0,0:0:0:0:
64,192,132279,1,0,0:0:0:0:
320,192,132365,1,0,0:0:0:0:
448,192,132365,1,0,0:0:0:0:
64,192,132537,128,0,135296:0:0:0:0:
192,192,133055,128,0,133572:0:0:0:0:
320,192,133572,128,0,135641:0:0:0:0:
192,192,135296,128,0,135468:0:0:0:0:
64,192,135468,128,0,138055:0:0:0:0:
320,192,135813,128,0,136330:0:0:0:0:
448,192,136330,128,0,138572:0:0:0:0:
192,192,138055,128,0,138227:0:0:0:0:
64,192,138227,128,0,140641:0:0:0:0:
320,192,138572,128,0,139089:0:0:0:0:
448,192,139089,128,0,140468:0:0:0:0:
320,192,140468,128,0,141158:0:0:0:0:
64,192,140813,128,0,143572:0:0:0:0:
192,192,141158,128,0,141503:0:0:0:0:
448,192,141503,128,0,141848:0:0:0:0:
320,192,141848,128,0,142537:0:0:0:0:
192,192,142537,128,0,142882:0:0:0:0:
320,192,142882,128,0,143227:0:0:0:0:
448,192,143227,128,0,144089:0:0:0:0:
192,192,143572,128,0,143744:0:0:0:0:
64,192,143744,128,0,146330:0:0:0:0:
192,192,144089,128,0,144606:0:0:0:0:
320,192,144606,128,0,145986:0:0:0:0:
448,192,145986,128,0,146848:0:0:0:0:
192,192,146330,128,0,146503:0:0:0:0:
64,192,146503,128,0,149089:0:0:0:0:
320,192,146848,128,0,147365:0:0:0:0:
192,192,147365,128,0,148399:0:0:0:0:
448,192,148399,128,0,149089:0:0:0:0:
192,192,149089,128,0,151848:0:0:0:0:
320,192,149261,128,0,149606:0:0:0:0:
448,192,149606,128,0,150124:0:0:0:0:
320,192,150124,128,0,151503:0:0:0:0:
448,192,151503,128,0,151848:0:0:0:0:
64,192,151848,128,0,154434:0:0:0:0:
320,192,151848,128,0,152192:0:0:0:0:
192,192,152192,128,0,152882:0:0:0:0:
320,192,152882,128,0,153227:0:0:0:0:
448,192,153227,128,0,153917:0:0:0:0:
192,192,153917,128,0,154434:0:0:0:0:
192,192,154606,128,0,154779:0:0:0:0:
320,192,154606,1,0,0:0:0:0:
448,192,154606,1,0,0:0:0:0:
64,192,154606,1,0,0:0:0:0:
320,192,154951,128,0,155124:0:0:0:0:
448,192,155296,128,0,155468:0:0:0:0:
64,192,155296,1,0,0:0:0:0:
320,192,155641,128,0,155727:0:0:0:0:
192,192,155813,128,0,155986:0:0:0:0:
448,192,155986,1,0,0:0:0:0:
192,192,156158,128,0,156244:0:0:0:0:
448,192,156330,128,0,156503:0:0:0:0:
64,192,156675,128,0,156848:0:0:0:0:
320,192,156675,1,0,0:0:0:0:
192,192,157020,128,0,157192:0:0:0:0:
192,192,157365,128,0,157537:0:0:0:0:
448,192,157365,1,0,0:0:0:0:
320,192,157710,128,0,157882:0:0:0:0:
448,192,158055,128,0,158227:0:0:0:0:
64,192,158055,1,0,0:0:0:0:
320,192,158399,128,0,158486:0:0:0:0:
192,192,158572,128,0,158744:0:0:0:0:
448,192,158744,1,0,0:0:0:0:
192,192,158917,128,0,159003:0:0:0:0:
448,192,159089,128,0,159261:0:0:0:0:
64,192,159434,128,0,159606:0:0:0:0:
320,192,159434,1,0,0:0:0:0:
448,192,159779,128,0,159951:0:0:0:0:
192,192,160124,128,0,160296:0:0:0:0:
64,192,160124,1,0,0:0:0:0:
320,192,160468,128,0,160641:0:0:0:0:
448,192,160813,128,0,160986:0:0:0:0:
192,192,160813,1,0,0:0:0:0:
320,192,161158,128,0,161244:0:0:0:0:
192,192,161330,128,0,161503:0:0:0:0:
64,192,161503,1,0,0:0:0:0:
192,192,161675,128,0,161761:0:0:0:0:
448,192,161848,128,0,162020:0:0:0:0:
64,192,162192,128,0,162365:0:0:0:0:
320,192,162192,1,0,0:0:0:0:
448,192,162537,128,0,162710:0:0:0:0:
192,192,162882,128,0,163055:0:0:0:0:
64,192,162882,1,0,0:0:0:0:
320,192,163227,128,0,163399:0:0:0:0:
448,192,163572,128,0,163744:0:0:0:0:
192,192,163572,1,0,0:0:0:0:
64,192,163917,128,0,164003:0:0:0:0:
448,192,164089,128,0,164261:0:0:0:0:
192,192,164261,1,0,0:0:0:0:
320,192,164434,128,0,164520:0:0:0:0:
192,192,164606,128,0,164779:0:0:0:0:
64,192,164951,128,0,165124:0:0:0:0:
448,192,164951,1,0,0:0:0:0:
448,192,165641,1,0,0:0:0:0:
64,192,165641,1,0,0:0:0:0:
320,192,165641,1,0,0:0:0:0:
320,192,165986,1,0,0:0:0:0:
448,192,165986,1,0,0:0:0:0:
64,192,165986,1,0,0:0:0:0:
192,192,165986,1,0,0:0:0:0:
192,192,166330,1,0,0:0:0:0:
320,192,166330,1,0,0:0:0:0:
64,192,166330,1,0,0:0:0:0:
64,192,166675,1,0,0:0:0:0:
448,192,166675,1,0,0:0:0:0:
320,192,166675,1,0,0:0:0:0:
192,192,166675,1,0,0:0:0:0:
192,192,166848,1,0,0:0:0:0:
320,192,166934,1,0,0:0:0:0:
192,192,167020,1,0,0:0:0:0:
448,192,167020,1,0,0:0:0:0:
64,192,167020,1,0,0:0:0:0:
64,192,167192,1,0,0:0:0:0:
448,192,167192,1,0,0:0:0:0:
320,192,167192,1,0,0:0:0:0:
448,192,167365,1,0,0:0:0:0:
192,192,167365,1,0,0:0:0:0:
320,192,167365,1,0,0:0:0:0:
64,192,167365,1,0,0:0:0:0:
192,192,167710,1,0,0:0:0:0:
448,192,167710,1,0,0:0:0:0:
64,192,167710,1,0,0:0:0:0:
64,192,167882,1,0,0:0:0:0:
448,192,167882,1,0,0:0:0:0:
320,192,167882,1,0,0:0:0:0:
448,192,168055,1,0,0:0:0:0:
64,192,168055,1,0,0:0:0:0:
192,192,168055,1,0,0:0:0:0:
320,192,168055,1,0,0:0:0:0:
448,192,168399,1,0,0:0:0:0:
320,192,168399,1,0,0:0:0:0:
192,192,168399,1,0,0:0:0:0:
320,192,168744,1,0,0:0:0:0:
448,192,168744,1,0,0:0:0:0:
64,192,168744,1,0,0:0:0:0:
192,192,168744,1,0,0:0:0:0:
192,192,169089,1,0,0:0:0:0:
448,192,169089,1,0,0:0:0:0:
64,192,169089,1,0,0:0:0:0:
448,192,169434,1,0,0:0:0:0:
320,192,169434,1,0,0:0:0:0:
64,192,169434,1,0,0:0:0:0:
192,192,169434,1,0,0:0:0:0:
320,192,169606,1,0,0:0:0:0:
192,192,169692,1,0,0:0:0:0:
448,192,169779,1,0,0:0:0:0:
320,192,169779,1,0,0:0:0:0:
64,192,169779,1,0,0:0:0:0:
448,192,169951,1,0,0:0:0:0:
64,192,169951,1,0,0:0:0:0:
192,192,169951,1,0,0:0:0:0:
448,192,170124,1,0,0:0:0:0:
320,192,170124,1,0,0:0:0:0:
192,192,170124,1,0,0:0:0:0:
64,192,170124,1,0,0:0:0:0:
64,192,170468,1,0,0:0:0:0:
448,192,170468,1,0,0:0:0:0:
192,192,170468,1,0,0:0:0:0:
320,192,170641,1,0,0:0:0:0:
448,192,170641,1,0,0:0:0:0:
64,192,170641,1,0,0:0:0:0:
320,192,170813,1,0,0:0:0:0:
448,192,170813,1,0,0:0:0:0:
192,192,170813,1,0,0:0:0:0:
64,192,170813,1,0,0:0:0:0:
448,192,171158,1,0,0:0:0:0:
320,192,171158,1,0,0:0:0:0:
64,192,171158,1,0,0:0:0:0:
192,192,171330,1,0,0:0:0:0:
448,192,171330,1,0,0:0:0:0:
64,192,171330,1,0,0:0:0:0:
448,192,171503,1,0,0:0:0:0:
320,192,171503,1,0,0:0:0:0:
192,192,171503,1,0,0:0:0:0:
64,192,171503,1,0,0:0:0:0:
448,192,171675,1,0,0:0:0:0:
320,192,171675,1,0,0:0:0:0:
192,192,171675,1,0,0:0:0:0:
320,192,171848,1,0,0:0:0:0:
192,192,171848,1,0,0:0:0:0:
64,192,171848,1,0,0:0:0:0:
448,192,172020,1,0,0:0:0:0:
320,192,172020,1,0,0:0:0:0:
64,192,172020,1,0,0:0:0:0:
448,192,172192,1,0,0:0:0:0:
320,192,172192,1,0,0:0:0:0:
64,192,172192,1,0,0:0:0:0:
192,192,172192,1,0,0:0:0:0:
448,192,172365,1,0,0:0:0:0:
192,192,172365,1,0,0:0:0:0:
64,192,172365,1,0,0:0:0:0:
448,192,172537,1,0,0:0:0:0:
320,192,172537,1,0,0:0:0:0:
192,192,172537,1,0,0:0:0:0:
448,192,172710,1,0,0:0:0:0:
320,192,172710,1,0,0:0:0:0:
64,192,172710,1,0,0:0:0:0:
448,192,172882,1,0,0:0:0:0:
320,192,172882,1,0,0:0:0:0:
192,192,172882,1,0,0:0:0:0:
64,192,172882,1,0,0:0:0:0:
320,192,173055,1,0,0:0:0:0:
192,192,173055,1,0,0:0:0:0:
64,192,173055,1,0,0:0:0:0:
448,192,173227,1,0,0:0:0:0:
320,192,173227,1,0,0:0:0:0:
192,192,173227,1,0,0:0:0:0:
448,192,173399,1,0,0:0:0:0:
64,192,173399,1,0,0:0:0:0:
192,192,173399,1,0,0:0:0:0:
448,192,173572,1,0,0:0:0:0:
320,192,173572,1,0,0:0:0:0:
192,192,173572,1,0,0:0:0:0:
64,192,173572,1,0,0:0:0:0:
448,192,173744,1,0,0:0:0:0:
320,192,173744,1,0,0:0:0:0:
64,192,173744,1,0,0:0:0:0:
192,192,173917,1,0,0:0:0:0:
64,192,173917,1,0,0:0:0:0:
448,192,174003,1,0,0:0:0:0:
320,192,174089,1,0,0:0:0:0:
64,192,174089,1,0,0:0:0:0:
192,192,174175,1,0,0:0:0:0:
448,192,174261,1,0,0:0:0:0:
320,192,174261,1,0,0:0:0:0:
192,192,174348,1,0,0:0:0:0:
64,192,174434,1,0,0:0:0:0:
320,192,174434,1,0,0:0:0:0:
192,192,174520,1,0,0:0:0:0:
448,192,174606,1,0,0:0:0:0:
64,192,174606,1,0,0:0:0:0:
320,192,174692,1,0,0:0:0:0:
192,192,174779,1,0,0:0:0:0:
448,192,174779,1,0,0:0:0:0:
64,192,174865,1,0,0:0:0:0:
320,192,174951,1,0,0:0:0:0:
192,192,174951,1,0,0:0:0:0:
448,192,175037,1,0,0:0:0:0:
64,192,175124,1,0,0:0:0:0:
192,192,175124,1,0,0:0:0:0:
320,192,175210,1,0,0:0:0:0:
320,192,175468,1,0,0:0:0:0:
448,192,175468,1,0,0:0:0:0:
320,192,175641,1,0,0:0:0:0:
448,192,175641,1,0,0:0:0:0:
192,192,175986,128,0,176244:0:0:0:0:
320,192,175986,128,0,176244:0:0:0:0:
192,192,176675,128,0,176848:0:0:0:0:
64,192,176675,1,0,0:0:0:0:
448,192,176675,1,0,0:0:0:0:
320,192,176761,1,0,0:0:0:0:
64,192,176848,1,0,0:0:0:0:
448,192,176934,1,0,0:0:0:0:
320,192,177020,128,0,177192:0:0:0:0:
64,192,177020,1,0,0:0:0:0:
192,192,177020,1,0,0:0:0:0:
448,192,177020,1,0,0:0:0:0:
64,192,177106,1,0,0:0:0:0:
448,192,177192,1,0,0:0:0:0:
192,192,177279,1,0,0:0:0:0:
448,192,177365,128,0,177537:0:0:0:0:
64,192,177365,1,0,0:0:0:0:
320,192,177451,1,0,0:0:0:0:
192,192,177537,1,0,0:0:0:0:
64,192,177537,1,0,0:0:0:0:
320,192,177624,1,0,0:0:0:0:
320,192,177710,128,0,177796:0:0:0:0:
192,192,177710,1,0,0:0:0:0:
64,192,177710,1,0,0:0:0:0:
448,192,177710,1,0,0:0:0:0:
64,192,177796,1,0,0:0:0:0:
192,192,177882,128,0,178055:0:0:0:0:
448,192,177882,1,0,0:0:0:0:
320,192,177968,1,0,0:0:0:0:
64,192,178055,1,0,0:0:0:0:
448,192,178055,1,0,0:0:0:0:
320,192,178141,1,0,0:0:0:0:
192,192,178227,128,0,178313:0:0:0:0:
64,192,178227,1,0,0:0:0:0:
448,192,178313,1,0,0:0:0:0:
448,192,178399,128,0,178572:0:0:0:0:
64,192,178399,1,0,0:0:0:0:
192,192,178399,1,0,0:0:0:0:
320,192,178399,1,0,0:0:0:0:
320,192,178486,1,0,0:0:0:0:
64,192,178572,1,0,0:0:0:0:
320,192,178658,1,0,0:0:0:0:
64,192,178744,128,0,178917:0:0:0:0:
448,192,178744,1,0,0:0:0:0:
192,192,178830,1,0,0:0:0:0:
448,192,178917,1,0,0:0:0:0:
320,192,178917,1,0,0:0:0:0:
192,192,179003,1,0,0:0:0:0:
64,192,179089,1,0,0:0:0:0:
320,192,179089,1,0,0:0:0:0:
448,192,179089,1,0,0:0:0:0:
192,192,179175,1,0,0:0:0:0:
64,192,179261,1,0,0:0:0:0:
320,192,179348,1,0,0:0:0:0:
192,192,179434,128,0,179606:0:0:0:0:
448,192,179434,1,0,0:0:0:0:
64,192,179434,1,0,0:0:0:0:
320,192,179520,1,0,0:0:0:0:
64,192,179606,1,0,0:0:0:0:
192,192,179692,1,0,0:0:0:0:
320,192,179779,128,0,179951:0:0:0:0:
192,192,179779,1,0,0:0:0:0:
64,192,179779,1,0,0:0:0:0:
448,192,179779,1,0,0:0:0:0:
64,192,179865,1,0,0:0:0:0:
448,192,179951,1,0,0:0:0:0:
192,192,180037,1,0,0:0:0:0:
448,192,180124,128,0,180296:0:0:0:0:
320,192,180124,1,0,0:0:0:0:
192,192,180210,1,0,0:0:0:0:
64,192,180296,1,0,0:0:0:0:
320,192,180296,1,0,0:0:0:0:
192,192,180382,1,0,0:0:0:0:
320,192,180468,128,0,180555:0:0:0:0:
192,192,180468,1,0,0:0:0:0:
64,192,180468,1,0,0:0:0:0:
448,192,180468,1,0,0:0:0:0:
448,192,180555,1,0,0:0:0:0:
192,192,180641,128,0,180813:0:0:0:0:
64,192,180641,1,0,0:0:0:0:
320,192,180727,1,0,0:0:0:0:
64,192,180813,1,0,0:0:0:0:
448,192,180813,1,0,0:0:0:0:
320,192,180899,1,0,0:0:0:0:
192,192,180986,128,0,181072:0:0:0:0:
64,192,180986,1,0,0:0:0:0:
448,192,181072,1,0,0:0:0:0:
448,192,181158,128,0,181330:0:0:0:0:
64,192,181158,1,0,0:0:0:0:
192,192,181158,1,0,0:0:0:0:
320,192,181158,1,0,0:0:0:0:
320,192,181244,1,0,0:0:0:0:
64,192,181330,1,0,0:0:0:0:
192,192,181417,1,0,0:0:0:0:
64,192,181503,128,0,181675:0:0:0:0:
448,192,181503,1,0,0:0:0:0:
320,192,181589,1,0,0:0:0:0:
192,192,181675,1,0,0:0:0:0:
448,192,181675,1,0,0:0:0:0:
320,192,181761,1,0,0:0:0:0:
192,192,181848,1,0,0:0:0:0:
64,192,181848,1,0,0:0:0:0:
448,192,181848,1,0,0:0:0:0:
320,192,181934,1,0,0:0:0:0:
64,192,182020,1,0,0:0:0:0:
320,192,182106,1,0,0:0:0:0:
192,192,182192,128,0,182365:0:0:0:0:
64,192,182192,1,0,0:0:0:0:
448,192,182192,1,0,0:0:0:0:
320,192,182279,1,0,0:0:0:0:
64,192,182365,1,0,0:0:0:0:
448,192,182451,1,0,0:0:0:0:
320,192,182537,128,0,182710:0:0:0:0:
192,192,182537,1,0,0:0:0:0:
64,192,182537,1,0,0:0:0:0:
448,192,182537,1,0,0:0:0:0:
192,192,182624,1,0,0:0:0:0:
64,192,182710,1,0,0:0:0:0:
320,192,182796,1,0,0:0:0:0:
448,192,182882,128,0,183055:0:0:0:0:
192,192,182882,1,0,0:0:0:0:
64,192,182968,1,0,0:0:0:0:
192,192,183055,1,0,0:0:0:0:
320,192,183055,1,0,0:0:0:0:
64,192,183141,1,0,0:0:0:0:
320,192,183227,128,0,183313:0:0:0:0:
64,192,183227,1,0,0:0:0:0:
192,192,183227,1,0,0:0:0:0:
448,192,183227,1,0,0:0:0:0:
448,192,183313,1,0,0:0:0:0:
192,192,183399,128,0,183572:0:0:0:0:
320,192,183399,1,0,0:0:0:0:
64,192,183486,1,0,0:0:0:0:
320,192,183572,1,0,0:0:0:0:
448,192,183572,1,0,0:0:0:0:
64,192,183658,1,0,0:0:0:0:
192,192,183744,128,0,183830:0:0:0:0:
448,192,183744,1,0,0:0:0:0:
320,192,183830,1,0,0:0:0:0:
448,192,183917,128,0,184089:0:0:0:0:
64,192,183917,1,0,0:0:0:0:
320,192,183917,1,0,0:0:0:0:
192,192,183917,1,0,0:0:0:0:
64,192,184003,1,0,0:0:0:0:
320,192,184089,1,0,0:0:0:0:
192,192,184175,1,0,0:0:0:0:
64,192,184261,128,0,184434:0:0:0:0:
320,192,184261,1,0,0:0:0:0:
448,192,184348,1,0,0:0:0:0:
192,192,184434,1,0,0:0:0:0:
320,192,184434,1,0,0:0:0:0:
448,192,184520,1,0,0:0:0:0:
64,192,184606,1,0,0:0:0:0:
192,192,184606,1,0,0:0:0:0:
320,192,184606,1,0,0:0:0:0:
448,192,184692,1,0,0:0:0:0:
320,192,184779,1,0,0:0:0:0:
64,192,184865,1,0,0:0:0:0:
192,192,184951,128,0,185124:0:0:0:0:
448,192,184951,1,0,0:0:0:0:
320,192,184951,1,0,0:0:0:0:
64,192,185037,1,0,0:0:0:0:
320,192,185124,1,0,0:0:0:0:
448,192,185210,1,0,0:0:0:0:
320,192,185296,128,0,185468:0:0:0:0:
192,192,185296,1,0,0:0:0:0:
64,192,185296,1,0,0:0:0:0:
448,192,185296,1,0,0:0:0:0:
64,192,185382,1,0,0:0:0:0:
448,192,185468,1,0,0:0:0:0:
192,192,185555,1,0,0:0:0:0:
448,192,185641,128,0,185813:0:0:0:0:
64,192,185641,1,0,0:0:0:0:
320,192,185727,1,0,0:0:0:0:
64,192,185813,1,0,0:0:0:0:
192,192,185813,1,0,0:0:0:0:
320,192,185899,1,0,0:0:0:0:
64,192,185986,128,0,186072:0:0:0:0:
192,192,185986,1,0,0:0:0:0:
320,192,185986,1,0,0:0:0:0:
448,192,185986,1,0,0:0:0:0:
192,192,186072,1,0,0:0:0:0:
448,192,186158,128,0,186330:0:0:0:0:
64,192,186158,1,0,0:0:0:0:
320,192,186244,1,0,0:0:0:0:
64,192,186330,1,0,0:0:0:0:
192,192,186330,1,0,0:0:0:0:
448,192,186417,1,0,0:0:0:0:
320,192,186503,128,0,186589:0:0:0:0:
192,192,186503,1,0,0:0:0:0:
64,192,186589,1,0,0:0:0:0:
64,192,186675,1,0,0:0:0:0:
320,192,186675,1,0,0:0:0:0:
448,192,186675,1,0,0:0:0:0:
192,192,186675,128,0,186848:0:0:0:0:
320,192,186761,1,0,0:0:0:0:
448,192,186848,1,0,0:0:0:0:
192,192,186934,1,0,0:0:0:0:
64,192,186934,1,0,0:0:0:0:
320,192,187020,1,0,0:0:0:0:
448,192,187020,1,0,0:0:0:0:
192,192,187106,1,0,0:0:0:0:
64,192,187192,128,0,187365:0:0:0:0:
320,192,187365,1,0,0:0:0:0:
192,192,187365,1,0,0:0:0:0:
448,192,187365,1,0,0:0:0:0:
64,192,187537,1,0,0:0:0:0:
192,192,187537,1,0,0:0:0:0:
448,192,187537,1,0,0:0:0:0:
320,192,187710,128,0,187882:0:0:0:0:
448,192,187710,1,0,0:0:0:0:
64,192,187710,1,0,0:0:0:0:
192,192,187796,1,0,0:0:0:0:
448,192,187882,1,0,0:0:0:0:
64,192,187968,1,0,0:0:0:0:
192,192,188055,128,0,188227:0:0:0:0:
448,192,188055,1,0,0:0:0:0:
320,192,188055,1,0,0:0:0:0:
64,192,188055,1,0,0:0:0:0:
448,192,188141,1,0,0:0:0:0:
64,192,188227,1,0,0:0:0:0:
320,192,188313,1,0,0:0:0:0:
64,192,188399,128,0,188572:0:0:0:0:
448,192,188399,1,0,0:0:0:0:
192,192,188486,1,0,0:0:0:0:
320,192,188572,1,0,0:0:0:0:
448,192,188572,1,0,0:0:0:0:
192,192,188658,1,0,0:0:0:0:
192,192,188744,128,0,188830:0:0:0:0:
320,192,188744,1,0,0:0:0:0:
448,192,188744,1,0,0:0:0:0:
64,192,188744,1,0,0:0:0:0:
448,192,188830,1,0,0:0:0:0:
320,192,188917,128,0,189089:0:0:0:0:
64,192,188917,1,0,0:0:0:0:
192,192,189003,1,0,0:0:0:0:
448,192,189089,1,0,0:0:0:0:
64,192,189089,1,0,0:0:0:0:
192,192,189175,1,0,0:0:0:0:
320,192,189261,128,0,189348:0:0:0:0:
448,192,189261,1,0,0:0:0:0:
64,192,189348,1,0,0:0:0:0:
64,192,189434,128,0,189606:0:0:0:0:
448,192,189434,1,0,0:0:0:0:
320,192,189434,1,0,0:0:0:0:
192,192,189434,1,0,0:0:0:0:
192,192,189520,1,0,0:0:0:0:
448,192,189606,1,0,0:0:0:0:
192,192,189692,1,0,0:0:0:0:
448,192,189779,128,0,189951:0:0:0:0:
64,192,189779,1,0,0:0:0:0:
320,192,189865,1,0,0:0:0:0:
64,192,189951,1,0,0:0:0:0:
192,192,189951,1,0,0:0:0:0:
320,192,190037,1,0,0:0:0:0:
448,192,190124,1,0,0:0:0:0:
192,192,190124,1,0,0:0:0:0:
64,192,190124,1,0,0:0:0:0:
320,192,190210,1,0,0:0:0:0:
448,192,190296,1,0,0:0:0:0:
192,192,190382,1,0,0:0:0:0:
320,192,190468,128,0,190641:0:0:0:0:
64,192,190468,1,0,0:0:0:0:
448,192,190468,1,0,0:0:0:0:
192,192,190555,1,0,0:0:0:0:
448,192,190641,1,0,0:0:0:0:
320,192,190727,1,0,0:0:0:0:
192,192,190813,128,0,190986:0:0:0:0:
320,192,190813,1,0,0:0:0:0:
448,192,190813,1,0,0:0:0:0:
64,192,190813,1,0,0:0:0:0:
448,192,190899,1,0,0:0:0:0:
64,192,190986,1,0,0:0:0:0:
320,192,191072,1,0,0:0:0:0:
64,192,191158,128,0,191330:0:0:0:0:
192,192,191158,1,0,0:0:0:0:
320,192,191244,1,0,0:0:0:0:
448,192,191330,1,0,0:0:0:0:
192,192,191330,1,0,0:0:0:0:
320,192,191417,1,0,0:0:0:0:
192,192,191503,128,0,191589:0:0:0:0:
320,192,191503,1,0,0:0:0:0:
448,192,191503,1,0,0:0:0:0:
64,192,191503,1,0,0:0:0:0:
64,192,191589,1,0,0:0:0:0:
320,192,191675,128,0,191848:0:0:0:0:
448,192,191675,1,0,0:0:0:0:
192,192,191761,1,0,0:0:0:0:
448,192,191848,1,0,0:0:0:0:
64,192,191848,1,0,0:0:0:0:
192,192,191934,1,0,0:0:0:0:
320,192,192020,128,0,192106:0:0:0:0:
448,192,192020,1,0,0:0:0:0:
64,192,192106,1,0,0:0:0:0:
64,192,192192,128,0,192365:0:0:0:0:
448,192,192192,1,0,0:0:0:0:
320,192,192192,1,0,0:0:0:0:
192,192,192192,1,0,0:0:0:0:
192,192,192279,1,0,0:0:0:0:
448,192,192365,1,0,0:0:0:0:
320,192,192451,1,0,0:0:0:0:
448,192,192537,128,0,192710:0:0:0:0:
64,192,192537,1,0,0:0:0:0:
192,192,192624,1,0,0:0:0:0:
320,192,192710,1,0,0:0:0:0:
64,192,192710,1,0,0:0:0:0:
192,192,192796,1,0,0:0:0:0:
320,192,192882,1,0,0:0:0:0:
448,192,192882,1,0,0:0:0:0:
64,192,192882,1,0,0:0:0:0:
192,192,192968,1,0,0:0:0:0:
448,192,193055,1,0,0:0:0:0:
192,192,193141,1,0,0:0:0:0:
448,192,193227,1,0,0:0:0:0:
64,192,193227,1,0,0:0:0:0:
320,192,193227,1,0,0:0:0:0:
192,192,193399,1,0,0:0:0:0:
64,192,193572,1,0,0:0:0:0:
192,192,193572,1,0,0:0:0:0:
320,192,193572,1,0,0:0:0:0:
448,192,193572,1,0,0:0:0:0:
64,192,193744,1,0,0:0:0:0:
320,192,193830,1,0,0:0:0:0:
192,192,193917,1,0,0:0:0:0:
64,192,193917,1,0,0:0:0:0:
448,192,193917,1,0,0:0:0:0:
320,192,194089,1,0,0:0:0:0:
320,192,194261,1,0,0:0:0:0:
192,192,194261,1,0,0:0:0:0:
64,192,194261,1,0,0:0:0:0:
448,192,194261,1,0,0:0:0:0:
192,192,194434,1,0,0:0:0:0:
64,192,194606,1,0,0:0:0:0:
320,192,194606,1,0,0:0:0:0:
448,192,194606,1,0,0:0:0:0:
192,192,194779,1,0,0:0:0:0:
64,192,194951,1,0,0:0:0:0:
192,192,194951,1,0,0:0:0:0:
320,192,194951,1,0,0:0:0:0:
448,192,194951,1,0,0:0:0:0:
448,192,195124,1,0,0:0:0:0:
320,192,195210,1,0,0:0:0:0:
192,192,195296,1,0,0:0:0:0:
64,192,195296,1,0,0:0:0:0:
448,192,195296,1,0,0:0:0:0:
320,192,195468,1,0,0:0:0:0:
192,192,195641,1,0,0:0:0:0:
64,192,195641,1,0,0:0:0:0:
320,192,195641,1,0,0:0:0:0:
448,192,195641,1,0,0:0:0:0:
64,192,195986,1,0,0:0:0:0:
192,192,195986,1,0,0:0:0:0:
320,192,196158,1,0,0:0:0:0:
192,192,196330,1,0,0:0:0:0:
448,192,196503,1,0,0:0:0:0:
64,192,196675,1,0,0:0:0:0:
192,192,196718,1,0,0:0:0:0:
320,192,196761,1,0,0:0:0:0:
448,192,196805,1,0,0:0:0:0:
64,192,197020,128,0,197192:0:0:0:0:
192,192,197192,128,0,197365:0:0:0:0:
64,192,197365,1,0,0:0:0:0:
448,192,197365,128,0,197451:0:0:0:0:
320,192,197451,128,0,197537:0:0:0:0:
448,192,197537,128,0,197624:0:0:0:0:
320,192,197624,128,0,197710:0:0:0:0:
192,192,197710,1,0,0:0:0:0:
64,192,197710,1,0,0:0:0:0:
448,192,197882,1,0,0:0:0:0:
192,192,197968,1,0,0:0:0:0:
320,192,198055,1,0,0:0:0:0:
448,192,198055,1,0,0:0:0:0:
64,192,198141,1,0,0:0:0:0:
320,192,198227,1,0,0:0:0:0:
192,192,198313,1,0,0:0:0:0:
320,192,198399,1,0,0:0:0:0:
64,192,198399,1,0,0:0:0:0:
192,192,198486,1,0,0:0:0:0:
448,192,198572,1,0,0:0:0:0:
64,192,198658,1,0,0:0:0:0:
320,192,198744,1,0,0:0:0:0:
448,192,198744,128,0,199089:0:0:0:0:
192,192,198830,1,0,0:0:0:0:
64,192,198917,1,0,0:0:0:0:
320,192,199003,1,0,0:0:0:0:
64,192,199089,1,0,0:0:0:0:
192,192,199089,1,0,0:0:0:0:
320,192,199089,1,0,0:0:0:0:
448,192,199175,1,0,0:0:0:0:
64,192,199261,1,0,0:0:0:0:
320,192,199348,1,0,0:0:0:0:
192,192,199434,1,0,0:0:0:0:
448,192,199520,1,0,0:0:0:0:
320,192,199606,1,0,0:0:0:0:
64,192,199606,1,0,0:0:0:0:
192,192,199692,1,0,0:0:0:0:
64,192,199779,1,0,0:0:0:0:
448,192,199779,1,0,0:0:0:0:
320,192,199779,1,0,0:0:0:0:
192,192,199865,1,0,0:0:0:0:
448,192,199951,1,0,0:0:0:0:
64,192,200037,1,0,0:0:0:0:
320,192,200124,128,0,200468:0:0:0:0:
448,192,200124,1,0,0:0:0:0:
192,192,200124,1,0,0:0:0:0:
64,192,200210,1,0,0:0:0:0:
448,192,200296,1,0,0:0:0:0:
192,192,200382,1,0,0:0:0:0:
64,192,200468,1,0,0:0:0:0:
448,192,200468,1,0,0:0:0:0:
192,192,200468,1,0,0:0:0:0:
320,192,200555,1,0,0:0:0:0:
64,192,200641,1,0,0:0:0:0:
192,192,200727,1,0,0:0:0:0:
448,192,200813,1,0,0:0:0:0:
192,192,200899,1,0,0:0:0:0:
448,192,200986,1,0,0:0:0:0:
64,192,200986,1,0,0:0:0:0:
320,192,201072,1,0,0:0:0:0:
192,192,201158,1,0,0:0:0:0:
64,192,201158,1,0,0:0:0:0:
448,192,201158,1,0,0:0:0:0:
320,192,201244,1,0,0:0:0:0:
192,192,201330,1,0,0:0:0:0:
64,192,201417,1,0,0:0:0:0:
192,192,201503,128,0,201848:0:0:0:0:
320,192,201503,1,0,0:0:0:0:
448,192,201503,1,0,0:0:0:0:
64,192,201589,1,0,0:0:0:0:
448,192,201675,1,0,0:0:0:0:
320,192,201761,1,0,0:0:0:0:
320,192,201848,1,0,0:0:0:0:
448,192,201848,1,0,0:0:0:0:
64,192,201848,1,0,0:0:0:0:
192,192,201934,1,0,0:0:0:0:
448,192,202020,1,0,0:0:0:0:
320,192,202106,1,0,0:0:0:0:
64,192,202192,1,0,0:0:0:0:
320,192,202279,1,0,0:0:0:0:
192,192,202365,1,0,0:0:0:0:
448,192,202365,1,0,0:0:0:0:
64,192,202451,1,0,0:0:0:0:
64,192,202537,128,0,202882:0:0:0:0:
192,192,202537,1,0,0:0:0:0:
320,192,202537,1,0,0:0:0:0:
448,192,202537,1,0,0:0:0:0:
320,192,202624,1,0,0:0:0:0:
192,192,202710,1,0,0:0:0:0:
448,192,202796,1,0,0:0:0:0:
192,192,202882,128,0,203227:0:0:0:0:
320,192,202882,1,0,0:0:0:0:
448,192,202882,1,0,0:0:0:0:
64,192,202968,1,0,0:0:0:0:
448,192,203055,1,0,0:0:0:0:
320,192,203141,1,0,0:0:0:0:
320,192,203227,1,0,0:0:0:0:
448,192,203227,1,0,0:0:0:0:
64,192,203227,1,0,0:0:0:0:
192,192,203313,1,0,0:0:0:0:
448,192,203399,1,0,0:0:0:0:
64,192,203486,1,0,0:0:0:0:
192,192,203572,1,0,0:0:0:0:
448,192,203658,1,0,0:0:0:0:
64,192,203744,1,0,0:0:0:0:
320,192,203744,1,0,0:0:0:0:
448,192,203830,1,0,0:0:0:0:
64,192,203917,1,0,0:0:0:0:
192,192,203917,1,0,0:0:0:0:
320,192,203917,1,0,0:0:0:0:
448,192,204003,1,0,0:0:0:0:
64,192,204089,1,0,0:0:0:0:
192,192,204175,1,0,0:0:0:0:
320,192,204261,128,0,204606:0:0:0:0:
64,192,204261,1,0,0:0:0:0:
448,192,204261,1,0,0:0:0:0:
192,192,204348,1,0,0:0:0:0:
448,192,204434,1,0,0:0:0:0:
64,192,204520,1,0,0:0:0:0:
192,192,204606,1,0,0:0:0:0:
64,192,204606,1,0,0:0:0:0:
448,192,204606,1,0,0:0:0:0:
320,192,204692,1,0,0:0:0:0:
64,192,204779,1,0,0:0:0:0:
192,192,204865,1,0,0:0:0:0:
448,192,204951,1,0,0:0:0:0:
192,192,205037,1,0,0:0:0:0:
64,192,205124,1,0,0:0:0:0:
320,192,205124,1,0,0:0:0:0:
448,192,205210,1,0,0:0:0:0:
448,192,205296,128,0,205641:0:0:0:0:
64,192,205296,1,0,0:0:0:0:
192,192,205296,1,0,0:0:0:0:
320,192,205296,1,0,0:0:0:0:
192,192,205382,1,0,0:0:0:0:
320,192,205468,1,0,0:0:0:0:
64,192,205555,1,0,0:0:0:0:
192,192,205641,128,0,205986:0:0:0:0:
320,192,205641,1,0,0:0:0:0:
64,192,205641,1,0,0:0:0:0:
448,192,205727,1,0,0:0:0:0:
64,192,205813,1,0,0:0:0:0:
320,192,205899,1,0,0:0:0:0:
448,192,205986,1,0,0:0:0:0:
320,192,205986,1,0,0:0:0:0:
64,192,205986,1,0,0:0:0:0:
192,192,206072,1,0,0:0:0:0:
320,192,206158,1,0,0:0:0:0:
64,192,206244,1,0,0:0:0:0:
448,192,206330,1,0,0:0:0:0:
192,192,206417,1,0,0:0:0:0:
64,192,206503,1,0,0:0:0:0:
448,192,206503,1,0,0:0:0:0:
320,192,206589,1,0,0:0:0:0:
64,192,206675,1,0,0:0:0:0:
192,192,206675,1,0,0:0:0:0:
448,192,206675,1,0,0:0:0:0:
320,192,206761,1,0,0:0:0:0:
64,192,206848,1,0,0:0:0:0:
448,192,206934,1,0,0:0:0:0:
192,192,207020,128,0,207192:0:0:0:0:
320,192,207020,1,0,0:0:0:0:
64,192,207020,1,0,0:0:0:0:
448,192,207106,1,0,0:0:0:0:
320,192,207192,128,0,207537:0:0:0:0:
64,192,207192,1,0,0:0:0:0:
192,192,207279,1,0,0:0:0:0:
64,192,207365,1,0,0:0:0:0:
192,192,207365,1,0,0:0:0:0:
448,192,207365,1,0,0:0:0:0:
448,192,207451,1,0,0:0:0:0:
64,192,207537,128,0,207710:0:0:0:0:
192,192,207537,1,0,0:0:0:0:
320,192,207624,1,0,0:0:0:0:
192,192,207710,128,0,207882:0:0:0:0:
448,192,207710,1,0,0:0:0:0:
64,192,207796,1,0,0:0:0:0:
320,192,207882,128,0,208227:0:0:0:0:
64,192,207882,1,0,0:0:0:0:
448,192,207882,1,0,0:0:0:0:
192,192,207968,1,0,0:0:0:0:
448,192,208055,1,0,0:0:0:0:
192,192,208055,1,0,0:0:0:0:
64,192,208055,1,0,0:0:0:0:
448,192,208141,1,0,0:0:0:0:
192,192,208227,128,0,208399:0:0:0:0:
64,192,208227,1,0,0:0:0:0:
320,192,208313,1,0,0:0:0:0:
448,192,208399,128,0,209089:0:0:0:0:
64,192,208399,1,0,0:0:0:0:
320,192,208399,1,0,0:0:0:0:
192,192,208486,1,0,0:0:0:0:
320,192,208572,1,0,0:0:0:0:
64,192,208658,1,0,0:0:0:0:
64,192,208744,1,0,0:0:0:0:
192,192,208744,1,0,0:0:0:0:
320,192,208744,1,0,0:0:0:0:
192,192,208830,1,0,0:0:0:0:
64,192,208917,1,0,0:0:0:0:
320,192,209003,1,0,0:0:0:0:
64,192,209089,1,0,0:0:0:0:
192,192,209175,1,0,0:0:0:0:
320,192,209261,128,0,209434:0:0:0:0:
448,192,209261,1,0,0:0:0:0:
64,192,209348,1,0,0:0:0:0:
448,192,209434,1,0,0:0:0:0:
192,192,209520,1,0,0:0:0:0:
64,192,209606,128,0,209779:0:0:0:0:
320,192,209606,1,0,0:0:0:0:
192,192,209692,1,0,0:0:0:0:
320,192,209779,1,0,0:0:0:0:
448,192,209779,1,0,0:0:0:0:
192,192,209865,1,0,0:0:0:0:
448,192,209951,1,0,0:0:0:0:
64,192,210037,1,0,0:0:0:0:
192,192,210124,1,0,0:0:0:0:
320,192,210124,1,0,0:0:0:0:
448,192,210124,1,0,0:0:0:0:
64,192,210210,1,0,0:0:0:0:
192,192,210296,1,0,0:0:0:0:
448,192,210382,1,0,0:0:0:0:
320,192,210468,1,0,0:0:0:0:
64,192,210555,1,0,0:0:0:0:
320,192,210641,1,0,0:0:0:0:
192,192,210641,1,0,0:0:0:0:
448,192,210727,1,0,0:0:0:0:
320,192,210813,1,0,0:0:0:0:
192,192,210813,1,0,0:0:0:0:
64,192,210813,1,0,0:0:0:0:
448,192,210899,1,0,0:0:0:0:
192,192,210986,1,0,0:0:0:0:
64,192,211072,1,0,0:0:0:0:
448,192,211158,1,0,0:0:0:0:
320,192,211158,1,0,0:0:0:0:
192,192,211244,1,0,0:0:0:0:
448,192,211330,1,0,0:0:0:0:
320,192,211417,1,0,0:0:0:0:
448,192,211503,1,0,0:0:0:0:
192,192,211503,1,0,0:0:0:0:
64,192,211503,1,0,0:0:0:0:
320,192,211589,1,0,0:0:0:0:
64,192,211675,1,0,0:0:0:0:
448,192,211761,1,0,0:0:0:0:
192,192,211848,1,0,0:0:0:0:
448,192,211934,1,0,0:0:0:0:
64,192,212020,1,0,0:0:0:0:
320,192,212020,1,0,0:0:0:0:
192,192,212106,1,0,0:0:0:0:
320,192,212192,1,0,0:0:0:0:
448,192,212192,1,0,0:0:0:0:
64,192,212192,1,0,0:0:0:0:
192,192,212279,1,0,0:0:0:0:
448,192,212365,1,0,0:0:0:0:
64,192,212451,1,0,0:0:0:0:
320,192,212537,1,0,0:0:0:0:
192,192,212537,1,0,0:0:0:0:
448,192,212624,1,0,0:0:0:0:
64,192,212710,1,0,0:0:0:0:
320,192,212796,1,0,0:0:0:0:
192,192,212882,1,0,0:0:0:0:
64,192,212882,1,0,0:0:0:0:
448,192,212882,1,0,0:0:0:0:
320,192,212968,1,0,0:0:0:0:
448,192,213055,1,0,0:0:0:0:
192,192,213141,1,0,0:0:0:0:
64,192,213227,1,0,0:0:0:0:
192,192,213313,1,0,0:0:0:0:
448,192,213399,1,0,0:0:0:0:
320,192,213399,1,0,0:0:0:0:
64,192,213486,1,0,0:0:0:0:
448,192,213572,1,0,0:0:0:0:
320,192,213572,1,0,0:0:0:0:
192,192,213572,1,0,0:0:0:0:
64,192,213658,1,0,0:0:0:0:
448,192,213744,1,0,0:0:0:0:
320,192,213830,1,0,0:0:0:0:
192,192,213917,1,0,0:0:0:0:
64,192,213917,1,0,0:0:0:0:
448,192,214003,1,0,0:0:0:0:
64,192,214089,1,0,0:0:0:0:
320,192,214175,1,0,0:0:0:0:
192,192,214261,1,0,0:0:0:0:
64,192,214261,1,0,0:0:0:0:
448,192,214261,1,0,0:0:0:0:
320,192,214348,1,0,0:0:0:0:
64,192,214434,1,0,0:0:0:0:
448,192,214520,1,0,0:0:0:0:
320,192,214606,1,0,0:0:0:0:
192,192,214692,1,0,0:0:0:0:
320,192,214779,1,0,0:0:0:0:
64,192,214779,1,0,0:0:0:0:
448,192,214865,1,0,0:0:0:0:
320,192,214951,1,0,0:0:0:0:
192,192,214951,1,0,0:0:0:0:
64,192,214951,1,0,0:0:0:0:
448,192,215037,1,0,0:0:0:0:
192,192,215124,1,0,0:0:0:0:
320,192,215210,1,0,0:0:0:0:
448,192,215296,1,0,0:0:0:0:
64,192,215296,1,0,0:0:0:0:
192,192,215296,1,0,0:0:0:0:
320,192,215468,1,0,0:0:0:0:
64,192,215641,1,0,0:0:0:0:
192,192,215641,1,0,0:0:0:0:
320,192,215641,1,0,0:0:0:0:
448,192,215641,1,0,0:0:0:0:
192,192,215813,1,0,0:0:0:0:
64,192,215986,1,0,0:0:0:0:
320,192,215986,1,0,0:0:0:0:
448,192,215986,1,0,0:0:0:0:
192,192,216158,1,0,0:0:0:0:
64,192,216330,1,0,0:0:0:0:
192,192,216330,1,0,0:0:0:0:
320,192,216330,1,0,0:0:0:0:
448,192,216330,1,0,0:0:0:0:
64,192,216503,1,0,0:0:0:0:
320,192,216675,1,0,0:0:0:0:
448,192,216675,1,0,0:0:0:0:
192,192,216675,1,0,0:0:0:0:
64,192,216848,1,0,0:0:0:0:
192,192,216848,1,0,0:0:0:0:
320,192,216848,1,0,0:0:0:0:
64,192,217020,1,0,0:0:0:0:
192,192,217020,1,0,0:0:0:0:
320,192,217020,1,0,0:0:0:0:
448,192,217020,1,0,0:0:0:0:
64,192,217192,1,0,0:0:0:0:
448,192,217192,1,0,0:0:0:0:
320,192,217192,1,0,0:0:0:0:
192,192,217365,1,0,0:0:0:0:
64,192,217365,1,0,0:0:0:0:
448,192,217365,1,0,0:0:0:0:
192,192,217537,1,0,0:0:0:0:
320,192,217537,1,0,0:0:0:0:
448,192,217537,1,0,0:0:0:0:
448,192,217710,1,0,0:0:0:0:
320,192,217710,1,0,0:0:0:0:
192,192,217710,1,0,0:0:0:0:
64,192,217710,1,0,0:0:0:0:
64,192,217882,1,0,0:0:0:0:
192,192,217882,1,0,0:0:0:0:
320,192,217882,1,0,0:0:0:0:
192,192,218055,1,0,0:0:0:0:
320,192,218055,1,0,0:0:0:0:
448,192,218055,128,0,219434:0:0:0:0:
64,192,219434,1,0,0:0:0:0:
192,192,219434,1,0,0:0:0:0:
320,192,219434,1,0,0:0:0:0:
448,192,220296,1,0,0:0:0:0:
320,192,220296,1,0,0:0:0:0:
192,192,220468,1,0,0:0:0:0:
64,192,220468,1,0,0:0:0:0:
320,192,220555,1,0,0:0:0:0:
448,192,220555,1,0,0:0:0:0:
192,192,220641,1,0,0:0:0:0:
64,192,220641,1,0,0:0:0:0:
64,192,220813,128,0,221330:0:0:0:0:
320,192,220813,1,0,0:0:0:0:
448,192,220813,1,0,0:0:0:0:
192,192,220986,1,0,0:0:0:0:
192,192,221158,1,0,0:0:0:0:
320,192,221158,1,0,0:0:0:0:
448,192,221158,1,0,0:0:0:0:
192,192,221330,128,0,221848:0:0:0:0:
448,192,221330,1,0,0:0:0:0:
320,192,221330,1,0,0:0:0:0:
64,192,221503,1,0,0:0:0:0:
320,192,221675,1,0,0:0:0:0:
320,192,221848,128,0,223399:0:0:0:0:
64,192,221848,1,0,0:0:0:0:
448,192,221848,1,0,0:0:0:0:
192,192,222020,1,0,0:0:0:0:
64,192,222192,1,0,0:0:0:0:
448,192,222192,1,0,0:0:0:0:
192,192,222365,1,0,0:0:0:0:
192,192,222537,1,0,0:0:0:0:
64,192,222537,1,0,0:0:0:0:
448,192,222537,1,0,0:0:0:0:
64,192,222710,1,0,0:0:0:0:
448,192,222710,1,0,0:0:0:0:
192,192,222882,1,0,0:0:0:0:
64,192,223055,1,0,0:0:0:0:
192,192,223227,1,0,0:0:0:0:
64,192,223227,1,0,0:0:0:0:
448,192,223227,1,0,0:0:0:0:
192,192,223399,1,0,0:0:0:0:
64,192,223572,128,0,223744:0:0:0:0:
448,192,223572,1,0,0:0:0:0:
320,192,223572,1,0,0:0:0:0:
192,192,223744,128,0,224089:0:0:0:0:
448,192,223744,1,0,0:0:0:0:
448,192,223917,1,0,0:0:0:0:
320,192,223917,1,0,0:0:0:0:
64,192,223917,1,0,0:0:0:0:
320,192,224089,128,0,224606:0:0:0:0:
64,192,224089,1,0,0:0:0:0:
448,192,224089,1,0,0:0:0:0:
192,192,224261,1,0,0:0:0:0:
64,192,224434,1,0,0:0:0:0:
448,192,224606,128,0,226158:0:0:0:0:
64,192,224606,1,0,0:0:0:0:
192,192,224606,1,0,0:0:0:0:
320,192,224779,1,0,0:0:0:0:
192,192,224951,1,0,0:0:0:0:
64,192,224951,1,0,0:0:0:0:
320,192,225124,1,0,0:0:0:0:
64,192,225296,1,0,0:0:0:0:
192,192,225296,1,0,0:0:0:0:
320,192,225296,1,0,0:0:0:0:
320,192,225468,1,0,0:0:0:0:
192,192,225641,1,0,0:0:0:0:
64,192,225813,1,0,0:0:0:0:
320,192,225813,1,0,0:0:0:0:
64,192,225986,1,0,0:0:0:0:
192,192,225986,1,0,0:0:0:0:
320,192,225986,1,0,0:0:0:0:
192,192,226158,1,0,0:0:0:0:
64,192,226330,128,0,226503:0:0:0:0:
320,192,226330,1,0,0:0:0:0:
448,192,226330,1,0,0:0:0:0:
192,192,226503,128,0,226848:0:0:0:0:
448,192,226503,1,0,0:0:0:0:
448,192,226675,1,0,0:0:0:0:
320,192,226675,1,0,0:0:0:0:
64,192,226675,1,0,0:0:0:0:
320,192,226848,128,0,227365:0:0:0:0:
64,192,226848,1,0,0:0:0:0:
448,192,226848,1,0,0:0:0:0:
192,192,227020,1,0,0:0:0:0:
64,192,227192,1,0,0:0:0:0:
448,192,227365,128,0,228572:0:0:0:0:
64,192,227365,1,0,0:0:0:0:
192,192,227365,1,0,0:0:0:0:
320,192,227537,1,0,0:0:0:0:
192,192,227710,1,0,0:0:0:0:
64,192,227710,1,0,0:0:0:0:
320,192,227882,1,0,0:0:0:0:
192,192,228055,1,0,0:0:0:0:
64,192,228227,1,0,0:0:0:0:
320,192,228227,1,0,0:0:0:0:
192,192,228399,1,0,0:0:0:0:
320,192,228572,1,0,0:0:0:0:
192,192,228744,128,0,228917:0:0:0:0:
448,192,228744,1,0,0:0:0:0:
320,192,228744,1,0,0:0:0:0:
64,192,228744,1,0,0:0:0:0:
448,192,228917,1,0,0:0:0:0:
192,192,229089,128,0,229434:0:0:0:0:
64,192,229089,1,0,0:0:0:0:
320,192,229089,1,0,0:0:0:0:
448,192,229261,1,0,0:0:0:0:
64,192,229434,128,0,229779:0:0:0:0:
448,192,229434,1,0,0:0:0:0:
320,192,229606,1,0,0:0:0:0:
192,192,229606,1,0,0:0:0:0:
448,192,229779,128,0,230124:0:0:0:0:
192,192,229779,1,0,0:0:0:0:
64,192,229951,1,0,0:0:0:0:
320,192,230124,128,0,230813:0:0:0:0:
64,192,230124,1,0,0:0:0:0:
192,192,230124,1,0,0:0:0:0:
448,192,230296,1,0,0:0:0:0:
192,192,230468,1,0,0:0:0:0:
64,192,230468,1,0,0:0:0:0:
448,192,230641,1,0,0:0:0:0:
192,192,230813,128,0,230986:0:0:0:0:
448,192,230813,1,0,0:0:0:0:
64,192,230813,1,0,0:0:0:0:
320,192,230986,1,0,0:0:0:0:
64,192,231072,1,0,0:0:0:0:
448,192,231072,1,0,0:0:0:0:
192,192,231158,1,0,0:0:0:0:
448,192,231244,1,0,0:0:0:0:
64,192,231330,1,0,0:0:0:0:
320,192,231330,1,0,0:0:0:0:
192,192,231417,1,0,0:0:0:0:
64,192,231503,1,0,0:0:0:0:
448,192,231503,1,0,0:0:0:0:
320,192,231503,1,0,0:0:0:0:
192,192,231589,1,0,0:0:0:0:
320,192,231675,1,0,0:0:0:0:
448,192,231761,1,0,0:0:0:0:
192,192,231848,1,0,0:0:0:0:
64,192,231848,1,0,0:0:0:0:
320,192,231934,1,0,0:0:0:0:
64,192,232020,1,0,0:0:0:0:
448,192,232106,1,0,0:0:0:0:
320,192,232192,1,0,0:0:0:0:
192,192,232192,1,0,0:0:0:0:
64,192,232192,1,0,0:0:0:0:
448,192,232279,1,0,0:0:0:0:
320,192,232365,1,0,0:0:0:0:
64,192,232451,1,0,0:0:0:0:
192,192,232537,1,0,0:0:0:0:
448,192,232624,1,0,0:0:0:0:
192,192,232710,1,0,0:0:0:0:
320,192,232710,1,0,0:0:0:0:
64,192,232796,1,0,0:0:0:0:
192,192,232882,1,0,0:0:0:0:
320,192,232882,1,0,0:0:0:0:
448,192,232882,1,0,0:0:0:0:
64,192,232968,1,0,0:0:0:0:
320,192,233055,1,0,0:0:0:0:
448,192,233141,1,0,0:0:0:0:
64,192,233227,1,0,0:0:0:0:
192,192,233227,1,0,0:0:0:0:
320,192,233313,1,0,0:0:0:0:
64,192,233399,1,0,0:0:0:0:
192,192,233486,1,0,0:0:0:0:
64,192,233572,1,0,0:0:0:0:
320,192,233572,1,0,0:0:0:0:
448,192,233572,1,0,0:0:0:0:
192,192,233658,1,0,0:0:0:0:
448,192,233744,1,0,0:0:0:0:
64,192,233830,1,0,0:0:0:0:
320,192,233917,1,0,0:0:0:0:
64,192,234003,1,0,0:0:0:0:
448,192,234089,1,0,0:0:0:0:
192,192,234089,1,0,0:0:0:0:
320,192,234175,1,0,0:0:0:0:
192,192,234261,1,0,0:0:0:0:
64,192,234261,1,0,0:0:0:0:
448,192,234261,1,0,0:0:0:0:
320,192,234348,1,0,0:0:0:0:
64,192,234434,1,0,0:0:0:0:
448,192,234520,1,0,0:0:0:0:
192,192,234606,1,0,0:0:0:0:
320,192,234606,1,0,0:0:0:0:
64,192,234692,1,0,0:0:0:0:
448,192,234779,1,0,0:0:0:0:
192,192,234865,1,0,0:0:0:0:
320,192,234951,1,0,0:0:0:0:
448,192,234951,1,0,0:0:0:0:
64,192,234951,1,0,0:0:0:0:
192,192,235037,1,0,0:0:0:0:
64,192,235124,1,0,0:0:0:0:
320,192,235210,1,0,0:0:0:0:
448,192,235296,1,0,0:0:0:0:
320,192,235382,1,0,0:0:0:0:
64,192,235468,1,0,0:0:0:0:
192,192,235468,1,0,0:0:0:0:
448,192,235555,1,0,0:0:0:0:
64,192,235641,1,0,0:0:0:0:
192,192,235641,1,0,0:0:0:0:
320,192,235641,1,0,0:0:0:0:
448,192,235727,1,0,0:0:0:0:
64,192,235813,1,0,0:0:0:0:
192,192,235899,1,0,0:0:0:0:
320,192,235986,1,0,0:0:0:0:
448,192,235986,1,0,0:0:0:0:
64,192,236072,1,0,0:0:0:0:
448,192,236158,1,0,0:0:0:0:
192,192,236244,1,0,0:0:0:0:
320,192,236330,1,0,0:0:0:0:
448,192,236330,1,0,0:0:0:0:
64,192,236330,1,0,0:0:0:0:
192,192,236417,1,0,0:0:0:0:
448,192,236503,1,0,0:0:0:0:
64,192,236589,1,0,0:0:0:0:
192,192,236675,1,0,0:0:0:0:
320,192,236761,1,0,0:0:0:0:
192,192,236848,1,0,0:0:0:0:
448,192,236848,1,0,0:0:0:0:
64,192,236934,1,0,0:0:0:0:
192,192,237020,1,0,0:0:0:0:
320,192,237020,1,0,0:0:0:0:
448,192,237020,1,0,0:0:0:0:
64,192,237106,1,0,0:0:0:0:
320,192,237192,1,0,0:0:0:0:
192,192,237279,1,0,0:0:0:0:
64,192,237365,1,0,0:0:0:0:
448,192,237365,1,0,0:0:0:0:
320,192,237365,1,0,0:0:0:0:
192,192,237537,1,0,0:0:0:0:
64,192,237710,1,0,0:0:0:0:
192,192,237710,1,0,0:0:0:0:
320,192,237710,1,0,0:0:0:0:
448,192,237710,1,0,0:0:0:0:
320,192,237882,1,0,0:0:0:0:
192,192,238055,1,0,0:0:0:0:
64,192,238055,1,0,0:0:0:0:
448,192,238055,1,0,0:0:0:0:
320,192,238227,1,0,0:0:0:0:
192,192,238399,1,0,0:0:0:0:
64,192,238399,1,0,0:0:0:0:
320,192,238399,1,0,0:0:0:0:
448,192,238399,1,0,0:0:0:0:
64,192,238572,1,0,0:0:0:0:
192,192,238744,1,0,0:0:0:0:
320,192,238744,1,0,0:0:0:0:
64,192,238830,1,0,0:0:0:0:
448,192,238917,1,0,0:0:0:0:
192,192,239003,1,0,0:0:0:0:
64,192,239089,1,0,0:0:0:0:
320,192,239089,1,0,0:0:0:0:
448,192,239089,1,0,0:0:0:0:
192,192,239175,1,0,0:0:0:0:
448,192,239261,1,0,0:0:0:0:
320,192,239348,1,0,0:0:0:0:
64,192,239434,1,0,0:0:0:0:
448,192,239434,1,0,0:0:0:0:
192,192,239520,1,0,0:0:0:0:
448,192,239606,1,0,0:0:0:0:
192,192,239692,1,0,0:0:0:0:
320,192,239779,1,0,0:0:0:0:
448,192,239779,1,0,0:0:0:0:
64,192,239779,1,0,0:0:0:0:
192,192,239865,1,0,0:0:0:0:
448,192,239951,1,0,0:0:0:0:
64,192,240037,1,0,0:0:0:0:
320,192,240124,1,0,0:0:0:0:
192,192,240124,128,0,240296:0:0:0:0:
320,192,240468,128,0,240641:0:0:0:0:
448,192,240813,128,0,240986:0:0:0:0:
192,192,241158,128,0,241244:0:0:0:0:
448,192,241330,128,0,241503:0:0:0:0:
192,192,241675,128,0,241761:0:0:0:0:
320,192,241848,128,0,242020:0:0:0:0:
64,192,242192,128,0,242365:0:0:0:0:
320,192,242365,1,0,0:0:0:0:
192,192,242365,1,0,0:0:0:0:
448,192,242537,1,0,0:0:0:0:
320,192,242537,1,0,0:0:0:0:
64,192,242624,1,0,0:0:0:0:
192,192,242624,1,0,0:0:0:0:
448,192,242710,1,0,0:0:0:0:
320,192,242710,1,0,0:0:0:0:
448,192,242882,128,0,251158:0:0:0:0:
64,192,242882,128,0,243055:0:0:0:0:
192,192,243055,128,0,243227:0:0:0:0:
320,192,243227,128,0,243572:0:0:0:0:
64,192,243572,128,0,243744:0:0:0:0:
192,192,243744,128,0,243917:0:0:0:0:
320,192,243917,128,0,244261:0:0:0:0:
64,192,244261,128,0,244434:0:0:0:0:
192,192,244434,128,0,244606:0:0:0:0:
320,192,244606,128,0,244951:0:0:0:0:
64,192,244951,128,0,245124:0:0:0:0:
192,192,245124,128,0,245296:0:0:0:0:
320,192,245296,128,0,245641:0:0:0:0:
64,192,245641,128,0,245813:0:0:0:0:
192,192,245813,128,0,245986:0:0:0:0:
320,192,245986,128,0,246330:0:0:0:0:
64,192,246330,128,0,246503:0:0:0:0:
192,192,246503,128,0,246675:0:0:0:0:
320,192,246675,128,0,251158:0:0:0:0:
