osu file format v14

[General]
AudioFilename: Hold On.mp3
AudioLeadIn: 0
PreviewTime: 123869
Countdown: 0
SampleSet: Soft
StackLeniency: 0.7
Mode: 3
LetterboxInBreaks: 0
SpecialStyle: 0
WidescreenStoryboard: 1

[Editor]
Bookmarks: 29278,44762,60245,75729,91213,106697,153149,168633
DistanceSpacing: 0.8
BeatDivisor: 2
GridSize: 32
TimelineZoom: 2.400001

[Metadata]
Title:Pis's EDM Mania Pack Vol.2
TitleUnicode:Pis's EDM Mania Pack Vol.2
Artist:Various Artist
ArtistUnicode:Various Artist
Creator:PisRyder
Version:Hold On - 7K
Source:
Tags:
BeatmapID:969654
BeatmapSetID:452032

[Difficulty]
HPDrainRate:7
CircleSize:7
OverallDifficulty:7
ApproachRate:5
SliderMultiplier:1.4
SliderTickRate:1

[Events]
//Background and Video events
0,0,"2.jpg",0,0
//Break Periods
//Storyboard Layer 0 (Background)
Sprite,Background,TopLeft,"2.jpg",0,0
//Storyboard Layer 1 (Fail)
//Storyboard Layer 2 (Pass)
//Storyboard Layer 3 (Foreground)
Sprite,Foreground,TopLeft,"SB\Hold On\BG.jpg",-122,-9 S,0,-8000,,0.647 F,0,-8000,0,0,1 C,0,-8000,187038,100,100,100 F,0,187038,190038,1,0
Animation,Foreground,TopLeft,"SB\Particle\P.png",-122,-9,90,20,LoopForever S,0,-8000,,0.647 F,0,-8000,0,0,1 F,0,187038,190038,1,0
Sprite,Foreground,CentreLeft,"SB\Bar.png",510,271 V,0,-5000,-4000,0,0.647,0.647,0.647 F,0,-5000,187038,1
Sprite,Foreground,CentreLeft,"SB\BarColor.png",525,268.5 V,0,-3000,,0.616,0.647 F,0,-3000,-2900,0,1 C,0,-3000,187038,200,200,200 F,0,-2900,-2800,1,0 F,0,-2800,-2700,0,1 F,0,-2700,187038,1
Animation,Foreground,CentreLeft,"SB\BarC.png",525,268.5,90,20,LoopForever F,0,0,187038,1 C,0,0,187038,0,255,0 V,0,0,187038,0,0.647,0.616,0.647
Animation,Foreground,Centre,"SB\Disk.png",510,268,60,20,LoopForever V,0,-7000,-6000,0,0,0.8,0.8 F,0,-7000,-5500,0,1 V,0,-6000,-5500,0.8,0.8,0.648,0.648 F,0,-5500,187038,1
Sprite,Foreground,CentreLeft,"SB\Hold On\Text.png",528,279 S,0,-3000,,0.647 F,0,-3000,-2900,0,1 F,0,-2900,-2800,1,0 F,0,-2800,-2700,0,1 F,0,-2700,187038,1
//Storyboard Sound Samples

[TimingPoints]
240,483.870967741935,4,2,1,5,1,0
31207,-100,4,2,1,5,0,1
46691,-100,4,2,1,5,0,0
62175,-100,4,2,1,5,0,1
77659,-100,4,2,1,5,0,0
124110,-100,4,2,1,5,0,1
139594,-100,4,2,1,5,0,0

[HitObjects]
36,192,240,128,0,1086:0:0:0:0:
182,192,240,128,0,1086:0:0:0:0:
475,192,240,128,0,1207:0:0:0:0:
256,192,240,128,0,1207:0:0:0:0:
36,192,1207,128,0,2054:0:0:0:0:
182,192,1207,128,0,2054:0:0:0:0:
329,192,1207,128,0,1570:0:0:0:0:
402,192,1570,128,0,1812:0:0:0:0:
475,192,1812,128,0,1933:0:0:0:0:
329,192,1933,128,0,2175:0:0:0:0:
36,192,2175,128,0,3022:0:0:0:0:
402,192,2175,128,0,4110:0:0:0:0:
182,192,2175,128,0,3022:0:0:0:0:
36,192,3143,128,0,3989:0:0:0:0:
182,192,3143,128,0,3989:0:0:0:0:
36,192,4110,128,0,4957:0:0:0:0:
182,192,4110,128,0,4957:0:0:0:0:
475,192,4110,128,0,5078:0:0:0:0:
256,192,4110,128,0,5078:0:0:0:0:
36,192,5078,128,0,5925:0:0:0:0:
182,192,5078,128,0,5925:0:0:0:0:
329,192,5078,128,0,5441:0:0:0:0:
402,192,5441,128,0,5683:0:0:0:0:
475,192,5683,128,0,5804:0:0:0:0:
329,192,5804,128,0,6046:0:0:0:0:
36,192,6046,128,0,6893:0:0:0:0:
182,192,6046,128,0,6893:0:0:0:0:
402,192,6046,128,0,7739:0:0:0:0:
36,192,7014,128,0,7860:0:0:0:0:
182,192,7014,128,0,7860:0:0:0:0:
256,192,7739,128,0,7860:0:0:0:0:
475,192,7739,128,0,7860:0:0:0:0:
36,192,7981,128,0,8828:0:0:0:0:
182,192,7981,128,0,8828:0:0:0:0:
475,192,7981,128,0,8949:0:0:0:0:
256,192,7981,128,0,8949:0:0:0:0:
36,192,8949,128,0,9796:0:0:0:0:
182,192,8949,128,0,9796:0:0:0:0:
329,192,8949,128,0,9312:0:0:0:0:
402,192,9312,128,0,9554:0:0:0:0:
475,192,9554,128,0,9675:0:0:0:0:
329,192,9675,128,0,9917:0:0:0:0:
36,192,9917,128,0,10764:0:0:0:0:
182,192,9917,128,0,10764:0:0:0:0:
402,192,9917,128,0,11852:0:0:0:0:
36,192,10885,128,0,11731:0:0:0:0:
182,192,10885,128,0,11731:0:0:0:0:
36,192,11852,128,0,12699:0:0:0:0:
182,192,11852,128,0,12699:0:0:0:0:
475,192,11852,128,0,12820:0:0:0:0:
256,192,11852,128,0,12820:0:0:0:0:
36,192,12820,128,0,13667:0:0:0:0:
182,192,12820,128,0,13667:0:0:0:0:
329,192,12820,128,0,13183:0:0:0:0:
402,192,13183,128,0,13425:0:0:0:0:
475,192,13425,128,0,13546:0:0:0:0:
329,192,13546,128,0,13788:0:0:0:0:
36,192,13788,128,0,14635:0:0:0:0:
182,192,13788,128,0,14635:0:0:0:0:
402,192,13788,128,0,15239:0:0:0:0:
36,192,14756,128,0,15239:0:0:0:0:
182,192,14756,128,0,15239:0:0:0:0:
109,192,15239,1,0,0:0:0:0:
475,192,15239,1,0,0:0:0:0:
329,192,15239,1,0,0:0:0:0:
182,192,15360,1,0,0:0:0:0:
256,192,15360,1,0,0:0:0:0:
36,192,15481,1,0,0:0:0:0:
109,192,15481,1,0,0:0:0:0:
329,192,15602,1,0,0:0:0:0:
402,192,15602,1,0,0:0:0:0:
475,192,15723,128,0,16691:0:0:0:0:
256,192,15723,128,0,16691:0:0:0:0:
36,192,15723,128,0,16086:0:0:0:0:
109,192,15723,128,0,16086:0:0:0:0:
36,192,16207,128,0,16570:0:0:0:0:
109,192,16207,128,0,16570:0:0:0:0:
329,192,16691,128,0,17054:0:0:0:0:
109,192,16691,128,0,17054:0:0:0:0:
182,192,16691,128,0,17054:0:0:0:0:
402,192,17054,128,0,17296:0:0:0:0:
182,192,17175,128,0,17538:0:0:0:0:
109,192,17175,128,0,17538:0:0:0:0:
475,192,17296,128,0,17417:0:0:0:0:
329,192,17417,128,0,17659:0:0:0:0:
402,192,17659,128,0,19594:0:0:0:0:
256,192,17659,128,0,18022:0:0:0:0:
109,192,17659,128,0,18022:0:0:0:0:
256,192,18143,128,0,18385:0:0:0:0:
109,192,18143,128,0,18385:0:0:0:0:
182,192,18385,128,0,18627:0:0:0:0:
256,192,18627,128,0,18989:0:0:0:0:
109,192,18627,128,0,18989:0:0:0:0:
109,192,19110,128,0,19352:0:0:0:0:
256,192,19110,128,0,19352:0:0:0:0:
182,192,19352,128,0,19594:0:0:0:0:
475,192,19594,128,0,20562:0:0:0:0:
256,192,19594,128,0,20562:0:0:0:0:
109,192,19594,128,0,19957:0:0:0:0:
36,192,19594,128,0,19957:0:0:0:0:
36,192,20078,128,0,20441:0:0:0:0:
109,192,20078,128,0,20441:0:0:0:0:
329,192,20562,128,0,20925:0:0:0:0:
109,192,20562,128,0,20925:0:0:0:0:
182,192,20562,128,0,20925:0:0:0:0:
402,192,20925,128,0,21167:0:0:0:0:
109,192,21046,128,0,21409:0:0:0:0:
182,192,21046,128,0,21409:0:0:0:0:
475,192,21167,128,0,21288:0:0:0:0:
329,192,21288,128,0,21530:0:0:0:0:
402,192,21530,128,0,23223:0:0:0:0:
256,192,21530,128,0,21893:0:0:0:0:
109,192,21530,128,0,21893:0:0:0:0:
256,192,22014,128,0,22256:0:0:0:0:
109,192,22014,128,0,22256:0:0:0:0:
182,192,22256,128,0,22498:0:0:0:0:
256,192,22498,128,0,22860:0:0:0:0:
109,192,22498,128,0,22860:0:0:0:0:
109,192,22981,128,0,23223:0:0:0:0:
256,192,22981,128,0,23223:0:0:0:0:
475,192,23223,128,0,23344:0:0:0:0:
182,192,23223,128,0,23465:0:0:0:0:
329,192,23223,128,0,23344:0:0:0:0:
256,192,23465,128,0,24433:0:0:0:0:
475,192,23465,128,0,24433:0:0:0:0:
109,192,23465,128,0,23828:0:0:0:0:
36,192,23465,128,0,23828:0:0:0:0:
109,192,23949,128,0,24312:0:0:0:0:
36,192,23949,128,0,24312:0:0:0:0:
329,192,24433,128,0,24796:0:0:0:0:
182,192,24433,128,0,24796:0:0:0:0:
109,192,24433,128,0,24796:0:0:0:0:
402,192,24796,128,0,25038:0:0:0:0:
109,192,24917,128,0,25280:0:0:0:0:
182,192,24917,128,0,25280:0:0:0:0:
475,192,25038,128,0,25159:0:0:0:0:
329,192,25159,128,0,25401:0:0:0:0:
402,192,25401,128,0,27336:0:0:0:0:
256,192,25401,128,0,25764:0:0:0:0:
109,192,25401,128,0,25764:0:0:0:0:
109,192,25885,128,0,26127:0:0:0:0:
256,192,25885,128,0,26127:0:0:0:0:
182,192,26127,128,0,26369:0:0:0:0:
256,192,26369,128,0,26610:0:0:0:0:
109,192,26369,128,0,26610:0:0:0:0:
109,192,26731,1,0,0:0:0:0:
256,192,26731,1,0,0:0:0:0:
256,192,26852,128,0,27094:0:0:0:0:
109,192,26852,128,0,27094:0:0:0:0:
182,192,27094,128,0,27336:0:0:0:0:
256,192,27336,128,0,28304:0:0:0:0:
475,192,27336,128,0,28304:0:0:0:0:
109,192,27336,128,0,27578:0:0:0:0:
36,192,27336,128,0,27578:0:0:0:0:
36,192,27699,1,0,0:0:0:0:
109,192,27699,1,0,0:0:0:0:
36,192,27820,128,0,28183:0:0:0:0:
109,192,27820,128,0,28183:0:0:0:0:
329,192,28304,128,0,28667:0:0:0:0:
182,192,28304,1,0,0:0:0:0:
36,192,28304,1,0,0:0:0:0:
36,192,28425,1,0,0:0:0:0:
182,192,28425,1,0,0:0:0:0:
402,192,28667,128,0,28909:0:0:0:0:
36,192,28667,128,0,29151:0:0:0:0:
182,192,28667,128,0,29151:0:0:0:0:
475,192,28909,128,0,29030:0:0:0:0:
329,192,29030,128,0,29272:0:0:0:0:
402,192,29272,128,0,30965:0:0:0:0:
109,192,29272,1,0,0:0:0:0:
182,192,29272,1,0,0:0:0:0:
109,192,29393,1,0,0:0:0:0:
182,192,29393,1,0,0:0:0:0:
109,192,29635,128,0,30119:0:0:0:0:
182,192,29635,128,0,30119:0:0:0:0:
109,192,30239,1,0,0:0:0:0:
182,192,30239,1,0,0:0:0:0:
109,192,30360,1,0,0:0:0:0:
182,192,30360,1,0,0:0:0:0:
109,192,30602,128,0,31086:0:0:0:0:
182,192,30602,128,0,31086:0:0:0:0:
256,192,30965,128,0,31086:0:0:0:0:
475,192,30965,128,0,31086:0:0:0:0:
475,192,31207,128,0,31449:0:0:0:0:
36,192,31207,1,0,0:0:0:0:
256,192,31207,1,0,0:0:0:0:
109,192,31328,1,0,0:0:0:0:
182,192,31449,1,0,0:0:0:0:
475,192,31570,128,0,31812:0:0:0:0:
256,192,31570,1,0,0:0:0:0:
402,192,31570,1,0,0:0:0:0:
109,192,31691,1,0,0:0:0:0:
329,192,31691,1,0,0:0:0:0:
36,192,31691,1,0,0:0:0:0:
182,192,31812,1,0,0:0:0:0:
256,192,31933,1,0,0:0:0:0:
329,192,32054,1,0,0:0:0:0:
36,192,32175,128,0,32417:0:0:0:0:
475,192,32175,1,0,0:0:0:0:
402,192,32296,1,0,0:0:0:0:
329,192,32417,1,0,0:0:0:0:
182,192,32417,1,0,0:0:0:0:
36,192,32538,128,0,32780:0:0:0:0:
256,192,32538,1,0,0:0:0:0:
402,192,32659,1,0,0:0:0:0:
182,192,32659,1,0,0:0:0:0:
475,192,32659,1,0,0:0:0:0:
329,192,32780,1,0,0:0:0:0:
256,192,32901,1,0,0:0:0:0:
182,192,33022,1,0,0:0:0:0:
402,192,33143,128,0,33385:0:0:0:0:
256,192,33143,1,0,0:0:0:0:
109,192,33143,1,0,0:0:0:0:
182,192,33264,1,0,0:0:0:0:
109,192,33385,1,0,0:0:0:0:
402,192,33506,128,0,33748:0:0:0:0:
182,192,33506,1,0,0:0:0:0:
36,192,33506,1,0,0:0:0:0:
329,192,33627,1,0,0:0:0:0:
256,192,33627,1,0,0:0:0:0:
109,192,33627,1,0,0:0:0:0:
182,192,33748,1,0,0:0:0:0:
256,192,33869,128,0,34110:0:0:0:0:
475,192,33869,1,0,0:0:0:0:
329,192,33989,1,0,0:0:0:0:
402,192,34110,128,0,34352:0:0:0:0:
182,192,34110,1,0,0:0:0:0:
109,192,34141,1,0,0:0:0:0:
36,192,34171,1,0,0:0:0:0:
256,192,34231,1,0,0:0:0:0:
329,192,34352,1,0,0:0:0:0:
182,192,34352,1,0,0:0:0:0:
402,192,34473,128,0,34715:0:0:0:0:
256,192,34473,1,0,0:0:0:0:
36,192,34594,1,0,0:0:0:0:
109,192,34594,1,0,0:0:0:0:
182,192,34594,1,0,0:0:0:0:
256,192,34625,1,0,0:0:0:0:
329,192,34655,1,0,0:0:0:0:
475,192,34715,1,0,0:0:0:0:
182,192,34836,128,0,35078:0:0:0:0:
402,192,34836,1,0,0:0:0:0:
109,192,34836,1,0,0:0:0:0:
36,192,35078,128,0,35320:0:0:0:0:
475,192,35078,1,0,0:0:0:0:
256,192,35078,1,0,0:0:0:0:
402,192,35199,1,0,0:0:0:0:
329,192,35320,1,0,0:0:0:0:
36,192,35441,128,0,35683:0:0:0:0:
256,192,35441,1,0,0:0:0:0:
109,192,35441,1,0,0:0:0:0:
402,192,35562,1,0,0:0:0:0:
182,192,35562,1,0,0:0:0:0:
475,192,35562,1,0,0:0:0:0:
329,192,35683,1,0,0:0:0:0:
256,192,35804,1,0,0:0:0:0:
182,192,35925,1,0,0:0:0:0:
475,192,36046,128,0,36288:0:0:0:0:
36,192,36046,1,0,0:0:0:0:
109,192,36167,1,0,0:0:0:0:
182,192,36288,1,0,0:0:0:0:
329,192,36288,1,0,0:0:0:0:
475,192,36409,128,0,36651:0:0:0:0:
256,192,36409,1,0,0:0:0:0:
109,192,36530,1,0,0:0:0:0:
329,192,36530,1,0,0:0:0:0:
36,192,36530,1,0,0:0:0:0:
182,192,36651,1,0,0:0:0:0:
256,192,36772,1,0,0:0:0:0:
329,192,36893,1,0,0:0:0:0:
109,192,37014,128,0,37256:0:0:0:0:
256,192,37014,1,0,0:0:0:0:
402,192,37014,1,0,0:0:0:0:
329,192,37135,1,0,0:0:0:0:
402,192,37256,1,0,0:0:0:0:
109,192,37377,128,0,37619:0:0:0:0:
329,192,37377,1,0,0:0:0:0:
475,192,37377,1,0,0:0:0:0:
182,192,37498,1,0,0:0:0:0:
256,192,37498,1,0,0:0:0:0:
402,192,37498,1,0,0:0:0:0:
329,192,37619,1,0,0:0:0:0:
256,192,37739,128,0,37981:0:0:0:0:
36,192,37739,1,0,0:0:0:0:
182,192,37860,1,0,0:0:0:0:
109,192,37981,128,0,38223:0:0:0:0:
329,192,37981,1,0,0:0:0:0:
402,192,38012,1,0,0:0:0:0:
475,192,38042,1,0,0:0:0:0:
256,192,38102,1,0,0:0:0:0:
182,192,38223,1,0,0:0:0:0:
329,192,38223,1,0,0:0:0:0:
109,192,38344,128,0,38586:0:0:0:0:
256,192,38344,1,0,0:0:0:0:
475,192,38465,1,0,0:0:0:0:
402,192,38465,1,0,0:0:0:0:
329,192,38465,1,0,0:0:0:0:
256,192,38496,1,0,0:0:0:0:
182,192,38526,1,0,0:0:0:0:
36,192,38586,1,0,0:0:0:0:
329,192,38707,128,0,38949:0:0:0:0:
109,192,38707,1,0,0:0:0:0:
402,192,38707,1,0,0:0:0:0:
475,192,38949,128,0,39191:0:0:0:0:
36,192,38949,1,0,0:0:0:0:
256,192,38949,1,0,0:0:0:0:
109,192,39070,1,0,0:0:0:0:
182,192,39191,1,0,0:0:0:0:
475,192,39312,128,0,39554:0:0:0:0:
256,192,39312,1,0,0:0:0:0:
402,192,39312,1,0,0:0:0:0:
109,192,39433,1,0,0:0:0:0:
329,192,39433,1,0,0:0:0:0:
36,192,39433,1,0,0:0:0:0:
182,192,39554,1,0,0:0:0:0:
256,192,39675,1,0,0:0:0:0:
329,192,39796,1,0,0:0:0:0:
36,192,39917,128,0,40159:0:0:0:0:
475,192,39917,1,0,0:0:0:0:
402,192,40038,1,0,0:0:0:0:
329,192,40159,1,0,0:0:0:0:
182,192,40159,1,0,0:0:0:0:
36,192,40280,128,0,40522:0:0:0:0:
256,192,40280,1,0,0:0:0:0:
402,192,40401,1,0,0:0:0:0:
182,192,40401,1,0,0:0:0:0:
475,192,40401,1,0,0:0:0:0:
329,192,40522,1,0,0:0:0:0:
256,192,40643,1,0,0:0:0:0:
182,192,40764,1,0,0:0:0:0:
402,192,40885,128,0,41127:0:0:0:0:
256,192,40885,1,0,0:0:0:0:
109,192,40885,1,0,0:0:0:0:
182,192,41006,1,0,0:0:0:0:
109,192,41127,1,0,0:0:0:0:
402,192,41248,128,0,41489:0:0:0:0:
182,192,41248,1,0,0:0:0:0:
36,192,41248,1,0,0:0:0:0:
329,192,41369,1,0,0:0:0:0:
256,192,41369,1,0,0:0:0:0:
109,192,41369,1,0,0:0:0:0:
182,192,41489,1,0,0:0:0:0:
256,192,41610,128,0,41852:0:0:0:0:
475,192,41610,1,0,0:0:0:0:
329,192,41731,1,0,0:0:0:0:
402,192,41852,128,0,42094:0:0:0:0:
182,192,41852,1,0,0:0:0:0:
109,192,41883,1,0,0:0:0:0:
36,192,41913,1,0,0:0:0:0:
256,192,41973,1,0,0:0:0:0:
329,192,42094,1,0,0:0:0:0:
182,192,42094,1,0,0:0:0:0:
402,192,42215,128,0,42457:0:0:0:0:
256,192,42215,1,0,0:0:0:0:
36,192,42336,1,0,0:0:0:0:
109,192,42336,1,0,0:0:0:0:
182,192,42336,1,0,0:0:0:0:
256,192,42367,1,0,0:0:0:0:
329,192,42397,1,0,0:0:0:0:
475,192,42457,1,0,0:0:0:0:
182,192,42578,128,0,42820:0:0:0:0:
402,192,42578,1,0,0:0:0:0:
109,192,42578,1,0,0:0:0:0:
36,192,42820,128,0,43062:0:0:0:0:
475,192,42820,1,0,0:0:0:0:
256,192,42820,1,0,0:0:0:0:
402,192,42941,1,0,0:0:0:0:
329,192,43062,1,0,0:0:0:0:
36,192,43183,128,0,43425:0:0:0:0:
256,192,43183,1,0,0:0:0:0:
109,192,43183,1,0,0:0:0:0:
402,192,43304,1,0,0:0:0:0:
182,192,43304,1,0,0:0:0:0:
475,192,43304,1,0,0:0:0:0:
329,192,43425,1,0,0:0:0:0:
256,192,43546,1,0,0:0:0:0:
182,192,43667,1,0,0:0:0:0:
475,192,43788,128,0,44030:0:0:0:0:
36,192,43788,1,0,0:0:0:0:
109,192,43909,1,0,0:0:0:0:
182,192,44030,1,0,0:0:0:0:
329,192,44030,1,0,0:0:0:0:
475,192,44151,128,0,44393:0:0:0:0:
256,192,44151,1,0,0:0:0:0:
109,192,44272,1,0,0:0:0:0:
329,192,44272,1,0,0:0:0:0:
36,192,44272,1,0,0:0:0:0:
182,192,44393,1,0,0:0:0:0:
256,192,44514,1,0,0:0:0:0:
329,192,44635,1,0,0:0:0:0:
109,192,44756,128,0,44998:0:0:0:0:
256,192,44756,1,0,0:0:0:0:
402,192,44756,1,0,0:0:0:0:
329,192,44877,1,0,0:0:0:0:
402,192,44998,1,0,0:0:0:0:
329,192,45119,1,0,0:0:0:0:
475,192,45119,1,0,0:0:0:0:
109,192,45239,1,0,0:0:0:0:
329,192,45239,1,0,0:0:0:0:
256,192,45239,1,0,0:0:0:0:
36,192,45239,128,0,45481:0:0:0:0:
475,192,45481,1,0,0:0:0:0:
402,192,45481,128,0,45723:0:0:0:0:
182,192,45481,1,0,0:0:0:0:
109,192,45723,1,0,0:0:0:0:
256,192,45723,128,0,45965:0:0:0:0:
36,192,45723,1,0,0:0:0:0:
329,192,45965,1,0,0:0:0:0:
402,192,45965,128,0,46207:0:0:0:0:
182,192,45965,1,0,0:0:0:0:
329,192,46207,1,0,0:0:0:0:
256,192,46207,1,0,0:0:0:0:
36,192,46207,1,0,0:0:0:0:
109,192,46207,1,0,0:0:0:0:
475,192,46328,1,0,0:0:0:0:
402,192,46328,1,0,0:0:0:0:
182,192,46449,1,0,0:0:0:0:
256,192,46449,1,0,0:0:0:0:
109,192,46570,1,0,0:0:0:0:
36,192,46570,1,0,0:0:0:0:
475,192,46691,128,0,46933:0:0:0:0:
36,192,46691,128,0,46933:0:0:0:0:
256,192,46691,1,0,0:0:0:0:
182,192,46691,1,0,0:0:0:0:
329,192,46933,1,0,0:0:0:0:
109,192,47054,1,0,0:0:0:0:
182,192,47054,1,0,0:0:0:0:
402,192,47054,128,0,47296:0:0:0:0:
36,192,47175,1,0,0:0:0:0:
475,192,47175,1,0,0:0:0:0:
256,192,47175,1,0,0:0:0:0:
109,192,47417,1,0,0:0:0:0:
475,192,47417,1,0,0:0:0:0:
329,192,47417,128,0,47659:0:0:0:0:
36,192,47659,128,0,47901:0:0:0:0:
182,192,47659,1,0,0:0:0:0:
256,192,47659,1,0,0:0:0:0:
402,192,47659,128,0,47901:0:0:0:0:
109,192,47901,1,0,0:0:0:0:
256,192,47901,1,0,0:0:0:0:
329,192,48022,128,0,48264:0:0:0:0:
182,192,48022,1,0,0:0:0:0:
475,192,48143,1,0,0:0:0:0:
36,192,48143,1,0,0:0:0:0:
109,192,48143,1,0,0:0:0:0:
402,192,48264,1,0,0:0:0:0:
256,192,48385,128,0,48627:0:0:0:0:
109,192,48385,1,0,0:0:0:0:
329,192,48627,128,0,48869:0:0:0:0:
36,192,48627,128,0,48869:0:0:0:0:
402,192,48627,1,0,0:0:0:0:
475,192,48627,1,0,0:0:0:0:
182,192,48707,1,0,0:0:0:0:
109,192,48788,1,0,0:0:0:0:
256,192,48869,1,0,0:0:0:0:
402,192,48989,128,0,49231:0:0:0:0:
182,192,48989,1,0,0:0:0:0:
109,192,48989,1,0,0:0:0:0:
36,192,49110,1,0,0:0:0:0:
329,192,49110,1,0,0:0:0:0:
256,192,49110,1,0,0:0:0:0:
475,192,49352,128,0,49594:0:0:0:0:
182,192,49352,1,0,0:0:0:0:
329,192,49594,128,0,49836:0:0:0:0:
36,192,49594,128,0,49836:0:0:0:0:
109,192,49594,1,0,0:0:0:0:
256,192,49594,1,0,0:0:0:0:
182,192,49836,1,0,0:0:0:0:
402,192,49836,1,0,0:0:0:0:
475,192,49836,1,0,0:0:0:0:
256,192,50078,1,0,0:0:0:0:
109,192,50078,1,0,0:0:0:0:
329,192,50078,1,0,0:0:0:0:
475,192,50078,1,0,0:0:0:0:
256,192,50320,128,0,50562:0:0:0:0:
402,192,50320,1,0,0:0:0:0:
36,192,50320,1,0,0:0:0:0:
182,192,50320,1,0,0:0:0:0:
329,192,50562,128,0,50804:0:0:0:0:
36,192,50562,128,0,50804:0:0:0:0:
109,192,50562,1,0,0:0:0:0:
182,192,50562,1,0,0:0:0:0:
475,192,50804,1,0,0:0:0:0:
402,192,50925,128,0,51167:0:0:0:0:
182,192,50925,1,0,0:0:0:0:
256,192,50925,1,0,0:0:0:0:
109,192,51046,1,0,0:0:0:0:
36,192,51046,1,0,0:0:0:0:
329,192,51046,1,0,0:0:0:0:
475,192,51288,128,0,51530:0:0:0:0:
256,192,51288,1,0,0:0:0:0:
36,192,51530,128,0,51772:0:0:0:0:
402,192,51530,128,0,51772:0:0:0:0:
329,192,51530,1,0,0:0:0:0:
182,192,51530,1,0,0:0:0:0:
109,192,51772,1,0,0:0:0:0:
256,192,51772,1,0,0:0:0:0:
329,192,51893,128,0,52135:0:0:0:0:
182,192,51893,1,0,0:0:0:0:
36,192,52014,1,0,0:0:0:0:
475,192,52014,1,0,0:0:0:0:
109,192,52014,1,0,0:0:0:0:
256,192,52256,128,0,52498:0:0:0:0:
182,192,52256,1,0,0:0:0:0:
36,192,52498,128,0,52739:0:0:0:0:
329,192,52498,128,0,52739:0:0:0:0:
109,192,52498,1,0,0:0:0:0:
402,192,52498,1,0,0:0:0:0:
182,192,52578,1,0,0:0:0:0:
475,192,52659,1,0,0:0:0:0:
402,192,52739,128,0,52860:0:0:0:0:
256,192,52739,1,0,0:0:0:0:
475,192,52860,128,0,53102:0:0:0:0:
109,192,52860,1,0,0:0:0:0:
182,192,52860,1,0,0:0:0:0:
36,192,52981,1,0,0:0:0:0:
329,192,52981,1,0,0:0:0:0:
256,192,52981,1,0,0:0:0:0:
402,192,53223,128,0,53465:0:0:0:0:
182,192,53223,1,0,0:0:0:0:
36,192,53465,128,0,53707:0:0:0:0:
329,192,53465,128,0,53707:0:0:0:0:
256,192,53465,1,0,0:0:0:0:
109,192,53465,1,0,0:0:0:0:
475,192,53707,1,0,0:0:0:0:
402,192,53828,1,0,0:0:0:0:
329,192,53949,1,0,0:0:0:0:
256,192,54070,1,0,0:0:0:0:
182,192,54191,1,0,0:0:0:0:
36,192,54191,1,0,0:0:0:0:
329,192,54191,128,0,54433:0:0:0:0:
36,192,54433,128,0,54675:0:0:0:0:
475,192,54433,128,0,54675:0:0:0:0:
256,192,54433,1,0,0:0:0:0:
182,192,54433,1,0,0:0:0:0:
182,192,54675,1,0,0:0:0:0:
402,192,54796,1,0,0:0:0:0:
329,192,54796,1,0,0:0:0:0:
109,192,54796,128,0,55038:0:0:0:0:
475,192,54917,1,0,0:0:0:0:
36,192,54917,1,0,0:0:0:0:
256,192,54917,1,0,0:0:0:0:
402,192,55159,1,0,0:0:0:0:
36,192,55159,1,0,0:0:0:0:
182,192,55159,128,0,55401:0:0:0:0:
475,192,55401,128,0,55643:0:0:0:0:
329,192,55401,1,0,0:0:0:0:
256,192,55401,1,0,0:0:0:0:
109,192,55401,128,0,55643:0:0:0:0:
402,192,55643,1,0,0:0:0:0:
256,192,55643,1,0,0:0:0:0:
182,192,55764,128,0,56006:0:0:0:0:
329,192,55764,1,0,0:0:0:0:
36,192,55885,1,0,0:0:0:0:
475,192,55885,1,0,0:0:0:0:
402,192,55885,1,0,0:0:0:0:
256,192,56127,128,0,56369:0:0:0:0:
402,192,56127,1,0,0:0:0:0:
182,192,56369,128,0,56610:0:0:0:0:
475,192,56369,128,0,56610:0:0:0:0:
109,192,56369,1,0,0:0:0:0:
36,192,56369,1,0,0:0:0:0:
329,192,56449,1,0,0:0:0:0:
402,192,56530,1,0,0:0:0:0:
256,192,56610,1,0,0:0:0:0:
109,192,56731,128,0,56973:0:0:0:0:
329,192,56731,1,0,0:0:0:0:
402,192,56731,1,0,0:0:0:0:
475,192,56852,1,0,0:0:0:0:
182,192,56852,1,0,0:0:0:0:
256,192,56852,1,0,0:0:0:0:
36,192,57094,128,0,57336:0:0:0:0:
329,192,57094,1,0,0:0:0:0:
182,192,57336,128,0,57578:0:0:0:0:
475,192,57336,128,0,57578:0:0:0:0:
402,192,57336,1,0,0:0:0:0:
256,192,57336,1,0,0:0:0:0:
329,192,57578,1,0,0:0:0:0:
109,192,57578,1,0,0:0:0:0:
36,192,57578,1,0,0:0:0:0:
256,192,57820,1,0,0:0:0:0:
402,192,57820,1,0,0:0:0:0:
182,192,57820,1,0,0:0:0:0:
36,192,57820,1,0,0:0:0:0:
256,192,58062,128,0,58304:0:0:0:0:
109,192,58062,1,0,0:0:0:0:
475,192,58062,1,0,0:0:0:0:
329,192,58062,1,0,0:0:0:0:
182,192,58304,128,0,58546:0:0:0:0:
475,192,58304,128,0,58546:0:0:0:0:
402,192,58304,1,0,0:0:0:0:
329,192,58304,1,0,0:0:0:0:
36,192,58546,1,0,0:0:0:0:
109,192,58667,128,0,58909:0:0:0:0:
329,192,58667,1,0,0:0:0:0:
256,192,58667,1,0,0:0:0:0:
402,192,58788,1,0,0:0:0:0:
475,192,58788,1,0,0:0:0:0:
182,192,58788,1,0,0:0:0:0:
36,192,59030,128,0,59272:0:0:0:0:
256,192,59030,1,0,0:0:0:0:
475,192,59272,128,0,59514:0:0:0:0:
109,192,59272,128,0,59514:0:0:0:0:
182,192,59272,1,0,0:0:0:0:
329,192,59272,1,0,0:0:0:0:
402,192,59514,1,0,0:0:0:0:
256,192,59514,1,0,0:0:0:0:
182,192,59635,128,0,59877:0:0:0:0:
329,192,59635,1,0,0:0:0:0:
475,192,59756,1,0,0:0:0:0:
36,192,59756,1,0,0:0:0:0:
402,192,59756,1,0,0:0:0:0:
256,192,59998,128,0,60239:0:0:0:0:
329,192,59998,1,0,0:0:0:0:
475,192,60239,128,0,60481:0:0:0:0:
182,192,60239,128,0,60481:0:0:0:0:
402,192,60239,1,0,0:0:0:0:
109,192,60239,1,0,0:0:0:0:
329,192,60320,1,0,0:0:0:0:
36,192,60401,1,0,0:0:0:0:
109,192,60481,128,0,60602:0:0:0:0:
256,192,60481,1,0,0:0:0:0:
36,192,60602,128,0,60844:0:0:0:0:
402,192,60602,1,0,0:0:0:0:
329,192,60602,1,0,0:0:0:0:
475,192,60723,1,0,0:0:0:0:
182,192,60723,1,0,0:0:0:0:
256,192,60723,1,0,0:0:0:0:
109,192,60965,128,0,61207:0:0:0:0:
329,192,60965,1,0,0:0:0:0:
475,192,61207,128,0,61449:0:0:0:0:
182,192,61207,128,0,61449:0:0:0:0:
256,192,61207,1,0,0:0:0:0:
402,192,61207,1,0,0:0:0:0:
36,192,61449,1,0,0:0:0:0:
109,192,61570,1,0,0:0:0:0:
182,192,61691,1,0,0:0:0:0:
256,192,61812,1,0,0:0:0:0:
329,192,61933,1,0,0:0:0:0:
182,192,61933,128,0,62175:0:0:0:0:
475,192,61933,1,0,0:0:0:0:
109,192,62054,1,0,0:0:0:0:
256,192,62054,1,0,0:0:0:0:
36,192,62175,1,0,0:0:0:0:
475,192,62175,128,0,62417:0:0:0:0:
329,192,62175,1,0,0:0:0:0:
109,192,62296,1,0,0:0:0:0:
182,192,62417,1,0,0:0:0:0:
402,192,62538,1,0,0:0:0:0:
256,192,62538,1,0,0:0:0:0:
475,192,62538,128,0,62780:0:0:0:0:
36,192,62659,1,0,0:0:0:0:
329,192,62659,1,0,0:0:0:0:
109,192,62659,1,0,0:0:0:0:
182,192,62780,1,0,0:0:0:0:
256,192,62901,1,0,0:0:0:0:
329,192,63022,1,0,0:0:0:0:
475,192,63143,1,0,0:0:0:0:
36,192,63143,128,0,63385:0:0:0:0:
182,192,63143,1,0,0:0:0:0:
402,192,63264,1,0,0:0:0:0:
182,192,63385,1,0,0:0:0:0:
329,192,63385,1,0,0:0:0:0:
256,192,63506,1,0,0:0:0:0:
36,192,63506,128,0,63748:0:0:0:0:
475,192,63627,1,0,0:0:0:0:
182,192,63627,1,0,0:0:0:0:
402,192,63627,1,0,0:0:0:0:
329,192,63748,1,0,0:0:0:0:
256,192,63869,1,0,0:0:0:0:
182,192,63989,1,0,0:0:0:0:
109,192,64110,1,0,0:0:0:0:
256,192,64110,1,0,0:0:0:0:
402,192,64110,128,0,64352:0:0:0:0:
182,192,64231,1,0,0:0:0:0:
109,192,64352,1,0,0:0:0:0:
36,192,64473,1,0,0:0:0:0:
182,192,64473,1,0,0:0:0:0:
402,192,64473,128,0,64715:0:0:0:0:
109,192,64594,1,0,0:0:0:0:
256,192,64594,1,0,0:0:0:0:
329,192,64594,1,0,0:0:0:0:
182,192,64715,1,0,0:0:0:0:
475,192,64836,1,0,0:0:0:0:
256,192,64836,128,0,65078:0:0:0:0:
329,192,64957,1,0,0:0:0:0:
182,192,65078,1,0,0:0:0:0:
109,192,65078,1,0,0:0:0:0:
36,192,65199,128,0,65804:0:0:0:0:
475,192,65199,1,0,0:0:0:0:
402,192,65260,1,0,0:0:0:0:
329,192,65320,1,0,0:0:0:0:
256,192,65381,1,0,0:0:0:0:
182,192,65441,1,0,0:0:0:0:
109,192,65502,1,0,0:0:0:0:
182,192,65562,1,0,0:0:0:0:
256,192,65623,1,0,0:0:0:0:
329,192,65683,1,0,0:0:0:0:
402,192,65744,1,0,0:0:0:0:
475,192,65804,1,0,0:0:0:0:
109,192,65925,1,0,0:0:0:0:
182,192,65925,1,0,0:0:0:0:
256,192,66046,1,0,0:0:0:0:
475,192,66046,1,0,0:0:0:0:
36,192,66046,128,0,66288:0:0:0:0:
402,192,66167,1,0,0:0:0:0:
329,192,66288,1,0,0:0:0:0:
109,192,66409,1,0,0:0:0:0:
256,192,66409,1,0,0:0:0:0:
36,192,66409,128,0,66651:0:0:0:0:
475,192,66530,1,0,0:0:0:0:
182,192,66530,1,0,0:0:0:0:
402,192,66530,1,0,0:0:0:0:
329,192,66651,1,0,0:0:0:0:
256,192,66772,1,0,0:0:0:0:
182,192,66893,1,0,0:0:0:0:
36,192,67014,1,0,0:0:0:0:
475,192,67014,128,0,67256:0:0:0:0:
329,192,67014,1,0,0:0:0:0:
109,192,67135,1,0,0:0:0:0:
329,192,67256,1,0,0:0:0:0:
182,192,67256,1,0,0:0:0:0:
256,192,67377,1,0,0:0:0:0:
475,192,67377,128,0,67619:0:0:0:0:
36,192,67498,1,0,0:0:0:0:
329,192,67498,1,0,0:0:0:0:
109,192,67498,1,0,0:0:0:0:
182,192,67619,1,0,0:0:0:0:
256,192,67739,1,0,0:0:0:0:
329,192,67860,1,0,0:0:0:0:
402,192,67981,1,0,0:0:0:0:
256,192,67981,1,0,0:0:0:0:
109,192,67981,128,0,68223:0:0:0:0:
329,192,68102,1,0,0:0:0:0:
402,192,68223,1,0,0:0:0:0:
475,192,68344,1,0,0:0:0:0:
329,192,68344,1,0,0:0:0:0:
109,192,68344,128,0,68586:0:0:0:0:
402,192,68465,1,0,0:0:0:0:
256,192,68465,1,0,0:0:0:0:
182,192,68465,1,0,0:0:0:0:
329,192,68586,1,0,0:0:0:0:
36,192,68707,1,0,0:0:0:0:
256,192,68707,128,0,68949:0:0:0:0:
182,192,68828,1,0,0:0:0:0:
36,192,68949,1,0,0:0:0:0:
109,192,68949,1,0,0:0:0:0:
402,192,68949,128,0,69917:0:0:0:0:
182,192,69191,1,0,0:0:0:0:
36,192,69191,1,0,0:0:0:0:
475,192,69191,1,0,0:0:0:0:
256,192,69312,128,0,69433:0:0:0:0:
329,192,69312,128,0,69917:0:0:0:0:
36,192,69433,1,0,0:0:0:0:
109,192,69433,1,0,0:0:0:0:
475,192,69675,1,0,0:0:0:0:
182,192,69675,1,0,0:0:0:0:
256,192,69675,128,0,69917:0:0:0:0:
36,192,69675,1,0,0:0:0:0:
109,192,69796,128,0,69917:0:0:0:0:
475,192,69917,1,0,0:0:0:0:
36,192,69917,128,0,70159:0:0:0:0:
402,192,70038,1,0,0:0:0:0:
329,192,70159,1,0,0:0:0:0:
109,192,70280,1,0,0:0:0:0:
256,192,70280,1,0,0:0:0:0:
36,192,70280,128,0,70522:0:0:0:0:
475,192,70401,1,0,0:0:0:0:
182,192,70401,1,0,0:0:0:0:
402,192,70401,1,0,0:0:0:0:
329,192,70522,1,0,0:0:0:0:
256,192,70643,1,0,0:0:0:0:
182,192,70764,1,0,0:0:0:0:
36,192,70885,1,0,0:0:0:0:
475,192,70885,128,0,71127:0:0:0:0:
329,192,70885,1,0,0:0:0:0:
109,192,71006,1,0,0:0:0:0:
329,192,71127,1,0,0:0:0:0:
182,192,71127,1,0,0:0:0:0:
256,192,71248,1,0,0:0:0:0:
475,192,71248,128,0,71489:0:0:0:0:
36,192,71369,1,0,0:0:0:0:
329,192,71369,1,0,0:0:0:0:
109,192,71369,1,0,0:0:0:0:
182,192,71489,1,0,0:0:0:0:
256,192,71610,1,0,0:0:0:0:
329,192,71731,1,0,0:0:0:0:
402,192,71852,1,0,0:0:0:0:
256,192,71852,1,0,0:0:0:0:
109,192,71852,128,0,72094:0:0:0:0:
329,192,71973,1,0,0:0:0:0:
402,192,72094,1,0,0:0:0:0:
475,192,72215,1,0,0:0:0:0:
329,192,72215,1,0,0:0:0:0:
109,192,72215,128,0,72457:0:0:0:0:
402,192,72336,1,0,0:0:0:0:
256,192,72336,1,0,0:0:0:0:
182,192,72336,1,0,0:0:0:0:
329,192,72457,1,0,0:0:0:0:
36,192,72578,1,0,0:0:0:0:
256,192,72578,128,0,72820:0:0:0:0:
182,192,72699,1,0,0:0:0:0:
329,192,72820,1,0,0:0:0:0:
402,192,72820,1,0,0:0:0:0:
475,192,72941,128,0,73546:0:0:0:0:
36,192,72941,1,0,0:0:0:0:
109,192,73002,1,0,0:0:0:0:
182,192,73062,1,0,0:0:0:0:
256,192,73123,1,0,0:0:0:0:
329,192,73183,1,0,0:0:0:0:
402,192,73244,1,0,0:0:0:0:
329,192,73304,1,0,0:0:0:0:
256,192,73364,1,0,0:0:0:0:
182,192,73425,1,0,0:0:0:0:
109,192,73485,1,0,0:0:0:0:
36,192,73546,1,0,0:0:0:0:
402,192,73667,1,0,0:0:0:0:
329,192,73667,1,0,0:0:0:0:
256,192,73788,1,0,0:0:0:0:
36,192,73788,1,0,0:0:0:0:
475,192,73788,128,0,74030:0:0:0:0:
109,192,73909,1,0,0:0:0:0:
182,192,74030,1,0,0:0:0:0:
402,192,74151,1,0,0:0:0:0:
256,192,74151,1,0,0:0:0:0:
475,192,74151,128,0,74393:0:0:0:0:
36,192,74272,1,0,0:0:0:0:
329,192,74272,1,0,0:0:0:0:
109,192,74272,1,0,0:0:0:0:
182,192,74393,1,0,0:0:0:0:
256,192,74514,1,0,0:0:0:0:
329,192,74635,1,0,0:0:0:0:
475,192,74756,1,0,0:0:0:0:
36,192,74756,128,0,74998:0:0:0:0:
182,192,74756,1,0,0:0:0:0:
402,192,74877,1,0,0:0:0:0:
182,192,74998,1,0,0:0:0:0:
329,192,74998,1,0,0:0:0:0:
256,192,75119,1,0,0:0:0:0:
36,192,75119,128,0,75360:0:0:0:0:
475,192,75239,1,0,0:0:0:0:
182,192,75239,1,0,0:0:0:0:
402,192,75239,1,0,0:0:0:0:
329,192,75360,1,0,0:0:0:0:
256,192,75481,1,0,0:0:0:0:
182,192,75602,1,0,0:0:0:0:
109,192,75723,1,0,0:0:0:0:
256,192,75723,1,0,0:0:0:0:
402,192,75723,128,0,75965:0:0:0:0:
182,192,75844,1,0,0:0:0:0:
109,192,75965,1,0,0:0:0:0:
36,192,76086,1,0,0:0:0:0:
182,192,76086,1,0,0:0:0:0:
402,192,76086,128,0,76328:0:0:0:0:
109,192,76207,1,0,0:0:0:0:
256,192,76207,1,0,0:0:0:0:
329,192,76207,1,0,0:0:0:0:
182,192,76328,1,0,0:0:0:0:
475,192,76449,1,0,0:0:0:0:
256,192,76449,128,0,76691:0:0:0:0:
329,192,76570,1,0,0:0:0:0:
475,192,76691,1,0,0:0:0:0:
402,192,76691,1,0,0:0:0:0:
109,192,76691,128,0,77659:0:0:0:0:
329,192,76933,1,0,0:0:0:0:
475,192,76933,1,0,0:0:0:0:
36,192,76933,1,0,0:0:0:0:
182,192,77054,128,0,77659:0:0:0:0:
256,192,77054,128,0,77175:0:0:0:0:
475,192,77175,1,0,0:0:0:0:
402,192,77175,1,0,0:0:0:0:
36,192,77417,1,0,0:0:0:0:
329,192,77417,1,0,0:0:0:0:
256,192,77417,128,0,77659:0:0:0:0:
475,192,77417,1,0,0:0:0:0:
402,192,77538,128,0,77659:0:0:0:0:
36,192,77659,128,0,78627:0:0:0:0:
475,192,77659,128,0,78385:0:0:0:0:
402,192,78385,128,0,78627:0:0:0:0:
182,192,78627,128,0,79594:0:0:0:0:
329,192,78627,128,0,78989:0:0:0:0:
256,192,78989,128,0,79352:0:0:0:0:
329,192,79352,128,0,79594:0:0:0:0:
36,192,79594,128,0,80320:0:0:0:0:
402,192,79594,128,0,79836:0:0:0:0:
402,192,79957,128,0,80320:0:0:0:0:
182,192,80320,128,0,80562:0:0:0:0:
329,192,80320,128,0,80562:0:0:0:0:
36,192,80562,128,0,81288:0:0:0:0:
475,192,80562,128,0,80925:0:0:0:0:
402,192,80925,128,0,81288:0:0:0:0:
182,192,81288,128,0,81530:0:0:0:0:
329,192,81288,128,0,81530:0:0:0:0:
36,192,81530,128,0,82498:0:0:0:0:
475,192,81530,128,0,81772:0:0:0:0:
475,192,81893,128,0,82256:0:0:0:0:
402,192,82256,128,0,82498:0:0:0:0:
182,192,82498,128,0,83465:0:0:0:0:
329,192,82498,128,0,82860:0:0:0:0:
256,192,82860,128,0,83223:0:0:0:0:
329,192,83223,128,0,83465:0:0:0:0:
36,192,83465,128,0,84191:0:0:0:0:
402,192,83465,128,0,83707:0:0:0:0:
475,192,83707,128,0,83828:0:0:0:0:
402,192,83828,128,0,84191:0:0:0:0:
182,192,84191,128,0,84433:0:0:0:0:
329,192,84191,128,0,84433:0:0:0:0:
36,192,84433,128,0,85159:0:0:0:0:
402,192,84433,128,0,84796:0:0:0:0:
256,192,84796,128,0,85159:0:0:0:0:
182,192,85159,128,0,85401:0:0:0:0:
329,192,85159,128,0,85401:0:0:0:0:
475,192,85401,128,0,86369:0:0:0:0:
36,192,85401,128,0,85643:0:0:0:0:
36,192,85764,128,0,86127:0:0:0:0:
109,192,86127,128,0,86369:0:0:0:0:
329,192,86369,128,0,87336:0:0:0:0:
182,192,86369,128,0,86731:0:0:0:0:
256,192,86731,128,0,87094:0:0:0:0:
182,192,87094,128,0,87336:0:0:0:0:
475,192,87336,128,0,88062:0:0:0:0:
109,192,87336,128,0,87578:0:0:0:0:
109,192,87699,128,0,88062:0:0:0:0:
329,192,88062,128,0,88304:0:0:0:0:
182,192,88062,128,0,88304:0:0:0:0:
475,192,88304,128,0,89030:0:0:0:0:
36,192,88304,128,0,88667:0:0:0:0:
109,192,88667,128,0,89030:0:0:0:0:
329,192,89030,128,0,89272:0:0:0:0:
182,192,89030,128,0,89272:0:0:0:0:
475,192,89272,128,0,90239:0:0:0:0:
36,192,89272,128,0,89514:0:0:0:0:
36,192,89635,128,0,89998:0:0:0:0:
109,192,89998,128,0,90239:0:0:0:0:
329,192,90239,128,0,91207:0:0:0:0:
182,192,90239,128,0,90602:0:0:0:0:
256,192,90602,128,0,90965:0:0:0:0:
182,192,90965,128,0,91207:0:0:0:0:
475,192,91207,128,0,91933:0:0:0:0:
109,192,91207,128,0,91449:0:0:0:0:
36,192,91449,128,0,91570:0:0:0:0:
109,192,91570,128,0,91933:0:0:0:0:
329,192,91933,128,0,92175:0:0:0:0:
182,192,91933,128,0,92175:0:0:0:0:
475,192,92175,128,0,92901:0:0:0:0:
109,192,92175,128,0,92538:0:0:0:0:
256,192,92538,128,0,92901:0:0:0:0:
329,192,92901,128,0,93143:0:0:0:0:
182,192,92901,128,0,93143:0:0:0:0:
36,192,93143,128,0,94110:0:0:0:0:
475,192,93143,128,0,93869:0:0:0:0:
109,192,93143,1,0,0:0:0:0:
402,192,93143,1,0,0:0:0:0:
329,192,93385,1,0,0:0:0:0:
109,192,93627,1,0,0:0:0:0:
182,192,93627,1,0,0:0:0:0:
402,192,93627,1,0,0:0:0:0:
402,192,93869,128,0,94110:0:0:0:0:
182,192,94110,128,0,95078:0:0:0:0:
329,192,94110,128,0,94473:0:0:0:0:
109,192,94352,1,0,0:0:0:0:
402,192,94352,1,0,0:0:0:0:
256,192,94473,128,0,94836:0:0:0:0:
402,192,94594,1,0,0:0:0:0:
475,192,94594,1,0,0:0:0:0:
36,192,94594,1,0,0:0:0:0:
329,192,94836,128,0,95078:0:0:0:0:
36,192,95078,128,0,95804:0:0:0:0:
402,192,95078,128,0,95320:0:0:0:0:
109,192,95078,1,0,0:0:0:0:
475,192,95078,1,0,0:0:0:0:
256,192,95320,1,0,0:0:0:0:
402,192,95441,128,0,95804:0:0:0:0:
182,192,95562,1,0,0:0:0:0:
475,192,95562,1,0,0:0:0:0:
329,192,95562,1,0,0:0:0:0:
182,192,95804,128,0,96046:0:0:0:0:
329,192,95804,128,0,96046:0:0:0:0:
36,192,96046,128,0,96772:0:0:0:0:
475,192,96046,128,0,96409:0:0:0:0:
109,192,96288,1,0,0:0:0:0:
182,192,96288,1,0,0:0:0:0:
402,192,96409,128,0,96772:0:0:0:0:
256,192,96530,1,0,0:0:0:0:
109,192,96530,1,0,0:0:0:0:
329,192,96530,1,0,0:0:0:0:
182,192,96772,128,0,97014:0:0:0:0:
329,192,96772,128,0,97014:0:0:0:0:
36,192,97014,128,0,97981:0:0:0:0:
475,192,97014,128,0,97256:0:0:0:0:
109,192,97014,1,0,0:0:0:0:
402,192,97014,1,0,0:0:0:0:
182,192,97256,1,0,0:0:0:0:
475,192,97377,128,0,97739:0:0:0:0:
329,192,97498,1,0,0:0:0:0:
402,192,97498,1,0,0:0:0:0:
109,192,97498,1,0,0:0:0:0:
402,192,97739,128,0,97981:0:0:0:0:
182,192,97981,128,0,98949:0:0:0:0:
329,192,97981,128,0,98344:0:0:0:0:
36,192,98223,1,0,0:0:0:0:
402,192,98223,1,0,0:0:0:0:
256,192,98344,128,0,98707:0:0:0:0:
109,192,98465,1,0,0:0:0:0:
402,192,98465,1,0,0:0:0:0:
475,192,98465,1,0,0:0:0:0:
329,192,98707,128,0,98949:0:0:0:0:
36,192,98949,128,0,99675:0:0:0:0:
402,192,98949,128,0,99191:0:0:0:0:
109,192,98949,1,0,0:0:0:0:
256,192,98949,1,0,0:0:0:0:
475,192,99191,128,0,99312:0:0:0:0:
402,192,99312,128,0,99675:0:0:0:0:
109,192,99433,1,0,0:0:0:0:
256,192,99433,1,0,0:0:0:0:
329,192,99433,1,0,0:0:0:0:
182,192,99675,128,0,99917:0:0:0:0:
329,192,99675,128,0,99917:0:0:0:0:
36,192,99917,128,0,100643:0:0:0:0:
402,192,99917,128,0,100280:0:0:0:0:
182,192,100159,1,0,0:0:0:0:
329,192,100159,1,0,0:0:0:0:
256,192,100280,128,0,100643:0:0:0:0:
475,192,100280,1,0,0:0:0:0:
109,192,100401,1,0,0:0:0:0:
329,192,100401,1,0,0:0:0:0:
402,192,100401,1,0,0:0:0:0:
475,192,100522,1,0,0:0:0:0:
182,192,100643,128,0,100885:0:0:0:0:
329,192,100643,128,0,100885:0:0:0:0:
402,192,100643,1,0,0:0:0:0:
109,192,100764,1,0,0:0:0:0:
475,192,100885,128,0,101852:0:0:0:0:
36,192,100885,128,0,101610:0:0:0:0:
256,192,100885,1,0,0:0:0:0:
402,192,100885,1,0,0:0:0:0:
182,192,101127,1,0,0:0:0:0:
109,192,101369,1,0,0:0:0:0:
329,192,101369,1,0,0:0:0:0:
402,192,101369,1,0,0:0:0:0:
109,192,101610,128,0,101852:0:0:0:0:
182,192,101852,128,0,102215:0:0:0:0:
329,192,101852,128,0,102820:0:0:0:0:
109,192,102094,1,0,0:0:0:0:
402,192,102094,1,0,0:0:0:0:
256,192,102215,128,0,102578:0:0:0:0:
475,192,102336,1,0,0:0:0:0:
36,192,102336,1,0,0:0:0:0:
109,192,102336,1,0,0:0:0:0:
182,192,102578,128,0,102820:0:0:0:0:
402,192,102820,1,0,0:0:0:0:
36,192,102820,1,0,0:0:0:0:
475,192,102820,128,0,103546:0:0:0:0:
109,192,102820,128,0,103062:0:0:0:0:
256,192,103062,1,0,0:0:0:0:
109,192,103183,128,0,103546:0:0:0:0:
182,192,103304,1,0,0:0:0:0:
36,192,103304,1,0,0:0:0:0:
329,192,103304,1,0,0:0:0:0:
182,192,103546,128,0,103788:0:0:0:0:
329,192,103546,128,0,103788:0:0:0:0:
36,192,103788,128,0,104151:0:0:0:0:
475,192,103788,128,0,104514:0:0:0:0:
329,192,104030,1,0,0:0:0:0:
402,192,104030,1,0,0:0:0:0:
109,192,104151,128,0,104514:0:0:0:0:
182,192,104272,1,0,0:0:0:0:
402,192,104272,1,0,0:0:0:0:
256,192,104272,1,0,0:0:0:0:
182,192,104514,128,0,104756:0:0:0:0:
329,192,104514,128,0,104756:0:0:0:0:
402,192,104756,1,0,0:0:0:0:
109,192,104756,1,0,0:0:0:0:
475,192,104756,128,0,105723:0:0:0:0:
36,192,104756,128,0,104998:0:0:0:0:
329,192,104998,1,0,0:0:0:0:
36,192,105119,128,0,105481:0:0:0:0:
402,192,105239,1,0,0:0:0:0:
109,192,105239,1,0,0:0:0:0:
182,192,105239,1,0,0:0:0:0:
109,192,105481,128,0,105723:0:0:0:0:
182,192,105723,128,0,106086:0:0:0:0:
329,192,105723,128,0,106691:0:0:0:0:
109,192,105965,1,0,0:0:0:0:
475,192,105965,1,0,0:0:0:0:
256,192,106086,128,0,106449:0:0:0:0:
36,192,106207,1,0,0:0:0:0:
109,192,106207,1,0,0:0:0:0:
402,192,106207,1,0,0:0:0:0:
182,192,106449,128,0,106691:0:0:0:0:
402,192,106691,1,0,0:0:0:0:
256,192,106691,1,0,0:0:0:0:
475,192,106691,128,0,107054:0:0:0:0:
109,192,106691,128,0,106933:0:0:0:0:
36,192,106933,128,0,107054:0:0:0:0:
329,192,107054,1,0,0:0:0:0:
109,192,107054,1,0,0:0:0:0:
402,192,107175,1,0,0:0:0:0:
182,192,107175,1,0,0:0:0:0:
256,192,107175,1,0,0:0:0:0:
475,192,107175,128,0,107417:0:0:0:0:
36,192,107417,1,0,0:0:0:0:
109,192,107417,128,0,107659:0:0:0:0:
329,192,107417,1,0,0:0:0:0:
402,192,107659,1,0,0:0:0:0:
256,192,107659,128,0,107901:0:0:0:0:
475,192,107659,1,0,0:0:0:0:
182,192,107901,1,0,0:0:0:0:
109,192,107901,128,0,108143:0:0:0:0:
329,192,107901,1,0,0:0:0:0:
182,192,108143,1,0,0:0:0:0:
256,192,108143,1,0,0:0:0:0:
475,192,108143,1,0,0:0:0:0:
402,192,108143,1,0,0:0:0:0:
36,192,108264,1,0,0:0:0:0:
109,192,108264,1,0,0:0:0:0:
402,192,108385,1,0,0:0:0:0:
329,192,108385,1,0,0:0:0:0:
182,192,108506,1,0,0:0:0:0:
256,192,108506,1,0,0:0:0:0:
402,192,108627,128,0,108989:0:0:0:0:
36,192,108627,1,0,0:0:0:0:
109,192,108627,1,0,0:0:0:0:
182,192,108869,1,0,0:0:0:0:
475,192,108989,128,0,109352:0:0:0:0:
109,192,109110,1,0,0:0:0:0:
256,192,109110,1,0,0:0:0:0:
329,192,109110,1,0,0:0:0:0:
402,192,109352,128,0,109594:0:0:0:0:
36,192,109352,1,0,0:0:0:0:
329,192,109594,128,0,109957:0:0:0:0:
109,192,109594,1,0,0:0:0:0:
182,192,109594,1,0,0:0:0:0:
256,192,109836,1,0,0:0:0:0:
36,192,109957,128,0,110320:0:0:0:0:
182,192,109957,1,0,0:0:0:0:
475,192,110078,1,0,0:0:0:0:
109,192,110078,1,0,0:0:0:0:
256,192,110078,1,0,0:0:0:0:
109,192,110320,128,0,110562:0:0:0:0:
402,192,110320,1,0,0:0:0:0:
329,192,110562,128,0,110804:0:0:0:0:
256,192,110562,1,0,0:0:0:0:
475,192,110562,1,0,0:0:0:0:
182,192,110643,1,0,0:0:0:0:
109,192,110723,1,0,0:0:0:0:
36,192,110804,1,0,0:0:0:0:
329,192,110925,128,0,111288:0:0:0:0:
182,192,111046,1,0,0:0:0:0:
475,192,111046,1,0,0:0:0:0:
109,192,111046,1,0,0:0:0:0:
256,192,111288,128,0,111530:0:0:0:0:
36,192,111288,1,0,0:0:0:0:
475,192,111530,128,0,111893:0:0:0:0:
109,192,111530,128,0,111772:0:0:0:0:
402,192,111530,1,0,0:0:0:0:
182,192,111772,1,0,0:0:0:0:
402,192,111893,128,0,112256:0:0:0:0:
36,192,112014,128,0,112256:0:0:0:0:
109,192,112014,1,0,0:0:0:0:
329,192,112014,1,0,0:0:0:0:
256,192,112256,128,0,112498:0:0:0:0:
475,192,112256,1,0,0:0:0:0:
402,192,112498,128,0,112860:0:0:0:0:
109,192,112498,1,0,0:0:0:0:
36,192,112498,1,0,0:0:0:0:
182,192,112739,1,0,0:0:0:0:
475,192,112860,128,0,113223:0:0:0:0:
109,192,112981,1,0,0:0:0:0:
256,192,112981,1,0,0:0:0:0:
329,192,112981,1,0,0:0:0:0:
402,192,113223,128,0,113465:0:0:0:0:
36,192,113223,1,0,0:0:0:0:
329,192,113465,128,0,113828:0:0:0:0:
109,192,113465,1,0,0:0:0:0:
182,192,113465,1,0,0:0:0:0:
256,192,113707,1,0,0:0:0:0:
36,192,113828,128,0,114191:0:0:0:0:
182,192,113828,1,0,0:0:0:0:
475,192,113949,1,0,0:0:0:0:
109,192,113949,1,0,0:0:0:0:
256,192,113949,1,0,0:0:0:0:
109,192,114191,128,0,114433:0:0:0:0:
402,192,114191,1,0,0:0:0:0:
329,192,114433,128,0,114675:0:0:0:0:
256,192,114433,1,0,0:0:0:0:
402,192,114433,1,0,0:0:0:0:
182,192,114514,1,0,0:0:0:0:
109,192,114594,1,0,0:0:0:0:
475,192,114675,128,0,114796:0:0:0:0:
36,192,114675,1,0,0:0:0:0:
402,192,114796,128,0,115159:0:0:0:0:
109,192,114917,1,0,0:0:0:0:
182,192,114917,1,0,0:0:0:0:
329,192,114917,1,0,0:0:0:0:
256,192,115159,128,0,115401:0:0:0:0:
36,192,115159,1,0,0:0:0:0:
329,192,115401,128,0,115764:0:0:0:0:
109,192,115401,128,0,115643:0:0:0:0:
475,192,115401,1,0,0:0:0:0:
182,192,115764,128,0,116127:0:0:0:0:
475,192,115764,1,0,0:0:0:0:
402,192,115885,128,0,116127:0:0:0:0:
36,192,115885,1,0,0:0:0:0:
256,192,115885,1,0,0:0:0:0:
109,192,116006,1,0,0:0:0:0:
256,192,116127,128,0,116369:0:0:0:0:
475,192,116127,1,0,0:0:0:0:
329,192,116248,1,0,0:0:0:0:
402,192,116369,128,0,116731:0:0:0:0:
109,192,116369,1,0,0:0:0:0:
36,192,116369,1,0,0:0:0:0:
182,192,116610,1,0,0:0:0:0:
475,192,116731,128,0,117094:0:0:0:0:
329,192,116852,1,0,0:0:0:0:
256,192,116852,1,0,0:0:0:0:
109,192,116852,1,0,0:0:0:0:
36,192,117094,1,0,0:0:0:0:
402,192,117094,128,0,117336:0:0:0:0:
182,192,117336,1,0,0:0:0:0:
109,192,117336,1,0,0:0:0:0:
329,192,117336,128,0,117699:0:0:0:0:
256,192,117578,1,0,0:0:0:0:
182,192,117699,1,0,0:0:0:0:
36,192,117699,128,0,118062:0:0:0:0:
256,192,117820,1,0,0:0:0:0:
109,192,117820,1,0,0:0:0:0:
475,192,117820,1,0,0:0:0:0:
402,192,118062,1,0,0:0:0:0:
109,192,118062,128,0,118304:0:0:0:0:
475,192,118304,1,0,0:0:0:0:
256,192,118304,1,0,0:0:0:0:
329,192,118304,128,0,118546:0:0:0:0:
182,192,118385,1,0,0:0:0:0:
109,192,118465,1,0,0:0:0:0:
36,192,118546,1,0,0:0:0:0:
329,192,118667,128,0,119030:0:0:0:0:
109,192,118788,1,0,0:0:0:0:
475,192,118788,1,0,0:0:0:0:
182,192,118788,1,0,0:0:0:0:
36,192,119030,1,0,0:0:0:0:
256,192,119030,128,0,119272:0:0:0:0:
402,192,119272,1,0,0:0:0:0:
109,192,119272,128,0,119514:0:0:0:0:
475,192,119272,128,0,119635:0:0:0:0:
329,192,119272,1,0,0:0:0:0:
182,192,119514,1,0,0:0:0:0:
402,192,119635,128,0,119998:0:0:0:0:
329,192,119756,1,0,0:0:0:0:
109,192,119756,1,0,0:0:0:0:
36,192,119756,128,0,119998:0:0:0:0:
256,192,119756,1,0,0:0:0:0:
475,192,119998,1,0,0:0:0:0:
256,192,119998,128,0,120239:0:0:0:0:
36,192,120239,1,0,0:0:0:0:
109,192,120239,1,0,0:0:0:0:
329,192,120239,1,0,0:0:0:0:
182,192,120481,1,0,0:0:0:0:
256,192,120481,1,0,0:0:0:0:
475,192,120481,1,0,0:0:0:0:
329,192,120723,1,0,0:0:0:0:
256,192,120723,1,0,0:0:0:0:
109,192,120723,1,0,0:0:0:0:
36,192,120723,1,0,0:0:0:0:
475,192,120965,1,0,0:0:0:0:
402,192,120965,1,0,0:0:0:0:
182,192,120965,1,0,0:0:0:0:
109,192,121207,1,0,0:0:0:0:
36,192,121207,1,0,0:0:0:0:
256,192,121207,1,0,0:0:0:0:
402,192,121449,1,0,0:0:0:0:
329,192,121449,1,0,0:0:0:0:
182,192,121449,1,0,0:0:0:0:
256,192,121691,1,0,0:0:0:0:
109,192,121691,1,0,0:0:0:0:
475,192,121691,1,0,0:0:0:0:
329,192,121691,1,0,0:0:0:0:
402,192,121933,1,0,0:0:0:0:
36,192,121933,1,0,0:0:0:0:
109,192,121933,1,0,0:0:0:0:
402,192,122175,1,0,0:0:0:0:
475,192,122175,1,0,0:0:0:0:
256,192,122175,1,0,0:0:0:0:
109,192,122296,1,0,0:0:0:0:
182,192,122417,1,0,0:0:0:0:
256,192,122417,1,0,0:0:0:0:
36,192,122417,1,0,0:0:0:0:
475,192,122538,1,0,0:0:0:0:
256,192,122659,1,0,0:0:0:0:
36,192,122659,128,0,122901:0:0:0:0:
109,192,122659,1,0,0:0:0:0:
329,192,122659,1,0,0:0:0:0:
182,192,122901,1,0,0:0:0:0:
402,192,122901,128,0,123143:0:0:0:0:
475,192,122901,1,0,0:0:0:0:
36,192,123143,1,0,0:0:0:0:
256,192,123143,128,0,123385:0:0:0:0:
109,192,123143,1,0,0:0:0:0:
182,192,123385,1,0,0:0:0:0:
402,192,123385,128,0,123627:0:0:0:0:
329,192,123385,1,0,0:0:0:0:
36,192,123627,1,0,0:0:0:0:
109,192,123627,1,0,0:0:0:0:
329,192,123627,1,0,0:0:0:0:
256,192,123627,1,0,0:0:0:0:
402,192,123748,1,0,0:0:0:0:
475,192,123748,1,0,0:0:0:0:
256,192,123869,1,0,0:0:0:0:
182,192,123869,1,0,0:0:0:0:
36,192,123989,1,0,0:0:0:0:
109,192,123989,1,0,0:0:0:0:
329,192,124110,128,0,124352:0:0:0:0:
475,192,124110,128,0,124352:0:0:0:0:
182,192,124110,1,0,0:0:0:0:
256,192,124110,1,0,0:0:0:0:
109,192,124352,1,0,0:0:0:0:
329,192,124473,128,0,124715:0:0:0:0:
475,192,124473,128,0,124715:0:0:0:0:
36,192,124473,1,0,0:0:0:0:
182,192,124473,1,0,0:0:0:0:
182,192,124594,1,0,0:0:0:0:
256,192,124594,1,0,0:0:0:0:
109,192,124594,1,0,0:0:0:0:
36,192,124836,1,0,0:0:0:0:
402,192,124836,1,0,0:0:0:0:
36,192,125078,128,0,125320:0:0:0:0:
182,192,125078,128,0,125320:0:0:0:0:
329,192,125078,1,0,0:0:0:0:
256,192,125320,1,0,0:0:0:0:
402,192,125320,1,0,0:0:0:0:
36,192,125441,128,0,125683:0:0:0:0:
182,192,125441,128,0,125683:0:0:0:0:
329,192,125562,1,0,0:0:0:0:
475,192,125562,1,0,0:0:0:0:
402,192,125562,1,0,0:0:0:0:
256,192,125804,1,0,0:0:0:0:
109,192,125804,1,0,0:0:0:0:
256,192,126046,128,0,126288:0:0:0:0:
402,192,126046,128,0,126288:0:0:0:0:
109,192,126046,1,0,0:0:0:0:
475,192,126046,1,0,0:0:0:0:
182,192,126288,1,0,0:0:0:0:
256,192,126409,128,0,126651:0:0:0:0:
402,192,126409,128,0,126651:0:0:0:0:
36,192,126409,1,0,0:0:0:0:
109,192,126409,1,0,0:0:0:0:
475,192,126530,1,0,0:0:0:0:
329,192,126530,1,0,0:0:0:0:
182,192,126530,1,0,0:0:0:0:
182,192,126772,128,0,127014:0:0:0:0:
329,192,126772,128,0,127014:0:0:0:0:
36,192,126772,1,0,0:0:0:0:
256,192,127014,128,0,127256:0:0:0:0:
402,192,127014,128,0,127256:0:0:0:0:
109,192,127014,1,0,0:0:0:0:
36,192,127256,1,0,0:0:0:0:
182,192,127256,1,0,0:0:0:0:
256,192,127377,128,0,127619:0:0:0:0:
402,192,127377,128,0,127619:0:0:0:0:
109,192,127498,1,0,0:0:0:0:
329,192,127498,1,0,0:0:0:0:
475,192,127498,1,0,0:0:0:0:
182,192,127739,1,0,0:0:0:0:
256,192,127739,1,0,0:0:0:0:
182,192,127981,128,0,128223:0:0:0:0:
36,192,127981,128,0,128223:0:0:0:0:
329,192,127981,1,0,0:0:0:0:
256,192,127981,1,0,0:0:0:0:
402,192,128223,1,0,0:0:0:0:
182,192,128344,128,0,128586:0:0:0:0:
36,192,128344,128,0,128586:0:0:0:0:
475,192,128344,1,0,0:0:0:0:
329,192,128344,1,0,0:0:0:0:
329,192,128465,1,0,0:0:0:0:
256,192,128465,1,0,0:0:0:0:
402,192,128465,1,0,0:0:0:0:
475,192,128707,1,0,0:0:0:0:
109,192,128707,1,0,0:0:0:0:
475,192,128949,128,0,129191:0:0:0:0:
329,192,128949,128,0,129191:0:0:0:0:
182,192,128949,1,0,0:0:0:0:
256,192,129191,1,0,0:0:0:0:
109,192,129191,1,0,0:0:0:0:
475,192,129312,128,0,129554:0:0:0:0:
329,192,129312,128,0,129554:0:0:0:0:
182,192,129433,1,0,0:0:0:0:
36,192,129433,1,0,0:0:0:0:
109,192,129433,1,0,0:0:0:0:
256,192,129675,1,0,0:0:0:0:
402,192,129675,1,0,0:0:0:0:
256,192,129917,128,0,130159:0:0:0:0:
109,192,129917,128,0,130159:0:0:0:0:
402,192,129917,1,0,0:0:0:0:
36,192,129917,1,0,0:0:0:0:
329,192,130159,1,0,0:0:0:0:
256,192,130280,128,0,130522:0:0:0:0:
109,192,130280,128,0,130522:0:0:0:0:
475,192,130280,1,0,0:0:0:0:
402,192,130280,1,0,0:0:0:0:
36,192,130401,1,0,0:0:0:0:
182,192,130401,1,0,0:0:0:0:
329,192,130401,1,0,0:0:0:0:
329,192,130643,128,0,130885:0:0:0:0:
182,192,130643,128,0,130885:0:0:0:0:
475,192,130643,1,0,0:0:0:0:
256,192,130885,128,0,131127:0:0:0:0:
109,192,130885,128,0,131127:0:0:0:0:
402,192,130885,1,0,0:0:0:0:
475,192,131127,1,0,0:0:0:0:
329,192,131127,1,0,0:0:0:0:
256,192,131248,128,0,131489:0:0:0:0:
109,192,131248,128,0,131489:0:0:0:0:
402,192,131248,1,0,0:0:0:0:
182,192,131369,1,0,0:0:0:0:
36,192,131369,1,0,0:0:0:0:
329,192,131369,1,0,0:0:0:0:
475,192,131489,1,0,0:0:0:0:
329,192,131610,1,0,0:0:0:0:
256,192,131610,1,0,0:0:0:0:
36,192,131731,1,0,0:0:0:0:
329,192,131852,128,0,132094:0:0:0:0:
475,192,131852,128,0,132094:0:0:0:0:
182,192,131852,1,0,0:0:0:0:
256,192,131852,1,0,0:0:0:0:
109,192,132094,1,0,0:0:0:0:
329,192,132215,128,0,132457:0:0:0:0:
475,192,132215,128,0,132457:0:0:0:0:
36,192,132215,1,0,0:0:0:0:
182,192,132215,1,0,0:0:0:0:
182,192,132336,1,0,0:0:0:0:
256,192,132336,1,0,0:0:0:0:
109,192,132336,1,0,0:0:0:0:
36,192,132578,1,0,0:0:0:0:
402,192,132578,1,0,0:0:0:0:
36,192,132820,128,0,133062:0:0:0:0:
182,192,132820,128,0,133062:0:0:0:0:
329,192,132820,1,0,0:0:0:0:
256,192,133062,1,0,0:0:0:0:
402,192,133062,1,0,0:0:0:0:
36,192,133183,128,0,133425:0:0:0:0:
182,192,133183,128,0,133425:0:0:0:0:
329,192,133304,1,0,0:0:0:0:
475,192,133304,1,0,0:0:0:0:
402,192,133304,1,0,0:0:0:0:
256,192,133546,1,0,0:0:0:0:
109,192,133546,1,0,0:0:0:0:
256,192,133788,128,0,134030:0:0:0:0:
402,192,133788,128,0,134030:0:0:0:0:
109,192,133788,1,0,0:0:0:0:
475,192,133788,1,0,0:0:0:0:
182,192,134030,1,0,0:0:0:0:
256,192,134151,128,0,134393:0:0:0:0:
402,192,134151,128,0,134393:0:0:0:0:
36,192,134151,1,0,0:0:0:0:
109,192,134151,1,0,0:0:0:0:
475,192,134272,1,0,0:0:0:0:
329,192,134272,1,0,0:0:0:0:
182,192,134272,1,0,0:0:0:0:
182,192,134514,128,0,134756:0:0:0:0:
329,192,134514,128,0,134756:0:0:0:0:
36,192,134514,1,0,0:0:0:0:
256,192,134756,128,0,134998:0:0:0:0:
402,192,134756,128,0,134998:0:0:0:0:
109,192,134756,1,0,0:0:0:0:
36,192,134998,1,0,0:0:0:0:
182,192,134998,1,0,0:0:0:0:
256,192,135119,128,0,135360:0:0:0:0:
402,192,135119,128,0,135360:0:0:0:0:
109,192,135239,1,0,0:0:0:0:
329,192,135239,1,0,0:0:0:0:
475,192,135239,1,0,0:0:0:0:
182,192,135481,1,0,0:0:0:0:
256,192,135481,1,0,0:0:0:0:
182,192,135723,128,0,135965:0:0:0:0:
36,192,135723,128,0,135965:0:0:0:0:
329,192,135723,1,0,0:0:0:0:
256,192,135723,1,0,0:0:0:0:
402,192,135965,1,0,0:0:0:0:
182,192,136086,128,0,136328:0:0:0:0:
36,192,136086,128,0,136328:0:0:0:0:
475,192,136086,1,0,0:0:0:0:
329,192,136086,1,0,0:0:0:0:
329,192,136207,1,0,0:0:0:0:
256,192,136207,1,0,0:0:0:0:
402,192,136207,1,0,0:0:0:0:
475,192,136449,1,0,0:0:0:0:
109,192,136449,1,0,0:0:0:0:
475,192,136691,128,0,136933:0:0:0:0:
329,192,136691,128,0,136933:0:0:0:0:
182,192,136691,1,0,0:0:0:0:
256,192,136933,1,0,0:0:0:0:
109,192,136933,1,0,0:0:0:0:
475,192,137054,128,0,137296:0:0:0:0:
329,192,137054,128,0,137296:0:0:0:0:
182,192,137175,1,0,0:0:0:0:
36,192,137175,1,0,0:0:0:0:
109,192,137175,1,0,0:0:0:0:
256,192,137417,1,0,0:0:0:0:
402,192,137417,1,0,0:0:0:0:
256,192,137659,128,0,137901:0:0:0:0:
109,192,137659,128,0,137901:0:0:0:0:
402,192,137659,1,0,0:0:0:0:
36,192,137659,1,0,0:0:0:0:
329,192,137901,1,0,0:0:0:0:
182,192,138022,1,0,0:0:0:0:
402,192,138022,1,0,0:0:0:0:
109,192,138143,1,0,0:0:0:0:
329,192,138143,1,0,0:0:0:0:
256,192,138143,1,0,0:0:0:0:
36,192,138143,128,0,138385:0:0:0:0:
475,192,138385,1,0,0:0:0:0:
402,192,138385,128,0,138627:0:0:0:0:
182,192,138385,1,0,0:0:0:0:
109,192,138627,1,0,0:0:0:0:
256,192,138627,128,0,138869:0:0:0:0:
36,192,138627,1,0,0:0:0:0:
329,192,138869,1,0,0:0:0:0:
402,192,138869,128,0,139110:0:0:0:0:
182,192,138869,1,0,0:0:0:0:
329,192,139110,1,0,0:0:0:0:
256,192,139110,1,0,0:0:0:0:
36,192,139110,1,0,0:0:0:0:
109,192,139110,1,0,0:0:0:0:
475,192,139231,1,0,0:0:0:0:
402,192,139231,1,0,0:0:0:0:
182,192,139352,1,0,0:0:0:0:
256,192,139352,1,0,0:0:0:0:
109,192,139473,1,0,0:0:0:0:
36,192,139473,1,0,0:0:0:0:
475,192,139594,128,0,139836:0:0:0:0:
36,192,139594,128,0,139836:0:0:0:0:
256,192,139594,1,0,0:0:0:0:
182,192,139594,1,0,0:0:0:0:
329,192,139836,1,0,0:0:0:0:
109,192,139957,1,0,0:0:0:0:
182,192,139957,1,0,0:0:0:0:
402,192,139957,128,0,140199:0:0:0:0:
36,192,140078,1,0,0:0:0:0:
475,192,140078,1,0,0:0:0:0:
256,192,140078,1,0,0:0:0:0:
109,192,140320,1,0,0:0:0:0:
475,192,140320,1,0,0:0:0:0:
329,192,140320,128,0,140562:0:0:0:0:
36,192,140562,128,0,140804:0:0:0:0:
182,192,140562,1,0,0:0:0:0:
256,192,140562,1,0,0:0:0:0:
402,192,140562,128,0,140804:0:0:0:0:
109,192,140804,1,0,0:0:0:0:
256,192,140804,1,0,0:0:0:0:
329,192,140925,128,0,141167:0:0:0:0:
182,192,140925,1,0,0:0:0:0:
475,192,141046,1,0,0:0:0:0:
36,192,141046,1,0,0:0:0:0:
109,192,141046,1,0,0:0:0:0:
402,192,141167,1,0,0:0:0:0:
256,192,141288,128,0,141530:0:0:0:0:
109,192,141288,1,0,0:0:0:0:
329,192,141530,128,0,141772:0:0:0:0:
36,192,141530,128,0,141772:0:0:0:0:
402,192,141530,1,0,0:0:0:0:
475,192,141530,1,0,0:0:0:0:
182,192,141610,1,0,0:0:0:0:
109,192,141691,1,0,0:0:0:0:
256,192,141772,1,0,0:0:0:0:
402,192,141893,128,0,142135:0:0:0:0:
182,192,141893,1,0,0:0:0:0:
109,192,141893,1,0,0:0:0:0:
36,192,142014,1,0,0:0:0:0:
329,192,142014,1,0,0:0:0:0:
256,192,142014,1,0,0:0:0:0:
475,192,142256,128,0,142498:0:0:0:0:
182,192,142256,1,0,0:0:0:0:
329,192,142498,128,0,142739:0:0:0:0:
36,192,142498,128,0,142739:0:0:0:0:
109,192,142498,1,0,0:0:0:0:
256,192,142498,1,0,0:0:0:0:
182,192,142739,1,0,0:0:0:0:
402,192,142739,1,0,0:0:0:0:
475,192,142739,1,0,0:0:0:0:
256,192,142981,1,0,0:0:0:0:
109,192,142981,1,0,0:0:0:0:
329,192,142981,1,0,0:0:0:0:
475,192,142981,1,0,0:0:0:0:
256,192,143223,128,0,143465:0:0:0:0:
402,192,143223,1,0,0:0:0:0:
36,192,143223,1,0,0:0:0:0:
182,192,143223,1,0,0:0:0:0:
329,192,143465,128,0,143707:0:0:0:0:
36,192,143465,128,0,143707:0:0:0:0:
109,192,143465,1,0,0:0:0:0:
182,192,143465,1,0,0:0:0:0:
475,192,143707,1,0,0:0:0:0:
402,192,143828,128,0,144070:0:0:0:0:
182,192,143828,1,0,0:0:0:0:
256,192,143828,1,0,0:0:0:0:
109,192,143949,1,0,0:0:0:0:
36,192,143949,1,0,0:0:0:0:
329,192,143949,1,0,0:0:0:0:
475,192,144191,128,0,144433:0:0:0:0:
256,192,144191,1,0,0:0:0:0:
36,192,144433,128,0,144675:0:0:0:0:
402,192,144433,128,0,144675:0:0:0:0:
329,192,144433,1,0,0:0:0:0:
182,192,144433,1,0,0:0:0:0:
109,192,144675,1,0,0:0:0:0:
256,192,144675,1,0,0:0:0:0:
329,192,144796,128,0,145038:0:0:0:0:
182,192,144796,1,0,0:0:0:0:
36,192,144917,1,0,0:0:0:0:
475,192,144917,1,0,0:0:0:0:
109,192,144917,1,0,0:0:0:0:
256,192,145159,128,0,145401:0:0:0:0:
182,192,145159,1,0,0:0:0:0:
36,192,145401,128,0,145643:0:0:0:0:
329,192,145401,128,0,145643:0:0:0:0:
109,192,145401,1,0,0:0:0:0:
402,192,145401,1,0,0:0:0:0:
182,192,145481,1,0,0:0:0:0:
475,192,145562,1,0,0:0:0:0:
402,192,145643,128,0,145764:0:0:0:0:
256,192,145643,1,0,0:0:0:0:
475,192,145764,128,0,146006:0:0:0:0:
109,192,145764,1,0,0:0:0:0:
182,192,145764,1,0,0:0:0:0:
36,192,145885,1,0,0:0:0:0:
329,192,145885,1,0,0:0:0:0:
256,192,145885,1,0,0:0:0:0:
402,192,146127,128,0,146369:0:0:0:0:
182,192,146127,1,0,0:0:0:0:
36,192,146369,128,0,146610:0:0:0:0:
329,192,146369,128,0,146610:0:0:0:0:
256,192,146369,1,0,0:0:0:0:
109,192,146369,1,0,0:0:0:0:
475,192,146610,1,0,0:0:0:0:
402,192,146731,1,0,0:0:0:0:
329,192,146852,1,0,0:0:0:0:
256,192,146973,1,0,0:0:0:0:
182,192,147094,1,0,0:0:0:0:
36,192,147094,1,0,0:0:0:0:
329,192,147094,128,0,147336:0:0:0:0:
36,192,147336,128,0,147578:0:0:0:0:
475,192,147336,128,0,147578:0:0:0:0:
256,192,147336,1,0,0:0:0:0:
182,192,147336,1,0,0:0:0:0:
182,192,147578,1,0,0:0:0:0:
402,192,147699,1,0,0:0:0:0:
329,192,147699,1,0,0:0:0:0:
109,192,147699,128,0,147941:0:0:0:0:
475,192,147820,1,0,0:0:0:0:
36,192,147820,1,0,0:0:0:0:
256,192,147820,1,0,0:0:0:0:
402,192,148062,1,0,0:0:0:0:
36,192,148062,1,0,0:0:0:0:
182,192,148062,128,0,148304:0:0:0:0:
475,192,148304,128,0,148546:0:0:0:0:
329,192,148304,1,0,0:0:0:0:
256,192,148304,1,0,0:0:0:0:
109,192,148304,128,0,148546:0:0:0:0:
402,192,148546,1,0,0:0:0:0:
256,192,148546,1,0,0:0:0:0:
182,192,148667,128,0,148909:0:0:0:0:
329,192,148667,1,0,0:0:0:0:
36,192,148788,1,0,0:0:0:0:
475,192,148788,1,0,0:0:0:0:
402,192,148788,1,0,0:0:0:0:
256,192,149030,128,0,149272:0:0:0:0:
402,192,149030,1,0,0:0:0:0:
182,192,149272,128,0,149514:0:0:0:0:
475,192,149272,128,0,149514:0:0:0:0:
109,192,149272,1,0,0:0:0:0:
36,192,149272,1,0,0:0:0:0:
329,192,149352,1,0,0:0:0:0:
402,192,149433,1,0,0:0:0:0:
256,192,149514,1,0,0:0:0:0:
109,192,149635,128,0,149877:0:0:0:0:
329,192,149635,1,0,0:0:0:0:
402,192,149635,1,0,0:0:0:0:
475,192,149756,1,0,0:0:0:0:
182,192,149756,1,0,0:0:0:0:
256,192,149756,1,0,0:0:0:0:
36,192,149998,128,0,150239:0:0:0:0:
329,192,149998,1,0,0:0:0:0:
182,192,150239,128,0,150481:0:0:0:0:
475,192,150239,128,0,150481:0:0:0:0:
402,192,150239,1,0,0:0:0:0:
256,192,150239,1,0,0:0:0:0:
329,192,150481,1,0,0:0:0:0:
109,192,150481,1,0,0:0:0:0:
36,192,150481,1,0,0:0:0:0:
256,192,150723,1,0,0:0:0:0:
402,192,150723,1,0,0:0:0:0:
182,192,150723,1,0,0:0:0:0:
36,192,150723,1,0,0:0:0:0:
256,192,150965,128,0,151207:0:0:0:0:
109,192,150965,1,0,0:0:0:0:
475,192,150965,1,0,0:0:0:0:
329,192,150965,1,0,0:0:0:0:
182,192,151207,128,0,151449:0:0:0:0:
475,192,151207,128,0,151449:0:0:0:0:
402,192,151207,1,0,0:0:0:0:
329,192,151207,1,0,0:0:0:0:
36,192,151449,1,0,0:0:0:0:
109,192,151570,128,0,151812:0:0:0:0:
329,192,151570,1,0,0:0:0:0:
256,192,151570,1,0,0:0:0:0:
402,192,151691,1,0,0:0:0:0:
475,192,151691,1,0,0:0:0:0:
182,192,151691,1,0,0:0:0:0:
36,192,151933,128,0,152175:0:0:0:0:
256,192,151933,1,0,0:0:0:0:
475,192,152175,128,0,152417:0:0:0:0:
109,192,152175,128,0,152417:0:0:0:0:
182,192,152175,1,0,0:0:0:0:
329,192,152175,1,0,0:0:0:0:
402,192,152417,1,0,0:0:0:0:
256,192,152417,1,0,0:0:0:0:
182,192,152538,128,0,152780:0:0:0:0:
329,192,152538,1,0,0:0:0:0:
475,192,152659,1,0,0:0:0:0:
36,192,152659,1,0,0:0:0:0:
402,192,152659,1,0,0:0:0:0:
256,192,152901,128,0,153143:0:0:0:0:
329,192,152901,1,0,0:0:0:0:
475,192,153143,128,0,153385:0:0:0:0:
182,192,153143,128,0,153385:0:0:0:0:
402,192,153143,1,0,0:0:0:0:
109,192,153143,1,0,0:0:0:0:
329,192,153223,1,0,0:0:0:0:
36,192,153304,1,0,0:0:0:0:
109,192,153385,128,0,153506:0:0:0:0:
256,192,153385,1,0,0:0:0:0:
36,192,153506,128,0,153748:0:0:0:0:
402,192,153506,1,0,0:0:0:0:
329,192,153506,1,0,0:0:0:0:
475,192,153627,1,0,0:0:0:0:
182,192,153627,1,0,0:0:0:0:
256,192,153627,1,0,0:0:0:0:
109,192,153869,128,0,154110:0:0:0:0:
329,192,153869,1,0,0:0:0:0:
475,192,154110,128,0,154352:0:0:0:0:
182,192,154110,128,0,154352:0:0:0:0:
256,192,154110,1,0,0:0:0:0:
402,192,154110,1,0,0:0:0:0:
36,192,154352,1,0,0:0:0:0:
109,192,154473,1,0,0:0:0:0:
182,192,154594,1,0,0:0:0:0:
256,192,154715,1,0,0:0:0:0:
329,192,154836,128,0,155078:0:0:0:0:
475,192,155078,128,0,155441:0:0:0:0:
36,192,155078,1,0,0:0:0:0:
109,192,155078,1,0,0:0:0:0:
36,192,155239,1,0,0:0:0:0:
109,192,155239,1,0,0:0:0:0:
36,192,155401,1,0,0:0:0:0:
109,192,155401,1,0,0:0:0:0:
329,192,155441,128,0,155804:0:0:0:0:
109,192,155562,1,0,0:0:0:0:
182,192,155562,1,0,0:0:0:0:
109,192,155723,1,0,0:0:0:0:
182,192,155723,1,0,0:0:0:0:
402,192,155804,128,0,156046:0:0:0:0:
182,192,155885,1,0,0:0:0:0:
109,192,155885,1,0,0:0:0:0:
329,192,156046,128,0,156409:0:0:0:0:
109,192,156046,1,0,0:0:0:0:
182,192,156046,1,0,0:0:0:0:
256,192,156409,128,0,156772:0:0:0:0:
475,192,156530,1,0,0:0:0:0:
402,192,156530,1,0,0:0:0:0:
402,192,156691,1,0,0:0:0:0:
475,192,156691,1,0,0:0:0:0:
182,192,156772,128,0,157014:0:0:0:0:
402,192,156852,1,0,0:0:0:0:
475,192,156852,1,0,0:0:0:0:
329,192,157014,128,0,157377:0:0:0:0:
36,192,157014,1,0,0:0:0:0:
109,192,157014,1,0,0:0:0:0:
36,192,157175,1,0,0:0:0:0:
109,192,157175,1,0,0:0:0:0:
36,192,157336,1,0,0:0:0:0:
109,192,157336,1,0,0:0:0:0:
402,192,157377,128,0,157739:0:0:0:0:
182,192,157498,1,0,0:0:0:0:
256,192,157498,1,0,0:0:0:0:
182,192,157659,1,0,0:0:0:0:
256,192,157659,1,0,0:0:0:0:
475,192,157739,128,0,157981:0:0:0:0:
256,192,157820,1,0,0:0:0:0:
182,192,157820,1,0,0:0:0:0:
182,192,157981,1,0,0:0:0:0:
256,192,157981,1,0,0:0:0:0:
329,192,157981,128,0,158223:0:0:0:0:
36,192,158223,1,0,0:0:0:0:
109,192,158223,1,0,0:0:0:0:
475,192,158344,1,0,0:0:0:0:
402,192,158344,1,0,0:0:0:0:
329,192,158586,1,0,0:0:0:0:
402,192,158586,1,0,0:0:0:0:
182,192,158707,1,0,0:0:0:0:
109,192,158707,1,0,0:0:0:0:
256,192,158707,128,0,158949:0:0:0:0:
329,192,158949,128,0,159312:0:0:0:0:
36,192,158949,1,0,0:0:0:0:
109,192,158949,1,0,0:0:0:0:
109,192,159110,1,0,0:0:0:0:
36,192,159110,1,0,0:0:0:0:
36,192,159272,1,0,0:0:0:0:
109,192,159272,1,0,0:0:0:0:
402,192,159312,128,0,159675:0:0:0:0:
109,192,159433,1,0,0:0:0:0:
182,192,159433,1,0,0:0:0:0:
109,192,159594,1,0,0:0:0:0:
182,192,159594,1,0,0:0:0:0:
475,192,159675,128,0,159917:0:0:0:0:
109,192,159756,1,0,0:0:0:0:
182,192,159756,1,0,0:0:0:0:
256,192,159917,128,0,160280:0:0:0:0:
329,192,159917,1,0,0:0:0:0:
402,192,159917,1,0,0:0:0:0:
402,192,160078,1,0,0:0:0:0:
329,192,160078,1,0,0:0:0:0:
402,192,160239,1,0,0:0:0:0:
329,192,160239,1,0,0:0:0:0:
182,192,160280,128,0,160522:0:0:0:0:
475,192,160401,1,0,0:0:0:0:
402,192,160401,1,0,0:0:0:0:
109,192,160522,128,0,160764:0:0:0:0:
402,192,160562,1,0,0:0:0:0:
475,192,160562,1,0,0:0:0:0:
402,192,160723,1,0,0:0:0:0:
475,192,160723,1,0,0:0:0:0:
36,192,160764,128,0,161127:0:0:0:0:
256,192,160885,1,0,0:0:0:0:
329,192,160885,1,0,0:0:0:0:
256,192,161046,1,0,0:0:0:0:
329,192,161046,1,0,0:0:0:0:
109,192,161127,128,0,161248:0:0:0:0:
256,192,161207,1,0,0:0:0:0:
329,192,161207,1,0,0:0:0:0:
402,192,161248,128,0,161610:0:0:0:0:
109,192,161369,1,0,0:0:0:0:
36,192,161369,1,0,0:0:0:0:
36,192,161530,1,0,0:0:0:0:
109,192,161530,1,0,0:0:0:0:
182,192,161610,128,0,161852:0:0:0:0:
36,192,161691,1,0,0:0:0:0:
109,192,161691,1,0,0:0:0:0:
109,192,161852,1,0,0:0:0:0:
36,192,161852,1,0,0:0:0:0:
329,192,161852,128,0,162094:0:0:0:0:
475,192,162094,1,0,0:0:0:0:
402,192,162215,1,0,0:0:0:0:
329,192,162336,1,0,0:0:0:0:
36,192,162336,1,0,0:0:0:0:
109,192,162336,1,0,0:0:0:0:
256,192,162457,1,0,0:0:0:0:
36,192,162498,1,0,0:0:0:0:
109,192,162498,1,0,0:0:0:0:
182,192,162578,128,0,162820:0:0:0:0:
36,192,162659,1,0,0:0:0:0:
109,192,162659,1,0,0:0:0:0:
402,192,162820,1,0,0:0:0:0:
475,192,162820,1,0,0:0:0:0:
36,192,162820,128,0,163183:0:0:0:0:
402,192,162981,1,0,0:0:0:0:
475,192,162981,1,0,0:0:0:0:
402,192,163143,1,0,0:0:0:0:
475,192,163143,1,0,0:0:0:0:
182,192,163183,128,0,163546:0:0:0:0:
329,192,163304,1,0,0:0:0:0:
402,192,163304,1,0,0:0:0:0:
329,192,163465,1,0,0:0:0:0:
402,192,163465,1,0,0:0:0:0:
109,192,163546,128,0,163788:0:0:0:0:
402,192,163627,1,0,0:0:0:0:
329,192,163627,1,0,0:0:0:0:
329,192,163788,1,0,0:0:0:0:
402,192,163788,1,0,0:0:0:0:
182,192,163788,128,0,164151:0:0:0:0:
256,192,164151,128,0,164514:0:0:0:0:
109,192,164272,1,0,0:0:0:0:
36,192,164272,1,0,0:0:0:0:
36,192,164433,1,0,0:0:0:0:
109,192,164433,1,0,0:0:0:0:
329,192,164514,128,0,164756:0:0:0:0:
36,192,164594,1,0,0:0:0:0:
109,192,164594,1,0,0:0:0:0:
402,192,164756,1,0,0:0:0:0:
475,192,164756,1,0,0:0:0:0:
182,192,164756,128,0,165119:0:0:0:0:
402,192,164917,1,0,0:0:0:0:
475,192,164917,1,0,0:0:0:0:
402,192,165078,1,0,0:0:0:0:
475,192,165078,1,0,0:0:0:0:
109,192,165119,128,0,165481:0:0:0:0:
256,192,165239,1,0,0:0:0:0:
329,192,165239,1,0,0:0:0:0:
256,192,165401,1,0,0:0:0:0:
329,192,165401,1,0,0:0:0:0:
36,192,165481,128,0,165723:0:0:0:0:
329,192,165562,1,0,0:0:0:0:
256,192,165562,1,0,0:0:0:0:
182,192,165723,128,0,165965:0:0:0:0:
256,192,165723,1,0,0:0:0:0:
329,192,165723,1,0,0:0:0:0:
402,192,165965,1,0,0:0:0:0:
475,192,165965,1,0,0:0:0:0:
109,192,166086,1,0,0:0:0:0:
36,192,166086,1,0,0:0:0:0:
109,192,166328,1,0,0:0:0:0:
182,192,166328,1,0,0:0:0:0:
256,192,166449,128,0,166691:0:0:0:0:
402,192,166449,1,0,0:0:0:0:
329,192,166449,1,0,0:0:0:0:
402,192,166691,1,0,0:0:0:0:
475,192,166691,1,0,0:0:0:0:
182,192,166691,128,0,167054:0:0:0:0:
475,192,166852,1,0,0:0:0:0:
402,192,166852,1,0,0:0:0:0:
402,192,167014,1,0,0:0:0:0:
475,192,167014,1,0,0:0:0:0:
109,192,167054,128,0,167417:0:0:0:0:
329,192,167175,1,0,0:0:0:0:
402,192,167175,1,0,0:0:0:0:
329,192,167336,1,0,0:0:0:0:
402,192,167336,1,0,0:0:0:0:
36,192,167417,128,0,167659:0:0:0:0:
329,192,167498,1,0,0:0:0:0:
402,192,167498,1,0,0:0:0:0:
109,192,167659,1,0,0:0:0:0:
182,192,167659,1,0,0:0:0:0:
256,192,167659,128,0,168022:0:0:0:0:
182,192,167820,1,0,0:0:0:0:
109,192,167820,1,0,0:0:0:0:
182,192,167981,1,0,0:0:0:0:
109,192,167981,1,0,0:0:0:0:
329,192,168022,128,0,168264:0:0:0:0:
109,192,168143,1,0,0:0:0:0:
36,192,168143,1,0,0:0:0:0:
402,192,168264,128,0,168506:0:0:0:0:
36,192,168304,1,0,0:0:0:0:
109,192,168304,1,0,0:0:0:0:
36,192,168465,1,0,0:0:0:0:
109,192,168465,1,0,0:0:0:0:
475,192,168506,128,0,168869:0:0:0:0:
182,192,168627,1,0,0:0:0:0:
256,192,168627,1,0,0:0:0:0:
182,192,168788,1,0,0:0:0:0:
256,192,168788,1,0,0:0:0:0:
402,192,168869,128,0,168989:0:0:0:0:
182,192,168949,1,0,0:0:0:0:
256,192,168949,1,0,0:0:0:0:
109,192,168989,128,0,169352:0:0:0:0:
475,192,169110,1,0,0:0:0:0:
402,192,169110,1,0,0:0:0:0:
402,192,169272,1,0,0:0:0:0:
475,192,169272,1,0,0:0:0:0:
329,192,169352,128,0,169594:0:0:0:0:
402,192,169433,1,0,0:0:0:0:
475,192,169433,1,0,0:0:0:0:
182,192,169594,128,0,169836:0:0:0:0:
475,192,169594,1,0,0:0:0:0:
402,192,169594,1,0,0:0:0:0:
36,192,169836,1,0,0:0:0:0:
109,192,169957,1,0,0:0:0:0:
182,192,170078,1,0,0:0:0:0:
402,192,170078,1,0,0:0:0:0:
475,192,170078,1,0,0:0:0:0:
256,192,170199,1,0,0:0:0:0:
402,192,170239,1,0,0:0:0:0:
475,192,170239,1,0,0:0:0:0:
329,192,170320,128,0,170562:0:0:0:0:
402,192,170401,1,0,0:0:0:0:
475,192,170401,1,0,0:0:0:0:
36,192,170562,128,0,171530:0:0:0:0:
182,192,170562,1,0,0:0:0:0:
109,192,170562,1,0,0:0:0:0:
256,192,171046,1,0,0:0:0:0:
475,192,171046,1,0,0:0:0:0:
402,192,171046,1,0,0:0:0:0:
256,192,171530,128,0,172498:0:0:0:0:
329,192,171772,1,0,0:0:0:0:
402,192,171772,1,0,0:0:0:0:
109,192,172014,1,0,0:0:0:0:
36,192,172014,1,0,0:0:0:0:
475,192,172014,1,0,0:0:0:0:
475,192,172498,128,0,173223:0:0:0:0:
182,192,172498,1,0,0:0:0:0:
109,192,172498,1,0,0:0:0:0:
329,192,172981,1,0,0:0:0:0:
402,192,172981,1,0,0:0:0:0:
182,192,172981,1,0,0:0:0:0:
109,192,173223,128,0,173465:0:0:0:0:
402,192,173465,128,0,173707:0:0:0:0:
256,192,173465,1,0,0:0:0:0:
182,192,173465,1,0,0:0:0:0:
109,192,173707,1,0,0:0:0:0:
36,192,173707,1,0,0:0:0:0:
256,192,173828,128,0,174070:0:0:0:0:
329,192,173828,128,0,174070:0:0:0:0:
402,192,174070,1,0,0:0:0:0:
475,192,174070,1,0,0:0:0:0:
109,192,174191,128,0,174433:0:0:0:0:
182,192,174191,1,0,0:0:0:0:
256,192,174191,1,0,0:0:0:0:
475,192,174433,128,0,175401:0:0:0:0:
329,192,174433,1,0,0:0:0:0:
402,192,174433,1,0,0:0:0:0:
256,192,174917,1,0,0:0:0:0:
36,192,174917,1,0,0:0:0:0:
109,192,174917,1,0,0:0:0:0:
256,192,175401,128,0,176369:0:0:0:0:
182,192,175643,1,0,0:0:0:0:
109,192,175643,1,0,0:0:0:0:
402,192,175885,1,0,0:0:0:0:
475,192,175885,1,0,0:0:0:0:
36,192,175885,1,0,0:0:0:0:
36,192,176369,128,0,177094:0:0:0:0:
329,192,176369,1,0,0:0:0:0:
402,192,176369,1,0,0:0:0:0:
182,192,176852,1,0,0:0:0:0:
109,192,176852,1,0,0:0:0:0:
329,192,176852,1,0,0:0:0:0:
402,192,177094,128,0,177336:0:0:0:0:
109,192,177336,128,0,177578:0:0:0:0:
256,192,177336,1,0,0:0:0:0:
329,192,177336,1,0,0:0:0:0:
402,192,177578,1,0,0:0:0:0:
475,192,177578,1,0,0:0:0:0:
182,192,177699,128,0,177941:0:0:0:0:
256,192,177699,128,0,177941:0:0:0:0:
109,192,177941,1,0,0:0:0:0:
36,192,177941,1,0,0:0:0:0:
402,192,178062,128,0,178304:0:0:0:0:
329,192,178062,1,0,0:0:0:0:
256,192,178062,1,0,0:0:0:0:
36,192,178304,128,0,179272:0:0:0:0:
182,192,178304,1,0,0:0:0:0:
109,192,178304,1,0,0:0:0:0:
256,192,178788,1,0,0:0:0:0:
475,192,178788,1,0,0:0:0:0:
402,192,178788,1,0,0:0:0:0:
256,192,179272,128,0,180239:0:0:0:0:
329,192,179514,1,0,0:0:0:0:
402,192,179514,1,0,0:0:0:0:
109,192,179756,1,0,0:0:0:0:
36,192,179756,1,0,0:0:0:0:
475,192,179756,1,0,0:0:0:0:
475,192,180239,128,0,180965:0:0:0:0:
182,192,180239,1,0,0:0:0:0:
109,192,180239,1,0,0:0:0:0:
329,192,180723,1,0,0:0:0:0:
402,192,180723,1,0,0:0:0:0:
182,192,180723,1,0,0:0:0:0:
109,192,180965,128,0,181207:0:0:0:0:
402,192,181207,128,0,181449:0:0:0:0:
256,192,181207,1,0,0:0:0:0:
182,192,181207,1,0,0:0:0:0:
109,192,181449,1,0,0:0:0:0:
36,192,181449,1,0,0:0:0:0:
256,192,181570,128,0,181812:0:0:0:0:
329,192,181570,128,0,181812:0:0:0:0:
402,192,181812,1,0,0:0:0:0:
475,192,181812,1,0,0:0:0:0:
109,192,181933,128,0,182175:0:0:0:0:
182,192,181933,1,0,0:0:0:0:
256,192,181933,1,0,0:0:0:0:
402,192,182175,1,0,0:0:0:0:
329,192,182175,1,0,0:0:0:0:
475,192,182175,128,0,183143:0:0:0:0:
109,192,182659,1,0,0:0:0:0:
36,192,182659,1,0,0:0:0:0:
256,192,182659,1,0,0:0:0:0:
256,192,183143,128,0,184110:0:0:0:0:
109,192,183385,1,0,0:0:0:0:
182,192,183385,1,0,0:0:0:0:
36,192,183627,1,0,0:0:0:0:
475,192,183627,1,0,0:0:0:0:
402,192,183627,1,0,0:0:0:0:
182,192,184110,128,0,184473:0:0:0:0:
109,192,184110,1,0,0:0:0:0:
402,192,184110,1,0,0:0:0:0:
109,192,184473,1,0,0:0:0:0:
329,192,184473,1,0,0:0:0:0:
36,192,184594,1,0,0:0:0:0:
182,192,184594,1,0,0:0:0:0:
402,192,184594,1,0,0:0:0:0:
256,192,184836,1,0,0:0:0:0:
109,192,184836,1,0,0:0:0:0:
329,192,185078,1,0,0:0:0:0:
256,192,185078,1,0,0:0:0:0:
475,192,185320,1,0,0:0:0:0:
402,192,185320,1,0,0:0:0:0:
182,192,185441,128,0,185683:0:0:0:0:
256,192,185441,128,0,185683:0:0:0:0:
36,192,185683,1,0,0:0:0:0:
109,192,185683,1,0,0:0:0:0:
256,192,185804,1,0,0:0:0:0:
329,192,185804,1,0,0:0:0:0:
402,192,185804,128,0,187014:0:0:0:0:
36,192,185804,128,0,186530:0:0:0:0:
475,192,185804,128,0,186530:0:0:0:0:
