osu file format v14

[General]
AudioFilename: Heartbit (MIU Remix).mp3
AudioLeadIn: 0
PreviewTime: 131830
Countdown: 0
SampleSet: Soft
StackLeniency: 0.7
Mode: 3
LetterboxInBreaks: 0
SpecialStyle: 0
WidescreenStoryboard: 1

[Editor]
Bookmarks: 12020,24820,37620,50420,79230,92030,104830,117630,143230,168830
DistanceSpacing: 0.8
BeatDivisor: 2
GridSize: 32
TimelineZoom: 2.199999

[Metadata]
Title:Pis's EDM Mania Pack Vol.2
TitleUnicode:Pis's EDM Mania Pack Vol.2
Artist:Various Artist
ArtistUnicode:Various Artist
Creator:PisRyder
Version:Heartbit (MIU Remix) - 4K
Source:
Tags:
BeatmapID:991082
BeatmapSetID:452032

[Difficulty]
HPDrainRate:8
CircleSize:4
OverallDifficulty:8
ApproachRate:5
SliderMultiplier:1.4
SliderTickRate:1

[Events]
//Background and Video events
0,0,"7.jpg",0,0
//Break Periods
//Storyboard Layer 0 (Background)
Sprite,Background,TopLeft,"7.jpg",0,0
//Storyboard Layer 1 (Fail)
//Storyboard Layer 2 (Pass)
//Storyboard Layer 3 (Foreground)
Sprite,Foreground,TopLeft,"SB\Heartbit (MIU Remix)\BG.jpg",-122,-9 S,0,-8000,,0.647 F,0,-8000,0,0,1 C,0,-8000,181004,100,100,100 F,0,181004,184004,1,0
Animation,Foreground,TopLeft,"SB\Particle\P.png",-122,-9,90,20,LoopForever S,0,-8000,,0.647 F,0,-8000,0,0,1 F,0,181004,184004,1,0
Sprite,Foreground,CentreLeft,"SB\Bar.png",510,271 V,0,-5000,-4000,0,0.647,0.647,0.647 F,0,-5000,181004,1
Sprite,Foreground,CentreLeft,"SB\BarColor.png",525,268.5 V,0,-3000,,0.616,0.647 F,0,-3000,-2900,0,1 C,0,-3000,181004,200,200,200 F,0,-2900,-2800,1,0 F,0,-2800,-2700,0,1 F,0,-2700,181004,1
Animation,Foreground,CentreLeft,"SB\BarC.png",525,268.5,90,20,LoopForever F,0,0,181004,1 C,0,0,181004,0,255,0 V,0,0,181004,0,0.647,0.616,0.647
Animation,Foreground,Centre,"SB\Disk.png",510,268,60,20,LoopForever V,0,-7000,-6000,0,0,0.8,0.8 F,0,-7000,-5500,0,1 V,0,-6000,-5500,0.8,0.8,0.648,0.648 F,0,-5500,181004,1
Sprite,Foreground,CentreLeft,"SB\Heartbit (MIU Remix)\Text.png",528,279 S,0,-3000,,0.647 F,0,-3000,-2900,0,1 F,0,-2900,-2800,1,0 F,0,-2800,-2700,0,1 F,0,-2700,181004,1
//Storyboard Sound Samples

[TimingPoints]
820,400,4,2,1,5,1,0
820,-133.333333333333,4,2,1,5,0,0
13620,-100,4,2,1,5,0,0
26420.0526315789,400,4,2,1,5,1,0
50420,-1000,4,2,1,5,0,0
51920,-100,4,2,1,5,0,0
52020,-100,4,2,1,5,0,1
76030,400,4,2,1,5,1,1
77630,-100,4,2,1,5,0,0
117630,-1000,4,2,1,5,0,0
118380,-133.333333333333,4,2,1,5,0,0
118430,-1000,4,2,1,5,0,0
118480,-133.333333333333,4,2,1,5,0,0
118530,-1000,4,2,1,5,0,0
118580,-133.333333333333,4,2,1,5,0,0
118630,-1000,4,2,1,5,0,0
118680,-133.333333333333,4,2,1,5,0,0
118730,-1000,4,2,1,5,0,0
118780,-133.333333333333,4,2,1,5,0,0
118830,-1000,4,2,1,5,0,0
119130,-100,4,2,1,5,0,0
119230,-100,4,2,1,5,0,1
144830,-100,4,2,1,5,0,0
170430,-400,4,2,1,5,0,0

[HitObjects]
64,192,820,5,0,0:0:0:0:
192,192,820,1,0,0:0:0:0:
448,192,820,1,0,0:0:0:0:
320,192,920,128,0,2420:0:0:0:0:
64,192,2520,128,0,4020:0:0:0:0:
448,192,4120,128,0,5620:0:0:0:0:
192,192,5720,128,0,7120:0:0:0:0:
64,192,7220,1,0,0:0:0:0:
192,192,7220,1,0,0:0:0:0:
448,192,7220,1,0,0:0:0:0:
320,192,7320,128,0,8820:0:0:0:0:
64,192,8920,128,0,10420:0:0:0:0:
192,192,10520,128,0,12020:0:0:0:0:
448,192,12120,128,0,13620:0:0:0:0:
64,192,13620,1,0,0:0:0:0:
192,192,13620,1,0,0:0:0:0:
320,192,13620,1,0,0:0:0:0:
448,192,13720,1,0,0:0:0:0:
192,192,13820,1,0,0:0:0:0:
320,192,13920,1,0,0:0:0:0:
64,192,14020,1,0,0:0:0:0:
192,192,14020,1,0,0:0:0:0:
448,192,14120,1,0,0:0:0:0:
64,192,14220,1,0,0:0:0:0:
320,192,14320,1,0,0:0:0:0:
192,192,14420,1,0,0:0:0:0:
448,192,14520,1,0,0:0:0:0:
192,192,14620,1,0,0:0:0:0:
320,192,14720,1,0,0:0:0:0:
64,192,14820,1,0,0:0:0:0:
192,192,14820,1,0,0:0:0:0:
448,192,14920,1,0,0:0:0:0:
64,192,15020,1,0,0:0:0:0:
320,192,15120,1,0,0:0:0:0:
192,192,15220,1,0,0:0:0:0:
448,192,15320,1,0,0:0:0:0:
192,192,15420,1,0,0:0:0:0:
320,192,15520,1,0,0:0:0:0:
64,192,15620,1,0,0:0:0:0:
192,192,15620,1,0,0:0:0:0:
448,192,15720,1,0,0:0:0:0:
64,192,15820,1,0,0:0:0:0:
320,192,15920,1,0,0:0:0:0:
192,192,16020,1,0,0:0:0:0:
448,192,16120,1,0,0:0:0:0:
192,192,16220,1,0,0:0:0:0:
320,192,16320,1,0,0:0:0:0:
64,192,16420,1,0,0:0:0:0:
192,192,16420,1,0,0:0:0:0:
448,192,16520,1,0,0:0:0:0:
64,192,16620,1,0,0:0:0:0:
320,192,16720,1,0,0:0:0:0:
192,192,16820,1,0,0:0:0:0:
64,192,16920,1,0,0:0:0:0:
320,192,17020,1,0,0:0:0:0:
192,192,17120,1,0,0:0:0:0:
320,192,17220,1,0,0:0:0:0:
448,192,17220,1,0,0:0:0:0:
64,192,17320,1,0,0:0:0:0:
448,192,17420,1,0,0:0:0:0:
192,192,17520,1,0,0:0:0:0:
320,192,17620,1,0,0:0:0:0:
64,192,17720,1,0,0:0:0:0:
320,192,17820,1,0,0:0:0:0:
192,192,17920,1,0,0:0:0:0:
320,192,18020,1,0,0:0:0:0:
448,192,18020,1,0,0:0:0:0:
64,192,18120,1,0,0:0:0:0:
448,192,18220,1,0,0:0:0:0:
192,192,18320,1,0,0:0:0:0:
320,192,18420,1,0,0:0:0:0:
448,192,18420,1,0,0:0:0:0:
320,192,18520,1,0,0:0:0:0:
448,192,18520,1,0,0:0:0:0:
64,192,18620,1,0,0:0:0:0:
320,192,18720,1,0,0:0:0:0:
448,192,18720,1,0,0:0:0:0:
64,192,18820,1,0,0:0:0:0:
320,192,18920,1,0,0:0:0:0:
448,192,18920,1,0,0:0:0:0:
192,192,19020,1,0,0:0:0:0:
64,192,19120,1,0,0:0:0:0:
320,192,19220,1,0,0:0:0:0:
448,192,19220,1,0,0:0:0:0:
64,192,19320,1,0,0:0:0:0:
448,192,19420,1,0,0:0:0:0:
320,192,19520,1,0,0:0:0:0:
192,192,19620,1,0,0:0:0:0:
64,192,19620,1,0,0:0:0:0:
448,192,19720,1,0,0:0:0:0:
64,192,19820,1,0,0:0:0:0:
192,192,19920,1,0,0:0:0:0:
64,192,20020,1,0,0:0:0:0:
320,192,20020,1,0,0:0:0:0:
448,192,20020,1,0,0:0:0:0:
192,192,20120,1,0,0:0:0:0:
448,192,20220,1,0,0:0:0:0:
64,192,20320,1,0,0:0:0:0:
192,192,20420,1,0,0:0:0:0:
320,192,20420,1,0,0:0:0:0:
448,192,20420,1,0,0:0:0:0:
64,192,20520,1,0,0:0:0:0:
448,192,20620,1,0,0:0:0:0:
320,192,20720,1,0,0:0:0:0:
64,192,20820,1,0,0:0:0:0:
448,192,20820,1,0,0:0:0:0:
192,192,20820,1,0,0:0:0:0:
320,192,20920,1,0,0:0:0:0:
64,192,21020,1,0,0:0:0:0:
448,192,21120,1,0,0:0:0:0:
64,192,21220,1,0,0:0:0:0:
192,192,21220,1,0,0:0:0:0:
320,192,21220,1,0,0:0:0:0:
448,192,21320,1,0,0:0:0:0:
64,192,21420,1,0,0:0:0:0:
192,192,21520,1,0,0:0:0:0:
64,192,21620,1,0,0:0:0:0:
320,192,21620,1,0,0:0:0:0:
448,192,21620,1,0,0:0:0:0:
192,192,21720,1,0,0:0:0:0:
448,192,21820,1,0,0:0:0:0:
64,192,21920,1,0,0:0:0:0:
320,192,22020,1,0,0:0:0:0:
192,192,22020,1,0,0:0:0:0:
448,192,22020,1,0,0:0:0:0:
64,192,22120,1,0,0:0:0:0:
448,192,22220,1,0,0:0:0:0:
320,192,22320,1,0,0:0:0:0:
64,192,22420,1,0,0:0:0:0:
192,192,22420,1,0,0:0:0:0:
448,192,22420,1,0,0:0:0:0:
320,192,22520,1,0,0:0:0:0:
64,192,22620,1,0,0:0:0:0:
448,192,22720,1,0,0:0:0:0:
64,192,22820,1,0,0:0:0:0:
192,192,22820,1,0,0:0:0:0:
320,192,22820,1,0,0:0:0:0:
448,192,22920,1,0,0:0:0:0:
64,192,23020,1,0,0:0:0:0:
192,192,23120,1,0,0:0:0:0:
64,192,23220,1,0,0:0:0:0:
320,192,23220,1,0,0:0:0:0:
448,192,23220,1,0,0:0:0:0:
192,192,23320,1,0,0:0:0:0:
448,192,23420,1,0,0:0:0:0:
64,192,23520,1,0,0:0:0:0:
320,192,23620,1,0,0:0:0:0:
192,192,23620,1,0,0:0:0:0:
448,192,23620,1,0,0:0:0:0:
64,192,23720,1,0,0:0:0:0:
448,192,23820,1,0,0:0:0:0:
320,192,23920,1,0,0:0:0:0:
192,192,24020,1,0,0:0:0:0:
64,192,24020,1,0,0:0:0:0:
448,192,24020,1,0,0:0:0:0:
320,192,24120,1,0,0:0:0:0:
64,192,24220,1,0,0:0:0:0:
448,192,24320,1,0,0:0:0:0:
320,192,24420,1,0,0:0:0:0:
192,192,24420,1,0,0:0:0:0:
64,192,24420,1,0,0:0:0:0:
448,192,24520,1,0,0:0:0:0:
192,192,24620,1,0,0:0:0:0:
64,192,24720,1,0,0:0:0:0:
192,192,24820,1,0,0:0:0:0:
320,192,24820,1,0,0:0:0:0:
448,192,24820,1,0,0:0:0:0:
64,192,24920,1,0,0:0:0:0:
448,192,25020,1,0,0:0:0:0:
64,192,25120,1,0,0:0:0:0:
192,192,25220,1,0,0:0:0:0:
320,192,25220,1,0,0:0:0:0:
448,192,25220,1,0,0:0:0:0:
64,192,25320,1,0,0:0:0:0:
448,192,25420,1,0,0:0:0:0:
64,192,25520,1,0,0:0:0:0:
192,192,25620,1,0,0:0:0:0:
320,192,25620,1,0,0:0:0:0:
448,192,25620,1,0,0:0:0:0:
64,192,25720,1,0,0:0:0:0:
448,192,25820,1,0,0:0:0:0:
64,192,25920,1,0,0:0:0:0:
192,192,26020,1,0,0:0:0:0:
320,192,26020,1,0,0:0:0:0:
448,192,26020,1,0,0:0:0:0:
64,192,26120,1,0,0:0:0:0:
192,192,26120,1,0,0:0:0:0:
320,192,26220,1,0,0:0:0:0:
448,192,26220,1,0,0:0:0:0:
64,192,26320,1,0,0:0:0:0:
192,192,26320,1,0,0:0:0:0:
192,192,26420,1,0,0:0:0:0:
320,192,26420,1,0,0:0:0:0:
448,192,26420,1,0,0:0:0:0:
64,192,26520,1,0,0:0:0:0:
320,192,26620,1,0,0:0:0:0:
192,192,26720,1,0,0:0:0:0:
320,192,26820,1,0,0:0:0:0:
448,192,26820,1,0,0:0:0:0:
64,192,26820,1,0,0:0:0:0:
192,192,26920,1,0,0:0:0:0:
448,192,27020,1,0,0:0:0:0:
320,192,27120,1,0,0:0:0:0:
64,192,27220,1,0,0:0:0:0:
192,192,27220,1,0,0:0:0:0:
448,192,27220,1,0,0:0:0:0:
320,192,27220,1,0,0:0:0:0:
64,192,27320,1,0,0:0:0:0:
192,192,27420,1,0,0:0:0:0:
448,192,27520,1,0,0:0:0:0:
320,192,27620,1,0,0:0:0:0:
64,192,27720,1,0,0:0:0:0:
448,192,27820,1,0,0:0:0:0:
320,192,27920,1,0,0:0:0:0:
64,192,28020,1,0,0:0:0:0:
192,192,28020,1,0,0:0:0:0:
448,192,28020,1,0,0:0:0:0:
320,192,28120,1,0,0:0:0:0:
64,192,28220,1,0,0:0:0:0:
448,192,28320,1,0,0:0:0:0:
64,192,28420,1,0,0:0:0:0:
192,192,28420,1,0,0:0:0:0:
320,192,28420,1,0,0:0:0:0:
448,192,28520,1,0,0:0:0:0:
192,192,28620,1,0,0:0:0:0:
64,192,28720,1,0,0:0:0:0:
64,192,28820,1,0,0:0:0:0:
192,192,28820,1,0,0:0:0:0:
320,192,28820,1,0,0:0:0:0:
448,192,28820,1,0,0:0:0:0:
448,192,28920,1,0,0:0:0:0:
192,192,29020,1,0,0:0:0:0:
320,192,29120,1,0,0:0:0:0:
64,192,29220,1,0,0:0:0:0:
192,192,29320,1,0,0:0:0:0:
448,192,29420,1,0,0:0:0:0:
320,192,29520,1,0,0:0:0:0:
192,192,29620,1,0,0:0:0:0:
64,192,29620,1,0,0:0:0:0:
448,192,29620,1,0,0:0:0:0:
320,192,29720,1,0,0:0:0:0:
64,192,29820,1,0,0:0:0:0:
192,192,29920,1,0,0:0:0:0:
64,192,30020,1,0,0:0:0:0:
320,192,30020,1,0,0:0:0:0:
448,192,30020,1,0,0:0:0:0:
192,192,30120,1,0,0:0:0:0:
448,192,30220,1,0,0:0:0:0:
320,192,30320,1,0,0:0:0:0:
64,192,30420,1,0,0:0:0:0:
192,192,30420,1,0,0:0:0:0:
320,192,30420,1,0,0:0:0:0:
448,192,30420,1,0,0:0:0:0:
64,192,30520,1,0,0:0:0:0:
320,192,30620,1,0,0:0:0:0:
192,192,30720,1,0,0:0:0:0:
448,192,30820,1,0,0:0:0:0:
64,192,30920,1,0,0:0:0:0:
192,192,31020,1,0,0:0:0:0:
448,192,31120,1,0,0:0:0:0:
320,192,31220,1,0,0:0:0:0:
192,192,31220,1,0,0:0:0:0:
64,192,31220,1,0,0:0:0:0:
448,192,31320,1,0,0:0:0:0:
192,192,31420,1,0,0:0:0:0:
64,192,31520,1,0,0:0:0:0:
192,192,31620,1,0,0:0:0:0:
320,192,31620,1,0,0:0:0:0:
448,192,31620,1,0,0:0:0:0:
64,192,31720,1,0,0:0:0:0:
192,192,31820,1,0,0:0:0:0:
448,192,31920,1,0,0:0:0:0:
64,192,32020,1,0,0:0:0:0:
192,192,32020,1,0,0:0:0:0:
320,192,32020,1,0,0:0:0:0:
448,192,32020,1,0,0:0:0:0:
320,192,32120,1,0,0:0:0:0:
64,192,32220,1,0,0:0:0:0:
448,192,32320,1,0,0:0:0:0:
192,192,32420,1,0,0:0:0:0:
64,192,32520,1,0,0:0:0:0:
320,192,32620,1,0,0:0:0:0:
448,192,32720,1,0,0:0:0:0:
320,192,32820,1,0,0:0:0:0:
192,192,32820,1,0,0:0:0:0:
64,192,32820,1,0,0:0:0:0:
448,192,32920,1,0,0:0:0:0:
192,192,33020,1,0,0:0:0:0:
320,192,33120,1,0,0:0:0:0:
192,192,33220,1,0,0:0:0:0:
64,192,33220,1,0,0:0:0:0:
448,192,33220,1,0,0:0:0:0:
320,192,33320,1,0,0:0:0:0:
64,192,33420,1,0,0:0:0:0:
192,192,33520,1,0,0:0:0:0:
448,192,33620,1,0,0:0:0:0:
320,192,33620,1,0,0:0:0:0:
64,192,33620,1,0,0:0:0:0:
192,192,33620,1,0,0:0:0:0:
448,192,33720,1,0,0:0:0:0:
320,192,33820,1,0,0:0:0:0:
64,192,33920,1,0,0:0:0:0:
192,192,34020,1,0,0:0:0:0:
448,192,34120,1,0,0:0:0:0:
64,192,34220,1,0,0:0:0:0:
192,192,34320,1,0,0:0:0:0:
448,192,34420,1,0,0:0:0:0:
320,192,34420,1,0,0:0:0:0:
64,192,34420,1,0,0:0:0:0:
192,192,34520,1,0,0:0:0:0:
448,192,34620,1,0,0:0:0:0:
64,192,34720,1,0,0:0:0:0:
448,192,34820,1,0,0:0:0:0:
320,192,34820,1,0,0:0:0:0:
192,192,34820,1,0,0:0:0:0:
64,192,34920,1,0,0:0:0:0:
320,192,35020,1,0,0:0:0:0:
448,192,35120,1,0,0:0:0:0:
448,192,35220,1,0,0:0:0:0:
320,192,35220,1,0,0:0:0:0:
192,192,35220,1,0,0:0:0:0:
64,192,35220,1,0,0:0:0:0:
64,192,35320,1,0,0:0:0:0:
320,192,35420,1,0,0:0:0:0:
192,192,35520,1,0,0:0:0:0:
448,192,35620,1,0,0:0:0:0:
320,192,35720,1,0,0:0:0:0:
64,192,35820,1,0,0:0:0:0:
192,192,35920,1,0,0:0:0:0:
320,192,36020,1,0,0:0:0:0:
448,192,36020,1,0,0:0:0:0:
64,192,36020,1,0,0:0:0:0:
192,192,36120,1,0,0:0:0:0:
448,192,36220,1,0,0:0:0:0:
320,192,36320,1,0,0:0:0:0:
448,192,36420,1,0,0:0:0:0:
192,192,36420,1,0,0:0:0:0:
64,192,36420,1,0,0:0:0:0:
320,192,36520,1,0,0:0:0:0:
64,192,36620,1,0,0:0:0:0:
192,192,36720,1,0,0:0:0:0:
448,192,36820,1,0,0:0:0:0:
320,192,36820,1,0,0:0:0:0:
192,192,36820,1,0,0:0:0:0:
64,192,36820,1,0,0:0:0:0:
448,192,36920,1,0,0:0:0:0:
192,192,37020,1,0,0:0:0:0:
320,192,37120,1,0,0:0:0:0:
64,192,37220,1,0,0:0:0:0:
448,192,37320,1,0,0:0:0:0:
320,192,37420,1,0,0:0:0:0:
64,192,37520,1,0,0:0:0:0:
192,192,37620,1,0,0:0:0:0:
320,192,37620,1,0,0:0:0:0:
448,192,37620,1,0,0:0:0:0:
64,192,37720,1,0,0:0:0:0:
320,192,37820,1,0,0:0:0:0:
448,192,37920,1,0,0:0:0:0:
320,192,38020,1,0,0:0:0:0:
192,192,38020,1,0,0:0:0:0:
64,192,38020,1,0,0:0:0:0:
448,192,38120,1,0,0:0:0:0:
320,192,38220,1,0,0:0:0:0:
64,192,38320,1,0,0:0:0:0:
448,192,38420,1,0,0:0:0:0:
320,192,38420,1,0,0:0:0:0:
192,192,38420,1,0,0:0:0:0:
64,192,38420,1,0,0:0:0:0:
192,192,38520,1,0,0:0:0:0:
448,192,38620,1,0,0:0:0:0:
64,192,38720,1,0,0:0:0:0:
320,192,38820,1,0,0:0:0:0:
192,192,38920,1,0,0:0:0:0:
448,192,39020,1,0,0:0:0:0:
320,192,39120,1,0,0:0:0:0:
64,192,39220,128,0,39420:0:0:0:0:
192,192,39220,1,0,0:0:0:0:
448,192,39220,1,0,0:0:0:0:
448,192,39420,1,0,0:0:0:0:
320,192,39520,128,0,39620:0:0:0:0:
448,192,39620,128,0,39820:0:0:0:0:
64,192,39620,1,0,0:0:0:0:
192,192,39620,1,0,0:0:0:0:
320,192,39820,1,0,0:0:0:0:
64,192,40020,1,0,0:0:0:0:
192,192,40020,1,0,0:0:0:0:
448,192,40020,1,0,0:0:0:0:
64,192,40220,1,0,0:0:0:0:
192,192,40220,1,0,0:0:0:0:
448,192,40220,1,0,0:0:0:0:
64,192,40420,1,0,0:0:0:0:
192,192,40420,1,0,0:0:0:0:
320,192,40420,1,0,0:0:0:0:
448,192,40420,1,0,0:0:0:0:
64,192,40620,128,0,40720:0:0:0:0:
448,192,40620,1,0,0:0:0:0:
192,192,40720,128,0,40820:0:0:0:0:
64,192,40820,1,0,0:0:0:0:
448,192,40820,128,0,41020:0:0:0:0:
320,192,40820,1,0,0:0:0:0:
320,192,41020,1,0,0:0:0:0:
192,192,41120,128,0,41220:0:0:0:0:
64,192,41220,128,0,41420:0:0:0:0:
448,192,41220,1,0,0:0:0:0:
320,192,41220,1,0,0:0:0:0:
192,192,41420,1,0,0:0:0:0:
448,192,41620,1,0,0:0:0:0:
320,192,41620,1,0,0:0:0:0:
64,192,41620,1,0,0:0:0:0:
448,192,41820,1,0,0:0:0:0:
320,192,41820,1,0,0:0:0:0:
64,192,41820,1,0,0:0:0:0:
448,192,42020,1,0,0:0:0:0:
320,192,42020,1,0,0:0:0:0:
192,192,42020,1,0,0:0:0:0:
64,192,42020,1,0,0:0:0:0:
448,192,42220,128,0,42320:0:0:0:0:
64,192,42220,1,0,0:0:0:0:
320,192,42320,128,0,42420:0:0:0:0:
448,192,42420,1,0,0:0:0:0:
192,192,42420,1,0,0:0:0:0:
64,192,42420,128,0,42620:0:0:0:0:
192,192,42620,1,0,0:0:0:0:
320,192,42720,128,0,42820:0:0:0:0:
192,192,42820,1,0,0:0:0:0:
64,192,42820,1,0,0:0:0:0:
448,192,42820,128,0,43020:0:0:0:0:
320,192,43020,1,0,0:0:0:0:
448,192,43220,1,0,0:0:0:0:
192,192,43220,1,0,0:0:0:0:
64,192,43220,1,0,0:0:0:0:
448,192,43420,1,0,0:0:0:0:
192,192,43420,1,0,0:0:0:0:
64,192,43420,1,0,0:0:0:0:
320,192,43620,1,0,0:0:0:0:
448,192,43620,1,0,0:0:0:0:
64,192,43620,1,0,0:0:0:0:
192,192,43620,1,0,0:0:0:0:
64,192,43820,128,0,43920:0:0:0:0:
448,192,43820,1,0,0:0:0:0:
192,192,43920,128,0,44020:0:0:0:0:
320,192,44020,1,0,0:0:0:0:
448,192,44020,128,0,44220:0:0:0:0:
64,192,44020,1,0,0:0:0:0:
320,192,44220,1,0,0:0:0:0:
192,192,44320,128,0,44420:0:0:0:0:
320,192,44420,1,0,0:0:0:0:
448,192,44420,1,0,0:0:0:0:
64,192,44420,128,0,44620:0:0:0:0:
192,192,44620,1,0,0:0:0:0:
64,192,44820,1,0,0:0:0:0:
320,192,44820,1,0,0:0:0:0:
448,192,44820,1,0,0:0:0:0:
64,192,45020,1,0,0:0:0:0:
320,192,45020,1,0,0:0:0:0:
448,192,45020,1,0,0:0:0:0:
192,192,45220,1,0,0:0:0:0:
64,192,45220,1,0,0:0:0:0:
448,192,45220,1,0,0:0:0:0:
320,192,45220,1,0,0:0:0:0:
448,192,45420,128,0,45520:0:0:0:0:
64,192,45420,1,0,0:0:0:0:
320,192,45520,128,0,45620:0:0:0:0:
192,192,45620,1,0,0:0:0:0:
64,192,45620,1,0,0:0:0:0:
448,192,45620,1,0,0:0:0:0:
320,192,45720,1,0,0:0:0:0:
192,192,45820,1,0,0:0:0:0:
448,192,45820,1,0,0:0:0:0:
64,192,45920,1,0,0:0:0:0:
192,192,46020,1,0,0:0:0:0:
320,192,46020,1,0,0:0:0:0:
448,192,46020,1,0,0:0:0:0:
64,192,46120,1,0,0:0:0:0:
448,192,46220,1,0,0:0:0:0:
320,192,46220,1,0,0:0:0:0:
192,192,46320,1,0,0:0:0:0:
448,192,46420,1,0,0:0:0:0:
64,192,46420,1,0,0:0:0:0:
320,192,46420,1,0,0:0:0:0:
192,192,46520,1,0,0:0:0:0:
64,192,46620,1,0,0:0:0:0:
448,192,46620,1,0,0:0:0:0:
320,192,46720,1,0,0:0:0:0:
192,192,46820,1,0,0:0:0:0:
448,192,46820,1,0,0:0:0:0:
64,192,46820,1,0,0:0:0:0:
320,192,46920,1,0,0:0:0:0:
192,192,47020,1,0,0:0:0:0:
64,192,47020,1,0,0:0:0:0:
448,192,47120,1,0,0:0:0:0:
192,192,47220,1,0,0:0:0:0:
64,192,47220,1,0,0:0:0:0:
320,192,47220,1,0,0:0:0:0:
448,192,47320,1,0,0:0:0:0:
64,192,47420,1,0,0:0:0:0:
320,192,47420,1,0,0:0:0:0:
192,192,47520,1,0,0:0:0:0:
320,192,47620,1,0,0:0:0:0:
448,192,47620,1,0,0:0:0:0:
64,192,47620,1,0,0:0:0:0:
192,192,47720,1,0,0:0:0:0:
448,192,47820,1,0,0:0:0:0:
320,192,47820,1,0,0:0:0:0:
64,192,47920,1,0,0:0:0:0:
448,192,48020,1,0,0:0:0:0:
320,192,48020,1,0,0:0:0:0:
192,192,48020,1,0,0:0:0:0:
64,192,48120,1,0,0:0:0:0:
448,192,48220,1,0,0:0:0:0:
192,192,48220,1,0,0:0:0:0:
320,192,48320,1,0,0:0:0:0:
192,192,48420,1,0,0:0:0:0:
448,192,48420,1,0,0:0:0:0:
64,192,48420,1,0,0:0:0:0:
320,192,48520,1,0,0:0:0:0:
64,192,48620,1,0,0:0:0:0:
448,192,48620,1,0,0:0:0:0:
192,192,48720,1,0,0:0:0:0:
448,192,48820,1,0,0:0:0:0:
320,192,48820,1,0,0:0:0:0:
192,192,48870,1,0,0:0:0:0:
64,192,48870,1,0,0:0:0:0:
320,192,48920,1,0,0:0:0:0:
448,192,48920,1,0,0:0:0:0:
192,192,48970,1,0,0:0:0:0:
64,192,48970,1,0,0:0:0:0:
448,192,49020,1,0,0:0:0:0:
320,192,49020,1,0,0:0:0:0:
192,192,49070,1,0,0:0:0:0:
64,192,49070,1,0,0:0:0:0:
320,192,49120,1,0,0:0:0:0:
448,192,49120,1,0,0:0:0:0:
192,192,49170,1,0,0:0:0:0:
64,192,49170,1,0,0:0:0:0:
320,192,49220,1,0,0:0:0:0:
448,192,49220,1,0,0:0:0:0:
192,192,49270,1,0,0:0:0:0:
64,192,49270,1,0,0:0:0:0:
320,192,49320,1,0,0:0:0:0:
448,192,49320,1,0,0:0:0:0:
192,192,49370,1,0,0:0:0:0:
64,192,49370,1,0,0:0:0:0:
448,192,49420,1,0,0:0:0:0:
320,192,49420,1,0,0:0:0:0:
192,192,49470,1,0,0:0:0:0:
64,192,49470,1,0,0:0:0:0:
320,192,49520,1,0,0:0:0:0:
448,192,49520,1,0,0:0:0:0:
192,192,49570,1,0,0:0:0:0:
64,192,49570,1,0,0:0:0:0:
448,192,49620,1,0,0:0:0:0:
320,192,49620,1,0,0:0:0:0:
192,192,49670,1,0,0:0:0:0:
64,192,49670,1,0,0:0:0:0:
320,192,49720,1,0,0:0:0:0:
448,192,49720,1,0,0:0:0:0:
192,192,49770,1,0,0:0:0:0:
64,192,49770,1,0,0:0:0:0:
448,192,49820,1,0,0:0:0:0:
320,192,49820,1,0,0:0:0:0:
192,192,49870,1,0,0:0:0:0:
64,192,49870,1,0,0:0:0:0:
320,192,49920,1,0,0:0:0:0:
448,192,49920,1,0,0:0:0:0:
192,192,49970,1,0,0:0:0:0:
64,192,49970,1,0,0:0:0:0:
448,192,50020,1,0,0:0:0:0:
320,192,50020,1,0,0:0:0:0:
192,192,50070,1,0,0:0:0:0:
64,192,50070,1,0,0:0:0:0:
320,192,50120,1,0,0:0:0:0:
448,192,50120,1,0,0:0:0:0:
192,192,50170,1,0,0:0:0:0:
64,192,50170,1,0,0:0:0:0:
448,192,50220,1,0,0:0:0:0:
320,192,50220,1,0,0:0:0:0:
192,192,50270,1,0,0:0:0:0:
64,192,50270,1,0,0:0:0:0:
320,192,50320,1,0,0:0:0:0:
448,192,50320,1,0,0:0:0:0:
192,192,50370,1,0,0:0:0:0:
64,192,50370,1,0,0:0:0:0:
64,192,52020,1,0,0:0:0:0:
448,192,52020,1,0,0:0:0:0:
192,192,52053,1,0,0:0:0:0:
320,192,52086,1,0,0:0:0:0:
448,192,52120,1,0,0:0:0:0:
64,192,52153,1,0,0:0:0:0:
192,192,52186,1,0,0:0:0:0:
320,192,52220,1,0,0:0:0:0:
448,192,52253,1,0,0:0:0:0:
64,192,52286,1,0,0:0:0:0:
192,192,52320,1,0,0:0:0:0:
320,192,52353,1,0,0:0:0:0:
448,192,52386,1,0,0:0:0:0:
64,192,52420,1,0,0:0:0:0:
192,192,52453,1,0,0:0:0:0:
320,192,52486,1,0,0:0:0:0:
448,192,52520,1,0,0:0:0:0:
320,192,52553,1,0,0:0:0:0:
192,192,52586,1,0,0:0:0:0:
64,192,52620,1,0,0:0:0:0:
448,192,52653,1,0,0:0:0:0:
320,192,52686,1,0,0:0:0:0:
192,192,52720,1,0,0:0:0:0:
64,192,52753,1,0,0:0:0:0:
448,192,52786,1,0,0:0:0:0:
320,192,52820,1,0,0:0:0:0:
192,192,52820,128,0,53020:0:0:0:0:
448,192,53020,128,0,53220:0:0:0:0:
64,192,53020,1,0,0:0:0:0:
320,192,53220,128,0,53320:0:0:0:0:
192,192,53220,1,0,0:0:0:0:
64,192,53320,128,0,53420:0:0:0:0:
192,192,53420,128,0,53520:0:0:0:0:
448,192,53420,1,0,0:0:0:0:
320,192,53520,128,0,53620:0:0:0:0:
192,192,53620,1,0,0:0:0:0:
448,192,53620,128,0,53820:0:0:0:0:
64,192,53620,1,0,0:0:0:0:
320,192,53820,1,0,0:0:0:0:
192,192,53920,1,0,0:0:0:0:
448,192,54020,128,0,54220:0:0:0:0:
64,192,54020,1,0,0:0:0:0:
320,192,54020,1,0,0:0:0:0:
192,192,54220,1,0,0:0:0:0:
320,192,54320,128,0,54420:0:0:0:0:
448,192,54420,1,0,0:0:0:0:
192,192,54420,1,0,0:0:0:0:
64,192,54420,1,0,0:0:0:0:
320,192,54520,1,0,0:0:0:0:
448,192,54620,128,0,54820:0:0:0:0:
192,192,54620,1,0,0:0:0:0:
192,192,54820,128,0,54920:0:0:0:0:
320,192,54820,1,0,0:0:0:0:
64,192,54820,1,0,0:0:0:0:
448,192,54920,1,0,0:0:0:0:
64,192,55020,1,0,0:0:0:0:
320,192,55020,128,0,55120:0:0:0:0:
192,192,55120,128,0,55220:0:0:0:0:
64,192,55220,1,0,0:0:0:0:
448,192,55220,1,0,0:0:0:0:
320,192,55253,1,0,0:0:0:0:
192,192,55286,1,0,0:0:0:0:
64,192,55320,1,0,0:0:0:0:
448,192,55353,1,0,0:0:0:0:
320,192,55386,1,0,0:0:0:0:
192,192,55420,1,0,0:0:0:0:
64,192,55453,1,0,0:0:0:0:
448,192,55486,1,0,0:0:0:0:
320,192,55520,1,0,0:0:0:0:
192,192,55553,1,0,0:0:0:0:
64,192,55586,1,0,0:0:0:0:
448,192,55620,1,0,0:0:0:0:
320,192,55653,1,0,0:0:0:0:
192,192,55686,1,0,0:0:0:0:
64,192,55720,1,0,0:0:0:0:
192,192,55753,1,0,0:0:0:0:
320,192,55786,1,0,0:0:0:0:
448,192,55820,1,0,0:0:0:0:
64,192,55853,1,0,0:0:0:0:
192,192,55886,1,0,0:0:0:0:
320,192,55920,1,0,0:0:0:0:
448,192,55953,1,0,0:0:0:0:
64,192,55986,1,0,0:0:0:0:
192,192,56020,1,0,0:0:0:0:
320,192,56020,128,0,56220:0:0:0:0:
448,192,56220,128,0,56420:0:0:0:0:
64,192,56220,1,0,0:0:0:0:
64,192,56420,128,0,56520:0:0:0:0:
192,192,56420,1,0,0:0:0:0:
320,192,56520,1,0,0:0:0:0:
448,192,56620,128,0,56720:0:0:0:0:
64,192,56620,1,0,0:0:0:0:
320,192,56720,128,0,56820:0:0:0:0:
192,192,56820,128,0,57020:0:0:0:0:
64,192,56820,1,0,0:0:0:0:
448,192,56820,1,0,0:0:0:0:
320,192,57020,1,0,0:0:0:0:
64,192,57120,1,0,0:0:0:0:
320,192,57220,128,0,57420:0:0:0:0:
192,192,57220,1,0,0:0:0:0:
448,192,57220,1,0,0:0:0:0:
64,192,57420,1,0,0:0:0:0:
192,192,57520,128,0,57620:0:0:0:0:
448,192,57620,1,0,0:0:0:0:
320,192,57620,1,0,0:0:0:0:
64,192,57620,1,0,0:0:0:0:
192,192,57720,1,0,0:0:0:0:
448,192,57820,128,0,58020:0:0:0:0:
320,192,57820,1,0,0:0:0:0:
192,192,58020,128,0,58120:0:0:0:0:
64,192,58020,1,0,0:0:0:0:
320,192,58220,128,0,58420:0:0:0:0:
448,192,58220,1,0,0:0:0:0:
448,192,58420,1,0,0:0:0:0:
64,192,58420,1,0,0:0:0:0:
320,192,58453,1,0,0:0:0:0:
192,192,58486,1,0,0:0:0:0:
64,192,58520,1,0,0:0:0:0:
448,192,58553,1,0,0:0:0:0:
320,192,58586,1,0,0:0:0:0:
192,192,58620,1,0,0:0:0:0:
64,192,58653,1,0,0:0:0:0:
448,192,58686,1,0,0:0:0:0:
320,192,58720,1,0,0:0:0:0:
192,192,58753,1,0,0:0:0:0:
64,192,58786,1,0,0:0:0:0:
448,192,58820,1,0,0:0:0:0:
320,192,58853,1,0,0:0:0:0:
192,192,58886,1,0,0:0:0:0:
64,192,58920,1,0,0:0:0:0:
192,192,58953,1,0,0:0:0:0:
320,192,58986,1,0,0:0:0:0:
448,192,59020,1,0,0:0:0:0:
64,192,59053,1,0,0:0:0:0:
192,192,59086,1,0,0:0:0:0:
320,192,59120,1,0,0:0:0:0:
448,192,59153,1,0,0:0:0:0:
64,192,59186,1,0,0:0:0:0:
192,192,59220,1,0,0:0:0:0:
320,192,59220,128,0,59420:0:0:0:0:
64,192,59420,128,0,59620:0:0:0:0:
448,192,59420,1,0,0:0:0:0:
192,192,59620,128,0,59720:0:0:0:0:
320,192,59620,1,0,0:0:0:0:
448,192,59720,128,0,59820:0:0:0:0:
320,192,59820,128,0,59920:0:0:0:0:
64,192,59820,1,0,0:0:0:0:
192,192,59920,128,0,60020:0:0:0:0:
320,192,60020,1,0,0:0:0:0:
64,192,60020,128,0,60220:0:0:0:0:
448,192,60020,1,0,0:0:0:0:
192,192,60220,1,0,0:0:0:0:
320,192,60320,1,0,0:0:0:0:
64,192,60420,128,0,60620:0:0:0:0:
448,192,60420,1,0,0:0:0:0:
192,192,60420,1,0,0:0:0:0:
320,192,60620,1,0,0:0:0:0:
192,192,60720,128,0,60820:0:0:0:0:
64,192,60820,1,0,0:0:0:0:
320,192,60820,1,0,0:0:0:0:
448,192,60820,1,0,0:0:0:0:
192,192,60920,1,0,0:0:0:0:
64,192,61020,128,0,61220:0:0:0:0:
320,192,61020,1,0,0:0:0:0:
320,192,61220,128,0,61320:0:0:0:0:
192,192,61220,1,0,0:0:0:0:
448,192,61220,1,0,0:0:0:0:
64,192,61320,1,0,0:0:0:0:
448,192,61420,1,0,0:0:0:0:
192,192,61420,128,0,61520:0:0:0:0:
320,192,61520,128,0,61620:0:0:0:0:
448,192,61620,1,0,0:0:0:0:
64,192,61620,1,0,0:0:0:0:
192,192,61653,1,0,0:0:0:0:
320,192,61686,1,0,0:0:0:0:
448,192,61720,1,0,0:0:0:0:
64,192,61753,1,0,0:0:0:0:
192,192,61786,1,0,0:0:0:0:
320,192,61820,1,0,0:0:0:0:
448,192,61853,1,0,0:0:0:0:
64,192,61886,1,0,0:0:0:0:
192,192,61920,1,0,0:0:0:0:
320,192,61953,1,0,0:0:0:0:
448,192,61986,1,0,0:0:0:0:
64,192,62020,1,0,0:0:0:0:
192,192,62053,1,0,0:0:0:0:
320,192,62086,1,0,0:0:0:0:
448,192,62120,1,0,0:0:0:0:
320,192,62153,1,0,0:0:0:0:
192,192,62186,1,0,0:0:0:0:
64,192,62220,1,0,0:0:0:0:
448,192,62253,1,0,0:0:0:0:
320,192,62286,1,0,0:0:0:0:
192,192,62320,1,0,0:0:0:0:
64,192,62353,1,0,0:0:0:0:
448,192,62386,1,0,0:0:0:0:
320,192,62420,1,0,0:0:0:0:
192,192,62420,128,0,62620:0:0:0:0:
64,192,62620,128,0,62820:0:0:0:0:
448,192,62620,1,0,0:0:0:0:
448,192,62820,128,0,62920:0:0:0:0:
320,192,62820,1,0,0:0:0:0:
192,192,62920,1,0,0:0:0:0:
64,192,63020,128,0,63120:0:0:0:0:
448,192,63020,1,0,0:0:0:0:
192,192,63120,128,0,63220:0:0:0:0:
320,192,63220,128,0,63420:0:0:0:0:
448,192,63220,1,0,0:0:0:0:
64,192,63220,1,0,0:0:0:0:
192,192,63420,1,0,0:0:0:0:
448,192,63520,1,0,0:0:0:0:
192,192,63620,128,0,63820:0:0:0:0:
320,192,63620,1,0,0:0:0:0:
64,192,63620,1,0,0:0:0:0:
448,192,63820,1,0,0:0:0:0:
320,192,63920,128,0,64020:0:0:0:0:
64,192,64020,1,0,0:0:0:0:
192,192,64020,1,0,0:0:0:0:
448,192,64020,1,0,0:0:0:0:
320,192,64120,1,0,0:0:0:0:
64,192,64220,128,0,64420:0:0:0:0:
192,192,64220,1,0,0:0:0:0:
320,192,64420,128,0,64520:0:0:0:0:
448,192,64420,1,0,0:0:0:0:
192,192,64620,1,0,0:0:0:0:
448,192,64620,128,0,64820:0:0:0:0:
64,192,64820,1,0,0:0:0:0:
320,192,64820,1,0,0:0:0:0:
192,192,64853,1,0,0:0:0:0:
320,192,64886,1,0,0:0:0:0:
448,192,64920,1,0,0:0:0:0:
64,192,64953,1,0,0:0:0:0:
192,192,64986,1,0,0:0:0:0:
320,192,65020,1,0,0:0:0:0:
448,192,65053,1,0,0:0:0:0:
64,192,65086,1,0,0:0:0:0:
192,192,65120,1,0,0:0:0:0:
320,192,65153,1,0,0:0:0:0:
448,192,65186,1,0,0:0:0:0:
64,192,65220,1,0,0:0:0:0:
192,192,65253,1,0,0:0:0:0:
320,192,65286,1,0,0:0:0:0:
448,192,65320,1,0,0:0:0:0:
320,192,65353,1,0,0:0:0:0:
192,192,65386,1,0,0:0:0:0:
64,192,65420,1,0,0:0:0:0:
448,192,65453,1,0,0:0:0:0:
320,192,65486,1,0,0:0:0:0:
192,192,65520,1,0,0:0:0:0:
64,192,65553,1,0,0:0:0:0:
448,192,65586,1,0,0:0:0:0:
320,192,65620,1,0,0:0:0:0:
192,192,65620,128,0,65820:0:0:0:0:
448,192,65820,128,0,66020:0:0:0:0:
64,192,65820,1,0,0:0:0:0:
320,192,66020,128,0,66120:0:0:0:0:
192,192,66020,1,0,0:0:0:0:
64,192,66120,128,0,66220:0:0:0:0:
192,192,66220,128,0,66320:0:0:0:0:
448,192,66220,1,0,0:0:0:0:
320,192,66320,128,0,66420:0:0:0:0:
192,192,66420,1,0,0:0:0:0:
448,192,66420,128,0,66620:0:0:0:0:
64,192,66420,1,0,0:0:0:0:
320,192,66620,1,0,0:0:0:0:
192,192,66720,1,0,0:0:0:0:
448,192,66820,128,0,67020:0:0:0:0:
64,192,66820,1,0,0:0:0:0:
320,192,66820,1,0,0:0:0:0:
192,192,67020,1,0,0:0:0:0:
320,192,67120,128,0,67220:0:0:0:0:
448,192,67220,1,0,0:0:0:0:
192,192,67220,1,0,0:0:0:0:
64,192,67220,1,0,0:0:0:0:
320,192,67320,1,0,0:0:0:0:
448,192,67420,128,0,67620:0:0:0:0:
192,192,67420,1,0,0:0:0:0:
192,192,67620,128,0,67720:0:0:0:0:
320,192,67620,1,0,0:0:0:0:
64,192,67620,1,0,0:0:0:0:
448,192,67720,1,0,0:0:0:0:
64,192,67820,1,0,0:0:0:0:
320,192,67820,128,0,67920:0:0:0:0:
192,192,67920,128,0,68020:0:0:0:0:
64,192,68020,1,0,0:0:0:0:
448,192,68020,1,0,0:0:0:0:
320,192,68053,1,0,0:0:0:0:
192,192,68086,1,0,0:0:0:0:
64,192,68120,1,0,0:0:0:0:
448,192,68153,1,0,0:0:0:0:
320,192,68186,1,0,0:0:0:0:
192,192,68220,1,0,0:0:0:0:
64,192,68253,1,0,0:0:0:0:
448,192,68286,1,0,0:0:0:0:
320,192,68320,1,0,0:0:0:0:
192,192,68353,1,0,0:0:0:0:
64,192,68386,1,0,0:0:0:0:
448,192,68420,1,0,0:0:0:0:
320,192,68453,1,0,0:0:0:0:
192,192,68486,1,0,0:0:0:0:
64,192,68520,1,0,0:0:0:0:
192,192,68553,1,0,0:0:0:0:
320,192,68586,1,0,0:0:0:0:
448,192,68620,1,0,0:0:0:0:
64,192,68653,1,0,0:0:0:0:
192,192,68686,1,0,0:0:0:0:
320,192,68720,1,0,0:0:0:0:
448,192,68753,1,0,0:0:0:0:
64,192,68786,1,0,0:0:0:0:
192,192,68820,1,0,0:0:0:0:
320,192,68820,128,0,69020:0:0:0:0:
448,192,69020,128,0,69220:0:0:0:0:
64,192,69020,1,0,0:0:0:0:
64,192,69220,128,0,69320:0:0:0:0:
192,192,69220,1,0,0:0:0:0:
320,192,69320,1,0,0:0:0:0:
448,192,69420,128,0,69520:0:0:0:0:
64,192,69420,1,0,0:0:0:0:
320,192,69520,128,0,69620:0:0:0:0:
192,192,69620,128,0,69820:0:0:0:0:
64,192,69620,1,0,0:0:0:0:
448,192,69620,1,0,0:0:0:0:
320,192,69820,1,0,0:0:0:0:
64,192,69920,1,0,0:0:0:0:
320,192,70020,128,0,70220:0:0:0:0:
192,192,70020,1,0,0:0:0:0:
448,192,70020,1,0,0:0:0:0:
64,192,70220,1,0,0:0:0:0:
192,192,70320,128,0,70420:0:0:0:0:
448,192,70420,1,0,0:0:0:0:
320,192,70420,1,0,0:0:0:0:
64,192,70420,1,0,0:0:0:0:
192,192,70520,1,0,0:0:0:0:
448,192,70620,128,0,70820:0:0:0:0:
320,192,70620,1,0,0:0:0:0:
192,192,70820,128,0,70920:0:0:0:0:
64,192,70820,1,0,0:0:0:0:
320,192,71020,128,0,71220:0:0:0:0:
448,192,71020,1,0,0:0:0:0:
448,192,71220,1,0,0:0:0:0:
64,192,71220,1,0,0:0:0:0:
320,192,71253,1,0,0:0:0:0:
192,192,71286,1,0,0:0:0:0:
64,192,71320,1,0,0:0:0:0:
448,192,71353,1,0,0:0:0:0:
320,192,71386,1,0,0:0:0:0:
192,192,71420,1,0,0:0:0:0:
64,192,71453,1,0,0:0:0:0:
448,192,71486,1,0,0:0:0:0:
320,192,71520,1,0,0:0:0:0:
192,192,71553,1,0,0:0:0:0:
64,192,71586,1,0,0:0:0:0:
448,192,71620,1,0,0:0:0:0:
320,192,71653,1,0,0:0:0:0:
192,192,71686,1,0,0:0:0:0:
64,192,71720,1,0,0:0:0:0:
192,192,71753,1,0,0:0:0:0:
320,192,71786,1,0,0:0:0:0:
448,192,71820,1,0,0:0:0:0:
64,192,71853,1,0,0:0:0:0:
192,192,71886,1,0,0:0:0:0:
320,192,71920,1,0,0:0:0:0:
448,192,71953,1,0,0:0:0:0:
64,192,71986,1,0,0:0:0:0:
192,192,72020,1,0,0:0:0:0:
320,192,72020,128,0,72220:0:0:0:0:
64,192,72220,128,0,72420:0:0:0:0:
448,192,72220,1,0,0:0:0:0:
192,192,72420,128,0,72520:0:0:0:0:
320,192,72420,1,0,0:0:0:0:
448,192,72520,128,0,72620:0:0:0:0:
320,192,72620,128,0,72720:0:0:0:0:
64,192,72620,1,0,0:0:0:0:
192,192,72720,128,0,72820:0:0:0:0:
320,192,72820,1,0,0:0:0:0:
64,192,72820,128,0,73020:0:0:0:0:
448,192,72820,1,0,0:0:0:0:
192,192,73020,1,0,0:0:0:0:
320,192,73120,1,0,0:0:0:0:
64,192,73220,128,0,73420:0:0:0:0:
448,192,73220,1,0,0:0:0:0:
192,192,73220,1,0,0:0:0:0:
320,192,73420,1,0,0:0:0:0:
192,192,73520,128,0,73620:0:0:0:0:
64,192,73620,1,0,0:0:0:0:
320,192,73620,1,0,0:0:0:0:
448,192,73620,1,0,0:0:0:0:
192,192,73720,1,0,0:0:0:0:
64,192,73820,128,0,74020:0:0:0:0:
320,192,73820,1,0,0:0:0:0:
192,192,74020,1,0,0:0:0:0:
448,192,74020,1,0,0:0:0:0:
320,192,74020,1,0,0:0:0:0:
448,192,74420,1,0,0:0:0:0:
64,192,74420,1,0,0:0:0:0:
192,192,74453,1,0,0:0:0:0:
320,192,74486,1,0,0:0:0:0:
448,192,74520,1,0,0:0:0:0:
64,192,74553,1,0,0:0:0:0:
192,192,74586,1,0,0:0:0:0:
320,192,74620,1,0,0:0:0:0:
448,192,74653,1,0,0:0:0:0:
64,192,74686,1,0,0:0:0:0:
192,192,74720,1,0,0:0:0:0:
320,192,74753,1,0,0:0:0:0:
448,192,74786,1,0,0:0:0:0:
64,192,74820,1,0,0:0:0:0:
192,192,74853,1,0,0:0:0:0:
320,192,74886,1,0,0:0:0:0:
448,192,74920,1,0,0:0:0:0:
320,192,74953,1,0,0:0:0:0:
192,192,74986,1,0,0:0:0:0:
64,192,75020,1,0,0:0:0:0:
448,192,75053,1,0,0:0:0:0:
320,192,75086,1,0,0:0:0:0:
192,192,75120,1,0,0:0:0:0:
64,192,75153,1,0,0:0:0:0:
448,192,75186,1,0,0:0:0:0:
320,192,75220,1,0,0:0:0:0:
192,192,75220,128,0,75420:0:0:0:0:
64,192,75420,128,0,75620:0:0:0:0:
448,192,75420,1,0,0:0:0:0:
448,192,75620,128,0,75720:0:0:0:0:
320,192,75620,1,0,0:0:0:0:
192,192,75720,1,0,0:0:0:0:
64,192,75820,128,0,75920:0:0:0:0:
448,192,75820,1,0,0:0:0:0:
192,192,75920,128,0,76030:0:0:0:0:
448,192,76030,1,0,0:0:0:0:
320,192,76030,1,0,0:0:0:0:
64,192,76030,1,0,0:0:0:0:
64,192,76230,1,0,0:0:0:0:
192,192,76230,1,0,0:0:0:0:
448,192,76230,1,0,0:0:0:0:
64,192,76430,1,0,0:0:0:0:
192,192,76430,1,0,0:0:0:0:
448,192,76430,1,0,0:0:0:0:
320,192,76430,1,0,0:0:0:0:
320,192,76630,1,0,0:0:0:0:
64,192,76630,1,0,0:0:0:0:
448,192,76630,1,0,0:0:0:0:
64,192,76830,1,0,0:0:0:0:
448,192,76830,1,0,0:0:0:0:
320,192,76830,1,0,0:0:0:0:
192,192,76830,1,0,0:0:0:0:
64,192,77030,1,0,0:0:0:0:
192,192,77030,1,0,0:0:0:0:
448,192,77030,1,0,0:0:0:0:
448,192,77230,1,0,0:0:0:0:
192,192,77230,1,0,0:0:0:0:
64,192,77230,1,0,0:0:0:0:
320,192,77230,1,0,0:0:0:0:
64,192,77330,1,0,0:0:0:0:
320,192,77330,1,0,0:0:0:0:
448,192,77330,1,0,0:0:0:0:
192,192,77330,1,0,0:0:0:0:
320,192,77430,1,0,0:0:0:0:
448,192,77430,1,0,0:0:0:0:
64,192,77430,1,0,0:0:0:0:
64,192,77630,1,0,0:0:0:0:
192,192,77630,1,0,0:0:0:0:
448,192,77630,1,0,0:0:0:0:
192,192,80830,128,0,81030:0:0:0:0:
448,192,80830,1,0,0:0:0:0:
64,192,80830,1,0,0:0:0:0:
320,192,80830,1,0,0:0:0:0:
192,192,81230,128,0,81430:0:0:0:0:
448,192,81230,1,0,0:0:0:0:
64,192,81530,128,0,81630:0:0:0:0:
448,192,81630,1,0,0:0:0:0:
192,192,81730,1,0,0:0:0:0:
192,192,81830,128,0,81930:0:0:0:0:
192,192,82030,128,0,82130:0:0:0:0:
448,192,82030,1,0,0:0:0:0:
192,192,82230,128,0,82330:0:0:0:0:
320,192,82430,128,0,82530:0:0:0:0:
64,192,82430,1,0,0:0:0:0:
448,192,82630,128,0,82730:0:0:0:0:
448,192,82830,128,0,82930:0:0:0:0:
64,192,82830,1,0,0:0:0:0:
320,192,83130,128,0,83230:0:0:0:0:
64,192,83230,1,0,0:0:0:0:
448,192,83330,1,0,0:0:0:0:
448,192,83430,128,0,83530:0:0:0:0:
448,192,83630,128,0,83730:0:0:0:0:
64,192,83630,1,0,0:0:0:0:
448,192,83830,128,0,83930:0:0:0:0:
192,192,84030,128,0,84230:0:0:0:0:
64,192,84030,1,0,0:0:0:0:
192,192,84430,128,0,84630:0:0:0:0:
448,192,84430,1,0,0:0:0:0:
64,192,84730,128,0,84830:0:0:0:0:
448,192,84830,1,0,0:0:0:0:
192,192,84930,1,0,0:0:0:0:
192,192,85030,128,0,85130:0:0:0:0:
192,192,85230,128,0,85330:0:0:0:0:
448,192,85230,1,0,0:0:0:0:
192,192,85430,128,0,85530:0:0:0:0:
64,192,85630,128,0,85730:0:0:0:0:
448,192,85630,1,0,0:0:0:0:
192,192,85830,128,0,85930:0:0:0:0:
192,192,86030,128,0,86130:0:0:0:0:
448,192,86030,1,0,0:0:0:0:
64,192,86330,128,0,86430:0:0:0:0:
448,192,86430,1,0,0:0:0:0:
192,192,86530,1,0,0:0:0:0:
192,192,86630,128,0,86730:0:0:0:0:
192,192,86830,128,0,86930:0:0:0:0:
448,192,86830,1,0,0:0:0:0:
192,192,87030,128,0,87130:0:0:0:0:
320,192,87230,128,0,87430:0:0:0:0:
448,192,87230,1,0,0:0:0:0:
64,192,87530,1,0,0:0:0:0:
320,192,87630,128,0,87830:0:0:0:0:
448,192,87630,1,0,0:0:0:0:
192,192,87930,128,0,88030:0:0:0:0:
448,192,88030,1,0,0:0:0:0:
64,192,88130,1,0,0:0:0:0:
320,192,88230,128,0,88330:0:0:0:0:
320,192,88430,128,0,88530:0:0:0:0:
448,192,88430,1,0,0:0:0:0:
64,192,88630,1,0,0:0:0:0:
192,192,88730,1,0,0:0:0:0:
320,192,88830,128,0,89030:0:0:0:0:
448,192,88830,1,0,0:0:0:0:
192,192,89130,1,0,0:0:0:0:
448,192,89230,128,0,89430:0:0:0:0:
64,192,89230,1,0,0:0:0:0:
320,192,89530,128,0,89630:0:0:0:0:
64,192,89630,1,0,0:0:0:0:
192,192,89730,1,0,0:0:0:0:
448,192,89830,128,0,89930:0:0:0:0:
64,192,90030,128,0,90130:0:0:0:0:
320,192,90030,1,0,0:0:0:0:
192,192,90030,1,0,0:0:0:0:
448,192,90230,1,0,0:0:0:0:
320,192,90330,1,0,0:0:0:0:
192,192,90430,128,0,90630:0:0:0:0:
64,192,90430,1,0,0:0:0:0:
64,192,90730,1,0,0:0:0:0:
320,192,90830,128,0,91030:0:0:0:0:
448,192,90830,1,0,0:0:0:0:
320,192,91130,128,0,91230:0:0:0:0:
448,192,91230,1,0,0:0:0:0:
64,192,91330,1,0,0:0:0:0:
448,192,91430,128,0,91530:0:0:0:0:
64,192,91630,128,0,91730:0:0:0:0:
192,192,91630,1,0,0:0:0:0:
448,192,91830,1,0,0:0:0:0:
320,192,91930,1,0,0:0:0:0:
64,192,92030,128,0,92530:0:0:0:0:
192,192,92030,128,0,92730:0:0:0:0:
448,192,92230,128,0,92830:0:0:0:0:
320,192,92430,128,0,92930:0:0:0:0:
64,192,92630,128,0,93130:0:0:0:0:
192,192,92830,128,0,93030:0:0:0:0:
448,192,92930,128,0,93530:0:0:0:0:
320,192,93030,128,0,93330:0:0:0:0:
192,192,93130,128,0,93530:0:0:0:0:
64,192,93230,128,0,93530:0:0:0:0:
320,192,93430,128,0,93530:0:0:0:0:
320,192,93630,128,0,93830:0:0:0:0:
192,192,93630,1,0,0:0:0:0:
64,192,93630,1,0,0:0:0:0:
448,192,93630,1,0,0:0:0:0:
448,192,93830,1,0,0:0:0:0:
64,192,93930,1,0,0:0:0:0:
320,192,94030,128,0,94230:0:0:0:0:
192,192,94030,1,0,0:0:0:0:
448,192,94030,1,0,0:0:0:0:
448,192,94230,1,0,0:0:0:0:
192,192,94330,128,0,94430:0:0:0:0:
448,192,94430,1,0,0:0:0:0:
320,192,94430,1,0,0:0:0:0:
64,192,94530,1,0,0:0:0:0:
320,192,94630,128,0,94730:0:0:0:0:
320,192,94830,128,0,94930:0:0:0:0:
192,192,94830,1,0,0:0:0:0:
64,192,94830,1,0,0:0:0:0:
448,192,94930,1,0,0:0:0:0:
64,192,95030,1,0,0:0:0:0:
192,192,95130,1,0,0:0:0:0:
320,192,95230,128,0,95430:0:0:0:0:
64,192,95230,1,0,0:0:0:0:
448,192,95230,1,0,0:0:0:0:
64,192,95430,1,0,0:0:0:0:
192,192,95530,1,0,0:0:0:0:
448,192,95630,128,0,95830:0:0:0:0:
64,192,95630,1,0,0:0:0:0:
320,192,95630,1,0,0:0:0:0:
64,192,95830,1,0,0:0:0:0:
320,192,95930,128,0,96030:0:0:0:0:
64,192,96030,1,0,0:0:0:0:
448,192,96030,1,0,0:0:0:0:
192,192,96130,1,0,0:0:0:0:
448,192,96230,128,0,96330:0:0:0:0:
64,192,96430,128,0,96530:0:0:0:0:
320,192,96430,1,0,0:0:0:0:
448,192,96430,1,0,0:0:0:0:
192,192,96530,1,0,0:0:0:0:
448,192,96630,1,0,0:0:0:0:
320,192,96730,1,0,0:0:0:0:
192,192,96830,128,0,97030:0:0:0:0:
64,192,96830,1,0,0:0:0:0:
448,192,96830,1,0,0:0:0:0:
448,192,97030,1,0,0:0:0:0:
64,192,97130,1,0,0:0:0:0:
320,192,97230,128,0,97430:0:0:0:0:
192,192,97230,1,0,0:0:0:0:
448,192,97230,1,0,0:0:0:0:
448,192,97430,1,0,0:0:0:0:
320,192,97530,128,0,97630:0:0:0:0:
192,192,97630,1,0,0:0:0:0:
448,192,97630,1,0,0:0:0:0:
64,192,97730,1,0,0:0:0:0:
448,192,97830,128,0,97930:0:0:0:0:
64,192,98030,128,0,98130:0:0:0:0:
192,192,98030,1,0,0:0:0:0:
320,192,98030,1,0,0:0:0:0:
448,192,98130,1,0,0:0:0:0:
320,192,98230,1,0,0:0:0:0:
192,192,98330,1,0,0:0:0:0:
320,192,98430,1,0,0:0:0:0:
448,192,98430,1,0,0:0:0:0:
64,192,98430,128,0,98630:0:0:0:0:
320,192,98530,1,0,0:0:0:0:
448,192,98530,1,0,0:0:0:0:
320,192,98730,1,0,0:0:0:0:
448,192,98730,1,0,0:0:0:0:
64,192,98730,1,0,0:0:0:0:
192,192,98830,128,0,99030:0:0:0:0:
320,192,98930,1,0,0:0:0:0:
448,192,98930,1,0,0:0:0:0:
64,192,99130,128,0,99230:0:0:0:0:
320,192,99230,1,0,0:0:0:0:
448,192,99230,1,0,0:0:0:0:
192,192,99330,1,0,0:0:0:0:
448,192,99430,128,0,99630:0:0:0:0:
64,192,99630,128,0,99730:0:0:0:0:
320,192,99630,1,0,0:0:0:0:
192,192,99630,1,0,0:0:0:0:
448,192,99830,1,0,0:0:0:0:
320,192,99830,128,0,100030:0:0:0:0:
192,192,100030,128,0,100230:0:0:0:0:
448,192,100030,1,0,0:0:0:0:
64,192,100030,1,0,0:0:0:0:
64,192,100230,1,0,0:0:0:0:
448,192,100330,1,0,0:0:0:0:
192,192,100430,128,0,100630:0:0:0:0:
320,192,100430,1,0,0:0:0:0:
64,192,100430,1,0,0:0:0:0:
64,192,100630,1,0,0:0:0:0:
320,192,100730,128,0,100830:0:0:0:0:
64,192,100830,1,0,0:0:0:0:
192,192,100830,1,0,0:0:0:0:
448,192,100930,1,0,0:0:0:0:
192,192,101030,128,0,101130:0:0:0:0:
192,192,101230,128,0,101330:0:0:0:0:
320,192,101230,1,0,0:0:0:0:
448,192,101230,1,0,0:0:0:0:
64,192,101330,1,0,0:0:0:0:
448,192,101430,1,0,0:0:0:0:
320,192,101530,1,0,0:0:0:0:
192,192,101630,128,0,101830:0:0:0:0:
448,192,101630,1,0,0:0:0:0:
64,192,101630,1,0,0:0:0:0:
448,192,101830,1,0,0:0:0:0:
320,192,101930,1,0,0:0:0:0:
64,192,102030,128,0,102230:0:0:0:0:
448,192,102030,1,0,0:0:0:0:
192,192,102030,1,0,0:0:0:0:
448,192,102230,1,0,0:0:0:0:
192,192,102330,128,0,102430:0:0:0:0:
448,192,102430,1,0,0:0:0:0:
64,192,102430,1,0,0:0:0:0:
320,192,102530,1,0,0:0:0:0:
64,192,102630,128,0,102730:0:0:0:0:
448,192,102830,128,0,102930:0:0:0:0:
192,192,102830,1,0,0:0:0:0:
64,192,102830,1,0,0:0:0:0:
320,192,102930,1,0,0:0:0:0:
64,192,103030,1,0,0:0:0:0:
192,192,103130,1,0,0:0:0:0:
320,192,103230,128,0,103430:0:0:0:0:
448,192,103230,1,0,0:0:0:0:
64,192,103230,1,0,0:0:0:0:
64,192,103430,1,0,0:0:0:0:
448,192,103530,1,0,0:0:0:0:
192,192,103630,128,0,103830:0:0:0:0:
320,192,103630,1,0,0:0:0:0:
64,192,103630,1,0,0:0:0:0:
64,192,103830,1,0,0:0:0:0:
192,192,103930,128,0,104030:0:0:0:0:
320,192,104030,1,0,0:0:0:0:
64,192,104030,1,0,0:0:0:0:
448,192,104130,1,0,0:0:0:0:
64,192,104230,128,0,104330:0:0:0:0:
448,192,104430,128,0,104530:0:0:0:0:
320,192,104430,1,0,0:0:0:0:
192,192,104430,1,0,0:0:0:0:
64,192,104530,1,0,0:0:0:0:
192,192,104630,1,0,0:0:0:0:
320,192,104730,1,0,0:0:0:0:
448,192,104830,128,0,105030:0:0:0:0:
192,192,104830,1,0,0:0:0:0:
64,192,104830,1,0,0:0:0:0:
320,192,105030,1,0,0:0:0:0:
448,192,105130,1,0,0:0:0:0:
320,192,105230,128,0,105430:0:0:0:0:
192,192,105230,1,0,0:0:0:0:
64,192,105230,1,0,0:0:0:0:
192,192,105430,1,0,0:0:0:0:
448,192,105530,128,0,105630:0:0:0:0:
192,192,105630,1,0,0:0:0:0:
64,192,105630,1,0,0:0:0:0:
320,192,105730,1,0,0:0:0:0:
64,192,105830,128,0,106030:0:0:0:0:
448,192,106030,128,0,106130:0:0:0:0:
192,192,106030,1,0,0:0:0:0:
320,192,106030,1,0,0:0:0:0:
64,192,106230,1,0,0:0:0:0:
192,192,106230,128,0,106430:0:0:0:0:
448,192,106430,128,0,106630:0:0:0:0:
320,192,106430,1,0,0:0:0:0:
64,192,106430,1,0,0:0:0:0:
64,192,106630,1,0,0:0:0:0:
192,192,106730,128,0,106830:0:0:0:0:
64,192,106830,128,0,107030:0:0:0:0:
448,192,106830,1,0,0:0:0:0:
320,192,106830,1,0,0:0:0:0:
192,192,107030,1,0,0:0:0:0:
448,192,107230,1,0,0:0:0:0:
320,192,107230,1,0,0:0:0:0:
64,192,107230,1,0,0:0:0:0:
448,192,107430,1,0,0:0:0:0:
320,192,107430,1,0,0:0:0:0:
64,192,107430,1,0,0:0:0:0:
448,192,107630,1,0,0:0:0:0:
320,192,107630,1,0,0:0:0:0:
192,192,107630,1,0,0:0:0:0:
64,192,107630,1,0,0:0:0:0:
448,192,107830,128,0,107930:0:0:0:0:
64,192,107830,1,0,0:0:0:0:
320,192,107930,128,0,108030:0:0:0:0:
448,192,108030,1,0,0:0:0:0:
64,192,108030,128,0,108230:0:0:0:0:
192,192,108030,1,0,0:0:0:0:
192,192,108230,1,0,0:0:0:0:
320,192,108330,128,0,108430:0:0:0:0:
448,192,108430,128,0,108630:0:0:0:0:
64,192,108430,1,0,0:0:0:0:
192,192,108430,1,0,0:0:0:0:
320,192,108630,1,0,0:0:0:0:
64,192,108830,1,0,0:0:0:0:
192,192,108830,1,0,0:0:0:0:
448,192,108830,1,0,0:0:0:0:
64,192,109030,1,0,0:0:0:0:
192,192,109030,1,0,0:0:0:0:
448,192,109030,1,0,0:0:0:0:
64,192,109230,1,0,0:0:0:0:
192,192,109230,1,0,0:0:0:0:
320,192,109230,1,0,0:0:0:0:
448,192,109230,1,0,0:0:0:0:
64,192,109430,128,0,109530:0:0:0:0:
448,192,109430,1,0,0:0:0:0:
192,192,109530,128,0,109630:0:0:0:0:
64,192,109630,1,0,0:0:0:0:
320,192,109630,1,0,0:0:0:0:
448,192,109630,128,0,109830:0:0:0:0:
320,192,109830,1,0,0:0:0:0:
192,192,109930,128,0,110030:0:0:0:0:
320,192,110030,1,0,0:0:0:0:
448,192,110030,1,0,0:0:0:0:
64,192,110030,128,0,110230:0:0:0:0:
192,192,110230,1,0,0:0:0:0:
64,192,110430,1,0,0:0:0:0:
320,192,110430,1,0,0:0:0:0:
448,192,110430,1,0,0:0:0:0:
64,192,110630,1,0,0:0:0:0:
320,192,110630,1,0,0:0:0:0:
448,192,110630,1,0,0:0:0:0:
192,192,110830,1,0,0:0:0:0:
64,192,110830,1,0,0:0:0:0:
448,192,110830,1,0,0:0:0:0:
320,192,110830,1,0,0:0:0:0:
448,192,111030,128,0,111130:0:0:0:0:
64,192,111030,1,0,0:0:0:0:
320,192,111130,128,0,111230:0:0:0:0:
192,192,111230,1,0,0:0:0:0:
448,192,111230,1,0,0:0:0:0:
64,192,111230,1,0,0:0:0:0:
320,192,111430,1,0,0:0:0:0:
448,192,111430,1,0,0:0:0:0:
64,192,111430,1,0,0:0:0:0:
64,192,111630,1,0,0:0:0:0:
192,192,111630,1,0,0:0:0:0:
320,192,111630,1,0,0:0:0:0:
448,192,111630,1,0,0:0:0:0:
64,192,111830,1,0,0:0:0:0:
192,192,111830,1,0,0:0:0:0:
448,192,111830,1,0,0:0:0:0:
64,192,112030,1,0,0:0:0:0:
192,192,112030,1,0,0:0:0:0:
320,192,112030,1,0,0:0:0:0:
448,192,112030,1,0,0:0:0:0:
448,192,112230,1,0,0:0:0:0:
64,192,112230,1,0,0:0:0:0:
320,192,112230,1,0,0:0:0:0:
320,192,112430,1,0,0:0:0:0:
448,192,112430,1,0,0:0:0:0:
64,192,112430,1,0,0:0:0:0:
192,192,112430,1,0,0:0:0:0:
64,192,112530,1,0,0:0:0:0:
192,192,112530,1,0,0:0:0:0:
320,192,112530,1,0,0:0:0:0:
448,192,112530,1,0,0:0:0:0:
64,192,112630,1,0,0:0:0:0:
192,192,112630,1,0,0:0:0:0:
448,192,112630,1,0,0:0:0:0:
320,192,112830,1,0,0:0:0:0:
448,192,112830,1,0,0:0:0:0:
64,192,112830,1,0,0:0:0:0:
192,192,112930,1,0,0:0:0:0:
320,192,113030,1,0,0:0:0:0:
64,192,113030,1,0,0:0:0:0:
448,192,113130,1,0,0:0:0:0:
320,192,113230,1,0,0:0:0:0:
192,192,113230,1,0,0:0:0:0:
64,192,113230,1,0,0:0:0:0:
448,192,113330,1,0,0:0:0:0:
64,192,113430,1,0,0:0:0:0:
192,192,113430,1,0,0:0:0:0:
320,192,113530,1,0,0:0:0:0:
64,192,113630,1,0,0:0:0:0:
448,192,113630,1,0,0:0:0:0:
192,192,113630,1,0,0:0:0:0:
320,192,113730,1,0,0:0:0:0:
448,192,113830,1,0,0:0:0:0:
64,192,113830,1,0,0:0:0:0:
192,192,113930,1,0,0:0:0:0:
320,192,114030,1,0,0:0:0:0:
64,192,114030,1,0,0:0:0:0:
448,192,114030,1,0,0:0:0:0:
192,192,114130,1,0,0:0:0:0:
320,192,114230,1,0,0:0:0:0:
448,192,114230,1,0,0:0:0:0:
64,192,114330,1,0,0:0:0:0:
320,192,114430,1,0,0:0:0:0:
448,192,114430,1,0,0:0:0:0:
192,192,114430,1,0,0:0:0:0:
64,192,114530,1,0,0:0:0:0:
448,192,114630,1,0,0:0:0:0:
192,192,114630,1,0,0:0:0:0:
320,192,114730,1,0,0:0:0:0:
192,192,114830,1,0,0:0:0:0:
64,192,114830,1,0,0:0:0:0:
448,192,114830,1,0,0:0:0:0:
320,192,114930,1,0,0:0:0:0:
64,192,115030,1,0,0:0:0:0:
192,192,115030,1,0,0:0:0:0:
448,192,115130,1,0,0:0:0:0:
64,192,115230,1,0,0:0:0:0:
192,192,115230,1,0,0:0:0:0:
320,192,115230,1,0,0:0:0:0:
448,192,115330,1,0,0:0:0:0:
64,192,115430,1,0,0:0:0:0:
320,192,115430,1,0,0:0:0:0:
192,192,115530,1,0,0:0:0:0:
320,192,115630,1,0,0:0:0:0:
64,192,115630,1,0,0:0:0:0:
448,192,115630,1,0,0:0:0:0:
192,192,115730,1,0,0:0:0:0:
448,192,115830,1,0,0:0:0:0:
64,192,115830,1,0,0:0:0:0:
320,192,115930,1,0,0:0:0:0:
64,192,116030,1,0,0:0:0:0:
192,192,116030,1,0,0:0:0:0:
320,192,116080,1,0,0:0:0:0:
448,192,116080,1,0,0:0:0:0:
192,192,116130,1,0,0:0:0:0:
64,192,116130,1,0,0:0:0:0:
320,192,116180,1,0,0:0:0:0:
448,192,116180,1,0,0:0:0:0:
64,192,116230,1,0,0:0:0:0:
192,192,116230,1,0,0:0:0:0:
320,192,116280,1,0,0:0:0:0:
448,192,116280,1,0,0:0:0:0:
192,192,116330,1,0,0:0:0:0:
64,192,116330,1,0,0:0:0:0:
320,192,116380,1,0,0:0:0:0:
448,192,116380,1,0,0:0:0:0:
192,192,116430,1,0,0:0:0:0:
64,192,116430,1,0,0:0:0:0:
320,192,116480,1,0,0:0:0:0:
448,192,116480,1,0,0:0:0:0:
192,192,116530,1,0,0:0:0:0:
64,192,116530,1,0,0:0:0:0:
320,192,116580,1,0,0:0:0:0:
448,192,116580,1,0,0:0:0:0:
64,192,116630,1,0,0:0:0:0:
192,192,116630,1,0,0:0:0:0:
320,192,116680,1,0,0:0:0:0:
448,192,116680,1,0,0:0:0:0:
192,192,116730,1,0,0:0:0:0:
64,192,116730,1,0,0:0:0:0:
320,192,116780,1,0,0:0:0:0:
448,192,116780,1,0,0:0:0:0:
64,192,116830,1,0,0:0:0:0:
192,192,116830,1,0,0:0:0:0:
320,192,116880,1,0,0:0:0:0:
448,192,116880,1,0,0:0:0:0:
192,192,116930,1,0,0:0:0:0:
64,192,116930,1,0,0:0:0:0:
320,192,116980,1,0,0:0:0:0:
448,192,116980,1,0,0:0:0:0:
64,192,117030,1,0,0:0:0:0:
192,192,117030,1,0,0:0:0:0:
320,192,117080,1,0,0:0:0:0:
448,192,117080,1,0,0:0:0:0:
192,192,117130,1,0,0:0:0:0:
64,192,117130,1,0,0:0:0:0:
320,192,117180,1,0,0:0:0:0:
448,192,117180,1,0,0:0:0:0:
64,192,117230,1,0,0:0:0:0:
192,192,117230,1,0,0:0:0:0:
320,192,117280,1,0,0:0:0:0:
448,192,117280,1,0,0:0:0:0:
192,192,117330,1,0,0:0:0:0:
64,192,117330,1,0,0:0:0:0:
320,192,117380,1,0,0:0:0:0:
448,192,117380,1,0,0:0:0:0:
64,192,117430,1,0,0:0:0:0:
192,192,117430,1,0,0:0:0:0:
320,192,117480,1,0,0:0:0:0:
448,192,117480,1,0,0:0:0:0:
192,192,117530,1,0,0:0:0:0:
64,192,117530,1,0,0:0:0:0:
320,192,117580,1,0,0:0:0:0:
448,192,117580,1,0,0:0:0:0:
448,192,119230,1,0,0:0:0:0:
64,192,119230,1,0,0:0:0:0:
320,192,119230,128,0,119430:0:0:0:0:
192,192,119230,1,0,0:0:0:0:
64,192,119530,1,0,0:0:0:0:
448,192,119630,1,0,0:0:0:0:
192,192,119630,1,0,0:0:0:0:
320,192,119630,128,0,119830:0:0:0:0:
192,192,119930,128,0,120030:0:0:0:0:
320,192,120030,1,0,0:0:0:0:
448,192,120030,1,0,0:0:0:0:
64,192,120130,1,0,0:0:0:0:
320,192,120230,128,0,120330:0:0:0:0:
192,192,120430,1,0,0:0:0:0:
320,192,120430,128,0,120530:0:0:0:0:
448,192,120430,1,0,0:0:0:0:
64,192,120630,1,0,0:0:0:0:
192,192,120730,1,0,0:0:0:0:
448,192,120830,1,0,0:0:0:0:
64,192,120830,1,0,0:0:0:0:
320,192,120830,128,0,121030:0:0:0:0:
192,192,121130,1,0,0:0:0:0:
320,192,121230,1,0,0:0:0:0:
64,192,121230,1,0,0:0:0:0:
448,192,121230,128,0,121430:0:0:0:0:
320,192,121530,128,0,121630:0:0:0:0:
448,192,121630,1,0,0:0:0:0:
64,192,121630,1,0,0:0:0:0:
192,192,121730,1,0,0:0:0:0:
448,192,121830,128,0,121930:0:0:0:0:
320,192,122030,1,0,0:0:0:0:
64,192,122030,128,0,122130:0:0:0:0:
192,192,122030,1,0,0:0:0:0:
448,192,122230,1,0,0:0:0:0:
320,192,122330,1,0,0:0:0:0:
448,192,122430,1,0,0:0:0:0:
64,192,122430,1,0,0:0:0:0:
192,192,122430,128,0,122630:0:0:0:0:
64,192,122730,1,0,0:0:0:0:
448,192,122830,1,0,0:0:0:0:
192,192,122830,1,0,0:0:0:0:
320,192,122830,128,0,123030:0:0:0:0:
320,192,123130,128,0,123230:0:0:0:0:
448,192,123230,1,0,0:0:0:0:
192,192,123230,1,0,0:0:0:0:
64,192,123330,1,0,0:0:0:0:
448,192,123430,128,0,123530:0:0:0:0:
320,192,123630,1,0,0:0:0:0:
192,192,123630,1,0,0:0:0:0:
64,192,123630,128,0,123730:0:0:0:0:
320,192,123830,1,0,0:0:0:0:
192,192,123930,1,0,0:0:0:0:
448,192,124030,1,0,0:0:0:0:
320,192,124030,1,0,0:0:0:0:
64,192,124030,128,0,124230:0:0:0:0:
64,192,124330,1,0,0:0:0:0:
448,192,124430,1,0,0:0:0:0:
320,192,124430,1,0,0:0:0:0:
192,192,124430,128,0,124630:0:0:0:0:
64,192,124730,128,0,124830:0:0:0:0:
448,192,124830,1,0,0:0:0:0:
320,192,124830,1,0,0:0:0:0:
192,192,124930,1,0,0:0:0:0:
448,192,125030,128,0,125230:0:0:0:0:
192,192,125230,1,0,0:0:0:0:
320,192,125230,1,0,0:0:0:0:
64,192,125230,128,0,125330:0:0:0:0:
448,192,125330,1,0,0:0:0:0:
320,192,125430,128,0,125630:0:0:0:0:
64,192,125630,1,0,0:0:0:0:
448,192,125630,1,0,0:0:0:0:
192,192,125630,128,0,125830:0:0:0:0:
448,192,125930,1,0,0:0:0:0:
64,192,126030,1,0,0:0:0:0:
320,192,126030,1,0,0:0:0:0:
192,192,126030,128,0,126230:0:0:0:0:
320,192,126330,128,0,126430:0:0:0:0:
192,192,126430,1,0,0:0:0:0:
64,192,126430,1,0,0:0:0:0:
448,192,126530,1,0,0:0:0:0:
192,192,126630,128,0,126730:0:0:0:0:
320,192,126830,1,0,0:0:0:0:
192,192,126830,128,0,126930:0:0:0:0:
64,192,126830,1,0,0:0:0:0:
448,192,127030,1,0,0:0:0:0:
320,192,127130,1,0,0:0:0:0:
64,192,127230,1,0,0:0:0:0:
448,192,127230,1,0,0:0:0:0:
192,192,127230,128,0,127430:0:0:0:0:
320,192,127530,1,0,0:0:0:0:
192,192,127630,1,0,0:0:0:0:
448,192,127630,1,0,0:0:0:0:
64,192,127630,128,0,127830:0:0:0:0:
192,192,127930,128,0,128030:0:0:0:0:
64,192,128030,1,0,0:0:0:0:
448,192,128030,1,0,0:0:0:0:
320,192,128130,1,0,0:0:0:0:
64,192,128230,128,0,128330:0:0:0:0:
192,192,128430,1,0,0:0:0:0:
448,192,128430,128,0,128530:0:0:0:0:
320,192,128430,1,0,0:0:0:0:
64,192,128630,1,0,0:0:0:0:
192,192,128730,1,0,0:0:0:0:
64,192,128830,1,0,0:0:0:0:
448,192,128830,1,0,0:0:0:0:
320,192,128830,128,0,129030:0:0:0:0:
448,192,129130,1,0,0:0:0:0:
64,192,129230,1,0,0:0:0:0:
320,192,129230,1,0,0:0:0:0:
192,192,129230,128,0,129430:0:0:0:0:
192,192,129530,128,0,129630:0:0:0:0:
64,192,129630,1,0,0:0:0:0:
320,192,129630,1,0,0:0:0:0:
448,192,129730,1,0,0:0:0:0:
64,192,129830,128,0,129930:0:0:0:0:
192,192,130030,1,0,0:0:0:0:
320,192,130030,1,0,0:0:0:0:
448,192,130030,128,0,130130:0:0:0:0:
192,192,130230,1,0,0:0:0:0:
320,192,130330,1,0,0:0:0:0:
64,192,130430,1,0,0:0:0:0:
192,192,130430,1,0,0:0:0:0:
448,192,130430,128,0,130630:0:0:0:0:
448,192,130730,1,0,0:0:0:0:
64,192,130830,1,0,0:0:0:0:
192,192,130830,1,0,0:0:0:0:
320,192,130830,128,0,131030:0:0:0:0:
448,192,131130,128,0,131230:0:0:0:0:
64,192,131230,1,0,0:0:0:0:
192,192,131230,1,0,0:0:0:0:
320,192,131330,1,0,0:0:0:0:
64,192,131430,128,0,131630:0:0:0:0:
448,192,131630,1,0,0:0:0:0:
320,192,131630,1,0,0:0:0:0:
192,192,131830,1,0,0:0:0:0:
320,192,131830,1,0,0:0:0:0:
64,192,132030,1,0,0:0:0:0:
448,192,132030,1,0,0:0:0:0:
192,192,132063,1,0,0:0:0:0:
320,192,132096,1,0,0:0:0:0:
448,192,132130,1,0,0:0:0:0:
64,192,132163,1,0,0:0:0:0:
192,192,132196,1,0,0:0:0:0:
320,192,132230,1,0,0:0:0:0:
448,192,132263,1,0,0:0:0:0:
64,192,132296,1,0,0:0:0:0:
192,192,132330,1,0,0:0:0:0:
320,192,132363,1,0,0:0:0:0:
448,192,132396,1,0,0:0:0:0:
64,192,132430,1,0,0:0:0:0:
192,192,132463,1,0,0:0:0:0:
320,192,132496,1,0,0:0:0:0:
448,192,132530,1,0,0:0:0:0:
320,192,132563,1,0,0:0:0:0:
192,192,132596,1,0,0:0:0:0:
64,192,132630,1,0,0:0:0:0:
448,192,132663,1,0,0:0:0:0:
320,192,132696,1,0,0:0:0:0:
192,192,132730,1,0,0:0:0:0:
64,192,132763,1,0,0:0:0:0:
448,192,132796,1,0,0:0:0:0:
320,192,132830,1,0,0:0:0:0:
192,192,132830,128,0,133030:0:0:0:0:
448,192,133030,128,0,133230:0:0:0:0:
64,192,133030,1,0,0:0:0:0:
320,192,133230,128,0,133330:0:0:0:0:
192,192,133230,1,0,0:0:0:0:
64,192,133330,128,0,133430:0:0:0:0:
192,192,133430,128,0,133530:0:0:0:0:
448,192,133430,1,0,0:0:0:0:
320,192,133530,128,0,133630:0:0:0:0:
192,192,133630,1,0,0:0:0:0:
448,192,133630,128,0,133830:0:0:0:0:
64,192,133630,1,0,0:0:0:0:
320,192,133830,1,0,0:0:0:0:
192,192,133930,1,0,0:0:0:0:
448,192,134030,128,0,134230:0:0:0:0:
64,192,134030,1,0,0:0:0:0:
320,192,134030,1,0,0:0:0:0:
192,192,134230,1,0,0:0:0:0:
320,192,134330,128,0,134430:0:0:0:0:
448,192,134430,1,0,0:0:0:0:
192,192,134430,1,0,0:0:0:0:
64,192,134430,1,0,0:0:0:0:
320,192,134530,1,0,0:0:0:0:
448,192,134630,128,0,134830:0:0:0:0:
192,192,134630,1,0,0:0:0:0:
192,192,134830,128,0,134930:0:0:0:0:
320,192,134830,1,0,0:0:0:0:
64,192,134830,1,0,0:0:0:0:
448,192,134930,1,0,0:0:0:0:
64,192,135030,1,0,0:0:0:0:
320,192,135030,128,0,135130:0:0:0:0:
192,192,135130,128,0,135230:0:0:0:0:
64,192,135230,1,0,0:0:0:0:
448,192,135230,1,0,0:0:0:0:
320,192,135263,1,0,0:0:0:0:
192,192,135296,1,0,0:0:0:0:
64,192,135330,1,0,0:0:0:0:
448,192,135363,1,0,0:0:0:0:
320,192,135396,1,0,0:0:0:0:
192,192,135430,1,0,0:0:0:0:
64,192,135463,1,0,0:0:0:0:
448,192,135496,1,0,0:0:0:0:
320,192,135530,1,0,0:0:0:0:
192,192,135563,1,0,0:0:0:0:
64,192,135596,1,0,0:0:0:0:
448,192,135630,1,0,0:0:0:0:
320,192,135663,1,0,0:0:0:0:
192,192,135696,1,0,0:0:0:0:
64,192,135730,1,0,0:0:0:0:
192,192,135763,1,0,0:0:0:0:
320,192,135796,1,0,0:0:0:0:
448,192,135830,1,0,0:0:0:0:
64,192,135863,1,0,0:0:0:0:
192,192,135896,1,0,0:0:0:0:
320,192,135930,1,0,0:0:0:0:
448,192,135963,1,0,0:0:0:0:
64,192,135996,1,0,0:0:0:0:
192,192,136030,1,0,0:0:0:0:
320,192,136030,128,0,136230:0:0:0:0:
448,192,136230,128,0,136430:0:0:0:0:
64,192,136230,1,0,0:0:0:0:
64,192,136430,128,0,136530:0:0:0:0:
192,192,136430,1,0,0:0:0:0:
320,192,136530,1,0,0:0:0:0:
448,192,136630,128,0,136730:0:0:0:0:
64,192,136630,1,0,0:0:0:0:
320,192,136730,128,0,136830:0:0:0:0:
192,192,136830,128,0,137030:0:0:0:0:
64,192,136830,1,0,0:0:0:0:
448,192,136830,1,0,0:0:0:0:
320,192,137030,1,0,0:0:0:0:
64,192,137130,1,0,0:0:0:0:
320,192,137230,128,0,137430:0:0:0:0:
192,192,137230,1,0,0:0:0:0:
448,192,137230,1,0,0:0:0:0:
64,192,137430,1,0,0:0:0:0:
192,192,137530,128,0,137630:0:0:0:0:
448,192,137630,1,0,0:0:0:0:
320,192,137630,1,0,0:0:0:0:
64,192,137630,1,0,0:0:0:0:
192,192,137730,1,0,0:0:0:0:
448,192,137830,128,0,138030:0:0:0:0:
320,192,137830,1,0,0:0:0:0:
192,192,138030,128,0,138130:0:0:0:0:
64,192,138030,1,0,0:0:0:0:
320,192,138230,128,0,138430:0:0:0:0:
448,192,138230,1,0,0:0:0:0:
448,192,138430,1,0,0:0:0:0:
64,192,138430,1,0,0:0:0:0:
320,192,138463,1,0,0:0:0:0:
192,192,138496,1,0,0:0:0:0:
64,192,138530,1,0,0:0:0:0:
448,192,138563,1,0,0:0:0:0:
320,192,138596,1,0,0:0:0:0:
192,192,138630,1,0,0:0:0:0:
64,192,138663,1,0,0:0:0:0:
448,192,138696,1,0,0:0:0:0:
320,192,138730,1,0,0:0:0:0:
192,192,138763,1,0,0:0:0:0:
64,192,138796,1,0,0:0:0:0:
448,192,138830,1,0,0:0:0:0:
320,192,138863,1,0,0:0:0:0:
192,192,138896,1,0,0:0:0:0:
64,192,138930,1,0,0:0:0:0:
192,192,138963,1,0,0:0:0:0:
320,192,138996,1,0,0:0:0:0:
448,192,139030,1,0,0:0:0:0:
64,192,139063,1,0,0:0:0:0:
192,192,139096,1,0,0:0:0:0:
320,192,139130,1,0,0:0:0:0:
448,192,139163,1,0,0:0:0:0:
64,192,139196,1,0,0:0:0:0:
192,192,139230,1,0,0:0:0:0:
320,192,139230,128,0,139430:0:0:0:0:
64,192,139430,128,0,139630:0:0:0:0:
448,192,139430,1,0,0:0:0:0:
192,192,139630,128,0,139730:0:0:0:0:
320,192,139630,1,0,0:0:0:0:
448,192,139730,128,0,139830:0:0:0:0:
320,192,139830,128,0,139930:0:0:0:0:
64,192,139830,1,0,0:0:0:0:
192,192,139930,128,0,140030:0:0:0:0:
320,192,140030,1,0,0:0:0:0:
64,192,140030,128,0,140230:0:0:0:0:
448,192,140030,1,0,0:0:0:0:
192,192,140230,1,0,0:0:0:0:
320,192,140330,1,0,0:0:0:0:
64,192,140430,128,0,140630:0:0:0:0:
448,192,140430,1,0,0:0:0:0:
192,192,140430,1,0,0:0:0:0:
320,192,140630,1,0,0:0:0:0:
192,192,140730,128,0,140830:0:0:0:0:
64,192,140830,1,0,0:0:0:0:
320,192,140830,1,0,0:0:0:0:
448,192,140830,1,0,0:0:0:0:
192,192,140930,1,0,0:0:0:0:
64,192,141030,128,0,141230:0:0:0:0:
320,192,141030,1,0,0:0:0:0:
320,192,141230,128,0,141330:0:0:0:0:
192,192,141230,1,0,0:0:0:0:
448,192,141230,1,0,0:0:0:0:
64,192,141330,1,0,0:0:0:0:
448,192,141430,1,0,0:0:0:0:
192,192,141430,128,0,141530:0:0:0:0:
320,192,141530,128,0,141630:0:0:0:0:
448,192,141630,1,0,0:0:0:0:
64,192,141630,1,0,0:0:0:0:
192,192,141663,1,0,0:0:0:0:
320,192,141696,1,0,0:0:0:0:
448,192,141730,1,0,0:0:0:0:
64,192,141763,1,0,0:0:0:0:
192,192,141796,1,0,0:0:0:0:
320,192,141830,1,0,0:0:0:0:
448,192,141863,1,0,0:0:0:0:
64,192,141896,1,0,0:0:0:0:
192,192,141930,1,0,0:0:0:0:
320,192,141963,1,0,0:0:0:0:
448,192,141996,1,0,0:0:0:0:
64,192,142030,1,0,0:0:0:0:
192,192,142063,1,0,0:0:0:0:
320,192,142096,1,0,0:0:0:0:
448,192,142130,1,0,0:0:0:0:
320,192,142163,1,0,0:0:0:0:
192,192,142196,1,0,0:0:0:0:
64,192,142230,1,0,0:0:0:0:
448,192,142263,1,0,0:0:0:0:
320,192,142296,1,0,0:0:0:0:
192,192,142330,1,0,0:0:0:0:
64,192,142363,1,0,0:0:0:0:
448,192,142396,1,0,0:0:0:0:
320,192,142430,1,0,0:0:0:0:
192,192,142430,128,0,142630:0:0:0:0:
64,192,142630,128,0,142830:0:0:0:0:
448,192,142630,1,0,0:0:0:0:
448,192,142830,128,0,142930:0:0:0:0:
320,192,142830,1,0,0:0:0:0:
192,192,142930,1,0,0:0:0:0:
64,192,143030,128,0,143130:0:0:0:0:
448,192,143030,1,0,0:0:0:0:
192,192,143130,128,0,143230:0:0:0:0:
320,192,143230,128,0,143430:0:0:0:0:
448,192,143230,1,0,0:0:0:0:
64,192,143230,1,0,0:0:0:0:
192,192,143430,1,0,0:0:0:0:
448,192,143530,1,0,0:0:0:0:
192,192,143630,128,0,143830:0:0:0:0:
320,192,143630,1,0,0:0:0:0:
64,192,143630,1,0,0:0:0:0:
448,192,143830,1,0,0:0:0:0:
320,192,143930,128,0,144030:0:0:0:0:
64,192,144030,1,0,0:0:0:0:
192,192,144030,1,0,0:0:0:0:
448,192,144030,1,0,0:0:0:0:
320,192,144130,1,0,0:0:0:0:
64,192,144230,128,0,144430:0:0:0:0:
192,192,144230,1,0,0:0:0:0:
320,192,144430,1,0,0:0:0:0:
192,192,144430,1,0,0:0:0:0:
448,192,144430,1,0,0:0:0:0:
448,192,144530,1,0,0:0:0:0:
64,192,144530,1,0,0:0:0:0:
192,192,144530,1,0,0:0:0:0:
320,192,144630,1,0,0:0:0:0:
64,192,144630,1,0,0:0:0:0:
192,192,144630,1,0,0:0:0:0:
448,192,144730,1,0,0:0:0:0:
320,192,144730,1,0,0:0:0:0:
64,192,144730,1,0,0:0:0:0:
64,192,144830,1,0,0:0:0:0:
448,192,144830,1,0,0:0:0:0:
192,192,144863,1,0,0:0:0:0:
320,192,144896,1,0,0:0:0:0:
448,192,144930,1,0,0:0:0:0:
64,192,144963,1,0,0:0:0:0:
192,192,144996,1,0,0:0:0:0:
320,192,145030,1,0,0:0:0:0:
448,192,145063,1,0,0:0:0:0:
64,192,145096,1,0,0:0:0:0:
192,192,145130,1,0,0:0:0:0:
320,192,145163,1,0,0:0:0:0:
448,192,145196,1,0,0:0:0:0:
64,192,145230,1,0,0:0:0:0:
192,192,145263,1,0,0:0:0:0:
320,192,145296,1,0,0:0:0:0:
448,192,145330,1,0,0:0:0:0:
320,192,145363,1,0,0:0:0:0:
192,192,145396,1,0,0:0:0:0:
64,192,145430,1,0,0:0:0:0:
448,192,145463,1,0,0:0:0:0:
320,192,145496,1,0,0:0:0:0:
192,192,145530,1,0,0:0:0:0:
64,192,145563,1,0,0:0:0:0:
448,192,145596,1,0,0:0:0:0:
320,192,145630,1,0,0:0:0:0:
192,192,145630,1,0,0:0:0:0:
64,192,145730,1,0,0:0:0:0:
448,192,145830,1,0,0:0:0:0:
320,192,145830,1,0,0:0:0:0:
192,192,145930,1,0,0:0:0:0:
64,192,146030,1,0,0:0:0:0:
448,192,146030,1,0,0:0:0:0:
320,192,146130,1,0,0:0:0:0:
64,192,146230,1,0,0:0:0:0:
192,192,146230,1,0,0:0:0:0:
320,192,146330,1,0,0:0:0:0:
64,192,146430,1,0,0:0:0:0:
192,192,146430,128,0,146630:0:0:0:0:
448,192,146430,1,0,0:0:0:0:
320,192,146530,1,0,0:0:0:0:
64,192,146630,1,0,0:0:0:0:
448,192,146630,1,0,0:0:0:0:
192,192,146730,1,0,0:0:0:0:
64,192,146830,1,0,0:0:0:0:
320,192,146830,1,0,0:0:0:0:
448,192,146830,1,0,0:0:0:0:
192,192,146930,1,0,0:0:0:0:
448,192,147030,1,0,0:0:0:0:
320,192,147030,1,0,0:0:0:0:
64,192,147130,1,0,0:0:0:0:
64,192,147230,1,0,0:0:0:0:
192,192,147230,1,0,0:0:0:0:
448,192,147230,1,0,0:0:0:0:
320,192,147230,1,0,0:0:0:0:
192,192,147330,1,0,0:0:0:0:
64,192,147430,1,0,0:0:0:0:
320,192,147430,1,0,0:0:0:0:
448,192,147530,1,0,0:0:0:0:
192,192,147630,1,0,0:0:0:0:
64,192,147630,1,0,0:0:0:0:
320,192,147630,1,0,0:0:0:0:
448,192,147730,1,0,0:0:0:0:
64,192,147830,1,0,0:0:0:0:
192,192,147830,1,0,0:0:0:0:
320,192,147930,1,0,0:0:0:0:
64,192,148030,1,0,0:0:0:0:
448,192,148030,1,0,0:0:0:0:
320,192,148063,1,0,0:0:0:0:
192,192,148096,1,0,0:0:0:0:
64,192,148130,1,0,0:0:0:0:
448,192,148163,1,0,0:0:0:0:
320,192,148196,1,0,0:0:0:0:
192,192,148230,1,0,0:0:0:0:
64,192,148263,1,0,0:0:0:0:
448,192,148296,1,0,0:0:0:0:
320,192,148330,1,0,0:0:0:0:
192,192,148363,1,0,0:0:0:0:
64,192,148396,1,0,0:0:0:0:
448,192,148430,1,0,0:0:0:0:
320,192,148463,1,0,0:0:0:0:
192,192,148496,1,0,0:0:0:0:
64,192,148530,1,0,0:0:0:0:
192,192,148563,1,0,0:0:0:0:
320,192,148596,1,0,0:0:0:0:
448,192,148630,1,0,0:0:0:0:
64,192,148663,1,0,0:0:0:0:
192,192,148696,1,0,0:0:0:0:
320,192,148730,1,0,0:0:0:0:
448,192,148763,1,0,0:0:0:0:
64,192,148796,1,0,0:0:0:0:
192,192,148830,1,0,0:0:0:0:
320,192,148830,1,0,0:0:0:0:
448,192,148930,1,0,0:0:0:0:
64,192,149030,1,0,0:0:0:0:
320,192,149030,1,0,0:0:0:0:
192,192,149130,1,0,0:0:0:0:
448,192,149230,1,0,0:0:0:0:
64,192,149230,1,0,0:0:0:0:
320,192,149330,1,0,0:0:0:0:
64,192,149430,1,0,0:0:0:0:
320,192,149530,1,0,0:0:0:0:
64,192,149630,128,0,149830:0:0:0:0:
448,192,149630,1,0,0:0:0:0:
192,192,149630,1,0,0:0:0:0:
320,192,149730,1,0,0:0:0:0:
448,192,149830,1,0,0:0:0:0:
192,192,149830,1,0,0:0:0:0:
320,192,149930,1,0,0:0:0:0:
192,192,150030,1,0,0:0:0:0:
64,192,150030,1,0,0:0:0:0:
448,192,150030,1,0,0:0:0:0:
320,192,150130,1,0,0:0:0:0:
64,192,150230,1,0,0:0:0:0:
448,192,150230,1,0,0:0:0:0:
192,192,150330,1,0,0:0:0:0:
64,192,150430,1,0,0:0:0:0:
192,192,150430,1,0,0:0:0:0:
320,192,150430,1,0,0:0:0:0:
448,192,150430,1,0,0:0:0:0:
448,192,150530,1,0,0:0:0:0:
192,192,150630,1,0,0:0:0:0:
320,192,150630,1,0,0:0:0:0:
64,192,150730,1,0,0:0:0:0:
192,192,150830,1,0,0:0:0:0:
448,192,150830,1,0,0:0:0:0:
320,192,150930,1,0,0:0:0:0:
64,192,151030,1,0,0:0:0:0:
448,192,151030,1,0,0:0:0:0:
192,192,151130,1,0,0:0:0:0:
448,192,151230,1,0,0:0:0:0:
64,192,151230,1,0,0:0:0:0:
320,192,151263,1,0,0:0:0:0:
192,192,151296,1,0,0:0:0:0:
64,192,151330,1,0,0:0:0:0:
448,192,151363,1,0,0:0:0:0:
320,192,151396,1,0,0:0:0:0:
192,192,151430,1,0,0:0:0:0:
64,192,151463,1,0,0:0:0:0:
448,192,151496,1,0,0:0:0:0:
320,192,151530,1,0,0:0:0:0:
192,192,151563,1,0,0:0:0:0:
64,192,151596,1,0,0:0:0:0:
448,192,151630,1,0,0:0:0:0:
320,192,151663,1,0,0:0:0:0:
192,192,151696,1,0,0:0:0:0:
64,192,151730,1,0,0:0:0:0:
192,192,151763,1,0,0:0:0:0:
320,192,151796,1,0,0:0:0:0:
448,192,151830,1,0,0:0:0:0:
64,192,151863,1,0,0:0:0:0:
192,192,151896,1,0,0:0:0:0:
320,192,151930,1,0,0:0:0:0:
448,192,151963,1,0,0:0:0:0:
64,192,151996,1,0,0:0:0:0:
192,192,152030,1,0,0:0:0:0:
320,192,152030,1,0,0:0:0:0:
448,192,152130,1,0,0:0:0:0:
64,192,152230,1,0,0:0:0:0:
192,192,152230,128,0,152430:0:0:0:0:
320,192,152230,1,0,0:0:0:0:
448,192,152330,1,0,0:0:0:0:
64,192,152430,1,0,0:0:0:0:
320,192,152430,1,0,0:0:0:0:
192,192,152530,1,0,0:0:0:0:
448,192,152630,1,0,0:0:0:0:
320,192,152630,1,0,0:0:0:0:
192,192,152730,1,0,0:0:0:0:
448,192,152830,1,0,0:0:0:0:
64,192,152830,1,0,0:0:0:0:
320,192,152830,1,0,0:0:0:0:
192,192,152930,1,0,0:0:0:0:
448,192,153030,1,0,0:0:0:0:
320,192,153130,1,0,0:0:0:0:
448,192,153230,1,0,0:0:0:0:
192,192,153230,1,0,0:0:0:0:
64,192,153230,1,0,0:0:0:0:
320,192,153330,1,0,0:0:0:0:
64,192,153430,1,0,0:0:0:0:
192,192,153430,1,0,0:0:0:0:
448,192,153530,1,0,0:0:0:0:
448,192,153630,1,0,0:0:0:0:
320,192,153630,1,0,0:0:0:0:
64,192,153630,1,0,0:0:0:0:
192,192,153630,1,0,0:0:0:0:
320,192,153730,1,0,0:0:0:0:
448,192,153830,1,0,0:0:0:0:
192,192,153830,1,0,0:0:0:0:
64,192,153930,1,0,0:0:0:0:
320,192,154030,1,0,0:0:0:0:
448,192,154030,1,0,0:0:0:0:
192,192,154030,1,0,0:0:0:0:
64,192,154130,1,0,0:0:0:0:
448,192,154230,1,0,0:0:0:0:
320,192,154230,1,0,0:0:0:0:
192,192,154330,1,0,0:0:0:0:
448,192,154430,1,0,0:0:0:0:
64,192,154430,1,0,0:0:0:0:
192,192,154463,1,0,0:0:0:0:
320,192,154496,1,0,0:0:0:0:
448,192,154530,1,0,0:0:0:0:
64,192,154563,1,0,0:0:0:0:
192,192,154596,1,0,0:0:0:0:
320,192,154630,1,0,0:0:0:0:
448,192,154663,1,0,0:0:0:0:
64,192,154696,1,0,0:0:0:0:
192,192,154730,1,0,0:0:0:0:
320,192,154763,1,0,0:0:0:0:
448,192,154796,1,0,0:0:0:0:
64,192,154830,1,0,0:0:0:0:
192,192,154863,1,0,0:0:0:0:
320,192,154896,1,0,0:0:0:0:
448,192,154930,1,0,0:0:0:0:
320,192,154963,1,0,0:0:0:0:
192,192,154996,1,0,0:0:0:0:
64,192,155030,1,0,0:0:0:0:
448,192,155063,1,0,0:0:0:0:
320,192,155096,1,0,0:0:0:0:
192,192,155130,1,0,0:0:0:0:
64,192,155163,1,0,0:0:0:0:
448,192,155196,1,0,0:0:0:0:
320,192,155230,1,0,0:0:0:0:
192,192,155230,1,0,0:0:0:0:
64,192,155330,1,0,0:0:0:0:
448,192,155430,1,0,0:0:0:0:
192,192,155430,128,0,155630:0:0:0:0:
320,192,155430,1,0,0:0:0:0:
64,192,155530,1,0,0:0:0:0:
448,192,155630,1,0,0:0:0:0:
320,192,155630,1,0,0:0:0:0:
64,192,155730,1,0,0:0:0:0:
448,192,155830,1,0,0:0:0:0:
192,192,155930,1,0,0:0:0:0:
64,192,156030,1,0,0:0:0:0:
448,192,156030,128,0,156230:0:0:0:0:
320,192,156030,1,0,0:0:0:0:
192,192,156130,1,0,0:0:0:0:
64,192,156230,1,0,0:0:0:0:
320,192,156230,1,0,0:0:0:0:
192,192,156330,1,0,0:0:0:0:
320,192,156430,1,0,0:0:0:0:
448,192,156430,1,0,0:0:0:0:
64,192,156430,1,0,0:0:0:0:
192,192,156530,1,0,0:0:0:0:
448,192,156630,1,0,0:0:0:0:
64,192,156630,1,0,0:0:0:0:
320,192,156730,1,0,0:0:0:0:
448,192,156830,1,0,0:0:0:0:
320,192,156830,1,0,0:0:0:0:
192,192,156830,1,0,0:0:0:0:
64,192,156830,1,0,0:0:0:0:
64,192,156930,1,0,0:0:0:0:
320,192,157030,1,0,0:0:0:0:
192,192,157030,1,0,0:0:0:0:
448,192,157130,1,0,0:0:0:0:
320,192,157230,1,0,0:0:0:0:
64,192,157230,1,0,0:0:0:0:
192,192,157330,1,0,0:0:0:0:
448,192,157430,1,0,0:0:0:0:
64,192,157430,1,0,0:0:0:0:
320,192,157530,1,0,0:0:0:0:
448,192,157630,1,0,0:0:0:0:
64,192,157630,1,0,0:0:0:0:
320,192,157663,1,0,0:0:0:0:
192,192,157696,1,0,0:0:0:0:
64,192,157730,1,0,0:0:0:0:
448,192,157763,1,0,0:0:0:0:
320,192,157796,1,0,0:0:0:0:
192,192,157830,1,0,0:0:0:0:
64,192,157863,1,0,0:0:0:0:
448,192,157896,1,0,0:0:0:0:
320,192,157930,1,0,0:0:0:0:
192,192,157963,1,0,0:0:0:0:
64,192,157996,1,0,0:0:0:0:
448,192,158030,1,0,0:0:0:0:
320,192,158063,1,0,0:0:0:0:
192,192,158096,1,0,0:0:0:0:
64,192,158130,1,0,0:0:0:0:
192,192,158163,1,0,0:0:0:0:
320,192,158196,1,0,0:0:0:0:
448,192,158230,1,0,0:0:0:0:
64,192,158263,1,0,0:0:0:0:
192,192,158296,1,0,0:0:0:0:
320,192,158330,1,0,0:0:0:0:
448,192,158363,1,0,0:0:0:0:
64,192,158396,1,0,0:0:0:0:
192,192,158430,1,0,0:0:0:0:
320,192,158430,1,0,0:0:0:0:
448,192,158530,1,0,0:0:0:0:
64,192,158630,1,0,0:0:0:0:
192,192,158630,1,0,0:0:0:0:
320,192,158730,1,0,0:0:0:0:
448,192,158830,1,0,0:0:0:0:
64,192,158830,1,0,0:0:0:0:
192,192,158930,1,0,0:0:0:0:
448,192,159030,1,0,0:0:0:0:
320,192,159030,1,0,0:0:0:0:
192,192,159130,1,0,0:0:0:0:
448,192,159230,1,0,0:0:0:0:
320,192,159230,128,0,159430:0:0:0:0:
64,192,159230,1,0,0:0:0:0:
192,192,159330,1,0,0:0:0:0:
448,192,159430,1,0,0:0:0:0:
64,192,159430,1,0,0:0:0:0:
320,192,159530,1,0,0:0:0:0:
448,192,159630,1,0,0:0:0:0:
192,192,159630,1,0,0:0:0:0:
64,192,159630,1,0,0:0:0:0:
320,192,159730,1,0,0:0:0:0:
64,192,159830,1,0,0:0:0:0:
192,192,159830,1,0,0:0:0:0:
448,192,159930,1,0,0:0:0:0:
448,192,160030,1,0,0:0:0:0:
320,192,160030,1,0,0:0:0:0:
64,192,160030,1,0,0:0:0:0:
192,192,160030,1,0,0:0:0:0:
320,192,160130,1,0,0:0:0:0:
448,192,160230,1,0,0:0:0:0:
192,192,160230,1,0,0:0:0:0:
64,192,160330,1,0,0:0:0:0:
320,192,160430,1,0,0:0:0:0:
448,192,160430,1,0,0:0:0:0:
192,192,160430,1,0,0:0:0:0:
64,192,160530,1,0,0:0:0:0:
448,192,160630,1,0,0:0:0:0:
320,192,160630,1,0,0:0:0:0:
192,192,160730,1,0,0:0:0:0:
448,192,160830,1,0,0:0:0:0:
64,192,160830,1,0,0:0:0:0:
192,192,160863,1,0,0:0:0:0:
320,192,160896,1,0,0:0:0:0:
448,192,160930,1,0,0:0:0:0:
64,192,160963,1,0,0:0:0:0:
192,192,160996,1,0,0:0:0:0:
320,192,161030,1,0,0:0:0:0:
448,192,161063,1,0,0:0:0:0:
64,192,161096,1,0,0:0:0:0:
192,192,161130,1,0,0:0:0:0:
320,192,161163,1,0,0:0:0:0:
448,192,161196,1,0,0:0:0:0:
64,192,161230,1,0,0:0:0:0:
192,192,161263,1,0,0:0:0:0:
320,192,161296,1,0,0:0:0:0:
448,192,161330,1,0,0:0:0:0:
320,192,161363,1,0,0:0:0:0:
192,192,161396,1,0,0:0:0:0:
64,192,161430,1,0,0:0:0:0:
448,192,161463,1,0,0:0:0:0:
320,192,161496,1,0,0:0:0:0:
192,192,161530,1,0,0:0:0:0:
64,192,161563,1,0,0:0:0:0:
448,192,161596,1,0,0:0:0:0:
320,192,161630,1,0,0:0:0:0:
192,192,161630,1,0,0:0:0:0:
64,192,161730,1,0,0:0:0:0:
448,192,161830,1,0,0:0:0:0:
192,192,161830,1,0,0:0:0:0:
320,192,161930,1,0,0:0:0:0:
64,192,162030,1,0,0:0:0:0:
448,192,162030,1,0,0:0:0:0:
192,192,162130,1,0,0:0:0:0:
448,192,162230,1,0,0:0:0:0:
192,192,162330,1,0,0:0:0:0:
448,192,162430,128,0,162630:0:0:0:0:
64,192,162430,1,0,0:0:0:0:
320,192,162430,1,0,0:0:0:0:
192,192,162530,1,0,0:0:0:0:
64,192,162630,1,0,0:0:0:0:
320,192,162630,1,0,0:0:0:0:
192,192,162730,1,0,0:0:0:0:
320,192,162830,1,0,0:0:0:0:
448,192,162830,1,0,0:0:0:0:
64,192,162830,1,0,0:0:0:0:
192,192,162930,1,0,0:0:0:0:
448,192,163030,1,0,0:0:0:0:
64,192,163030,1,0,0:0:0:0:
320,192,163130,1,0,0:0:0:0:
448,192,163230,1,0,0:0:0:0:
320,192,163230,1,0,0:0:0:0:
192,192,163230,1,0,0:0:0:0:
64,192,163230,1,0,0:0:0:0:
64,192,163330,1,0,0:0:0:0:
320,192,163430,1,0,0:0:0:0:
192,192,163430,1,0,0:0:0:0:
448,192,163530,1,0,0:0:0:0:
320,192,163630,1,0,0:0:0:0:
64,192,163630,1,0,0:0:0:0:
192,192,163730,1,0,0:0:0:0:
448,192,163830,1,0,0:0:0:0:
64,192,163830,1,0,0:0:0:0:
320,192,163930,1,0,0:0:0:0:
64,192,164030,1,0,0:0:0:0:
448,192,164030,1,0,0:0:0:0:
192,192,164063,1,0,0:0:0:0:
320,192,164096,1,0,0:0:0:0:
448,192,164130,1,0,0:0:0:0:
64,192,164163,1,0,0:0:0:0:
192,192,164196,1,0,0:0:0:0:
320,192,164230,1,0,0:0:0:0:
448,192,164263,1,0,0:0:0:0:
64,192,164296,1,0,0:0:0:0:
192,192,164330,1,0,0:0:0:0:
320,192,164363,1,0,0:0:0:0:
448,192,164396,1,0,0:0:0:0:
64,192,164430,1,0,0:0:0:0:
192,192,164463,1,0,0:0:0:0:
320,192,164496,1,0,0:0:0:0:
448,192,164530,1,0,0:0:0:0:
320,192,164563,1,0,0:0:0:0:
192,192,164596,1,0,0:0:0:0:
64,192,164630,1,0,0:0:0:0:
448,192,164663,1,0,0:0:0:0:
320,192,164696,1,0,0:0:0:0:
192,192,164730,1,0,0:0:0:0:
64,192,164763,1,0,0:0:0:0:
448,192,164796,1,0,0:0:0:0:
320,192,164830,1,0,0:0:0:0:
192,192,164830,1,0,0:0:0:0:
64,192,164930,1,0,0:0:0:0:
448,192,165030,1,0,0:0:0:0:
320,192,165030,128,0,165230:0:0:0:0:
192,192,165030,1,0,0:0:0:0:
64,192,165130,1,0,0:0:0:0:
448,192,165230,1,0,0:0:0:0:
192,192,165230,1,0,0:0:0:0:
320,192,165330,1,0,0:0:0:0:
64,192,165430,1,0,0:0:0:0:
192,192,165430,1,0,0:0:0:0:
320,192,165530,1,0,0:0:0:0:
64,192,165630,1,0,0:0:0:0:
448,192,165630,1,0,0:0:0:0:
192,192,165630,1,0,0:0:0:0:
320,192,165730,1,0,0:0:0:0:
64,192,165830,1,0,0:0:0:0:
192,192,165930,1,0,0:0:0:0:
64,192,166030,1,0,0:0:0:0:
320,192,166030,1,0,0:0:0:0:
448,192,166030,1,0,0:0:0:0:
192,192,166130,1,0,0:0:0:0:
448,192,166230,1,0,0:0:0:0:
320,192,166230,1,0,0:0:0:0:
64,192,166330,1,0,0:0:0:0:
64,192,166430,1,0,0:0:0:0:
192,192,166430,1,0,0:0:0:0:
448,192,166430,1,0,0:0:0:0:
320,192,166430,1,0,0:0:0:0:
192,192,166530,1,0,0:0:0:0:
64,192,166630,1,0,0:0:0:0:
320,192,166630,1,0,0:0:0:0:
448,192,166730,1,0,0:0:0:0:
192,192,166830,1,0,0:0:0:0:
64,192,166830,1,0,0:0:0:0:
320,192,166830,1,0,0:0:0:0:
448,192,166930,1,0,0:0:0:0:
64,192,167030,1,0,0:0:0:0:
192,192,167030,1,0,0:0:0:0:
320,192,167130,1,0,0:0:0:0:
64,192,167230,1,0,0:0:0:0:
448,192,167230,1,0,0:0:0:0:
320,192,167263,1,0,0:0:0:0:
192,192,167296,1,0,0:0:0:0:
64,192,167330,1,0,0:0:0:0:
448,192,167363,1,0,0:0:0:0:
320,192,167396,1,0,0:0:0:0:
192,192,167430,1,0,0:0:0:0:
64,192,167463,1,0,0:0:0:0:
448,192,167496,1,0,0:0:0:0:
320,192,167530,1,0,0:0:0:0:
192,192,167563,1,0,0:0:0:0:
64,192,167596,1,0,0:0:0:0:
448,192,167630,1,0,0:0:0:0:
320,192,167663,1,0,0:0:0:0:
192,192,167696,1,0,0:0:0:0:
64,192,167730,1,0,0:0:0:0:
192,192,167763,1,0,0:0:0:0:
320,192,167796,1,0,0:0:0:0:
448,192,167830,1,0,0:0:0:0:
64,192,167863,1,0,0:0:0:0:
192,192,167896,1,0,0:0:0:0:
320,192,167930,1,0,0:0:0:0:
448,192,167963,1,0,0:0:0:0:
64,192,167996,1,0,0:0:0:0:
192,192,168030,1,0,0:0:0:0:
320,192,168030,1,0,0:0:0:0:
448,192,168130,1,0,0:0:0:0:
64,192,168230,1,0,0:0:0:0:
320,192,168230,128,0,168430:0:0:0:0:
192,192,168230,1,0,0:0:0:0:
448,192,168330,1,0,0:0:0:0:
64,192,168430,1,0,0:0:0:0:
192,192,168430,1,0,0:0:0:0:
448,192,168530,1,0,0:0:0:0:
64,192,168630,1,0,0:0:0:0:
320,192,168730,128,0,168830:0:0:0:0:
64,192,168830,1,0,0:0:0:0:
448,192,168830,1,0,0:0:0:0:
192,192,168830,1,0,0:0:0:0:
448,192,169030,1,0,0:0:0:0:
64,192,169030,1,0,0:0:0:0:
320,192,169030,1,0,0:0:0:0:
192,192,169230,1,0,0:0:0:0:
64,192,169230,1,0,0:0:0:0:
448,192,169230,1,0,0:0:0:0:
320,192,169230,1,0,0:0:0:0:
64,192,169430,1,0,0:0:0:0:
448,192,169430,1,0,0:0:0:0:
192,192,169430,1,0,0:0:0:0:
64,192,169630,1,0,0:0:0:0:
192,192,169630,1,0,0:0:0:0:
320,192,169630,1,0,0:0:0:0:
448,192,169630,1,0,0:0:0:0:
320,192,169830,1,0,0:0:0:0:
448,192,169830,1,0,0:0:0:0:
64,192,169830,1,0,0:0:0:0:
192,192,170030,1,0,0:0:0:0:
448,192,170030,1,0,0:0:0:0:
64,192,170030,1,0,0:0:0:0:
320,192,170030,1,0,0:0:0:0:
320,192,170130,1,0,0:0:0:0:
192,192,170130,1,0,0:0:0:0:
64,192,170130,1,0,0:0:0:0:
448,192,170130,1,0,0:0:0:0:
64,192,170230,1,0,0:0:0:0:
448,192,170230,1,0,0:0:0:0:
192,192,170230,1,0,0:0:0:0:
320,192,170430,1,0,0:0:0:0:
64,192,170430,128,0,178430:0:0:0:0:
448,192,170430,128,0,178430:0:0:0:0:
192,192,170430,1,0,0:0:0:0:
