osu file format v14

[General]
AudioFilename: Got Me Thinking.mp3
AudioLeadIn: 0
PreviewTime: 142511
Countdown: 0
SampleSet: Soft
StackLeniency: 0.7
Mode: 3
LetterboxInBreaks: 0
SpecialStyle: 0
WidescreenStoryboard: 1

[Editor]
Bookmarks: 9654,20625,31596,42568,53539,64511,75482,86454,97425,108396,119368,130339,141311,152282,163254,185196
DistanceSpacing: 0.8
BeatDivisor: 2
GridSize: 32
TimelineZoom: 2.599999

[Metadata]
Title:Pis's EDM Mania Pack Vol.2
TitleUnicode:Pis's EDM Mania Pack Vol.2
Artist:Various Artist
ArtistUnicode:Various Artist
Creator:PisRyder
Version:Got Me Thinking - 4K Heavy
Source:
Tags:
BeatmapID:988049
BeatmapSetID:452032

[Difficulty]
HPDrainRate:8
CircleSize:4
OverallDifficulty:8
ApproachRate:5
SliderMultiplier:1.4
SliderTickRate:1

[Events]
//Background and Video events
0,0,"6.jpg",0,0
//Break Periods
//Storyboard Layer 0 (Background)
Sprite,Background,TopLeft,"6.jpg",0,0
//Storyboard Layer 1 (Fail)
//Storyboard Layer 2 (Pass)
//Storyboard Layer 3 (Foreground)
Sprite,Foreground,TopLeft,"SB\Got Me Thinking\BG.jpg",-122,-9 S,0,-8000,,0.647 F,0,-8000,0,0,1 C,0,-8000,214022,100,100,100 F,0,214022,217022,1,0
Animation,Foreground,TopLeft,"SB\Particle\P.png",-122,-9,90,20,LoopForever S,0,-8000,,0.647 F,0,-8000,0,0,1 F,0,214022,217022,1,0
Sprite,Foreground,CentreLeft,"SB\Bar.png",510,271 V,0,-5000,-4000,0,0.647,0.647,0.647 F,0,-5000,214022,1
Sprite,Foreground,CentreLeft,"SB\BarColor.png",525,268.5 V,0,-3000,,0.616,0.647 F,0,-3000,-2900,0,1 C,0,-3000,214022,200,200,200 F,0,-2900,-2800,1,0 F,0,-2800,-2700,0,1 F,0,-2700,214022,1
Animation,Foreground,CentreLeft,"SB\BarC.png",525,268.5,90,20,LoopForever F,0,0,214022,1 C,0,0,214022,0,0,255 V,0,0,214022,0,0.647,0.616,0.647
Animation,Foreground,Centre,"SB\Disk.png",510,268,60,20,LoopForever V,0,-7000,-6000,0,0,0.8,0.8 F,0,-7000,-5500,0,1 V,0,-6000,-5500,0.8,0.8,0.648,0.648 F,0,-5500,214022,1
Sprite,Foreground,CentreLeft,"SB\Got Me Thinking\Text.png",528,279 S,0,-3000,,0.647 F,0,-3000,-2900,0,1 F,0,-2900,-2800,1,0 F,0,-2800,-2700,0,1 F,0,-2700,214022,1
//Storyboard Sound Samples

[TimingPoints]
54,342.857142857143,4,2,1,5,1,0
52082,-1000,4,2,1,5,0,0
54482,-100,4,2,1,5,0,0
54911,-100,4,2,1,5,0,1
76511,-400,4,2,1,5,0,1
76768,-100,4,2,1,5,0,1
98454,-400,4,2,1,5,0,1
98711,-100,4,2,1,5,0,1
120739,-142.857142857143,4,2,1,5,0,0
121254,-138.888888888889,4,2,1,5,0,0
121939,-135.135135135135,4,2,1,5,0,0
122625,-131.578947368421,4,2,1,5,0,0
123311,-128.205128205128,4,2,1,5,0,0
123996,-125,4,2,1,5,0,0
124682,-121.951219512195,4,2,1,5,0,0
125368,-119.047619047619,4,2,1,5,0,0
126054,-116.279069767442,4,2,1,5,0,0
126739,-113.636363636364,4,2,1,5,0,0
127425,-111.111111111111,4,2,1,5,0,0
128111,-108.695652173913,4,2,1,5,0,0
128796,-106.382978723404,4,2,1,5,0,0
129482,-104.166666666667,4,2,1,5,0,0
130168,-102.040816326531,4,2,1,5,0,0
130854,-100,4,2,1,5,0,0
142254,-400,4,2,1,5,0,0
142596,-100,4,2,1,5,0,0
142682,-100,4,2,1,5,0,1
164282,-133.333333333333,4,2,1,5,0,1
164625,-133.333333333333,4,2,1,5,0,0
166939,-100,4,2,1,5,0,0
167368,-100,4,2,1,5,0,1
186225,-400,4,2,1,5,0,1
186482,-100,4,2,1,5,0,1
186568,-100,4,2,1,5,0,0
208511,-400,4,2,1,5,0,0

[HitObjects]
448,192,54,5,0,0:0:0:0:
192,192,225,1,0,0:0:0:0:
320,192,396,1,0,0:0:0:0:
64,192,568,1,0,0:0:0:0:
448,192,739,1,0,0:0:0:0:
192,192,911,1,0,0:0:0:0:
320,192,1082,1,0,0:0:0:0:
64,192,1254,1,0,0:0:0:0:
448,192,1425,1,0,0:0:0:0:
192,192,1596,1,0,0:0:0:0:
320,192,1768,1,0,0:0:0:0:
64,192,1939,1,0,0:0:0:0:
448,192,2111,1,0,0:0:0:0:
192,192,2282,1,0,0:0:0:0:
320,192,2454,1,0,0:0:0:0:
64,192,2625,1,0,0:0:0:0:
448,192,2796,1,0,0:0:0:0:
192,192,2968,1,0,0:0:0:0:
320,192,3139,1,0,0:0:0:0:
64,192,3311,1,0,0:0:0:0:
448,192,3482,1,0,0:0:0:0:
192,192,3654,1,0,0:0:0:0:
320,192,3825,1,0,0:0:0:0:
64,192,3996,1,0,0:0:0:0:
448,192,4168,1,0,0:0:0:0:
192,192,4339,1,0,0:0:0:0:
320,192,4511,1,0,0:0:0:0:
64,192,4682,1,0,0:0:0:0:
448,192,4854,1,0,0:0:0:0:
192,192,5025,1,0,0:0:0:0:
320,192,5196,1,0,0:0:0:0:
64,192,5368,1,0,0:0:0:0:
448,192,5539,1,0,0:0:0:0:
192,192,5711,1,0,0:0:0:0:
320,192,5882,1,0,0:0:0:0:
64,192,6054,1,0,0:0:0:0:
448,192,6225,1,0,0:0:0:0:
192,192,6396,1,0,0:0:0:0:
320,192,6568,1,0,0:0:0:0:
64,192,6739,1,0,0:0:0:0:
448,192,6911,1,0,0:0:0:0:
192,192,7082,1,0,0:0:0:0:
320,192,7254,1,0,0:0:0:0:
64,192,7425,1,0,0:0:0:0:
448,192,7596,1,0,0:0:0:0:
192,192,7768,1,0,0:0:0:0:
320,192,7939,1,0,0:0:0:0:
64,192,8111,1,0,0:0:0:0:
448,192,8282,1,0,0:0:0:0:
192,192,8454,1,0,0:0:0:0:
320,192,8625,1,0,0:0:0:0:
64,192,8796,1,0,0:0:0:0:
448,192,8968,1,0,0:0:0:0:
192,192,9139,1,0,0:0:0:0:
320,192,9311,1,0,0:0:0:0:
64,192,9482,1,0,0:0:0:0:
448,192,9654,1,0,0:0:0:0:
192,192,9825,1,0,0:0:0:0:
320,192,9996,1,0,0:0:0:0:
64,192,10168,1,0,0:0:0:0:
448,192,10339,1,0,0:0:0:0:
192,192,10511,1,0,0:0:0:0:
320,192,10682,1,0,0:0:0:0:
64,192,10854,1,0,0:0:0:0:
448,192,11025,1,0,0:0:0:0:
320,192,11025,1,0,0:0:0:0:
192,192,11025,128,0,11368:0:0:0:0:
192,192,11539,128,0,11882:0:0:0:0:
320,192,12054,1,0,0:0:0:0:
448,192,12225,128,0,12396:0:0:0:0:
192,192,12568,1,0,0:0:0:0:
192,192,12739,1,0,0:0:0:0:
64,192,12911,1,0,0:0:0:0:
64,192,13082,128,0,13254:0:0:0:0:
64,192,13425,128,0,13596:0:0:0:0:
320,192,13768,128,0,14111:0:0:0:0:
320,192,14282,128,0,14625:0:0:0:0:
448,192,14796,1,0,0:0:0:0:
192,192,14968,128,0,15139:0:0:0:0:
448,192,15311,1,0,0:0:0:0:
448,192,15482,1,0,0:0:0:0:
64,192,15654,1,0,0:0:0:0:
64,192,15825,128,0,15996:0:0:0:0:
192,192,16168,128,0,16339:0:0:0:0:
320,192,16511,128,0,16854:0:0:0:0:
320,192,17025,128,0,17368:0:0:0:0:
192,192,17539,1,0,0:0:0:0:
448,192,17711,128,0,17882:0:0:0:0:
192,192,18054,1,0,0:0:0:0:
192,192,18225,1,0,0:0:0:0:
64,192,18396,1,0,0:0:0:0:
64,192,18568,128,0,18739:0:0:0:0:
64,192,18911,128,0,19082:0:0:0:0:
192,192,19254,128,0,19596:0:0:0:0:
192,192,19768,128,0,20111:0:0:0:0:
320,192,20282,1,0,0:0:0:0:
64,192,20454,128,0,20625:0:0:0:0:
192,192,20796,1,0,0:0:0:0:
192,192,20968,1,0,0:0:0:0:
320,192,21139,1,0,0:0:0:0:
320,192,21311,128,0,21482:0:0:0:0:
448,192,21654,128,0,21825:0:0:0:0:
192,192,21996,128,0,22339:0:0:0:0:
64,192,21996,1,0,0:0:0:0:
448,192,22339,1,0,0:0:0:0:
64,192,22339,1,0,0:0:0:0:
192,192,22511,128,0,22854:0:0:0:0:
448,192,22854,1,0,0:0:0:0:
320,192,23025,1,0,0:0:0:0:
64,192,23025,1,0,0:0:0:0:
448,192,23196,128,0,23368:0:0:0:0:
64,192,23368,1,0,0:0:0:0:
192,192,23539,1,0,0:0:0:0:
192,192,23711,1,0,0:0:0:0:
448,192,23711,1,0,0:0:0:0:
64,192,23882,1,0,0:0:0:0:
64,192,24054,128,0,24225:0:0:0:0:
320,192,24225,1,0,0:0:0:0:
64,192,24396,128,0,24568:0:0:0:0:
192,192,24396,1,0,0:0:0:0:
448,192,24396,1,0,0:0:0:0:
320,192,24739,128,0,25082:0:0:0:0:
64,192,24739,1,0,0:0:0:0:
192,192,25082,1,0,0:0:0:0:
448,192,25082,1,0,0:0:0:0:
320,192,25254,128,0,25596:0:0:0:0:
64,192,25596,1,0,0:0:0:0:
448,192,25768,1,0,0:0:0:0:
320,192,25768,1,0,0:0:0:0:
192,192,25939,128,0,26111:0:0:0:0:
64,192,26111,1,0,0:0:0:0:
448,192,26282,1,0,0:0:0:0:
448,192,26454,1,0,0:0:0:0:
192,192,26454,1,0,0:0:0:0:
64,192,26625,1,0,0:0:0:0:
64,192,26796,128,0,26968:0:0:0:0:
320,192,26968,1,0,0:0:0:0:
192,192,27139,128,0,27311:0:0:0:0:
448,192,27139,1,0,0:0:0:0:
64,192,27139,1,0,0:0:0:0:
320,192,27482,128,0,27825:0:0:0:0:
448,192,27482,1,0,0:0:0:0:
192,192,27825,1,0,0:0:0:0:
64,192,27825,1,0,0:0:0:0:
320,192,27996,128,0,28339:0:0:0:0:
64,192,28339,1,0,0:0:0:0:
192,192,28511,1,0,0:0:0:0:
320,192,28511,1,0,0:0:0:0:
448,192,28682,128,0,28854:0:0:0:0:
64,192,28854,1,0,0:0:0:0:
192,192,29025,1,0,0:0:0:0:
192,192,29196,1,0,0:0:0:0:
448,192,29196,1,0,0:0:0:0:
64,192,29368,1,0,0:0:0:0:
64,192,29539,128,0,29711:0:0:0:0:
320,192,29711,1,0,0:0:0:0:
64,192,29882,128,0,30054:0:0:0:0:
192,192,29882,1,0,0:0:0:0:
448,192,29882,1,0,0:0:0:0:
192,192,30225,128,0,30568:0:0:0:0:
320,192,30225,1,0,0:0:0:0:
448,192,30568,1,0,0:0:0:0:
64,192,30568,1,0,0:0:0:0:
192,192,30739,128,0,31082:0:0:0:0:
64,192,31082,1,0,0:0:0:0:
320,192,31254,1,0,0:0:0:0:
448,192,31254,1,0,0:0:0:0:
64,192,31425,128,0,31596:0:0:0:0:
448,192,31596,1,0,0:0:0:0:
192,192,31768,1,0,0:0:0:0:
192,192,31939,1,0,0:0:0:0:
448,192,31939,1,0,0:0:0:0:
320,192,32111,1,0,0:0:0:0:
320,192,32282,1,0,0:0:0:0:
192,192,32454,1,0,0:0:0:0:
320,192,32454,1,0,0:0:0:0:
448,192,32625,128,0,32796:0:0:0:0:
64,192,32625,1,0,0:0:0:0:
320,192,32625,1,0,0:0:0:0:
448,192,32968,1,0,0:0:0:0:
192,192,32968,1,0,0:0:0:0:
320,192,33139,1,0,0:0:0:0:
64,192,33311,1,0,0:0:0:0:
192,192,33311,1,0,0:0:0:0:
448,192,33311,1,0,0:0:0:0:
448,192,33482,1,0,0:0:0:0:
64,192,33654,1,0,0:0:0:0:
192,192,33825,1,0,0:0:0:0:
448,192,33825,1,0,0:0:0:0:
320,192,33996,1,0,0:0:0:0:
192,192,33996,1,0,0:0:0:0:
64,192,33996,1,0,0:0:0:0:
448,192,34168,128,0,34339:0:0:0:0:
320,192,34339,1,0,0:0:0:0:
192,192,34511,1,0,0:0:0:0:
192,192,34682,1,0,0:0:0:0:
448,192,34682,1,0,0:0:0:0:
320,192,34682,1,0,0:0:0:0:
64,192,34854,1,0,0:0:0:0:
64,192,35025,1,0,0:0:0:0:
64,192,35196,1,0,0:0:0:0:
320,192,35196,1,0,0:0:0:0:
64,192,35368,1,0,0:0:0:0:
192,192,35368,1,0,0:0:0:0:
448,192,35368,1,0,0:0:0:0:
64,192,35539,1,0,0:0:0:0:
320,192,35711,1,0,0:0:0:0:
448,192,35711,1,0,0:0:0:0:
320,192,35882,1,0,0:0:0:0:
448,192,35882,1,0,0:0:0:0:
320,192,36054,1,0,0:0:0:0:
192,192,36054,1,0,0:0:0:0:
64,192,36054,1,0,0:0:0:0:
320,192,36225,1,0,0:0:0:0:
320,192,36396,1,0,0:0:0:0:
320,192,36568,1,0,0:0:0:0:
64,192,36568,1,0,0:0:0:0:
448,192,36739,1,0,0:0:0:0:
192,192,36739,1,0,0:0:0:0:
64,192,36739,1,0,0:0:0:0:
192,192,36911,1,0,0:0:0:0:
192,192,37082,1,0,0:0:0:0:
320,192,37082,1,0,0:0:0:0:
448,192,37254,1,0,0:0:0:0:
448,192,37425,1,0,0:0:0:0:
192,192,37425,1,0,0:0:0:0:
64,192,37425,1,0,0:0:0:0:
64,192,37596,1,0,0:0:0:0:
64,192,37768,1,0,0:0:0:0:
64,192,37939,1,0,0:0:0:0:
320,192,37939,1,0,0:0:0:0:
192,192,38111,1,0,0:0:0:0:
448,192,38111,1,0,0:0:0:0:
64,192,38111,1,0,0:0:0:0:
192,192,38282,1,0,0:0:0:0:
320,192,38454,1,0,0:0:0:0:
64,192,38454,1,0,0:0:0:0:
192,192,38625,1,0,0:0:0:0:
448,192,38796,1,0,0:0:0:0:
320,192,38796,1,0,0:0:0:0:
64,192,38796,1,0,0:0:0:0:
64,192,38968,1,0,0:0:0:0:
320,192,39139,1,0,0:0:0:0:
64,192,39311,1,0,0:0:0:0:
448,192,39311,1,0,0:0:0:0:
192,192,39482,1,0,0:0:0:0:
320,192,39482,1,0,0:0:0:0:
64,192,39482,1,0,0:0:0:0:
448,192,39654,128,0,39825:0:0:0:0:
64,192,39825,1,0,0:0:0:0:
192,192,39996,1,0,0:0:0:0:
192,192,40168,1,0,0:0:0:0:
448,192,40168,1,0,0:0:0:0:
64,192,40168,1,0,0:0:0:0:
64,192,40339,1,0,0:0:0:0:
64,192,40511,1,0,0:0:0:0:
64,192,40682,1,0,0:0:0:0:
320,192,40682,1,0,0:0:0:0:
64,192,40854,1,0,0:0:0:0:
192,192,40854,1,0,0:0:0:0:
448,192,40854,1,0,0:0:0:0:
64,192,41025,1,0,0:0:0:0:
192,192,41196,1,0,0:0:0:0:
320,192,41196,1,0,0:0:0:0:
192,192,41368,1,0,0:0:0:0:
192,192,41539,1,0,0:0:0:0:
64,192,41539,1,0,0:0:0:0:
448,192,41539,1,0,0:0:0:0:
192,192,41711,1,0,0:0:0:0:
192,192,41882,1,0,0:0:0:0:
192,192,42054,1,0,0:0:0:0:
448,192,42054,1,0,0:0:0:0:
320,192,42225,1,0,0:0:0:0:
64,192,42225,1,0,0:0:0:0:
192,192,42225,1,0,0:0:0:0:
64,192,42396,1,0,0:0:0:0:
64,192,42568,1,0,0:0:0:0:
448,192,42568,1,0,0:0:0:0:
192,192,42739,1,0,0:0:0:0:
192,192,42911,1,0,0:0:0:0:
64,192,42911,1,0,0:0:0:0:
448,192,42911,1,0,0:0:0:0:
320,192,43082,1,0,0:0:0:0:
320,192,43254,1,0,0:0:0:0:
320,192,43425,1,0,0:0:0:0:
192,192,43425,1,0,0:0:0:0:
448,192,43596,128,0,43854:0:0:0:0:
320,192,43596,1,0,0:0:0:0:
64,192,43596,1,0,0:0:0:0:
320,192,43768,1,0,0:0:0:0:
64,192,43939,1,0,0:0:0:0:
320,192,43939,1,0,0:0:0:0:
192,192,44025,1,0,0:0:0:0:
64,192,44111,1,0,0:0:0:0:
320,192,44196,1,0,0:0:0:0:
192,192,44282,1,0,0:0:0:0:
448,192,44282,1,0,0:0:0:0:
320,192,44368,1,0,0:0:0:0:
448,192,44454,1,0,0:0:0:0:
192,192,44539,1,0,0:0:0:0:
64,192,44625,1,0,0:0:0:0:
320,192,44625,1,0,0:0:0:0:
448,192,44711,1,0,0:0:0:0:
320,192,44796,1,0,0:0:0:0:
192,192,44882,1,0,0:0:0:0:
320,192,44968,1,0,0:0:0:0:
448,192,44968,1,0,0:0:0:0:
64,192,45054,1,0,0:0:0:0:
192,192,45139,1,0,0:0:0:0:
320,192,45225,1,0,0:0:0:0:
64,192,45311,1,0,0:0:0:0:
448,192,45311,1,0,0:0:0:0:
192,192,45396,1,0,0:0:0:0:
320,192,45482,1,0,0:0:0:0:
192,192,45568,1,0,0:0:0:0:
320,192,45654,1,0,0:0:0:0:
448,192,45654,1,0,0:0:0:0:
64,192,45739,1,0,0:0:0:0:
448,192,45825,1,0,0:0:0:0:
192,192,45911,1,0,0:0:0:0:
64,192,45996,1,0,0:0:0:0:
320,192,45996,1,0,0:0:0:0:
448,192,46082,1,0,0:0:0:0:
320,192,46168,1,0,0:0:0:0:
192,192,46254,1,0,0:0:0:0:
64,192,46339,1,0,0:0:0:0:
320,192,46339,1,0,0:0:0:0:
448,192,46425,1,0,0:0:0:0:
64,192,46511,1,0,0:0:0:0:
192,192,46596,1,0,0:0:0:0:
320,192,46682,1,0,0:0:0:0:
448,192,46682,1,0,0:0:0:0:
192,192,46768,1,0,0:0:0:0:
64,192,46854,1,0,0:0:0:0:
320,192,46939,1,0,0:0:0:0:
192,192,47025,1,0,0:0:0:0:
448,192,47025,1,0,0:0:0:0:
320,192,47111,1,0,0:0:0:0:
192,192,47196,1,0,0:0:0:0:
64,192,47282,1,0,0:0:0:0:
192,192,47368,1,0,0:0:0:0:
448,192,47368,1,0,0:0:0:0:
320,192,47454,1,0,0:0:0:0:
192,192,47539,1,0,0:0:0:0:
320,192,47625,1,0,0:0:0:0:
64,192,47711,1,0,0:0:0:0:
448,192,47711,1,0,0:0:0:0:
192,192,47796,1,0,0:0:0:0:
320,192,47882,1,0,0:0:0:0:
64,192,47968,1,0,0:0:0:0:
192,192,48054,1,0,0:0:0:0:
448,192,48054,1,0,0:0:0:0:
320,192,48139,1,0,0:0:0:0:
192,192,48225,1,0,0:0:0:0:
448,192,48311,1,0,0:0:0:0:
192,192,48396,1,0,0:0:0:0:
64,192,48396,1,0,0:0:0:0:
320,192,48482,1,0,0:0:0:0:
448,192,48568,1,0,0:0:0:0:
64,192,48654,1,0,0:0:0:0:
192,192,48739,1,0,0:0:0:0:
448,192,48739,1,0,0:0:0:0:
320,192,48825,1,0,0:0:0:0:
192,192,48911,1,0,0:0:0:0:
64,192,48996,1,0,0:0:0:0:
192,192,49082,1,0,0:0:0:0:
448,192,49082,1,0,0:0:0:0:
320,192,49168,1,0,0:0:0:0:
64,192,49254,1,0,0:0:0:0:
448,192,49339,1,0,0:0:0:0:
192,192,49425,1,0,0:0:0:0:
320,192,49425,1,0,0:0:0:0:
64,192,49511,1,0,0:0:0:0:
192,192,49596,1,0,0:0:0:0:
448,192,49596,1,0,0:0:0:0:
320,192,49682,1,0,0:0:0:0:
64,192,49768,1,0,0:0:0:0:
448,192,49768,1,0,0:0:0:0:
192,192,49854,1,0,0:0:0:0:
64,192,49939,1,0,0:0:0:0:
320,192,49939,1,0,0:0:0:0:
448,192,50025,1,0,0:0:0:0:
192,192,50111,1,0,0:0:0:0:
320,192,50111,1,0,0:0:0:0:
64,192,50196,1,0,0:0:0:0:
448,192,50282,1,0,0:0:0:0:
320,192,50282,1,0,0:0:0:0:
192,192,50368,1,0,0:0:0:0:
64,192,50454,1,0,0:0:0:0:
448,192,50454,1,0,0:0:0:0:
320,192,50539,1,0,0:0:0:0:
192,192,50625,1,0,0:0:0:0:
448,192,50625,1,0,0:0:0:0:
64,192,50711,1,0,0:0:0:0:
192,192,50796,1,0,0:0:0:0:
320,192,50796,1,0,0:0:0:0:
448,192,50882,1,0,0:0:0:0:
64,192,50968,1,0,0:0:0:0:
192,192,50968,1,0,0:0:0:0:
320,192,51054,1,0,0:0:0:0:
64,192,51139,1,0,0:0:0:0:
448,192,51139,1,0,0:0:0:0:
192,192,51225,1,0,0:0:0:0:
64,192,51311,1,0,0:0:0:0:
320,192,51311,1,0,0:0:0:0:
448,192,51396,1,0,0:0:0:0:
192,192,51482,1,0,0:0:0:0:
320,192,51482,1,0,0:0:0:0:
64,192,51568,1,0,0:0:0:0:
192,192,51654,1,0,0:0:0:0:
448,192,51654,1,0,0:0:0:0:
320,192,51739,1,0,0:0:0:0:
64,192,51825,1,0,0:0:0:0:
448,192,51825,1,0,0:0:0:0:
192,192,51911,1,0,0:0:0:0:
320,192,51996,1,0,0:0:0:0:
448,192,51996,1,0,0:0:0:0:
192,192,52082,1,0,0:0:0:0:
64,192,54568,1,0,0:0:0:0:
192,192,54568,1,0,0:0:0:0:
320,192,54568,1,0,0:0:0:0:
448,192,54568,1,0,0:0:0:0:
64,192,54739,1,0,0:0:0:0:
192,192,54739,1,0,0:0:0:0:
320,192,54739,1,0,0:0:0:0:
448,192,54739,1,0,0:0:0:0:
192,192,54911,128,0,55254:0:0:0:0:
320,192,54911,128,0,54996:0:0:0:0:
64,192,54911,1,0,0:0:0:0:
448,192,55082,128,0,55168:0:0:0:0:
64,192,55082,1,0,0:0:0:0:
320,192,55254,1,0,0:0:0:0:
448,192,55254,1,0,0:0:0:0:
64,192,55254,1,0,0:0:0:0:
192,192,55425,128,0,55768:0:0:0:0:
320,192,55425,128,0,55511:0:0:0:0:
448,192,55425,1,0,0:0:0:0:
64,192,55511,1,0,0:0:0:0:
448,192,55596,128,0,55682:0:0:0:0:
320,192,55596,1,0,0:0:0:0:
64,192,55682,1,0,0:0:0:0:
448,192,55768,1,0,0:0:0:0:
320,192,55768,1,0,0:0:0:0:
320,192,55939,1,0,0:0:0:0:
64,192,55939,128,0,56025:0:0:0:0:
192,192,55939,1,0,0:0:0:0:
448,192,55939,1,0,0:0:0:0:
448,192,56111,128,0,56282:0:0:0:0:
320,192,56111,128,0,56196:0:0:0:0:
64,192,56111,1,0,0:0:0:0:
192,192,56196,1,0,0:0:0:0:
320,192,56282,128,0,56368:0:0:0:0:
64,192,56282,1,0,0:0:0:0:
448,192,56368,1,0,0:0:0:0:
192,192,56454,1,0,0:0:0:0:
320,192,56454,1,0,0:0:0:0:
64,192,56454,1,0,0:0:0:0:
192,192,56625,1,0,0:0:0:0:
448,192,56625,128,0,56711:0:0:0:0:
64,192,56625,1,0,0:0:0:0:
320,192,56625,1,0,0:0:0:0:
64,192,56796,1,0,0:0:0:0:
320,192,56796,128,0,56882:0:0:0:0:
448,192,56796,1,0,0:0:0:0:
192,192,56882,1,0,0:0:0:0:
64,192,56968,128,0,57139:0:0:0:0:
320,192,56968,128,0,57054:0:0:0:0:
448,192,56968,1,0,0:0:0:0:
192,192,57054,1,0,0:0:0:0:
320,192,57139,1,0,0:0:0:0:
448,192,57139,1,0,0:0:0:0:
64,192,57311,128,0,57482:0:0:0:0:
192,192,57311,128,0,57396:0:0:0:0:
448,192,57311,1,0,0:0:0:0:
320,192,57311,1,0,0:0:0:0:
448,192,57482,128,0,57568:0:0:0:0:
320,192,57482,1,0,0:0:0:0:
192,192,57568,1,0,0:0:0:0:
320,192,57654,128,0,57996:0:0:0:0:
64,192,57654,128,0,57739:0:0:0:0:
448,192,57654,1,0,0:0:0:0:
192,192,57654,1,0,0:0:0:0:
448,192,57825,128,0,57911:0:0:0:0:
192,192,57825,1,0,0:0:0:0:
64,192,57996,1,0,0:0:0:0:
192,192,57996,1,0,0:0:0:0:
448,192,57996,1,0,0:0:0:0:
320,192,58168,128,0,58511:0:0:0:0:
64,192,58168,128,0,58254:0:0:0:0:
192,192,58168,1,0,0:0:0:0:
448,192,58254,1,0,0:0:0:0:
192,192,58339,128,0,58425:0:0:0:0:
64,192,58339,1,0,0:0:0:0:
448,192,58425,1,0,0:0:0:0:
64,192,58511,1,0,0:0:0:0:
192,192,58511,1,0,0:0:0:0:
448,192,58682,1,0,0:0:0:0:
64,192,58682,128,0,58768:0:0:0:0:
192,192,58682,1,0,0:0:0:0:
320,192,58682,1,0,0:0:0:0:
192,192,58854,128,0,59025:0:0:0:0:
320,192,58854,128,0,58939:0:0:0:0:
448,192,58854,1,0,0:0:0:0:
64,192,58939,1,0,0:0:0:0:
320,192,59025,128,0,59111:0:0:0:0:
448,192,59025,1,0,0:0:0:0:
192,192,59111,1,0,0:0:0:0:
448,192,59196,1,0,0:0:0:0:
64,192,59196,1,0,0:0:0:0:
320,192,59196,1,0,0:0:0:0:
448,192,59368,1,0,0:0:0:0:
192,192,59368,128,0,59454:0:0:0:0:
320,192,59368,1,0,0:0:0:0:
64,192,59368,1,0,0:0:0:0:
64,192,59539,1,0,0:0:0:0:
320,192,59539,128,0,59625:0:0:0:0:
192,192,59625,1,0,0:0:0:0:
64,192,59711,128,0,59882:0:0:0:0:
320,192,59711,128,0,59796:0:0:0:0:
448,192,59711,1,0,0:0:0:0:
192,192,59796,1,0,0:0:0:0:
320,192,59882,1,0,0:0:0:0:
448,192,59882,1,0,0:0:0:0:
192,192,60054,128,0,60225:0:0:0:0:
448,192,60054,128,0,60139:0:0:0:0:
320,192,60054,1,0,0:0:0:0:
64,192,60054,1,0,0:0:0:0:
320,192,60225,1,0,0:0:0:0:
448,192,60225,1,0,0:0:0:0:
64,192,60225,128,0,60311:0:0:0:0:
192,192,60311,1,0,0:0:0:0:
320,192,60311,1,0,0:0:0:0:
320,192,60396,128,0,60739:0:0:0:0:
448,192,60396,128,0,60482:0:0:0:0:
192,192,60396,1,0,0:0:0:0:
64,192,60396,1,0,0:0:0:0:
192,192,60568,128,0,60654:0:0:0:0:
64,192,60568,1,0,0:0:0:0:
192,192,60739,1,0,0:0:0:0:
64,192,60739,1,0,0:0:0:0:
448,192,60739,1,0,0:0:0:0:
320,192,60911,128,0,61254:0:0:0:0:
64,192,60911,128,0,60996:0:0:0:0:
192,192,60911,1,0,0:0:0:0:
448,192,60996,1,0,0:0:0:0:
192,192,61082,128,0,61168:0:0:0:0:
64,192,61082,1,0,0:0:0:0:
448,192,61168,1,0,0:0:0:0:
192,192,61254,1,0,0:0:0:0:
64,192,61254,1,0,0:0:0:0:
192,192,61425,1,0,0:0:0:0:
64,192,61425,128,0,61511:0:0:0:0:
320,192,61425,1,0,0:0:0:0:
448,192,61425,1,0,0:0:0:0:
448,192,61596,128,0,61768:0:0:0:0:
320,192,61596,128,0,61682:0:0:0:0:
192,192,61596,1,0,0:0:0:0:
64,192,61682,1,0,0:0:0:0:
320,192,61768,128,0,61854:0:0:0:0:
192,192,61768,1,0,0:0:0:0:
448,192,61854,1,0,0:0:0:0:
192,192,61939,1,0,0:0:0:0:
64,192,61939,1,0,0:0:0:0:
320,192,61939,1,0,0:0:0:0:
192,192,62111,1,0,0:0:0:0:
448,192,62111,128,0,62196:0:0:0:0:
320,192,62111,1,0,0:0:0:0:
64,192,62111,1,0,0:0:0:0:
64,192,62282,1,0,0:0:0:0:
320,192,62282,128,0,62368:0:0:0:0:
192,192,62282,1,0,0:0:0:0:
448,192,62368,1,0,0:0:0:0:
64,192,62454,128,0,62625:0:0:0:0:
320,192,62454,128,0,62539:0:0:0:0:
192,192,62454,1,0,0:0:0:0:
448,192,62539,1,0,0:0:0:0:
320,192,62625,1,0,0:0:0:0:
192,192,62625,1,0,0:0:0:0:
64,192,62796,128,0,62968:0:0:0:0:
448,192,62796,128,0,62882:0:0:0:0:
192,192,62796,1,0,0:0:0:0:
320,192,62796,1,0,0:0:0:0:
320,192,62968,128,0,63054:0:0:0:0:
448,192,62968,1,0,0:0:0:0:
64,192,63054,1,0,0:0:0:0:
192,192,63139,128,0,63482:0:0:0:0:
448,192,63139,128,0,63225:0:0:0:0:
64,192,63139,1,0,0:0:0:0:
320,192,63139,1,0,0:0:0:0:
64,192,63311,128,0,63396:0:0:0:0:
320,192,63311,1,0,0:0:0:0:
320,192,63482,1,0,0:0:0:0:
448,192,63482,1,0,0:0:0:0:
64,192,63482,1,0,0:0:0:0:
192,192,63654,128,0,63996:0:0:0:0:
64,192,63654,128,0,63739:0:0:0:0:
448,192,63654,1,0,0:0:0:0:
320,192,63739,1,0,0:0:0:0:
448,192,63825,128,0,63911:0:0:0:0:
64,192,63825,1,0,0:0:0:0:
320,192,63911,1,0,0:0:0:0:
448,192,63996,1,0,0:0:0:0:
64,192,63996,1,0,0:0:0:0:
320,192,64168,1,0,0:0:0:0:
192,192,64168,128,0,64254:0:0:0:0:
64,192,64168,1,0,0:0:0:0:
448,192,64168,1,0,0:0:0:0:
64,192,64339,128,0,64511:0:0:0:0:
320,192,64339,128,0,64425:0:0:0:0:
448,192,64339,1,0,0:0:0:0:
192,192,64425,1,0,0:0:0:0:
320,192,64511,128,0,64596:0:0:0:0:
448,192,64511,1,0,0:0:0:0:
64,192,64596,1,0,0:0:0:0:
192,192,64682,1,0,0:0:0:0:
320,192,64682,1,0,0:0:0:0:
448,192,64682,1,0,0:0:0:0:
192,192,64854,1,0,0:0:0:0:
448,192,64854,128,0,64939:0:0:0:0:
64,192,64854,1,0,0:0:0:0:
320,192,64854,1,0,0:0:0:0:
320,192,65025,1,0,0:0:0:0:
64,192,65025,128,0,65111:0:0:0:0:
192,192,65025,1,0,0:0:0:0:
448,192,65111,1,0,0:0:0:0:
320,192,65196,128,0,65368:0:0:0:0:
64,192,65196,128,0,65282:0:0:0:0:
192,192,65196,1,0,0:0:0:0:
448,192,65282,1,0,0:0:0:0:
192,192,65368,1,0,0:0:0:0:
64,192,65368,1,0,0:0:0:0:
448,192,65539,128,0,65711:0:0:0:0:
64,192,65539,1,0,0:0:0:0:
192,192,65539,1,0,0:0:0:0:
320,192,65539,1,0,0:0:0:0:
64,192,65711,1,0,0:0:0:0:
192,192,65711,1,0,0:0:0:0:
320,192,65796,1,0,0:0:0:0:
192,192,65796,1,0,0:0:0:0:
320,192,65882,128,0,66225:0:0:0:0:
192,192,65882,128,0,65968:0:0:0:0:
448,192,65882,1,0,0:0:0:0:
64,192,66054,128,0,66139:0:0:0:0:
192,192,66225,1,0,0:0:0:0:
64,192,66225,1,0,0:0:0:0:
448,192,66225,1,0,0:0:0:0:
320,192,66396,128,0,66739:0:0:0:0:
192,192,66396,128,0,66482:0:0:0:0:
64,192,66396,1,0,0:0:0:0:
448,192,66482,1,0,0:0:0:0:
64,192,66568,128,0,66654:0:0:0:0:
192,192,66568,1,0,0:0:0:0:
448,192,66654,1,0,0:0:0:0:
64,192,66739,1,0,0:0:0:0:
192,192,66739,1,0,0:0:0:0:
192,192,66911,1,0,0:0:0:0:
448,192,66911,128,0,66996:0:0:0:0:
320,192,66911,1,0,0:0:0:0:
64,192,66911,1,0,0:0:0:0:
64,192,67082,128,0,67254:0:0:0:0:
192,192,67082,128,0,67168:0:0:0:0:
448,192,67082,1,0,0:0:0:0:
320,192,67168,1,0,0:0:0:0:
192,192,67254,128,0,67339:0:0:0:0:
448,192,67254,1,0,0:0:0:0:
64,192,67339,1,0,0:0:0:0:
320,192,67425,1,0,0:0:0:0:
192,192,67425,1,0,0:0:0:0:
448,192,67425,1,0,0:0:0:0:
320,192,67596,1,0,0:0:0:0:
64,192,67596,128,0,67682:0:0:0:0:
448,192,67596,1,0,0:0:0:0:
192,192,67596,1,0,0:0:0:0:
448,192,67768,1,0,0:0:0:0:
192,192,67768,128,0,67854:0:0:0:0:
64,192,67768,1,0,0:0:0:0:
320,192,67854,1,0,0:0:0:0:
448,192,67939,128,0,68111:0:0:0:0:
192,192,67939,128,0,68025:0:0:0:0:
64,192,67939,1,0,0:0:0:0:
320,192,68025,1,0,0:0:0:0:
192,192,68111,1,0,0:0:0:0:
64,192,68111,1,0,0:0:0:0:
448,192,68282,128,0,68454:0:0:0:0:
320,192,68282,128,0,68368:0:0:0:0:
64,192,68282,1,0,0:0:0:0:
192,192,68282,1,0,0:0:0:0:
64,192,68454,128,0,68539:0:0:0:0:
192,192,68454,1,0,0:0:0:0:
320,192,68539,1,0,0:0:0:0:
192,192,68625,128,0,68968:0:0:0:0:
448,192,68625,128,0,68711:0:0:0:0:
64,192,68625,1,0,0:0:0:0:
320,192,68625,1,0,0:0:0:0:
64,192,68796,128,0,68882:0:0:0:0:
320,192,68796,1,0,0:0:0:0:
448,192,68968,1,0,0:0:0:0:
320,192,68968,1,0,0:0:0:0:
64,192,68968,1,0,0:0:0:0:
192,192,69139,128,0,69482:0:0:0:0:
448,192,69139,128,0,69225:0:0:0:0:
320,192,69139,1,0,0:0:0:0:
64,192,69225,1,0,0:0:0:0:
320,192,69311,128,0,69396:0:0:0:0:
448,192,69311,1,0,0:0:0:0:
64,192,69396,1,0,0:0:0:0:
448,192,69482,1,0,0:0:0:0:
320,192,69482,1,0,0:0:0:0:
64,192,69654,1,0,0:0:0:0:
448,192,69654,128,0,69739:0:0:0:0:
320,192,69654,1,0,0:0:0:0:
192,192,69654,1,0,0:0:0:0:
320,192,69825,128,0,69996:0:0:0:0:
192,192,69825,128,0,69911:0:0:0:0:
64,192,69825,1,0,0:0:0:0:
448,192,69911,1,0,0:0:0:0:
192,192,69996,128,0,70082:0:0:0:0:
64,192,69996,1,0,0:0:0:0:
320,192,70082,1,0,0:0:0:0:
64,192,70168,1,0,0:0:0:0:
448,192,70168,1,0,0:0:0:0:
192,192,70168,1,0,0:0:0:0:
64,192,70339,1,0,0:0:0:0:
320,192,70339,128,0,70425:0:0:0:0:
192,192,70339,1,0,0:0:0:0:
448,192,70339,1,0,0:0:0:0:
448,192,70511,1,0,0:0:0:0:
192,192,70511,128,0,70596:0:0:0:0:
320,192,70596,1,0,0:0:0:0:
448,192,70682,128,0,70854:0:0:0:0:
192,192,70682,128,0,70768:0:0:0:0:
64,192,70682,1,0,0:0:0:0:
320,192,70768,1,0,0:0:0:0:
192,192,70854,1,0,0:0:0:0:
64,192,70854,1,0,0:0:0:0:
320,192,71025,128,0,71196:0:0:0:0:
64,192,71025,128,0,71111:0:0:0:0:
192,192,71025,1,0,0:0:0:0:
448,192,71025,1,0,0:0:0:0:
448,192,71196,128,0,71282:0:0:0:0:
192,192,71196,1,0,0:0:0:0:
64,192,71196,1,0,0:0:0:0:
320,192,71282,1,0,0:0:0:0:
192,192,71282,1,0,0:0:0:0:
192,192,71368,128,0,71711:0:0:0:0:
64,192,71368,128,0,71454:0:0:0:0:
320,192,71368,1,0,0:0:0:0:
448,192,71368,1,0,0:0:0:0:
320,192,71539,128,0,71625:0:0:0:0:
448,192,71539,1,0,0:0:0:0:
320,192,71711,1,0,0:0:0:0:
448,192,71711,1,0,0:0:0:0:
64,192,71711,1,0,0:0:0:0:
192,192,71882,128,0,72225:0:0:0:0:
448,192,71882,128,0,71968:0:0:0:0:
320,192,71882,1,0,0:0:0:0:
64,192,71968,1,0,0:0:0:0:
320,192,72054,128,0,72139:0:0:0:0:
448,192,72054,1,0,0:0:0:0:
64,192,72139,1,0,0:0:0:0:
320,192,72225,1,0,0:0:0:0:
448,192,72225,1,0,0:0:0:0:
320,192,72396,1,0,0:0:0:0:
448,192,72396,128,0,72482:0:0:0:0:
192,192,72396,1,0,0:0:0:0:
64,192,72396,1,0,0:0:0:0:
64,192,72568,128,0,72739:0:0:0:0:
192,192,72568,128,0,72654:0:0:0:0:
320,192,72568,1,0,0:0:0:0:
448,192,72654,1,0,0:0:0:0:
192,192,72739,128,0,72825:0:0:0:0:
320,192,72739,1,0,0:0:0:0:
64,192,72825,1,0,0:0:0:0:
320,192,72911,1,0,0:0:0:0:
448,192,72911,1,0,0:0:0:0:
192,192,72911,1,0,0:0:0:0:
320,192,73082,1,0,0:0:0:0:
64,192,73082,128,0,73168:0:0:0:0:
192,192,73082,1,0,0:0:0:0:
448,192,73082,1,0,0:0:0:0:
448,192,73254,1,0,0:0:0:0:
192,192,73254,128,0,73339:0:0:0:0:
320,192,73254,1,0,0:0:0:0:
64,192,73339,1,0,0:0:0:0:
448,192,73425,128,0,73596:0:0:0:0:
192,192,73425,128,0,73511:0:0:0:0:
320,192,73425,1,0,0:0:0:0:
64,192,73511,1,0,0:0:0:0:
192,192,73596,1,0,0:0:0:0:
320,192,73596,1,0,0:0:0:0:
448,192,73768,128,0,73939:0:0:0:0:
64,192,73768,128,0,73854:0:0:0:0:
320,192,73768,1,0,0:0:0:0:
192,192,73768,1,0,0:0:0:0:
192,192,73939,128,0,74025:0:0:0:0:
64,192,73939,1,0,0:0:0:0:
448,192,74025,1,0,0:0:0:0:
320,192,74111,128,0,75054:0:0:0:0:
448,192,74111,1,0,0:0:0:0:
192,192,74111,1,0,0:0:0:0:
64,192,74282,1,0,0:0:0:0:
64,192,74454,1,0,0:0:0:0:
448,192,74454,1,0,0:0:0:0:
192,192,74454,1,0,0:0:0:0:
64,192,74625,1,0,0:0:0:0:
192,192,74711,1,0,0:0:0:0:
64,192,74796,1,0,0:0:0:0:
448,192,74796,1,0,0:0:0:0:
192,192,74968,1,0,0:0:0:0:
64,192,75139,1,0,0:0:0:0:
192,192,75139,1,0,0:0:0:0:
448,192,75139,1,0,0:0:0:0:
320,192,75139,128,0,75225:0:0:0:0:
448,192,75311,128,0,75482:0:0:0:0:
192,192,75311,1,0,0:0:0:0:
320,192,75396,1,0,0:0:0:0:
192,192,75482,1,0,0:0:0:0:
64,192,75482,1,0,0:0:0:0:
320,192,75654,128,0,75739:0:0:0:0:
64,192,75654,1,0,0:0:0:0:
192,192,75654,1,0,0:0:0:0:
448,192,75654,1,0,0:0:0:0:
320,192,75825,128,0,75911:0:0:0:0:
64,192,75825,1,0,0:0:0:0:
448,192,75825,1,0,0:0:0:0:
192,192,75825,1,0,0:0:0:0:
192,192,75996,128,0,76082:0:0:0:0:
448,192,75996,1,0,0:0:0:0:
320,192,75996,1,0,0:0:0:0:
64,192,75996,1,0,0:0:0:0:
192,192,76168,128,0,76425:0:0:0:0:
64,192,76168,1,0,0:0:0:0:
320,192,76168,1,0,0:0:0:0:
448,192,76168,1,0,0:0:0:0:
320,192,76339,1,0,0:0:0:0:
64,192,76339,1,0,0:0:0:0:
64,192,76511,128,0,76768:0:0:0:0:
192,192,76511,1,0,0:0:0:0:
320,192,76511,1,0,0:0:0:0:
448,192,76511,1,0,0:0:0:0:
320,192,76854,1,0,0:0:0:0:
192,192,76854,128,0,77196:0:0:0:0:
64,192,76854,128,0,76939:0:0:0:0:
64,192,77025,128,0,77196:0:0:0:0:
448,192,77025,1,0,0:0:0:0:
320,192,77196,1,0,0:0:0:0:
448,192,77196,1,0,0:0:0:0:
192,192,77368,128,0,77711:0:0:0:0:
64,192,77368,128,0,77539:0:0:0:0:
448,192,77368,1,0,0:0:0:0:
320,192,77454,1,0,0:0:0:0:
448,192,77539,1,0,0:0:0:0:
320,192,77625,1,0,0:0:0:0:
64,192,77711,128,0,77882:0:0:0:0:
320,192,77711,1,0,0:0:0:0:
448,192,77711,1,0,0:0:0:0:
320,192,77882,1,0,0:0:0:0:
192,192,77882,1,0,0:0:0:0:
448,192,77882,1,0,0:0:0:0:
448,192,78054,128,0,78225:0:0:0:0:
192,192,78054,128,0,78225:0:0:0:0:
64,192,78054,1,0,0:0:0:0:
320,192,78139,1,0,0:0:0:0:
64,192,78225,1,0,0:0:0:0:
320,192,78225,1,0,0:0:0:0:
192,192,78396,1,0,0:0:0:0:
320,192,78396,128,0,78568:0:0:0:0:
192,192,78568,1,0,0:0:0:0:
64,192,78568,1,0,0:0:0:0:
448,192,78568,1,0,0:0:0:0:
64,192,78739,1,0,0:0:0:0:
192,192,78739,1,0,0:0:0:0:
448,192,78739,128,0,78825:0:0:0:0:
320,192,78825,1,0,0:0:0:0:
64,192,78911,128,0,79082:0:0:0:0:
192,192,78911,1,0,0:0:0:0:
320,192,78911,128,0,78996:0:0:0:0:
448,192,78996,1,0,0:0:0:0:
320,192,79082,1,0,0:0:0:0:
448,192,79082,1,0,0:0:0:0:
192,192,79082,128,0,79168:0:0:0:0:
64,192,79254,128,0,79425:0:0:0:0:
192,192,79254,1,0,0:0:0:0:
448,192,79254,1,0,0:0:0:0:
320,192,79254,128,0,79339:0:0:0:0:
320,192,79425,1,0,0:0:0:0:
192,192,79425,128,0,79511:0:0:0:0:
448,192,79511,1,0,0:0:0:0:
320,192,79596,128,0,79939:0:0:0:0:
64,192,79596,128,0,79682:0:0:0:0:
448,192,79596,1,0,0:0:0:0:
192,192,79596,1,0,0:0:0:0:
64,192,79768,128,0,79939:0:0:0:0:
192,192,79768,1,0,0:0:0:0:
192,192,79939,1,0,0:0:0:0:
448,192,79939,1,0,0:0:0:0:
320,192,80111,128,0,80454:0:0:0:0:
64,192,80111,128,0,80282:0:0:0:0:
448,192,80111,1,0,0:0:0:0:
192,192,80196,1,0,0:0:0:0:
448,192,80282,1,0,0:0:0:0:
192,192,80368,1,0,0:0:0:0:
64,192,80454,128,0,80625:0:0:0:0:
192,192,80454,1,0,0:0:0:0:
448,192,80454,1,0,0:0:0:0:
448,192,80625,1,0,0:0:0:0:
192,192,80625,1,0,0:0:0:0:
320,192,80625,1,0,0:0:0:0:
192,192,80796,128,0,80968:0:0:0:0:
64,192,80796,128,0,80968:0:0:0:0:
448,192,80796,1,0,0:0:0:0:
320,192,80882,1,0,0:0:0:0:
320,192,80968,1,0,0:0:0:0:
448,192,80968,1,0,0:0:0:0:
448,192,81139,1,0,0:0:0:0:
64,192,81139,128,0,81311:0:0:0:0:
192,192,81139,1,0,0:0:0:0:
448,192,81311,1,0,0:0:0:0:
192,192,81311,1,0,0:0:0:0:
320,192,81311,1,0,0:0:0:0:
64,192,81482,1,0,0:0:0:0:
320,192,81482,1,0,0:0:0:0:
192,192,81482,128,0,81568:0:0:0:0:
448,192,81568,1,0,0:0:0:0:
64,192,81654,128,0,81825:0:0:0:0:
192,192,81654,1,0,0:0:0:0:
320,192,81654,128,0,81739:0:0:0:0:
448,192,81739,1,0,0:0:0:0:
192,192,81825,1,0,0:0:0:0:
320,192,81825,1,0,0:0:0:0:
448,192,81825,128,0,81911:0:0:0:0:
192,192,81996,128,0,82168:0:0:0:0:
64,192,81996,1,0,0:0:0:0:
448,192,81996,1,0,0:0:0:0:
320,192,81996,128,0,82082:0:0:0:0:
320,192,82168,1,0,0:0:0:0:
448,192,82168,1,0,0:0:0:0:
64,192,82168,128,0,82254:0:0:0:0:
192,192,82254,1,0,0:0:0:0:
320,192,82254,1,0,0:0:0:0:
320,192,82339,128,0,82682:0:0:0:0:
448,192,82339,128,0,82425:0:0:0:0:
64,192,82339,1,0,0:0:0:0:
192,192,82339,1,0,0:0:0:0:
448,192,82511,128,0,82682:0:0:0:0:
64,192,82511,1,0,0:0:0:0:
64,192,82682,1,0,0:0:0:0:
192,192,82682,1,0,0:0:0:0:
320,192,82854,128,0,83196:0:0:0:0:
448,192,82854,128,0,83025:0:0:0:0:
64,192,82854,1,0,0:0:0:0:
192,192,82939,1,0,0:0:0:0:
64,192,83025,1,0,0:0:0:0:
192,192,83111,1,0,0:0:0:0:
448,192,83196,128,0,83368:0:0:0:0:
64,192,83196,1,0,0:0:0:0:
192,192,83196,1,0,0:0:0:0:
192,192,83368,1,0,0:0:0:0:
64,192,83368,1,0,0:0:0:0:
320,192,83368,1,0,0:0:0:0:
448,192,83539,128,0,83711:0:0:0:0:
64,192,83539,128,0,83711:0:0:0:0:
320,192,83539,1,0,0:0:0:0:
192,192,83625,1,0,0:0:0:0:
192,192,83711,1,0,0:0:0:0:
320,192,83711,1,0,0:0:0:0:
192,192,83882,1,0,0:0:0:0:
64,192,83882,128,0,84054:0:0:0:0:
448,192,83882,1,0,0:0:0:0:
192,192,84054,1,0,0:0:0:0:
320,192,84054,1,0,0:0:0:0:
448,192,84054,1,0,0:0:0:0:
64,192,84225,1,0,0:0:0:0:
192,192,84225,1,0,0:0:0:0:
448,192,84225,128,0,84311:0:0:0:0:
320,192,84311,1,0,0:0:0:0:
64,192,84396,128,0,84568:0:0:0:0:
192,192,84396,1,0,0:0:0:0:
320,192,84396,128,0,84482:0:0:0:0:
448,192,84482,1,0,0:0:0:0:
320,192,84568,1,0,0:0:0:0:
448,192,84568,1,0,0:0:0:0:
192,192,84568,128,0,84654:0:0:0:0:
64,192,84739,128,0,84911:0:0:0:0:
448,192,84739,1,0,0:0:0:0:
192,192,84739,1,0,0:0:0:0:
320,192,84739,128,0,84825:0:0:0:0:
448,192,84911,1,0,0:0:0:0:
192,192,84911,128,0,84996:0:0:0:0:
320,192,84996,1,0,0:0:0:0:
192,192,85082,128,0,85425:0:0:0:0:
64,192,85082,128,0,85168:0:0:0:0:
320,192,85082,1,0,0:0:0:0:
448,192,85082,1,0,0:0:0:0:
64,192,85254,128,0,85425:0:0:0:0:
448,192,85254,1,0,0:0:0:0:
320,192,85425,1,0,0:0:0:0:
448,192,85425,1,0,0:0:0:0:
192,192,85596,128,0,85939:0:0:0:0:
64,192,85596,128,0,85768:0:0:0:0:
448,192,85596,1,0,0:0:0:0:
320,192,85682,1,0,0:0:0:0:
448,192,85768,1,0,0:0:0:0:
320,192,85854,1,0,0:0:0:0:
64,192,85939,128,0,86111:0:0:0:0:
320,192,85939,1,0,0:0:0:0:
448,192,85939,1,0,0:0:0:0:
320,192,86111,1,0,0:0:0:0:
192,192,86111,1,0,0:0:0:0:
448,192,86111,1,0,0:0:0:0:
64,192,86282,128,0,86454:0:0:0:0:
448,192,86282,128,0,86454:0:0:0:0:
192,192,86282,1,0,0:0:0:0:
320,192,86368,1,0,0:0:0:0:
192,192,86454,1,0,0:0:0:0:
320,192,86454,1,0,0:0:0:0:
192,192,86625,1,0,0:0:0:0:
320,192,86625,128,0,86796:0:0:0:0:
448,192,86625,1,0,0:0:0:0:
192,192,86796,1,0,0:0:0:0:
64,192,86796,1,0,0:0:0:0:
448,192,86796,1,0,0:0:0:0:
320,192,86968,1,0,0:0:0:0:
192,192,86968,1,0,0:0:0:0:
448,192,86968,128,0,87054:0:0:0:0:
64,192,87054,1,0,0:0:0:0:
320,192,87139,128,0,87311:0:0:0:0:
448,192,87139,1,0,0:0:0:0:
192,192,87139,128,0,87225:0:0:0:0:
64,192,87225,1,0,0:0:0:0:
192,192,87311,1,0,0:0:0:0:
448,192,87311,1,0,0:0:0:0:
64,192,87311,128,0,87396:0:0:0:0:
448,192,87482,128,0,87654:0:0:0:0:
192,192,87482,1,0,0:0:0:0:
64,192,87482,1,0,0:0:0:0:
320,192,87482,128,0,87568:0:0:0:0:
64,192,87654,128,0,87739:0:0:0:0:
192,192,87654,1,0,0:0:0:0:
320,192,87654,1,0,0:0:0:0:
448,192,87739,1,0,0:0:0:0:
320,192,87739,1,0,0:0:0:0:
192,192,87825,1,0,0:0:0:0:
320,192,87825,128,0,88168:0:0:0:0:
448,192,87825,128,0,87911:0:0:0:0:
64,192,87825,1,0,0:0:0:0:
448,192,87996,128,0,88168:0:0:0:0:
64,192,87996,1,0,0:0:0:0:
192,192,88168,1,0,0:0:0:0:
64,192,88168,1,0,0:0:0:0:
320,192,88339,128,0,88682:0:0:0:0:
448,192,88339,128,0,88511:0:0:0:0:
64,192,88339,1,0,0:0:0:0:
192,192,88425,1,0,0:0:0:0:
64,192,88511,1,0,0:0:0:0:
192,192,88596,1,0,0:0:0:0:
448,192,88682,128,0,88854:0:0:0:0:
192,192,88682,1,0,0:0:0:0:
64,192,88682,1,0,0:0:0:0:
192,192,88854,1,0,0:0:0:0:
320,192,88854,1,0,0:0:0:0:
64,192,88854,1,0,0:0:0:0:
64,192,89025,128,0,89196:0:0:0:0:
320,192,89025,128,0,89196:0:0:0:0:
448,192,89025,1,0,0:0:0:0:
192,192,89111,1,0,0:0:0:0:
448,192,89196,1,0,0:0:0:0:
192,192,89196,1,0,0:0:0:0:
320,192,89368,1,0,0:0:0:0:
192,192,89368,128,0,89539:0:0:0:0:
320,192,89539,1,0,0:0:0:0:
448,192,89539,1,0,0:0:0:0:
64,192,89539,1,0,0:0:0:0:
448,192,89711,1,0,0:0:0:0:
320,192,89711,1,0,0:0:0:0:
64,192,89711,128,0,89796:0:0:0:0:
192,192,89796,1,0,0:0:0:0:
448,192,89882,128,0,90054:0:0:0:0:
320,192,89882,1,0,0:0:0:0:
192,192,89882,128,0,89968:0:0:0:0:
64,192,89968,1,0,0:0:0:0:
192,192,90054,1,0,0:0:0:0:
64,192,90054,1,0,0:0:0:0:
320,192,90054,128,0,90139:0:0:0:0:
448,192,90225,128,0,90396:0:0:0:0:
320,192,90225,1,0,0:0:0:0:
64,192,90225,1,0,0:0:0:0:
192,192,90225,128,0,90311:0:0:0:0:
192,192,90396,1,0,0:0:0:0:
320,192,90396,128,0,90482:0:0:0:0:
64,192,90482,1,0,0:0:0:0:
192,192,90568,128,0,90911:0:0:0:0:
448,192,90568,128,0,90654:0:0:0:0:
64,192,90568,1,0,0:0:0:0:
320,192,90568,1,0,0:0:0:0:
448,192,90739,128,0,90911:0:0:0:0:
320,192,90739,1,0,0:0:0:0:
320,192,90911,1,0,0:0:0:0:
64,192,90911,1,0,0:0:0:0:
192,192,91082,128,0,91425:0:0:0:0:
448,192,91082,128,0,91254:0:0:0:0:
64,192,91082,1,0,0:0:0:0:
320,192,91168,1,0,0:0:0:0:
64,192,91254,1,0,0:0:0:0:
320,192,91339,1,0,0:0:0:0:
448,192,91425,128,0,91596:0:0:0:0:
320,192,91425,1,0,0:0:0:0:
64,192,91425,1,0,0:0:0:0:
64,192,91596,1,0,0:0:0:0:
320,192,91596,1,0,0:0:0:0:
192,192,91596,1,0,0:0:0:0:
320,192,91768,128,0,91939:0:0:0:0:
448,192,91768,128,0,91939:0:0:0:0:
64,192,91768,1,0,0:0:0:0:
192,192,91854,1,0,0:0:0:0:
192,192,91939,1,0,0:0:0:0:
64,192,91939,1,0,0:0:0:0:
64,192,92111,1,0,0:0:0:0:
448,192,92111,128,0,92282:0:0:0:0:
320,192,92111,1,0,0:0:0:0:
64,192,92282,1,0,0:0:0:0:
320,192,92282,1,0,0:0:0:0:
192,192,92282,1,0,0:0:0:0:
448,192,92454,1,0,0:0:0:0:
192,192,92454,1,0,0:0:0:0:
320,192,92454,128,0,92539:0:0:0:0:
64,192,92539,1,0,0:0:0:0:
448,192,92625,128,0,92796:0:0:0:0:
320,192,92625,1,0,0:0:0:0:
192,192,92625,128,0,92711:0:0:0:0:
64,192,92711,1,0,0:0:0:0:
320,192,92796,1,0,0:0:0:0:
192,192,92796,1,0,0:0:0:0:
64,192,92796,128,0,92882:0:0:0:0:
320,192,92968,128,0,93139:0:0:0:0:
448,192,92968,1,0,0:0:0:0:
64,192,92968,1,0,0:0:0:0:
192,192,92968,128,0,93054:0:0:0:0:
192,192,93139,1,0,0:0:0:0:
64,192,93139,1,0,0:0:0:0:
448,192,93139,128,0,93225:0:0:0:0:
320,192,93225,1,0,0:0:0:0:
192,192,93225,1,0,0:0:0:0:
192,192,93311,128,0,93654:0:0:0:0:
64,192,93311,128,0,93396:0:0:0:0:
448,192,93311,1,0,0:0:0:0:
320,192,93311,1,0,0:0:0:0:
64,192,93482,128,0,93654:0:0:0:0:
448,192,93482,1,0,0:0:0:0:
448,192,93654,1,0,0:0:0:0:
320,192,93654,1,0,0:0:0:0:
192,192,93825,128,0,94168:0:0:0:0:
64,192,93825,128,0,93996:0:0:0:0:
448,192,93825,1,0,0:0:0:0:
320,192,93911,1,0,0:0:0:0:
448,192,93996,1,0,0:0:0:0:
320,192,94082,1,0,0:0:0:0:
64,192,94168,128,0,94339:0:0:0:0:
448,192,94168,1,0,0:0:0:0:
320,192,94168,1,0,0:0:0:0:
320,192,94339,1,0,0:0:0:0:
448,192,94339,1,0,0:0:0:0:
192,192,94339,1,0,0:0:0:0:
64,192,94511,128,0,94682:0:0:0:0:
448,192,94511,128,0,94682:0:0:0:0:
192,192,94511,1,0,0:0:0:0:
320,192,94596,1,0,0:0:0:0:
320,192,94682,1,0,0:0:0:0:
192,192,94682,1,0,0:0:0:0:
320,192,94854,1,0,0:0:0:0:
448,192,94854,128,0,95025:0:0:0:0:
64,192,94854,1,0,0:0:0:0:
320,192,95025,1,0,0:0:0:0:
192,192,95025,1,0,0:0:0:0:
64,192,95025,1,0,0:0:0:0:
448,192,95196,1,0,0:0:0:0:
320,192,95196,1,0,0:0:0:0:
64,192,95196,128,0,95282:0:0:0:0:
192,192,95282,1,0,0:0:0:0:
448,192,95368,128,0,95539:0:0:0:0:
320,192,95368,1,0,0:0:0:0:
192,192,95368,128,0,95454:0:0:0:0:
64,192,95454,1,0,0:0:0:0:
192,192,95539,1,0,0:0:0:0:
320,192,95539,128,0,95625:0:0:0:0:
64,192,95539,1,0,0:0:0:0:
448,192,95711,128,0,95882:0:0:0:0:
64,192,95711,1,0,0:0:0:0:
320,192,95711,1,0,0:0:0:0:
192,192,95711,128,0,95796:0:0:0:0:
64,192,95882,1,0,0:0:0:0:
320,192,95882,128,0,95968:0:0:0:0:
192,192,95968,1,0,0:0:0:0:
320,192,96054,128,0,96396:0:0:0:0:
448,192,96054,1,0,0:0:0:0:
64,192,96054,1,0,0:0:0:0:
192,192,96225,1,0,0:0:0:0:
192,192,96396,1,0,0:0:0:0:
64,192,96396,1,0,0:0:0:0:
448,192,96396,1,0,0:0:0:0:
320,192,96568,128,0,96911:0:0:0:0:
448,192,96568,1,0,0:0:0:0:
192,192,96654,1,0,0:0:0:0:
64,192,96739,1,0,0:0:0:0:
192,192,96825,1,0,0:0:0:0:
64,192,96911,1,0,0:0:0:0:
448,192,96911,1,0,0:0:0:0:
64,192,97082,1,0,0:0:0:0:
192,192,97082,1,0,0:0:0:0:
448,192,97082,1,0,0:0:0:0:
64,192,97254,128,0,97425:0:0:0:0:
320,192,97254,1,0,0:0:0:0:
192,192,97339,1,0,0:0:0:0:
448,192,97425,1,0,0:0:0:0:
320,192,97425,1,0,0:0:0:0:
64,192,97511,1,0,0:0:0:0:
192,192,97511,1,0,0:0:0:0:
448,192,97596,1,0,0:0:0:0:
320,192,97596,1,0,0:0:0:0:
192,192,97682,1,0,0:0:0:0:
64,192,97682,1,0,0:0:0:0:
64,192,97768,1,0,0:0:0:0:
320,192,97768,1,0,0:0:0:0:
448,192,97768,1,0,0:0:0:0:
192,192,97768,1,0,0:0:0:0:
320,192,97854,1,0,0:0:0:0:
448,192,97854,1,0,0:0:0:0:
64,192,97939,1,0,0:0:0:0:
192,192,97939,1,0,0:0:0:0:
448,192,98025,1,0,0:0:0:0:
320,192,98025,1,0,0:0:0:0:
64,192,98111,1,0,0:0:0:0:
192,192,98111,1,0,0:0:0:0:
448,192,98196,1,0,0:0:0:0:
320,192,98196,1,0,0:0:0:0:
64,192,98282,1,0,0:0:0:0:
192,192,98282,1,0,0:0:0:0:
448,192,98368,1,0,0:0:0:0:
320,192,98368,1,0,0:0:0:0:
64,192,98454,1,0,0:0:0:0:
448,192,98454,1,0,0:0:0:0:
320,192,98454,1,0,0:0:0:0:
192,192,98454,1,0,0:0:0:0:
448,192,98796,1,0,0:0:0:0:
320,192,98796,1,0,0:0:0:0:
192,192,98796,128,0,99139:0:0:0:0:
64,192,98796,128,0,98882:0:0:0:0:
64,192,98968,128,0,99139:0:0:0:0:
448,192,98968,1,0,0:0:0:0:
320,192,99139,1,0,0:0:0:0:
448,192,99139,1,0,0:0:0:0:
192,192,99311,128,0,99654:0:0:0:0:
64,192,99311,128,0,99482:0:0:0:0:
448,192,99311,1,0,0:0:0:0:
320,192,99396,1,0,0:0:0:0:
448,192,99482,1,0,0:0:0:0:
320,192,99568,1,0,0:0:0:0:
64,192,99654,128,0,99825:0:0:0:0:
320,192,99654,1,0,0:0:0:0:
448,192,99654,1,0,0:0:0:0:
320,192,99825,1,0,0:0:0:0:
192,192,99825,1,0,0:0:0:0:
448,192,99825,1,0,0:0:0:0:
448,192,99996,128,0,100168:0:0:0:0:
64,192,99996,128,0,100168:0:0:0:0:
192,192,99996,1,0,0:0:0:0:
320,192,100082,1,0,0:0:0:0:
192,192,100168,1,0,0:0:0:0:
320,192,100168,1,0,0:0:0:0:
192,192,100339,128,0,100511:0:0:0:0:
448,192,100339,1,0,0:0:0:0:
320,192,100511,1,0,0:0:0:0:
448,192,100511,1,0,0:0:0:0:
64,192,100511,1,0,0:0:0:0:
64,192,100682,1,0,0:0:0:0:
192,192,100682,1,0,0:0:0:0:
448,192,100768,1,0,0:0:0:0:
64,192,100854,128,0,101025:0:0:0:0:
192,192,100854,1,0,0:0:0:0:
320,192,100939,1,0,0:0:0:0:
192,192,101025,1,0,0:0:0:0:
448,192,101025,1,0,0:0:0:0:
64,192,101196,128,0,101368:0:0:0:0:
192,192,101196,1,0,0:0:0:0:
320,192,101196,1,0,0:0:0:0:
448,192,101196,1,0,0:0:0:0:
320,192,101368,1,0,0:0:0:0:
192,192,101454,1,0,0:0:0:0:
320,192,101539,128,0,101882:0:0:0:0:
64,192,101539,1,0,0:0:0:0:
448,192,101539,1,0,0:0:0:0:
192,192,101711,1,0,0:0:0:0:
192,192,101882,1,0,0:0:0:0:
64,192,101882,1,0,0:0:0:0:
448,192,101882,1,0,0:0:0:0:
320,192,102054,128,0,102396:0:0:0:0:
64,192,102054,1,0,0:0:0:0:
448,192,102139,1,0,0:0:0:0:
64,192,102225,1,0,0:0:0:0:
192,192,102311,1,0,0:0:0:0:
64,192,102396,1,0,0:0:0:0:
448,192,102396,1,0,0:0:0:0:
448,192,102568,1,0,0:0:0:0:
64,192,102568,1,0,0:0:0:0:
192,192,102568,1,0,0:0:0:0:
320,192,102568,1,0,0:0:0:0:
192,192,102739,128,0,102911:0:0:0:0:
64,192,102739,1,0,0:0:0:0:
320,192,102825,1,0,0:0:0:0:
64,192,102911,1,0,0:0:0:0:
448,192,102911,1,0,0:0:0:0:
448,192,103082,128,0,103254:0:0:0:0:
320,192,103082,1,0,0:0:0:0:
64,192,103254,1,0,0:0:0:0:
192,192,103254,1,0,0:0:0:0:
320,192,103254,1,0,0:0:0:0:
64,192,103425,1,0,0:0:0:0:
192,192,103425,1,0,0:0:0:0:
448,192,103511,1,0,0:0:0:0:
64,192,103596,128,0,103768:0:0:0:0:
192,192,103596,1,0,0:0:0:0:
320,192,103682,1,0,0:0:0:0:
192,192,103768,1,0,0:0:0:0:
448,192,103768,1,0,0:0:0:0:
192,192,103939,128,0,104111:0:0:0:0:
320,192,103939,1,0,0:0:0:0:
448,192,103939,1,0,0:0:0:0:
64,192,103939,1,0,0:0:0:0:
320,192,104111,1,0,0:0:0:0:
448,192,104111,1,0,0:0:0:0:
192,192,104196,1,0,0:0:0:0:
320,192,104196,1,0,0:0:0:0:
320,192,104282,128,0,104625:0:0:0:0:
448,192,104282,128,0,104368:0:0:0:0:
64,192,104282,1,0,0:0:0:0:
192,192,104282,1,0,0:0:0:0:
448,192,104454,128,0,104625:0:0:0:0:
64,192,104454,1,0,0:0:0:0:
64,192,104625,1,0,0:0:0:0:
192,192,104625,1,0,0:0:0:0:
320,192,104796,128,0,105139:0:0:0:0:
448,192,104796,128,0,104968:0:0:0:0:
64,192,104796,1,0,0:0:0:0:
192,192,104882,1,0,0:0:0:0:
64,192,104968,1,0,0:0:0:0:
192,192,105054,1,0,0:0:0:0:
448,192,105139,128,0,105311:0:0:0:0:
64,192,105139,1,0,0:0:0:0:
192,192,105139,1,0,0:0:0:0:
192,192,105311,1,0,0:0:0:0:
64,192,105311,1,0,0:0:0:0:
320,192,105311,1,0,0:0:0:0:
448,192,105482,128,0,105654:0:0:0:0:
64,192,105482,128,0,105654:0:0:0:0:
320,192,105482,1,0,0:0:0:0:
192,192,105568,1,0,0:0:0:0:
192,192,105654,1,0,0:0:0:0:
320,192,105654,1,0,0:0:0:0:
192,192,105825,128,0,105996:0:0:0:0:
448,192,105825,1,0,0:0:0:0:
320,192,105996,1,0,0:0:0:0:
448,192,105996,1,0,0:0:0:0:
64,192,105996,1,0,0:0:0:0:
64,192,106168,1,0,0:0:0:0:
192,192,106168,1,0,0:0:0:0:
448,192,106254,1,0,0:0:0:0:
64,192,106339,128,0,106511:0:0:0:0:
192,192,106339,1,0,0:0:0:0:
320,192,106425,1,0,0:0:0:0:
192,192,106511,1,0,0:0:0:0:
448,192,106511,1,0,0:0:0:0:
64,192,106682,128,0,106854:0:0:0:0:
192,192,106682,1,0,0:0:0:0:
320,192,106682,1,0,0:0:0:0:
448,192,106682,1,0,0:0:0:0:
448,192,106854,1,0,0:0:0:0:
320,192,106939,1,0,0:0:0:0:
192,192,107025,128,0,107368:0:0:0:0:
64,192,107025,1,0,0:0:0:0:
448,192,107025,1,0,0:0:0:0:
320,192,107196,1,0,0:0:0:0:
448,192,107368,1,0,0:0:0:0:
320,192,107368,1,0,0:0:0:0:
64,192,107368,1,0,0:0:0:0:
192,192,107539,128,0,107882:0:0:0:0:
448,192,107539,1,0,0:0:0:0:
320,192,107625,1,0,0:0:0:0:
64,192,107711,1,0,0:0:0:0:
320,192,107796,1,0,0:0:0:0:
448,192,107882,1,0,0:0:0:0:
64,192,107882,1,0,0:0:0:0:
320,192,108054,1,0,0:0:0:0:
64,192,108054,1,0,0:0:0:0:
192,192,108054,1,0,0:0:0:0:
448,192,108054,1,0,0:0:0:0:
64,192,108225,128,0,108396:0:0:0:0:
320,192,108225,1,0,0:0:0:0:
192,192,108311,1,0,0:0:0:0:
320,192,108396,1,0,0:0:0:0:
448,192,108396,1,0,0:0:0:0:
192,192,108568,128,0,108739:0:0:0:0:
64,192,108568,1,0,0:0:0:0:
448,192,108739,1,0,0:0:0:0:
320,192,108739,1,0,0:0:0:0:
64,192,108739,1,0,0:0:0:0:
320,192,108911,1,0,0:0:0:0:
192,192,108911,1,0,0:0:0:0:
448,192,108996,1,0,0:0:0:0:
320,192,109082,128,0,109254:0:0:0:0:
64,192,109082,1,0,0:0:0:0:
192,192,109168,1,0,0:0:0:0:
64,192,109254,1,0,0:0:0:0:
448,192,109254,1,0,0:0:0:0:
448,192,109425,128,0,109596:0:0:0:0:
64,192,109425,1,0,0:0:0:0:
192,192,109425,1,0,0:0:0:0:
320,192,109425,1,0,0:0:0:0:
64,192,109596,1,0,0:0:0:0:
192,192,109596,1,0,0:0:0:0:
192,192,109682,1,0,0:0:0:0:
320,192,109682,1,0,0:0:0:0:
64,192,109768,1,0,0:0:0:0:
192,192,109768,1,0,0:0:0:0:
320,192,109768,128,0,110111:0:0:0:0:
448,192,109768,128,0,109854:0:0:0:0:
448,192,109939,128,0,110111:0:0:0:0:
64,192,109939,1,0,0:0:0:0:
192,192,110111,1,0,0:0:0:0:
64,192,110111,1,0,0:0:0:0:
320,192,110282,128,0,110625:0:0:0:0:
448,192,110282,128,0,110454:0:0:0:0:
64,192,110282,1,0,0:0:0:0:
192,192,110368,1,0,0:0:0:0:
64,192,110454,1,0,0:0:0:0:
192,192,110539,1,0,0:0:0:0:
448,192,110625,128,0,110796:0:0:0:0:
192,192,110625,1,0,0:0:0:0:
64,192,110625,1,0,0:0:0:0:
192,192,110796,1,0,0:0:0:0:
320,192,110796,1,0,0:0:0:0:
64,192,110796,1,0,0:0:0:0:
64,192,110968,128,0,111139:0:0:0:0:
448,192,110968,128,0,111139:0:0:0:0:
320,192,110968,1,0,0:0:0:0:
192,192,111054,1,0,0:0:0:0:
320,192,111139,1,0,0:0:0:0:
192,192,111139,1,0,0:0:0:0:
320,192,111311,128,0,111482:0:0:0:0:
64,192,111311,1,0,0:0:0:0:
192,192,111482,1,0,0:0:0:0:
64,192,111482,1,0,0:0:0:0:
448,192,111482,1,0,0:0:0:0:
448,192,111654,1,0,0:0:0:0:
320,192,111654,1,0,0:0:0:0:
64,192,111739,1,0,0:0:0:0:
448,192,111825,128,0,111996:0:0:0:0:
320,192,111825,1,0,0:0:0:0:
192,192,111911,1,0,0:0:0:0:
320,192,111996,1,0,0:0:0:0:
64,192,111996,1,0,0:0:0:0:
448,192,112168,128,0,112339:0:0:0:0:
320,192,112168,1,0,0:0:0:0:
192,192,112168,1,0,0:0:0:0:
64,192,112168,1,0,0:0:0:0:
192,192,112339,1,0,0:0:0:0:
320,192,112425,1,0,0:0:0:0:
192,192,112511,128,0,112854:0:0:0:0:
448,192,112511,1,0,0:0:0:0:
64,192,112511,1,0,0:0:0:0:
320,192,112682,1,0,0:0:0:0:
320,192,112854,1,0,0:0:0:0:
448,192,112854,1,0,0:0:0:0:
64,192,112854,1,0,0:0:0:0:
192,192,113025,128,0,113368:0:0:0:0:
448,192,113025,1,0,0:0:0:0:
64,192,113111,1,0,0:0:0:0:
448,192,113196,1,0,0:0:0:0:
320,192,113282,1,0,0:0:0:0:
448,192,113368,1,0,0:0:0:0:
64,192,113368,1,0,0:0:0:0:
64,192,113539,1,0,0:0:0:0:
448,192,113539,1,0,0:0:0:0:
320,192,113539,1,0,0:0:0:0:
192,192,113539,1,0,0:0:0:0:
320,192,113711,128,0,113882:0:0:0:0:
448,192,113711,1,0,0:0:0:0:
192,192,113796,1,0,0:0:0:0:
448,192,113882,1,0,0:0:0:0:
64,192,113882,1,0,0:0:0:0:
64,192,114054,128,0,114225:0:0:0:0:
192,192,114054,1,0,0:0:0:0:
448,192,114225,1,0,0:0:0:0:
320,192,114225,1,0,0:0:0:0:
192,192,114225,1,0,0:0:0:0:
448,192,114396,1,0,0:0:0:0:
320,192,114396,1,0,0:0:0:0:
64,192,114482,1,0,0:0:0:0:
448,192,114568,128,0,114739:0:0:0:0:
320,192,114568,1,0,0:0:0:0:
192,192,114654,1,0,0:0:0:0:
320,192,114739,1,0,0:0:0:0:
64,192,114739,1,0,0:0:0:0:
320,192,114911,128,0,115082:0:0:0:0:
192,192,114911,1,0,0:0:0:0:
64,192,114911,1,0,0:0:0:0:
448,192,114911,1,0,0:0:0:0:
192,192,115082,1,0,0:0:0:0:
64,192,115082,1,0,0:0:0:0:
320,192,115168,1,0,0:0:0:0:
192,192,115168,1,0,0:0:0:0:
192,192,115254,128,0,115596:0:0:0:0:
64,192,115254,128,0,115339:0:0:0:0:
448,192,115254,1,0,0:0:0:0:
320,192,115254,1,0,0:0:0:0:
64,192,115425,128,0,115596:0:0:0:0:
448,192,115425,1,0,0:0:0:0:
448,192,115596,1,0,0:0:0:0:
320,192,115596,1,0,0:0:0:0:
192,192,115768,128,0,116111:0:0:0:0:
64,192,115768,128,0,115939:0:0:0:0:
448,192,115768,1,0,0:0:0:0:
320,192,115854,1,0,0:0:0:0:
448,192,115939,1,0,0:0:0:0:
320,192,116025,1,0,0:0:0:0:
64,192,116111,128,0,116282:0:0:0:0:
448,192,116111,1,0,0:0:0:0:
320,192,116111,1,0,0:0:0:0:
320,192,116282,1,0,0:0:0:0:
448,192,116282,1,0,0:0:0:0:
192,192,116282,1,0,0:0:0:0:
64,192,116454,128,0,116625:0:0:0:0:
448,192,116454,128,0,116625:0:0:0:0:
192,192,116454,1,0,0:0:0:0:
320,192,116539,1,0,0:0:0:0:
320,192,116625,1,0,0:0:0:0:
192,192,116625,1,0,0:0:0:0:
320,192,116796,128,0,116968:0:0:0:0:
64,192,116796,1,0,0:0:0:0:
192,192,116968,1,0,0:0:0:0:
64,192,116968,1,0,0:0:0:0:
448,192,116968,1,0,0:0:0:0:
448,192,117139,1,0,0:0:0:0:
320,192,117139,1,0,0:0:0:0:
64,192,117225,1,0,0:0:0:0:
448,192,117311,128,0,117482:0:0:0:0:
320,192,117311,1,0,0:0:0:0:
192,192,117396,1,0,0:0:0:0:
320,192,117482,1,0,0:0:0:0:
64,192,117482,1,0,0:0:0:0:
448,192,117654,128,0,117825:0:0:0:0:
320,192,117654,1,0,0:0:0:0:
192,192,117654,1,0,0:0:0:0:
64,192,117654,1,0,0:0:0:0:
64,192,117825,1,0,0:0:0:0:
192,192,117911,1,0,0:0:0:0:
320,192,117996,128,0,118339:0:0:0:0:
448,192,117996,1,0,0:0:0:0:
64,192,117996,1,0,0:0:0:0:
192,192,118168,1,0,0:0:0:0:
64,192,118339,1,0,0:0:0:0:
192,192,118339,1,0,0:0:0:0:
448,192,118339,1,0,0:0:0:0:
320,192,118511,128,0,118854:0:0:0:0:
64,192,118511,1,0,0:0:0:0:
192,192,118596,1,0,0:0:0:0:
448,192,118682,1,0,0:0:0:0:
192,192,118768,1,0,0:0:0:0:
64,192,118854,1,0,0:0:0:0:
448,192,118854,1,0,0:0:0:0:
192,192,119025,1,0,0:0:0:0:
448,192,119025,1,0,0:0:0:0:
320,192,119025,1,0,0:0:0:0:
64,192,119025,1,0,0:0:0:0:
448,192,119196,128,0,119368:0:0:0:0:
192,192,119196,1,0,0:0:0:0:
320,192,119282,1,0,0:0:0:0:
320,192,119539,1,0,0:0:0:0:
320,192,119711,1,0,0:0:0:0:
192,192,119882,1,0,0:0:0:0:
192,192,120054,128,0,120311:0:0:0:0:
64,192,120396,128,0,120654:0:0:0:0:
192,192,120739,1,0,0:0:0:0:
320,192,120739,1,0,0:0:0:0:
448,192,120739,128,0,131711:0:0:0:0:
64,192,120911,1,0,0:0:0:0:
320,192,121082,1,0,0:0:0:0:
64,192,121254,1,0,0:0:0:0:
64,192,121596,1,0,0:0:0:0:
320,192,121768,1,0,0:0:0:0:
64,192,121939,1,0,0:0:0:0:
64,192,122282,1,0,0:0:0:0:
320,192,122454,1,0,0:0:0:0:
64,192,122625,1,0,0:0:0:0:
64,192,122968,1,0,0:0:0:0:
320,192,123139,1,0,0:0:0:0:
64,192,123311,1,0,0:0:0:0:
64,192,123654,1,0,0:0:0:0:
320,192,123825,1,0,0:0:0:0:
64,192,123996,1,0,0:0:0:0:
64,192,124339,1,0,0:0:0:0:
320,192,124511,1,0,0:0:0:0:
64,192,124682,1,0,0:0:0:0:
64,192,125025,1,0,0:0:0:0:
320,192,125196,1,0,0:0:0:0:
64,192,125368,1,0,0:0:0:0:
64,192,125711,1,0,0:0:0:0:
320,192,125882,1,0,0:0:0:0:
64,192,126054,1,0,0:0:0:0:
64,192,126396,1,0,0:0:0:0:
320,192,126568,1,0,0:0:0:0:
64,192,126739,1,0,0:0:0:0:
64,192,127082,1,0,0:0:0:0:
320,192,127254,1,0,0:0:0:0:
64,192,127425,1,0,0:0:0:0:
64,192,127768,1,0,0:0:0:0:
320,192,127939,1,0,0:0:0:0:
64,192,128111,1,0,0:0:0:0:
64,192,128454,1,0,0:0:0:0:
320,192,128625,1,0,0:0:0:0:
64,192,128796,1,0,0:0:0:0:
64,192,129139,1,0,0:0:0:0:
320,192,129311,1,0,0:0:0:0:
64,192,129482,1,0,0:0:0:0:
64,192,129825,1,0,0:0:0:0:
320,192,129996,1,0,0:0:0:0:
64,192,130168,1,0,0:0:0:0:
64,192,130511,1,0,0:0:0:0:
320,192,130682,1,0,0:0:0:0:
64,192,130854,1,0,0:0:0:0:
64,192,131196,1,0,0:0:0:0:
320,192,131368,1,0,0:0:0:0:
64,192,131539,1,0,0:0:0:0:
192,192,131711,1,0,0:0:0:0:
320,192,131711,1,0,0:0:0:0:
64,192,131882,1,0,0:0:0:0:
192,192,132054,1,0,0:0:0:0:
448,192,132054,1,0,0:0:0:0:
320,192,132225,1,0,0:0:0:0:
64,192,132396,1,0,0:0:0:0:
448,192,132396,1,0,0:0:0:0:
192,192,132568,1,0,0:0:0:0:
64,192,132739,1,0,0:0:0:0:
320,192,132739,1,0,0:0:0:0:
448,192,132911,1,0,0:0:0:0:
192,192,133082,1,0,0:0:0:0:
320,192,133082,1,0,0:0:0:0:
64,192,133254,1,0,0:0:0:0:
192,192,133425,1,0,0:0:0:0:
448,192,133425,1,0,0:0:0:0:
320,192,133596,1,0,0:0:0:0:
64,192,133768,1,0,0:0:0:0:
448,192,133768,1,0,0:0:0:0:
192,192,133939,1,0,0:0:0:0:
64,192,134111,1,0,0:0:0:0:
320,192,134111,1,0,0:0:0:0:
448,192,134282,1,0,0:0:0:0:
64,192,134454,1,0,0:0:0:0:
192,192,134454,1,0,0:0:0:0:
320,192,134625,1,0,0:0:0:0:
64,192,134796,1,0,0:0:0:0:
448,192,134796,1,0,0:0:0:0:
192,192,134968,1,0,0:0:0:0:
320,192,135139,1,0,0:0:0:0:
448,192,135139,1,0,0:0:0:0:
64,192,135311,1,0,0:0:0:0:
192,192,135482,1,0,0:0:0:0:
320,192,135482,1,0,0:0:0:0:
448,192,135654,1,0,0:0:0:0:
64,192,135825,1,0,0:0:0:0:
320,192,135825,1,0,0:0:0:0:
192,192,135996,1,0,0:0:0:0:
64,192,136168,1,0,0:0:0:0:
448,192,136168,1,0,0:0:0:0:
320,192,136339,1,0,0:0:0:0:
192,192,136511,1,0,0:0:0:0:
64,192,136511,1,0,0:0:0:0:
448,192,136682,1,0,0:0:0:0:
192,192,136854,1,0,0:0:0:0:
320,192,136854,1,0,0:0:0:0:
64,192,137025,1,0,0:0:0:0:
192,192,137196,1,0,0:0:0:0:
448,192,137196,1,0,0:0:0:0:
448,192,137368,1,0,0:0:0:0:
320,192,137368,1,0,0:0:0:0:
320,192,137539,1,0,0:0:0:0:
192,192,137539,1,0,0:0:0:0:
64,192,137711,1,0,0:0:0:0:
192,192,137711,1,0,0:0:0:0:
64,192,137882,1,0,0:0:0:0:
448,192,137882,1,0,0:0:0:0:
448,192,138054,1,0,0:0:0:0:
192,192,138054,1,0,0:0:0:0:
192,192,138225,1,0,0:0:0:0:
320,192,138225,1,0,0:0:0:0:
320,192,138396,1,0,0:0:0:0:
64,192,138396,1,0,0:0:0:0:
64,192,138568,1,0,0:0:0:0:
192,192,138568,1,0,0:0:0:0:
192,192,138739,1,0,0:0:0:0:
448,192,138739,1,0,0:0:0:0:
448,192,138911,1,0,0:0:0:0:
320,192,138911,1,0,0:0:0:0:
64,192,139082,1,0,0:0:0:0:
320,192,139082,1,0,0:0:0:0:
64,192,139254,1,0,0:0:0:0:
192,192,139254,1,0,0:0:0:0:
192,192,139425,1,0,0:0:0:0:
448,192,139425,1,0,0:0:0:0:
448,192,139596,1,0,0:0:0:0:
64,192,139596,1,0,0:0:0:0:
64,192,139768,1,0,0:0:0:0:
320,192,139768,1,0,0:0:0:0:
320,192,139939,1,0,0:0:0:0:
192,192,139939,1,0,0:0:0:0:
448,192,140025,1,0,0:0:0:0:
64,192,140025,1,0,0:0:0:0:
192,192,140111,1,0,0:0:0:0:
320,192,140111,1,0,0:0:0:0:
64,192,140196,1,0,0:0:0:0:
448,192,140196,1,0,0:0:0:0:
192,192,140282,1,0,0:0:0:0:
320,192,140282,1,0,0:0:0:0:
64,192,140368,1,0,0:0:0:0:
448,192,140368,1,0,0:0:0:0:
192,192,140454,1,0,0:0:0:0:
320,192,140454,1,0,0:0:0:0:
64,192,140539,1,0,0:0:0:0:
448,192,140539,1,0,0:0:0:0:
192,192,140625,1,0,0:0:0:0:
320,192,140625,1,0,0:0:0:0:
64,192,140711,1,0,0:0:0:0:
448,192,140711,1,0,0:0:0:0:
192,192,140796,1,0,0:0:0:0:
320,192,140796,1,0,0:0:0:0:
64,192,140882,1,0,0:0:0:0:
448,192,140882,1,0,0:0:0:0:
192,192,140968,1,0,0:0:0:0:
320,192,140968,1,0,0:0:0:0:
64,192,141054,1,0,0:0:0:0:
448,192,141054,1,0,0:0:0:0:
192,192,141139,1,0,0:0:0:0:
320,192,141139,1,0,0:0:0:0:
64,192,141225,1,0,0:0:0:0:
448,192,141225,1,0,0:0:0:0:
192,192,141311,1,0,0:0:0:0:
320,192,141311,1,0,0:0:0:0:
64,192,141396,1,0,0:0:0:0:
448,192,141396,1,0,0:0:0:0:
192,192,141482,1,0,0:0:0:0:
320,192,141482,1,0,0:0:0:0:
64,192,141568,1,0,0:0:0:0:
448,192,141568,1,0,0:0:0:0:
192,192,141654,1,0,0:0:0:0:
320,192,141654,1,0,0:0:0:0:
64,192,141739,1,0,0:0:0:0:
448,192,141739,1,0,0:0:0:0:
192,192,141825,1,0,0:0:0:0:
320,192,141825,1,0,0:0:0:0:
64,192,141911,1,0,0:0:0:0:
448,192,141911,1,0,0:0:0:0:
192,192,141996,1,0,0:0:0:0:
320,192,141996,1,0,0:0:0:0:
448,192,142082,1,0,0:0:0:0:
64,192,142082,1,0,0:0:0:0:
192,192,142168,1,0,0:0:0:0:
320,192,142168,1,0,0:0:0:0:
448,192,142254,1,0,0:0:0:0:
64,192,142254,1,0,0:0:0:0:
448,192,142682,1,0,0:0:0:0:
192,192,142682,128,0,143025:0:0:0:0:
320,192,142682,1,0,0:0:0:0:
64,192,142854,1,0,0:0:0:0:
320,192,143025,1,0,0:0:0:0:
448,192,143025,1,0,0:0:0:0:
64,192,143025,1,0,0:0:0:0:
192,192,143196,128,0,143539:0:0:0:0:
448,192,143196,1,0,0:0:0:0:
64,192,143282,1,0,0:0:0:0:
448,192,143368,1,0,0:0:0:0:
320,192,143454,1,0,0:0:0:0:
448,192,143539,1,0,0:0:0:0:
64,192,143539,1,0,0:0:0:0:
320,192,143711,1,0,0:0:0:0:
192,192,143711,1,0,0:0:0:0:
64,192,143711,1,0,0:0:0:0:
448,192,143882,128,0,144054:0:0:0:0:
64,192,143882,1,0,0:0:0:0:
192,192,143968,1,0,0:0:0:0:
320,192,144054,1,0,0:0:0:0:
448,192,144225,1,0,0:0:0:0:
192,192,144225,1,0,0:0:0:0:
320,192,144396,1,0,0:0:0:0:
448,192,144396,1,0,0:0:0:0:
192,192,144396,1,0,0:0:0:0:
64,192,144568,1,0,0:0:0:0:
192,192,144568,1,0,0:0:0:0:
448,192,144654,1,0,0:0:0:0:
64,192,144739,128,0,144911:0:0:0:0:
192,192,144739,1,0,0:0:0:0:
320,192,144825,1,0,0:0:0:0:
192,192,144911,1,0,0:0:0:0:
448,192,144911,1,0,0:0:0:0:
64,192,145082,128,0,145254:0:0:0:0:
192,192,145082,1,0,0:0:0:0:
320,192,145082,1,0,0:0:0:0:
448,192,145082,1,0,0:0:0:0:
320,192,145254,1,0,0:0:0:0:
192,192,145339,1,0,0:0:0:0:
320,192,145425,128,0,145768:0:0:0:0:
64,192,145425,1,0,0:0:0:0:
448,192,145425,1,0,0:0:0:0:
192,192,145596,1,0,0:0:0:0:
192,192,145768,1,0,0:0:0:0:
64,192,145768,1,0,0:0:0:0:
448,192,145768,1,0,0:0:0:0:
320,192,145939,128,0,146282:0:0:0:0:
64,192,145939,1,0,0:0:0:0:
448,192,146025,1,0,0:0:0:0:
64,192,146111,1,0,0:0:0:0:
192,192,146196,1,0,0:0:0:0:
64,192,146282,1,0,0:0:0:0:
448,192,146282,1,0,0:0:0:0:
448,192,146454,1,0,0:0:0:0:
192,192,146454,1,0,0:0:0:0:
320,192,146454,1,0,0:0:0:0:
192,192,146625,128,0,146796:0:0:0:0:
448,192,146625,1,0,0:0:0:0:
320,192,146711,1,0,0:0:0:0:
64,192,146796,1,0,0:0:0:0:
320,192,146968,1,0,0:0:0:0:
448,192,146968,1,0,0:0:0:0:
64,192,147139,1,0,0:0:0:0:
320,192,147139,1,0,0:0:0:0:
448,192,147139,1,0,0:0:0:0:
64,192,147311,1,0,0:0:0:0:
192,192,147311,1,0,0:0:0:0:
448,192,147396,1,0,0:0:0:0:
64,192,147482,128,0,147654:0:0:0:0:
192,192,147482,1,0,0:0:0:0:
320,192,147568,1,0,0:0:0:0:
192,192,147654,1,0,0:0:0:0:
448,192,147654,1,0,0:0:0:0:
192,192,147825,128,0,147996:0:0:0:0:
320,192,147825,1,0,0:0:0:0:
448,192,147825,1,0,0:0:0:0:
64,192,147825,1,0,0:0:0:0:
320,192,147996,1,0,0:0:0:0:
448,192,147996,1,0,0:0:0:0:
192,192,148082,1,0,0:0:0:0:
320,192,148082,1,0,0:0:0:0:
320,192,148168,128,0,148511:0:0:0:0:
64,192,148168,1,0,0:0:0:0:
192,192,148168,1,0,0:0:0:0:
448,192,148339,1,0,0:0:0:0:
64,192,148511,1,0,0:0:0:0:
192,192,148511,1,0,0:0:0:0:
448,192,148511,1,0,0:0:0:0:
320,192,148682,128,0,149025:0:0:0:0:
64,192,148682,1,0,0:0:0:0:
448,192,148768,1,0,0:0:0:0:
64,192,148854,1,0,0:0:0:0:
192,192,148939,1,0,0:0:0:0:
64,192,149025,1,0,0:0:0:0:
448,192,149025,1,0,0:0:0:0:
192,192,149196,1,0,0:0:0:0:
64,192,149196,1,0,0:0:0:0:
320,192,149196,1,0,0:0:0:0:
320,192,149368,1,0,0:0:0:0:
448,192,149368,128,0,149539:0:0:0:0:
192,192,149454,1,0,0:0:0:0:
64,192,149539,1,0,0:0:0:0:
448,192,149711,1,0,0:0:0:0:
192,192,149711,1,0,0:0:0:0:
320,192,149882,1,0,0:0:0:0:
192,192,149882,1,0,0:0:0:0:
448,192,149882,1,0,0:0:0:0:
64,192,150054,1,0,0:0:0:0:
192,192,150054,1,0,0:0:0:0:
448,192,150139,1,0,0:0:0:0:
64,192,150225,128,0,150396:0:0:0:0:
192,192,150225,1,0,0:0:0:0:
320,192,150311,1,0,0:0:0:0:
192,192,150396,1,0,0:0:0:0:
448,192,150396,1,0,0:0:0:0:
64,192,150568,128,0,150739:0:0:0:0:
192,192,150568,1,0,0:0:0:0:
320,192,150568,1,0,0:0:0:0:
448,192,150568,1,0,0:0:0:0:
448,192,150739,1,0,0:0:0:0:
320,192,150825,1,0,0:0:0:0:
192,192,150911,128,0,151254:0:0:0:0:
64,192,150911,1,0,0:0:0:0:
448,192,150911,1,0,0:0:0:0:
320,192,151082,1,0,0:0:0:0:
448,192,151254,1,0,0:0:0:0:
320,192,151254,1,0,0:0:0:0:
64,192,151254,1,0,0:0:0:0:
192,192,151425,128,0,151768:0:0:0:0:
448,192,151425,1,0,0:0:0:0:
320,192,151511,1,0,0:0:0:0:
64,192,151596,1,0,0:0:0:0:
320,192,151682,1,0,0:0:0:0:
448,192,151768,1,0,0:0:0:0:
64,192,151768,1,0,0:0:0:0:
320,192,151939,1,0,0:0:0:0:
192,192,151939,1,0,0:0:0:0:
448,192,151939,1,0,0:0:0:0:
64,192,152111,128,0,152282:0:0:0:0:
448,192,152111,1,0,0:0:0:0:
320,192,152196,1,0,0:0:0:0:
192,192,152282,1,0,0:0:0:0:
192,192,152454,1,0,0:0:0:0:
320,192,152454,1,0,0:0:0:0:
448,192,152625,1,0,0:0:0:0:
64,192,152625,1,0,0:0:0:0:
192,192,152625,1,0,0:0:0:0:
320,192,152796,1,0,0:0:0:0:
192,192,152796,1,0,0:0:0:0:
448,192,152882,1,0,0:0:0:0:
320,192,152968,128,0,153139:0:0:0:0:
64,192,152968,1,0,0:0:0:0:
192,192,153054,1,0,0:0:0:0:
64,192,153139,1,0,0:0:0:0:
448,192,153139,1,0,0:0:0:0:
448,192,153311,128,0,153482:0:0:0:0:
64,192,153311,1,0,0:0:0:0:
192,192,153311,1,0,0:0:0:0:
320,192,153311,1,0,0:0:0:0:
64,192,153482,1,0,0:0:0:0:
192,192,153482,1,0,0:0:0:0:
192,192,153568,1,0,0:0:0:0:
320,192,153568,1,0,0:0:0:0:
448,192,153654,1,0,0:0:0:0:
320,192,153654,128,0,153996:0:0:0:0:
64,192,153654,1,0,0:0:0:0:
192,192,153825,1,0,0:0:0:0:
192,192,153996,1,0,0:0:0:0:
64,192,153996,1,0,0:0:0:0:
448,192,153996,1,0,0:0:0:0:
320,192,154168,128,0,154511:0:0:0:0:
64,192,154168,1,0,0:0:0:0:
448,192,154254,1,0,0:0:0:0:
64,192,154339,1,0,0:0:0:0:
192,192,154425,1,0,0:0:0:0:
64,192,154511,1,0,0:0:0:0:
448,192,154511,1,0,0:0:0:0:
192,192,154682,1,0,0:0:0:0:
320,192,154682,1,0,0:0:0:0:
448,192,154682,1,0,0:0:0:0:
64,192,154854,128,0,155025:0:0:0:0:
448,192,154854,1,0,0:0:0:0:
320,192,154939,1,0,0:0:0:0:
192,192,155025,1,0,0:0:0:0:
64,192,155196,1,0,0:0:0:0:
320,192,155196,1,0,0:0:0:0:
192,192,155368,1,0,0:0:0:0:
64,192,155368,1,0,0:0:0:0:
320,192,155368,1,0,0:0:0:0:
448,192,155539,1,0,0:0:0:0:
320,192,155539,1,0,0:0:0:0:
64,192,155625,1,0,0:0:0:0:
448,192,155711,128,0,155882:0:0:0:0:
320,192,155711,1,0,0:0:0:0:
192,192,155796,1,0,0:0:0:0:
320,192,155882,1,0,0:0:0:0:
64,192,155882,1,0,0:0:0:0:
448,192,156054,128,0,156225:0:0:0:0:
320,192,156054,1,0,0:0:0:0:
192,192,156054,1,0,0:0:0:0:
64,192,156054,1,0,0:0:0:0:
192,192,156225,1,0,0:0:0:0:
320,192,156311,1,0,0:0:0:0:
192,192,156396,128,0,156739:0:0:0:0:
448,192,156396,1,0,0:0:0:0:
64,192,156396,1,0,0:0:0:0:
320,192,156568,1,0,0:0:0:0:
320,192,156739,1,0,0:0:0:0:
448,192,156739,1,0,0:0:0:0:
64,192,156739,1,0,0:0:0:0:
192,192,156911,128,0,157254:0:0:0:0:
448,192,156911,1,0,0:0:0:0:
64,192,156996,1,0,0:0:0:0:
448,192,157082,1,0,0:0:0:0:
320,192,157168,1,0,0:0:0:0:
448,192,157254,1,0,0:0:0:0:
64,192,157254,1,0,0:0:0:0:
64,192,157425,1,0,0:0:0:0:
320,192,157425,1,0,0:0:0:0:
192,192,157425,1,0,0:0:0:0:
320,192,157596,128,0,157768:0:0:0:0:
64,192,157596,1,0,0:0:0:0:
192,192,157682,1,0,0:0:0:0:
448,192,157768,1,0,0:0:0:0:
192,192,157939,1,0,0:0:0:0:
64,192,157939,1,0,0:0:0:0:
448,192,158111,1,0,0:0:0:0:
192,192,158111,1,0,0:0:0:0:
64,192,158111,1,0,0:0:0:0:
448,192,158282,1,0,0:0:0:0:
320,192,158282,1,0,0:0:0:0:
64,192,158368,1,0,0:0:0:0:
448,192,158454,128,0,158625:0:0:0:0:
320,192,158454,1,0,0:0:0:0:
192,192,158539,1,0,0:0:0:0:
320,192,158625,1,0,0:0:0:0:
64,192,158625,1,0,0:0:0:0:
320,192,158796,128,0,158968:0:0:0:0:
192,192,158796,1,0,0:0:0:0:
64,192,158796,1,0,0:0:0:0:
448,192,158796,1,0,0:0:0:0:
192,192,158968,1,0,0:0:0:0:
64,192,158968,1,0,0:0:0:0:
320,192,159054,1,0,0:0:0:0:
192,192,159054,1,0,0:0:0:0:
192,192,159139,128,0,159482:0:0:0:0:
448,192,159139,1,0,0:0:0:0:
320,192,159139,1,0,0:0:0:0:
64,192,159311,1,0,0:0:0:0:
448,192,159482,1,0,0:0:0:0:
320,192,159482,1,0,0:0:0:0:
64,192,159482,1,0,0:0:0:0:
192,192,159654,128,0,159996:0:0:0:0:
448,192,159654,1,0,0:0:0:0:
64,192,159739,1,0,0:0:0:0:
448,192,159825,1,0,0:0:0:0:
320,192,159911,1,0,0:0:0:0:
448,192,159996,1,0,0:0:0:0:
64,192,159996,1,0,0:0:0:0:
320,192,160168,1,0,0:0:0:0:
448,192,160168,1,0,0:0:0:0:
192,192,160168,1,0,0:0:0:0:
192,192,160339,1,0,0:0:0:0:
64,192,160339,128,0,160511:0:0:0:0:
320,192,160425,1,0,0:0:0:0:
448,192,160511,1,0,0:0:0:0:
64,192,160682,1,0,0:0:0:0:
320,192,160682,1,0,0:0:0:0:
192,192,160854,1,0,0:0:0:0:
320,192,160854,1,0,0:0:0:0:
64,192,160854,1,0,0:0:0:0:
448,192,161025,1,0,0:0:0:0:
320,192,161025,1,0,0:0:0:0:
64,192,161111,1,0,0:0:0:0:
448,192,161196,128,0,161368:0:0:0:0:
320,192,161196,1,0,0:0:0:0:
192,192,161282,1,0,0:0:0:0:
320,192,161368,1,0,0:0:0:0:
64,192,161368,1,0,0:0:0:0:
448,192,161539,128,0,161711:0:0:0:0:
320,192,161539,1,0,0:0:0:0:
192,192,161539,1,0,0:0:0:0:
64,192,161539,1,0,0:0:0:0:
64,192,161711,1,0,0:0:0:0:
192,192,161796,1,0,0:0:0:0:
320,192,161882,128,0,162825:0:0:0:0:
448,192,161882,1,0,0:0:0:0:
64,192,161882,1,0,0:0:0:0:
192,192,162054,1,0,0:0:0:0:
64,192,162225,1,0,0:0:0:0:
448,192,162225,1,0,0:0:0:0:
192,192,162225,1,0,0:0:0:0:
64,192,162396,1,0,0:0:0:0:
192,192,162482,1,0,0:0:0:0:
64,192,162568,1,0,0:0:0:0:
448,192,162568,1,0,0:0:0:0:
192,192,162739,1,0,0:0:0:0:
64,192,162911,1,0,0:0:0:0:
192,192,162911,1,0,0:0:0:0:
448,192,162911,1,0,0:0:0:0:
320,192,162911,128,0,162996:0:0:0:0:
448,192,163082,128,0,163254:0:0:0:0:
192,192,163082,1,0,0:0:0:0:
320,192,163168,1,0,0:0:0:0:
192,192,163254,1,0,0:0:0:0:
64,192,163254,1,0,0:0:0:0:
320,192,163425,128,0,163511:0:0:0:0:
64,192,163425,1,0,0:0:0:0:
192,192,163425,1,0,0:0:0:0:
448,192,163425,1,0,0:0:0:0:
320,192,163596,128,0,163682:0:0:0:0:
64,192,163596,1,0,0:0:0:0:
448,192,163596,1,0,0:0:0:0:
192,192,163596,1,0,0:0:0:0:
192,192,163768,128,0,163854:0:0:0:0:
448,192,163768,1,0,0:0:0:0:
320,192,163768,1,0,0:0:0:0:
64,192,163768,1,0,0:0:0:0:
192,192,163939,128,0,164196:0:0:0:0:
64,192,163939,1,0,0:0:0:0:
320,192,163939,1,0,0:0:0:0:
448,192,163939,1,0,0:0:0:0:
320,192,164111,1,0,0:0:0:0:
64,192,164111,1,0,0:0:0:0:
64,192,164282,128,0,164539:0:0:0:0:
192,192,164282,1,0,0:0:0:0:
320,192,164282,1,0,0:0:0:0:
448,192,164282,1,0,0:0:0:0:
192,192,164625,128,0,164968:0:0:0:0:
192,192,165139,128,0,165482:0:0:0:0:
320,192,165654,1,0,0:0:0:0:
448,192,165825,128,0,165996:0:0:0:0:
192,192,166168,1,0,0:0:0:0:
192,192,166339,1,0,0:0:0:0:
64,192,166511,1,0,0:0:0:0:
64,192,166682,128,0,166854:0:0:0:0:
64,192,167025,128,0,167196:0:0:0:0:
192,192,167025,1,0,0:0:0:0:
320,192,167025,1,0,0:0:0:0:
448,192,167025,1,0,0:0:0:0:
320,192,167196,1,0,0:0:0:0:
448,192,167196,1,0,0:0:0:0:
192,192,167282,1,0,0:0:0:0:
320,192,167368,128,0,167711:0:0:0:0:
64,192,167368,1,0,0:0:0:0:
448,192,167368,1,0,0:0:0:0:
192,192,167539,1,0,0:0:0:0:
192,192,167711,1,0,0:0:0:0:
64,192,167711,1,0,0:0:0:0:
448,192,167711,1,0,0:0:0:0:
320,192,167882,128,0,168225:0:0:0:0:
64,192,167882,1,0,0:0:0:0:
448,192,167968,1,0,0:0:0:0:
64,192,168054,1,0,0:0:0:0:
192,192,168139,1,0,0:0:0:0:
64,192,168225,1,0,0:0:0:0:
448,192,168225,1,0,0:0:0:0:
448,192,168396,1,0,0:0:0:0:
64,192,168396,1,0,0:0:0:0:
192,192,168396,1,0,0:0:0:0:
320,192,168396,1,0,0:0:0:0:
192,192,168568,128,0,168739:0:0:0:0:
64,192,168568,1,0,0:0:0:0:
320,192,168654,1,0,0:0:0:0:
64,192,168739,1,0,0:0:0:0:
448,192,168739,1,0,0:0:0:0:
448,192,168911,128,0,169082:0:0:0:0:
320,192,168911,1,0,0:0:0:0:
64,192,169082,1,0,0:0:0:0:
192,192,169082,1,0,0:0:0:0:
320,192,169082,1,0,0:0:0:0:
64,192,169254,1,0,0:0:0:0:
192,192,169254,1,0,0:0:0:0:
448,192,169339,1,0,0:0:0:0:
64,192,169425,128,0,169596:0:0:0:0:
192,192,169425,1,0,0:0:0:0:
320,192,169511,1,0,0:0:0:0:
192,192,169596,1,0,0:0:0:0:
448,192,169596,1,0,0:0:0:0:
192,192,169768,128,0,169939:0:0:0:0:
320,192,169768,1,0,0:0:0:0:
448,192,169768,1,0,0:0:0:0:
64,192,169768,1,0,0:0:0:0:
320,192,169939,1,0,0:0:0:0:
448,192,169939,1,0,0:0:0:0:
192,192,170025,1,0,0:0:0:0:
320,192,170025,1,0,0:0:0:0:
320,192,170111,128,0,170454:0:0:0:0:
448,192,170111,128,0,170196:0:0:0:0:
64,192,170111,1,0,0:0:0:0:
192,192,170111,1,0,0:0:0:0:
448,192,170282,128,0,170454:0:0:0:0:
64,192,170282,1,0,0:0:0:0:
64,192,170454,1,0,0:0:0:0:
192,192,170454,1,0,0:0:0:0:
320,192,170625,128,0,170968:0:0:0:0:
448,192,170625,128,0,170796:0:0:0:0:
64,192,170625,1,0,0:0:0:0:
192,192,170711,1,0,0:0:0:0:
64,192,170796,1,0,0:0:0:0:
192,192,170882,1,0,0:0:0:0:
448,192,170968,128,0,171139:0:0:0:0:
64,192,170968,1,0,0:0:0:0:
192,192,170968,1,0,0:0:0:0:
192,192,171139,1,0,0:0:0:0:
64,192,171139,1,0,0:0:0:0:
320,192,171139,1,0,0:0:0:0:
448,192,171311,128,0,171482:0:0:0:0:
64,192,171311,128,0,171482:0:0:0:0:
320,192,171311,1,0,0:0:0:0:
192,192,171396,1,0,0:0:0:0:
192,192,171482,1,0,0:0:0:0:
320,192,171482,1,0,0:0:0:0:
192,192,171654,128,0,171825:0:0:0:0:
448,192,171654,1,0,0:0:0:0:
320,192,171825,1,0,0:0:0:0:
448,192,171825,1,0,0:0:0:0:
64,192,171825,1,0,0:0:0:0:
64,192,171996,1,0,0:0:0:0:
192,192,171996,1,0,0:0:0:0:
448,192,172082,1,0,0:0:0:0:
64,192,172168,128,0,172339:0:0:0:0:
192,192,172168,1,0,0:0:0:0:
320,192,172254,1,0,0:0:0:0:
192,192,172339,1,0,0:0:0:0:
448,192,172339,1,0,0:0:0:0:
64,192,172511,128,0,172682:0:0:0:0:
192,192,172511,1,0,0:0:0:0:
320,192,172511,1,0,0:0:0:0:
448,192,172511,1,0,0:0:0:0:
448,192,172682,1,0,0:0:0:0:
320,192,172768,1,0,0:0:0:0:
192,192,172854,128,0,173196:0:0:0:0:
64,192,172854,1,0,0:0:0:0:
448,192,172854,1,0,0:0:0:0:
320,192,173025,1,0,0:0:0:0:
448,192,173196,1,0,0:0:0:0:
320,192,173196,1,0,0:0:0:0:
64,192,173196,1,0,0:0:0:0:
192,192,173368,128,0,173711:0:0:0:0:
448,192,173368,1,0,0:0:0:0:
320,192,173454,1,0,0:0:0:0:
64,192,173539,1,0,0:0:0:0:
320,192,173625,1,0,0:0:0:0:
448,192,173711,1,0,0:0:0:0:
64,192,173711,1,0,0:0:0:0:
320,192,173882,1,0,0:0:0:0:
64,192,173882,1,0,0:0:0:0:
192,192,173882,1,0,0:0:0:0:
448,192,173882,1,0,0:0:0:0:
64,192,174054,128,0,174225:0:0:0:0:
320,192,174054,1,0,0:0:0:0:
192,192,174139,1,0,0:0:0:0:
320,192,174225,1,0,0:0:0:0:
448,192,174225,1,0,0:0:0:0:
192,192,174396,128,0,174568:0:0:0:0:
64,192,174396,1,0,0:0:0:0:
448,192,174568,1,0,0:0:0:0:
320,192,174568,1,0,0:0:0:0:
64,192,174568,1,0,0:0:0:0:
320,192,174739,1,0,0:0:0:0:
192,192,174739,1,0,0:0:0:0:
448,192,174825,1,0,0:0:0:0:
320,192,174911,128,0,175082:0:0:0:0:
64,192,174911,1,0,0:0:0:0:
192,192,174996,1,0,0:0:0:0:
64,192,175082,1,0,0:0:0:0:
448,192,175082,1,0,0:0:0:0:
448,192,175254,128,0,175425:0:0:0:0:
64,192,175254,1,0,0:0:0:0:
192,192,175254,1,0,0:0:0:0:
320,192,175254,1,0,0:0:0:0:
64,192,175425,1,0,0:0:0:0:
192,192,175425,1,0,0:0:0:0:
192,192,175511,1,0,0:0:0:0:
320,192,175511,1,0,0:0:0:0:
64,192,175596,1,0,0:0:0:0:
192,192,175596,1,0,0:0:0:0:
320,192,175596,128,0,175939:0:0:0:0:
448,192,175596,128,0,175682:0:0:0:0:
448,192,175768,128,0,175939:0:0:0:0:
64,192,175768,1,0,0:0:0:0:
192,192,175939,1,0,0:0:0:0:
64,192,175939,1,0,0:0:0:0:
320,192,176111,128,0,176454:0:0:0:0:
448,192,176111,128,0,176282:0:0:0:0:
64,192,176111,1,0,0:0:0:0:
192,192,176196,1,0,0:0:0:0:
64,192,176282,1,0,0:0:0:0:
192,192,176368,1,0,0:0:0:0:
448,192,176454,128,0,176625:0:0:0:0:
192,192,176454,1,0,0:0:0:0:
64,192,176454,1,0,0:0:0:0:
192,192,176625,1,0,0:0:0:0:
320,192,176625,1,0,0:0:0:0:
64,192,176625,1,0,0:0:0:0:
64,192,176796,128,0,176968:0:0:0:0:
448,192,176796,128,0,176968:0:0:0:0:
320,192,176796,1,0,0:0:0:0:
192,192,176882,1,0,0:0:0:0:
320,192,176968,1,0,0:0:0:0:
192,192,176968,1,0,0:0:0:0:
320,192,177139,128,0,177311:0:0:0:0:
64,192,177139,1,0,0:0:0:0:
192,192,177311,1,0,0:0:0:0:
64,192,177311,1,0,0:0:0:0:
448,192,177311,1,0,0:0:0:0:
448,192,177482,1,0,0:0:0:0:
320,192,177482,1,0,0:0:0:0:
64,192,177568,1,0,0:0:0:0:
448,192,177654,128,0,177825:0:0:0:0:
320,192,177654,1,0,0:0:0:0:
192,192,177739,1,0,0:0:0:0:
320,192,177825,1,0,0:0:0:0:
64,192,177825,1,0,0:0:0:0:
448,192,177996,128,0,178168:0:0:0:0:
320,192,177996,1,0,0:0:0:0:
192,192,177996,1,0,0:0:0:0:
64,192,177996,1,0,0:0:0:0:
192,192,178168,1,0,0:0:0:0:
320,192,178254,1,0,0:0:0:0:
192,192,178339,128,0,178682:0:0:0:0:
448,192,178339,1,0,0:0:0:0:
64,192,178339,1,0,0:0:0:0:
320,192,178511,1,0,0:0:0:0:
320,192,178682,1,0,0:0:0:0:
448,192,178682,1,0,0:0:0:0:
64,192,178682,1,0,0:0:0:0:
192,192,178854,128,0,179196:0:0:0:0:
448,192,178854,1,0,0:0:0:0:
64,192,178939,1,0,0:0:0:0:
448,192,179025,1,0,0:0:0:0:
320,192,179111,1,0,0:0:0:0:
448,192,179196,1,0,0:0:0:0:
64,192,179196,1,0,0:0:0:0:
64,192,179368,1,0,0:0:0:0:
448,192,179368,1,0,0:0:0:0:
320,192,179368,1,0,0:0:0:0:
192,192,179368,1,0,0:0:0:0:
320,192,179539,128,0,179711:0:0:0:0:
448,192,179539,1,0,0:0:0:0:
192,192,179625,1,0,0:0:0:0:
448,192,179711,1,0,0:0:0:0:
64,192,179711,1,0,0:0:0:0:
64,192,179882,128,0,180054:0:0:0:0:
192,192,179882,1,0,0:0:0:0:
448,192,180054,1,0,0:0:0:0:
320,192,180054,1,0,0:0:0:0:
192,192,180054,1,0,0:0:0:0:
448,192,180225,1,0,0:0:0:0:
320,192,180225,1,0,0:0:0:0:
64,192,180311,1,0,0:0:0:0:
448,192,180396,128,0,180568:0:0:0:0:
320,192,180396,1,0,0:0:0:0:
192,192,180482,1,0,0:0:0:0:
320,192,180568,1,0,0:0:0:0:
64,192,180568,1,0,0:0:0:0:
320,192,180739,128,0,180911:0:0:0:0:
192,192,180739,1,0,0:0:0:0:
64,192,180739,1,0,0:0:0:0:
448,192,180739,1,0,0:0:0:0:
192,192,180911,1,0,0:0:0:0:
64,192,180911,1,0,0:0:0:0:
320,192,180996,1,0,0:0:0:0:
192,192,180996,1,0,0:0:0:0:
192,192,181082,128,0,181425:0:0:0:0:
64,192,181082,128,0,181168:0:0:0:0:
448,192,181082,1,0,0:0:0:0:
320,192,181082,1,0,0:0:0:0:
64,192,181254,128,0,181425:0:0:0:0:
448,192,181254,1,0,0:0:0:0:
448,192,181425,1,0,0:0:0:0:
320,192,181425,1,0,0:0:0:0:
192,192,181596,128,0,181939:0:0:0:0:
64,192,181596,128,0,181768:0:0:0:0:
448,192,181596,1,0,0:0:0:0:
320,192,181682,1,0,0:0:0:0:
448,192,181768,1,0,0:0:0:0:
320,192,181854,1,0,0:0:0:0:
64,192,181939,128,0,182111:0:0:0:0:
448,192,181939,1,0,0:0:0:0:
320,192,181939,1,0,0:0:0:0:
320,192,182111,1,0,0:0:0:0:
448,192,182111,1,0,0:0:0:0:
192,192,182111,1,0,0:0:0:0:
64,192,182282,128,0,182454:0:0:0:0:
448,192,182282,128,0,182454:0:0:0:0:
192,192,182282,1,0,0:0:0:0:
320,192,182368,1,0,0:0:0:0:
320,192,182454,1,0,0:0:0:0:
192,192,182454,1,0,0:0:0:0:
320,192,182625,128,0,182796:0:0:0:0:
64,192,182625,1,0,0:0:0:0:
192,192,182796,1,0,0:0:0:0:
64,192,182796,1,0,0:0:0:0:
448,192,182796,1,0,0:0:0:0:
448,192,182968,1,0,0:0:0:0:
320,192,182968,1,0,0:0:0:0:
64,192,183054,1,0,0:0:0:0:
448,192,183139,128,0,183311:0:0:0:0:
320,192,183139,1,0,0:0:0:0:
192,192,183225,1,0,0:0:0:0:
320,192,183311,1,0,0:0:0:0:
64,192,183311,1,0,0:0:0:0:
448,192,183482,128,0,183654:0:0:0:0:
320,192,183482,1,0,0:0:0:0:
192,192,183482,1,0,0:0:0:0:
64,192,183482,1,0,0:0:0:0:
64,192,183654,1,0,0:0:0:0:
192,192,183739,1,0,0:0:0:0:
320,192,183825,128,0,184168:0:0:0:0:
448,192,183825,1,0,0:0:0:0:
64,192,183825,1,0,0:0:0:0:
192,192,183996,1,0,0:0:0:0:
64,192,184168,1,0,0:0:0:0:
192,192,184168,1,0,0:0:0:0:
448,192,184168,1,0,0:0:0:0:
320,192,184339,128,0,184682:0:0:0:0:
64,192,184339,1,0,0:0:0:0:
192,192,184425,1,0,0:0:0:0:
448,192,184511,1,0,0:0:0:0:
192,192,184596,1,0,0:0:0:0:
64,192,184682,1,0,0:0:0:0:
448,192,184682,1,0,0:0:0:0:
192,192,184854,1,0,0:0:0:0:
448,192,184854,1,0,0:0:0:0:
320,192,184854,1,0,0:0:0:0:
64,192,184854,1,0,0:0:0:0:
448,192,185025,128,0,185196:0:0:0:0:
192,192,185025,1,0,0:0:0:0:
320,192,185111,1,0,0:0:0:0:
192,192,185196,1,0,0:0:0:0:
64,192,185196,1,0,0:0:0:0:
320,192,185368,1,0,0:0:0:0:
192,192,185368,1,0,0:0:0:0:
320,192,185539,1,0,0:0:0:0:
64,192,185539,1,0,0:0:0:0:
448,192,185539,1,0,0:0:0:0:
192,192,185711,1,0,0:0:0:0:
64,192,185711,1,0,0:0:0:0:
192,192,185882,128,0,186225:0:0:0:0:
448,192,185882,1,0,0:0:0:0:
320,192,185882,1,0,0:0:0:0:
320,192,186054,1,0,0:0:0:0:
64,192,186054,1,0,0:0:0:0:
64,192,186225,128,0,186482:0:0:0:0:
320,192,186225,1,0,0:0:0:0:
448,192,186225,1,0,0:0:0:0:
192,192,186568,1,0,0:0:0:0:
448,192,186568,1,0,0:0:0:0:
320,192,186739,1,0,0:0:0:0:
64,192,186911,1,0,0:0:0:0:
192,192,186911,1,0,0:0:0:0:
448,192,186911,1,0,0:0:0:0:
320,192,187082,1,0,0:0:0:0:
192,192,187168,1,0,0:0:0:0:
448,192,187254,1,0,0:0:0:0:
320,192,187339,1,0,0:0:0:0:
64,192,187425,1,0,0:0:0:0:
192,192,187425,1,0,0:0:0:0:
192,192,187596,1,0,0:0:0:0:
320,192,187596,1,0,0:0:0:0:
448,192,187596,1,0,0:0:0:0:
64,192,187768,1,0,0:0:0:0:
192,192,187854,1,0,0:0:0:0:
64,192,187939,1,0,0:0:0:0:
320,192,187939,1,0,0:0:0:0:
192,192,188111,1,0,0:0:0:0:
320,192,188282,1,0,0:0:0:0:
64,192,188282,1,0,0:0:0:0:
448,192,188282,1,0,0:0:0:0:
192,192,188454,1,0,0:0:0:0:
320,192,188539,1,0,0:0:0:0:
64,192,188625,1,0,0:0:0:0:
448,192,188711,1,0,0:0:0:0:
64,192,188796,1,0,0:0:0:0:
320,192,188796,1,0,0:0:0:0:
192,192,188968,1,0,0:0:0:0:
320,192,188968,1,0,0:0:0:0:
448,192,188968,1,0,0:0:0:0:
448,192,189139,1,0,0:0:0:0:
192,192,189225,1,0,0:0:0:0:
320,192,189311,1,0,0:0:0:0:
64,192,189311,1,0,0:0:0:0:
448,192,189482,1,0,0:0:0:0:
64,192,189654,1,0,0:0:0:0:
192,192,189654,1,0,0:0:0:0:
320,192,189654,1,0,0:0:0:0:
448,192,189825,1,0,0:0:0:0:
192,192,189911,1,0,0:0:0:0:
320,192,189996,1,0,0:0:0:0:
64,192,190082,1,0,0:0:0:0:
192,192,190168,1,0,0:0:0:0:
448,192,190168,1,0,0:0:0:0:
64,192,190339,1,0,0:0:0:0:
320,192,190339,1,0,0:0:0:0:
448,192,190339,1,0,0:0:0:0:
192,192,190511,1,0,0:0:0:0:
320,192,190596,1,0,0:0:0:0:
64,192,190682,1,0,0:0:0:0:
448,192,190682,1,0,0:0:0:0:
192,192,190854,1,0,0:0:0:0:
64,192,191025,1,0,0:0:0:0:
320,192,191025,1,0,0:0:0:0:
448,192,191025,1,0,0:0:0:0:
192,192,191196,1,0,0:0:0:0:
448,192,191282,1,0,0:0:0:0:
64,192,191368,1,0,0:0:0:0:
448,192,191454,1,0,0:0:0:0:
192,192,191539,1,0,0:0:0:0:
320,192,191539,1,0,0:0:0:0:
64,192,191711,1,0,0:0:0:0:
192,192,191711,1,0,0:0:0:0:
320,192,191711,1,0,0:0:0:0:
448,192,191882,1,0,0:0:0:0:
320,192,191882,1,0,0:0:0:0:
320,192,191968,1,0,0:0:0:0:
192,192,191968,1,0,0:0:0:0:
192,192,192054,1,0,0:0:0:0:
64,192,192054,1,0,0:0:0:0:
320,192,192225,1,0,0:0:0:0:
192,192,192396,1,0,0:0:0:0:
448,192,192396,1,0,0:0:0:0:
64,192,192396,1,0,0:0:0:0:
320,192,192568,1,0,0:0:0:0:
64,192,192654,1,0,0:0:0:0:
192,192,192739,1,0,0:0:0:0:
448,192,192825,1,0,0:0:0:0:
320,192,192911,1,0,0:0:0:0:
64,192,192911,1,0,0:0:0:0:
64,192,193082,1,0,0:0:0:0:
192,192,193082,1,0,0:0:0:0:
448,192,193082,1,0,0:0:0:0:
320,192,193254,1,0,0:0:0:0:
448,192,193339,1,0,0:0:0:0:
64,192,193425,1,0,0:0:0:0:
192,192,193425,1,0,0:0:0:0:
448,192,193596,1,0,0:0:0:0:
320,192,193768,1,0,0:0:0:0:
192,192,193768,1,0,0:0:0:0:
64,192,193768,1,0,0:0:0:0:
448,192,193939,1,0,0:0:0:0:
64,192,194025,1,0,0:0:0:0:
448,192,194111,1,0,0:0:0:0:
192,192,194196,1,0,0:0:0:0:
64,192,194282,1,0,0:0:0:0:
320,192,194282,1,0,0:0:0:0:
192,192,194454,1,0,0:0:0:0:
320,192,194454,1,0,0:0:0:0:
448,192,194454,1,0,0:0:0:0:
64,192,194625,1,0,0:0:0:0:
320,192,194711,1,0,0:0:0:0:
192,192,194796,1,0,0:0:0:0:
448,192,194796,1,0,0:0:0:0:
64,192,194968,1,0,0:0:0:0:
192,192,195139,1,0,0:0:0:0:
320,192,195139,1,0,0:0:0:0:
448,192,195139,1,0,0:0:0:0:
64,192,195311,1,0,0:0:0:0:
320,192,195396,1,0,0:0:0:0:
192,192,195482,1,0,0:0:0:0:
448,192,195568,1,0,0:0:0:0:
192,192,195654,1,0,0:0:0:0:
320,192,195654,1,0,0:0:0:0:
192,192,195825,1,0,0:0:0:0:
64,192,195825,1,0,0:0:0:0:
448,192,195825,1,0,0:0:0:0:
320,192,195996,1,0,0:0:0:0:
192,192,196082,1,0,0:0:0:0:
64,192,196168,1,0,0:0:0:0:
320,192,196168,1,0,0:0:0:0:
192,192,196339,1,0,0:0:0:0:
320,192,196511,1,0,0:0:0:0:
448,192,196511,1,0,0:0:0:0:
64,192,196511,1,0,0:0:0:0:
64,192,196682,1,0,0:0:0:0:
192,192,196682,1,0,0:0:0:0:
448,192,196768,1,0,0:0:0:0:
320,192,196854,1,0,0:0:0:0:
448,192,196939,1,0,0:0:0:0:
64,192,197025,1,0,0:0:0:0:
192,192,197025,1,0,0:0:0:0:
320,192,197196,1,0,0:0:0:0:
448,192,197196,1,0,0:0:0:0:
64,192,197196,1,0,0:0:0:0:
64,192,197368,1,0,0:0:0:0:
192,192,197368,1,0,0:0:0:0:
192,192,197454,1,0,0:0:0:0:
320,192,197454,1,0,0:0:0:0:
320,192,197539,1,0,0:0:0:0:
448,192,197539,1,0,0:0:0:0:
192,192,197711,1,0,0:0:0:0:
448,192,197882,1,0,0:0:0:0:
320,192,197882,1,0,0:0:0:0:
64,192,197882,1,0,0:0:0:0:
192,192,198054,1,0,0:0:0:0:
320,192,198139,1,0,0:0:0:0:
64,192,198225,1,0,0:0:0:0:
192,192,198311,1,0,0:0:0:0:
448,192,198396,1,0,0:0:0:0:
320,192,198396,1,0,0:0:0:0:
320,192,198568,1,0,0:0:0:0:
192,192,198568,1,0,0:0:0:0:
64,192,198568,1,0,0:0:0:0:
448,192,198739,1,0,0:0:0:0:
320,192,198825,1,0,0:0:0:0:
448,192,198911,1,0,0:0:0:0:
192,192,198911,1,0,0:0:0:0:
320,192,199082,1,0,0:0:0:0:
192,192,199254,1,0,0:0:0:0:
448,192,199254,1,0,0:0:0:0:
64,192,199254,1,0,0:0:0:0:
320,192,199425,1,0,0:0:0:0:
192,192,199511,1,0,0:0:0:0:
448,192,199596,1,0,0:0:0:0:
64,192,199682,1,0,0:0:0:0:
448,192,199768,1,0,0:0:0:0:
192,192,199768,1,0,0:0:0:0:
320,192,199939,1,0,0:0:0:0:
192,192,199939,1,0,0:0:0:0:
64,192,199939,1,0,0:0:0:0:
64,192,200111,1,0,0:0:0:0:
320,192,200196,1,0,0:0:0:0:
192,192,200282,1,0,0:0:0:0:
448,192,200282,1,0,0:0:0:0:
64,192,200454,1,0,0:0:0:0:
448,192,200625,1,0,0:0:0:0:
320,192,200625,1,0,0:0:0:0:
192,192,200625,1,0,0:0:0:0:
64,192,200796,1,0,0:0:0:0:
320,192,200882,1,0,0:0:0:0:
192,192,200968,1,0,0:0:0:0:
448,192,201054,1,0,0:0:0:0:
320,192,201139,1,0,0:0:0:0:
64,192,201139,1,0,0:0:0:0:
448,192,201311,1,0,0:0:0:0:
192,192,201311,1,0,0:0:0:0:
64,192,201311,1,0,0:0:0:0:
320,192,201482,1,0,0:0:0:0:
192,192,201568,1,0,0:0:0:0:
448,192,201654,1,0,0:0:0:0:
64,192,201654,1,0,0:0:0:0:
320,192,201825,1,0,0:0:0:0:
448,192,201996,1,0,0:0:0:0:
192,192,201996,1,0,0:0:0:0:
64,192,201996,1,0,0:0:0:0:
320,192,202168,1,0,0:0:0:0:
64,192,202254,1,0,0:0:0:0:
448,192,202339,1,0,0:0:0:0:
64,192,202425,1,0,0:0:0:0:
320,192,202511,1,0,0:0:0:0:
192,192,202511,1,0,0:0:0:0:
448,192,202682,1,0,0:0:0:0:
320,192,202682,1,0,0:0:0:0:
192,192,202682,1,0,0:0:0:0:
64,192,202854,1,0,0:0:0:0:
192,192,202854,1,0,0:0:0:0:
192,192,202939,1,0,0:0:0:0:
320,192,202939,1,0,0:0:0:0:
320,192,203025,1,0,0:0:0:0:
448,192,203025,1,0,0:0:0:0:
192,192,203196,1,0,0:0:0:0:
320,192,203368,1,0,0:0:0:0:
64,192,203368,1,0,0:0:0:0:
448,192,203368,1,0,0:0:0:0:
192,192,203539,1,0,0:0:0:0:
448,192,203625,1,0,0:0:0:0:
320,192,203711,1,0,0:0:0:0:
64,192,203796,1,0,0:0:0:0:
192,192,203882,1,0,0:0:0:0:
448,192,203882,1,0,0:0:0:0:
448,192,204054,1,0,0:0:0:0:
320,192,204054,1,0,0:0:0:0:
64,192,204054,1,0,0:0:0:0:
192,192,204225,1,0,0:0:0:0:
64,192,204311,1,0,0:0:0:0:
448,192,204396,1,0,0:0:0:0:
320,192,204396,1,0,0:0:0:0:
64,192,204568,1,0,0:0:0:0:
192,192,204739,1,0,0:0:0:0:
320,192,204739,1,0,0:0:0:0:
448,192,204739,1,0,0:0:0:0:
64,192,204911,1,0,0:0:0:0:
448,192,204996,1,0,0:0:0:0:
64,192,205082,1,0,0:0:0:0:
320,192,205168,1,0,0:0:0:0:
448,192,205254,1,0,0:0:0:0:
192,192,205254,1,0,0:0:0:0:
320,192,205425,1,0,0:0:0:0:
192,192,205425,1,0,0:0:0:0:
64,192,205425,1,0,0:0:0:0:
448,192,205596,1,0,0:0:0:0:
192,192,205682,1,0,0:0:0:0:
320,192,205768,1,0,0:0:0:0:
64,192,205768,1,0,0:0:0:0:
448,192,205939,1,0,0:0:0:0:
320,192,206111,1,0,0:0:0:0:
192,192,206111,1,0,0:0:0:0:
64,192,206111,1,0,0:0:0:0:
448,192,206282,1,0,0:0:0:0:
192,192,206368,1,0,0:0:0:0:
320,192,206454,1,0,0:0:0:0:
64,192,206539,1,0,0:0:0:0:
320,192,206625,1,0,0:0:0:0:
192,192,206625,1,0,0:0:0:0:
320,192,206796,1,0,0:0:0:0:
448,192,206796,1,0,0:0:0:0:
64,192,206796,1,0,0:0:0:0:
192,192,206968,1,0,0:0:0:0:
320,192,207054,1,0,0:0:0:0:
448,192,207139,1,0,0:0:0:0:
192,192,207139,1,0,0:0:0:0:
320,192,207311,1,0,0:0:0:0:
448,192,207311,1,0,0:0:0:0:
64,192,207311,1,0,0:0:0:0:
192,192,207482,1,0,0:0:0:0:
64,192,207482,1,0,0:0:0:0:
448,192,207482,1,0,0:0:0:0:
192,192,207654,1,0,0:0:0:0:
320,192,207654,1,0,0:0:0:0:
448,192,207654,1,0,0:0:0:0:
320,192,207825,1,0,0:0:0:0:
192,192,207825,1,0,0:0:0:0:
64,192,207825,1,0,0:0:0:0:
192,192,207996,1,0,0:0:0:0:
448,192,207996,1,0,0:0:0:0:
320,192,208168,1,0,0:0:0:0:
64,192,208168,1,0,0:0:0:0:
448,192,208168,1,0,0:0:0:0:
192,192,208339,1,0,0:0:0:0:
64,192,208511,128,0,212625:0:0:0:0:
448,192,208511,128,0,212625:0:0:0:0:
