osu file format v14

[General]
AudioFilename: Xepher.mp3
AudioLeadIn: 0
PreviewTime: 72594
Countdown: 0
SampleSet: Soft
StackLeniency: 0.7
Mode: 3
LetterboxInBreaks: 0
SpecialStyle: 0
WidescreenStoryboard: 1

[Editor]
Bookmarks: 92005,101181,134710
DistanceSpacing: 1
BeatDivisor: 4
GridSize: 8
TimelineZoom: 1.6

[Metadata]
Title:Pack .01
TitleUnicode:Pack .01
Artist:Various Artist
ArtistUnicode:Various Artist
Creator:[ C r a c k ]
Version:Tatsh - Xepher - Lv.46
Source:Beatmania IIDX 12 HAPPY SKY
Tags:
BeatmapID:1118092
BeatmapSetID:526961

[Difficulty]
HPDrainRate:8
CircleSize:7
OverallDifficulty:7.5
ApproachRate:5
SliderMultiplier:1.4
SliderTickRate:1

[Events]
//Background and Video events
0,0,"Xepherbg.jpg",0,0
//Break Periods
//Storyboard Layer 0 (Background)
//Storyboard Layer 1 (Fail)
//Storyboard Layer 2 (Pass)
//Storyboard Layer 3 (Foreground)
//Storyboard Sound Samples

[TimingPoints]
20358,352.941176470588,4,2,0,25,1,0
47182,-100,4,2,0,20,0,0
48241,-117.647058823529,4,2,0,20,0,0
48505,-100,4,2,0,20,0,0
49652,-117.647058823529,4,2,0,20,0,0
49829,-100,4,2,0,20,0,0
53888,-117.647058823529,4,2,0,20,0,0
54152,-100,4,2,0,20,0,0
55299,-117.647058823529,4,2,0,20,0,0
55476,-100,4,2,0,20,0,0
56711,-117.647058823529,4,2,0,20,0,0
56976,-100,4,2,0,20,0,0
72593,-117.647058823529,4,2,0,20,0,0
73299,-125,4,2,0,20,0,0
73652,-111.111111111111,4,2,0,20,0,0
73917,-100,4,2,0,20,0,0
74005,-100,4,2,0,20,0,1
88122,-100,4,2,0,20,0,0
89182,-117.647058823529,4,2,0,20,0,0
89446,-100,4,2,0,20,0,0
90593,-117.647058823529,4,2,0,20,0,0
90770,-100,4,2,0,20,0,0
94829,-117.647058823529,4,2,0,20,0,0
95093,-100,4,2,0,20,0,0
96241,-117.647058823529,4,2,0,20,0,0
96417,-100,4,2,0,20,0,0
97652,-117.647058823529,4,2,0,20,0,0
97916,-100,4,2,0,20,0,0
112122,-100,4,2,0,20,0,1
127652,-100,4,2,0,20,0,0

[HitObjects]
182,192,19652,128,0,20358:0:0:0:0:
329,192,19652,128,0,20358:0:0:0:0:
36,192,19652,128,0,20358:0:0:0:0:
475,192,19652,128,0,20358:0:0:0:0:
256,192,20358,1,0,0:0:0:0:
402,192,20475,1,0,0:0:0:0:
182,192,20593,1,0,0:0:0:0:
329,192,20710,1,0,0:0:0:0:
109,192,20828,1,0,0:0:0:0:
256,192,20946,1,0,0:0:0:0:
36,192,21063,1,0,0:0:0:0:
182,192,21181,1,0,0:0:0:0:
329,192,21299,1,0,0:0:0:0:
475,192,21416,1,0,0:0:0:0:
329,192,21534,1,0,0:0:0:0:
182,192,21652,1,0,0:0:0:0:
36,192,21769,1,0,0:0:0:0:
256,192,21887,1,0,0:0:0:0:
475,192,22005,1,0,0:0:0:0:
182,192,22122,1,0,0:0:0:0:
402,192,22240,1,0,0:0:0:0:
109,192,22358,1,0,0:0:0:0:
329,192,22475,1,0,0:0:0:0:
256,192,22593,1,0,0:0:0:0:
182,192,22710,1,0,0:0:0:0:
256,192,22828,1,0,0:0:0:0:
329,192,22946,1,0,0:0:0:0:
256,192,23063,1,0,0:0:0:0:
182,192,23181,1,0,0:0:0:0:
475,192,23299,1,0,0:0:0:0:
36,192,23416,1,0,0:0:0:0:
475,192,23534,1,0,0:0:0:0:
109,192,23652,1,0,0:0:0:0:
475,192,23769,1,0,0:0:0:0:
182,192,23887,1,0,0:0:0:0:
329,192,24005,1,0,0:0:0:0:
36,192,24122,1,0,0:0:0:0:
475,192,24240,1,0,0:0:0:0:
36,192,24358,1,0,0:0:0:0:
402,192,24475,1,0,0:0:0:0:
36,192,24593,1,0,0:0:0:0:
329,192,24710,1,0,0:0:0:0:
182,192,24828,1,0,0:0:0:0:
36,192,24946,1,0,0:0:0:0:
402,192,25063,1,0,0:0:0:0:
256,192,25181,1,0,0:0:0:0:
109,192,25299,1,0,0:0:0:0:
475,192,25416,1,0,0:0:0:0:
329,192,25534,1,0,0:0:0:0:
182,192,25652,1,0,0:0:0:0:
36,192,25769,1,0,0:0:0:0:
182,192,25887,1,0,0:0:0:0:
329,192,26005,1,0,0:0:0:0:
475,192,26122,1,0,0:0:0:0:
256,192,26240,1,0,0:0:0:0:
402,192,26358,1,0,0:0:0:0:
182,192,26475,1,0,0:0:0:0:
329,192,26593,1,0,0:0:0:0:
109,192,26710,1,0,0:0:0:0:
256,192,26828,1,0,0:0:0:0:
36,192,26946,1,0,0:0:0:0:
182,192,27063,1,0,0:0:0:0:
475,192,27181,1,0,0:0:0:0:
329,192,27299,1,0,0:0:0:0:
182,192,27416,1,0,0:0:0:0:
256,192,27534,1,0,0:0:0:0:
329,192,27652,1,0,0:0:0:0:
256,192,27769,1,0,0:0:0:0:
182,192,27887,1,0,0:0:0:0:
329,192,28005,1,0,0:0:0:0:
182,192,28122,1,0,0:0:0:0:
329,192,28240,1,0,0:0:0:0:
109,192,28358,1,0,0:0:0:0:
402,192,28475,1,0,0:0:0:0:
109,192,28593,1,0,0:0:0:0:
402,192,28710,1,0,0:0:0:0:
182,192,28828,1,0,0:0:0:0:
475,192,28946,1,0,0:0:0:0:
109,192,29063,1,0,0:0:0:0:
402,192,29181,1,0,0:0:0:0:
36,192,29299,1,0,0:0:0:0:
329,192,29416,1,0,0:0:0:0:
109,192,29534,1,0,0:0:0:0:
402,192,29652,1,0,0:0:0:0:
182,192,29769,1,0,0:0:0:0:
475,192,29887,1,0,0:0:0:0:
256,192,30005,1,0,0:0:0:0:
36,192,30122,1,0,0:0:0:0:
402,192,30240,1,0,0:0:0:0:
256,192,30358,1,0,0:0:0:0:
109,192,30475,1,0,0:0:0:0:
329,192,30593,1,0,0:0:0:0:
256,192,30710,1,0,0:0:0:0:
182,192,30828,1,0,0:0:0:0:
475,192,30946,1,0,0:0:0:0:
109,192,31063,1,0,0:0:0:0:
402,192,31181,1,0,0:0:0:0:
36,192,31299,1,0,0:0:0:0:
329,192,31416,1,0,0:0:0:0:
256,192,31534,1,0,0:0:0:0:
36,192,31652,1,0,0:0:0:0:
402,192,31652,1,0,0:0:0:0:
475,192,31652,1,0,0:0:0:0:
182,192,31652,128,6,32828:0:0:0:0:
329,192,31769,1,0,0:0:0:0:
36,192,31887,1,0,0:0:0:0:
256,192,32005,1,0,0:0:0:0:
475,192,32122,1,0,0:0:0:0:
109,192,32240,1,0,0:0:0:0:
402,192,32358,1,0,0:0:0:0:
36,192,32475,1,0,0:0:0:0:
329,192,32593,1,0,0:0:0:0:
256,192,32710,1,0,0:0:0:0:
36,192,32828,128,0,32946:0:0:0:0:
329,192,32946,128,0,33063:0:0:0:0:
36,192,33063,128,0,34122:0:0:0:0:
182,192,33063,1,0,0:0:0:0:
329,192,33181,1,0,0:0:0:0:
475,192,33299,1,0,0:0:0:0:
402,192,33416,1,0,0:0:0:0:
256,192,33534,1,0,0:0:0:0:
109,192,33652,1,0,0:0:0:0:
329,192,33769,1,0,0:0:0:0:
475,192,33887,1,0,0:0:0:0:
256,192,34005,1,0,0:0:0:0:
475,192,34122,128,0,34475:0:0:0:0:
402,192,34122,1,0,0:0:0:0:
182,192,34240,1,0,0:0:0:0:
329,192,34358,1,0,0:0:0:0:
256,192,34475,128,0,35181:0:0:0:0:
109,192,34475,1,0,0:0:0:0:
402,192,34593,1,0,0:0:0:0:
182,192,34710,1,0,0:0:0:0:
36,192,34828,1,0,0:0:0:0:
475,192,34946,1,0,0:0:0:0:
329,192,35063,1,0,0:0:0:0:
109,192,35181,128,0,35887:0:0:0:0:
402,192,35181,1,0,0:0:0:0:
36,192,35299,1,0,0:0:0:0:
256,192,35416,1,0,0:0:0:0:
475,192,35534,1,0,0:0:0:0:
182,192,35652,1,0,0:0:0:0:
329,192,35769,1,0,0:0:0:0:
402,192,35887,128,0,36593:0:0:0:0:
36,192,35887,1,0,0:0:0:0:
256,192,36005,1,0,0:0:0:0:
109,192,36122,1,0,0:0:0:0:
329,192,36240,1,0,0:0:0:0:
36,192,36358,1,0,0:0:0:0:
256,192,36475,1,0,0:0:0:0:
182,192,36593,128,0,37299:0:0:0:0:
475,192,36593,1,0,0:0:0:0:
329,192,36710,1,0,0:0:0:0:
109,192,36828,1,0,0:0:0:0:
402,192,36946,1,0,0:0:0:0:
256,192,37063,1,0,0:0:0:0:
36,192,37181,1,0,0:0:0:0:
475,192,37299,128,0,38005:0:0:0:0:
329,192,37299,1,0,0:0:0:0:
109,192,37416,1,0,0:0:0:0:
329,192,37534,1,0,0:0:0:0:
109,192,37652,1,0,0:0:0:0:
256,192,37769,1,0,0:0:0:0:
36,192,37887,1,0,0:0:0:0:
329,192,38005,128,0,38710:0:0:0:0:
182,192,38005,1,0,0:0:0:0:
109,192,38122,1,0,0:0:0:0:
256,192,38240,1,0,0:0:0:0:
402,192,38358,1,0,0:0:0:0:
109,192,38475,1,0,0:0:0:0:
256,192,38593,1,0,0:0:0:0:
182,192,38710,128,0,40122:0:0:0:0:
475,192,38710,1,0,0:0:0:0:
36,192,38828,1,0,0:0:0:0:
402,192,38946,1,0,0:0:0:0:
256,192,39063,1,0,0:0:0:0:
36,192,39181,1,0,0:0:0:0:
329,192,39299,1,0,0:0:0:0:
109,192,39416,1,0,0:0:0:0:
402,192,39534,1,0,0:0:0:0:
256,192,39652,1,0,0:0:0:0:
475,192,39769,1,0,0:0:0:0:
36,192,39887,1,0,0:0:0:0:
256,192,40005,1,0,0:0:0:0:
36,192,40122,128,0,41534:0:0:0:0:
402,192,40122,1,0,0:0:0:0:
329,192,40240,1,0,0:0:0:0:
109,192,40358,1,0,0:0:0:0:
182,192,40475,1,0,0:0:0:0:
402,192,40593,1,0,0:0:0:0:
475,192,40710,1,0,0:0:0:0:
256,192,40828,1,0,0:0:0:0:
182,192,40946,1,0,0:0:0:0:
402,192,41063,1,0,0:0:0:0:
329,192,41181,1,0,0:0:0:0:
109,192,41299,1,0,0:0:0:0:
182,192,41416,1,0,0:0:0:0:
256,192,41534,128,0,44358:0:0:0:0:
475,192,41534,1,0,0:0:0:0:
36,192,41652,1,0,0:0:0:0:
475,192,41769,1,0,0:0:0:0:
182,192,41887,1,0,0:0:0:0:
475,192,42005,1,0,0:0:0:0:
109,192,42122,1,0,0:0:0:0:
475,192,42240,1,0,0:0:0:0:
329,192,42358,1,0,0:0:0:0:
36,192,42475,1,0,0:0:0:0:
402,192,42593,1,0,0:0:0:0:
36,192,42710,1,0,0:0:0:0:
475,192,42828,1,0,0:0:0:0:
36,192,42946,1,0,0:0:0:0:
329,192,43063,1,0,0:0:0:0:
36,192,43181,1,0,0:0:0:0:
182,192,43299,1,0,0:0:0:0:
402,192,43416,1,0,0:0:0:0:
36,192,43534,1,0,0:0:0:0:
402,192,43652,1,0,0:0:0:0:
109,192,43769,1,0,0:0:0:0:
402,192,43887,1,0,0:0:0:0:
36,192,44005,1,0,0:0:0:0:
402,192,44122,1,0,0:0:0:0:
182,192,44240,1,0,0:0:0:0:
109,192,44358,128,4,46475:0:0:0:0:
402,192,44358,128,4,46475:0:0:0:0:
475,192,44358,128,0,46475:0:0:0:0:
36,192,44358,128,0,46475:0:0:0:0:
36,192,47181,5,2,0:0:0:0:
109,192,47181,1,4,0:0:0:0:
475,192,47181,1,0,0:0:0:0:
182,192,47181,1,8,0:0:0:0:
402,192,47269,1,0,0:0:0:0:
329,192,47358,1,0,0:0:0:0:
256,192,47446,1,8,0:0:0:0:
36,192,47446,1,0,0:0:0:0:
475,192,47446,1,0,0:0:0:0:
109,192,47534,1,0,0:0:0:0:
182,192,47622,1,0,0:0:0:0:
256,192,47710,1,8,0:0:0:0:
36,192,47710,1,0,0:0:0:0:
475,192,47710,1,0,0:0:0:0:
402,192,47799,1,0,0:0:0:0:
329,192,47887,1,0,0:0:0:0:
256,192,47975,1,8,0:0:0:0:
36,192,47975,1,0,0:0:0:0:
475,192,47975,1,0,0:0:0:0:
109,192,48063,1,0,0:0:0:0:
182,192,48152,1,0,0:0:0:0:
256,192,48240,128,8,48505:0:0:0:0:
475,192,48240,128,0,48505:0:0:0:0:
36,192,48240,128,2,48505:0:0:0:0:
402,192,48593,1,0,0:0:0:0:
182,192,48593,1,8,0:0:0:0:
36,192,48593,1,2,0:0:0:0:
329,192,48681,1,0,0:0:0:0:
256,192,48769,1,0,0:0:0:0:
109,192,48858,1,8,0:0:0:0:
402,192,48858,1,0,0:0:0:0:
475,192,48858,1,0,0:0:0:0:
182,192,48946,1,0,0:0:0:0:
256,192,49034,1,0,0:0:0:0:
402,192,49122,1,0,0:0:0:0:
109,192,49122,1,8,0:0:0:0:
36,192,49122,1,0,0:0:0:0:
329,192,49210,1,0,0:0:0:0:
256,192,49299,1,0,0:0:0:0:
109,192,49387,1,8,0:0:0:0:
475,192,49387,1,0,0:0:0:0:
402,192,49387,1,0,0:0:0:0:
182,192,49475,1,0,0:0:0:0:
256,192,49563,1,0,0:0:0:0:
109,192,49652,1,8,0:0:0:0:
36,192,49652,1,0,0:0:0:0:
402,192,49652,1,4,0:0:0:0:
475,192,49652,1,0,0:0:0:0:
36,192,49828,1,0,0:0:0:0:
109,192,49828,1,8,0:0:0:0:
475,192,49828,1,0,0:0:0:0:
402,192,49828,1,4,0:0:0:0:
256,192,50005,1,8,0:0:0:0:
36,192,50005,1,2,0:0:0:0:
475,192,50005,1,0,0:0:0:0:
329,192,50093,1,0,0:0:0:0:
402,192,50181,1,0,0:0:0:0:
475,192,50269,1,0,0:0:0:0:
256,192,50269,1,8,0:0:0:0:
36,192,50269,1,0,0:0:0:0:
182,192,50358,1,0,0:0:0:0:
109,192,50446,1,0,0:0:0:0:
36,192,50534,1,0,0:0:0:0:
256,192,50534,1,8,0:0:0:0:
475,192,50534,1,0,0:0:0:0:
329,192,50622,1,0,0:0:0:0:
402,192,50710,1,0,0:0:0:0:
475,192,50799,1,0,0:0:0:0:
36,192,50799,1,0,0:0:0:0:
256,192,50799,1,8,0:0:0:0:
182,192,50887,1,0,0:0:0:0:
109,192,50975,1,0,0:0:0:0:
36,192,51063,1,0,0:0:0:0:
402,192,51063,1,8,0:0:0:0:
329,192,51063,1,0,0:0:0:0:
475,192,51063,1,0,0:0:0:0:
329,192,51152,1,0,0:0:0:0:
402,192,51152,1,0,0:0:0:0:
475,192,51152,1,0,0:0:0:0:
402,192,51240,1,0,0:0:0:0:
329,192,51240,1,8,0:0:0:0:
475,192,51240,1,0,0:0:0:0:
182,192,51416,128,2,51593:0:0:0:0:
36,192,51505,128,2,51681:0:0:0:0:
256,192,51593,128,2,51769:0:0:0:0:
109,192,51681,128,2,51858:0:0:0:0:
329,192,51769,128,2,51946:0:0:0:0:
182,192,51858,128,2,52034:0:0:0:0:
402,192,51946,128,2,52122:0:0:0:0:
256,192,52034,128,2,52210:0:0:0:0:
475,192,52122,128,2,52299:0:0:0:0:
329,192,52210,128,2,52387:0:0:0:0:
36,192,52299,128,0,52475:0:0:0:0:
182,192,52387,128,2,52563:0:0:0:0:
402,192,52475,128,0,52652:0:0:0:0:
475,192,52475,1,0,0:0:0:0:
256,192,52563,128,0,52740:0:0:0:0:
109,192,52652,128,0,52828:0:0:0:0:
36,192,52652,1,0,0:0:0:0:
329,192,52740,128,0,52828:0:0:0:0:
475,192,52828,5,2,0:0:0:0:
182,192,52828,1,8,0:0:0:0:
402,192,52828,1,0,0:0:0:0:
36,192,52828,1,0,0:0:0:0:
109,192,52916,1,0,0:0:0:0:
182,192,53005,1,0,0:0:0:0:
256,192,53093,1,8,0:0:0:0:
475,192,53093,1,0,0:0:0:0:
36,192,53093,1,0,0:0:0:0:
402,192,53181,1,0,0:0:0:0:
329,192,53269,1,0,0:0:0:0:
475,192,53358,1,0,0:0:0:0:
36,192,53358,1,0,0:0:0:0:
256,192,53358,1,8,0:0:0:0:
109,192,53446,1,0,0:0:0:0:
182,192,53534,1,0,0:0:0:0:
36,192,53622,1,0,0:0:0:0:
256,192,53622,1,8,0:0:0:0:
475,192,53622,1,0,0:0:0:0:
402,192,53710,1,0,0:0:0:0:
329,192,53799,1,0,0:0:0:0:
36,192,53887,128,4,54152:0:0:0:0:
475,192,53887,128,0,54152:0:0:0:0:
256,192,53887,128,8,54152:0:0:0:0:
329,192,54240,1,8,0:0:0:0:
109,192,54240,1,2,0:0:0:0:
475,192,54240,1,0,0:0:0:0:
182,192,54328,1,0,0:0:0:0:
256,192,54416,1,0,0:0:0:0:
402,192,54505,1,0,0:0:0:0:
36,192,54505,1,0,0:0:0:0:
109,192,54505,1,8,0:0:0:0:
329,192,54593,1,0,0:0:0:0:
256,192,54681,1,0,0:0:0:0:
109,192,54769,1,8,0:0:0:0:
402,192,54769,1,0,0:0:0:0:
475,192,54769,1,0,0:0:0:0:
182,192,54858,1,0,0:0:0:0:
256,192,54946,1,0,0:0:0:0:
109,192,55034,1,8,0:0:0:0:
402,192,55034,1,0,0:0:0:0:
36,192,55034,1,0,0:0:0:0:
329,192,55122,1,0,0:0:0:0:
256,192,55210,1,0,0:0:0:0:
36,192,55299,1,0,0:0:0:0:
475,192,55299,1,0,0:0:0:0:
402,192,55299,1,4,0:0:0:0:
109,192,55299,1,8,0:0:0:0:
475,192,55475,1,0,0:0:0:0:
36,192,55475,1,0,0:0:0:0:
402,192,55475,1,4,0:0:0:0:
109,192,55475,1,8,0:0:0:0:
475,192,55652,1,0,0:0:0:0:
256,192,55652,1,8,0:0:0:0:
36,192,55652,1,2,0:0:0:0:
329,192,55740,1,0,0:0:0:0:
402,192,55828,1,0,0:0:0:0:
475,192,55916,1,0,0:0:0:0:
256,192,55916,1,8,0:0:0:0:
36,192,55916,1,0,0:0:0:0:
182,192,56005,1,0,0:0:0:0:
109,192,56093,1,0,0:0:0:0:
475,192,56181,1,0,0:0:0:0:
256,192,56181,1,8,0:0:0:0:
36,192,56181,1,0,0:0:0:0:
329,192,56269,1,0,0:0:0:0:
402,192,56358,1,0,0:0:0:0:
475,192,56446,1,0,0:0:0:0:
256,192,56446,1,8,0:0:0:0:
36,192,56446,1,0,0:0:0:0:
182,192,56534,1,0,0:0:0:0:
109,192,56622,1,0,0:0:0:0:
36,192,56710,128,4,56975:0:0:0:0:
256,192,56710,128,8,56975:0:0:0:0:
475,192,56710,128,0,56975:0:0:0:0:
182,192,57063,1,0,0:0:0:0:
329,192,57063,1,0,0:0:0:0:
109,192,57240,128,0,57416:0:0:0:0:
402,192,57240,128,0,57416:0:0:0:0:
256,192,57416,1,8,0:0:0:0:
36,192,57416,1,0,0:0:0:0:
475,192,57416,1,0,0:0:0:0:
109,192,57505,1,0,0:0:0:0:
402,192,57505,1,0,0:0:0:0:
182,192,57593,128,0,57769:0:0:0:0:
329,192,57593,128,0,57769:0:0:0:0:
36,192,57769,1,0,0:0:0:0:
109,192,57769,1,0,0:0:0:0:
402,192,57769,1,0,0:0:0:0:
475,192,57769,1,0,0:0:0:0:
182,192,57858,1,0,0:0:0:0:
329,192,57858,1,0,0:0:0:0:
402,192,57946,1,0,0:0:0:0:
475,192,57946,1,0,0:0:0:0:
109,192,57946,1,0,0:0:0:0:
36,192,57946,1,0,0:0:0:0:
182,192,58034,1,0,0:0:0:0:
329,192,58034,1,0,0:0:0:0:
402,192,58122,1,0,0:0:0:0:
475,192,58122,1,0,0:0:0:0:
109,192,58122,1,0,0:0:0:0:
36,192,58122,1,0,0:0:0:0:
329,192,58210,1,0,0:0:0:0:
182,192,58210,1,0,0:0:0:0:
402,192,58299,1,0,0:0:0:0:
475,192,58299,1,0,0:0:0:0:
36,192,58299,1,0,0:0:0:0:
109,192,58299,1,0,0:0:0:0:
329,192,58387,1,0,0:0:0:0:
182,192,58387,1,0,0:0:0:0:
256,192,58475,1,8,0:0:0:0:
402,192,58475,1,0,0:0:0:0:
475,192,58475,1,0,0:0:0:0:
109,192,58475,1,0,0:0:0:0:
36,192,58475,1,4,0:0:0:0:
402,192,58652,128,8,58828:0:0:0:0:
36,192,58828,1,4,0:0:0:0:
475,192,58828,1,0,0:0:0:0:
256,192,58828,1,8,0:0:0:0:
182,192,58828,1,0,0:0:0:0:
329,192,58828,1,0,0:0:0:0:
109,192,59005,128,8,59181:0:0:0:0:
36,192,59181,1,0,0:0:0:0:
256,192,59181,1,8,0:0:0:0:
475,192,59181,1,0,0:0:0:0:
182,192,59357,1,8,0:0:0:0:
329,192,59357,1,0,0:0:0:0:
402,192,59446,1,0,0:0:0:0:
109,192,59446,1,8,0:0:0:0:
182,192,59622,1,8,0:0:0:0:
329,192,59622,1,0,0:0:0:0:
36,192,59710,128,8,59887:0:0:0:0:
475,192,59710,128,0,59887:0:0:0:0:
402,192,59887,1,0,0:0:0:0:
109,192,59887,1,0,0:0:0:0:
256,192,59887,1,8,0:0:0:0:
475,192,60063,1,0,0:0:0:0:
329,192,60063,1,8,0:0:0:0:
256,192,60240,1,8,0:0:0:0:
109,192,60240,1,0,0:0:0:0:
402,192,60240,1,0,0:0:0:0:
36,192,60416,1,0,0:0:0:0:
182,192,60416,1,8,0:0:0:0:
109,192,60593,1,0,0:0:0:0:
329,192,60593,128,0,60681:0:0:0:0:
475,192,60593,128,2,60681:0:0:0:0:
402,192,60769,128,2,60857:0:0:0:0:
256,192,60769,128,0,60857:0:0:0:0:
36,192,60946,1,0,0:0:0:0:
182,192,60946,128,0,61034:0:0:0:0:
329,192,60946,128,2,61034:0:0:0:0:
256,192,61122,128,2,61210:0:0:0:0:
109,192,61122,128,0,61210:0:0:0:0:
36,192,61299,1,4,0:0:0:0:
182,192,61299,1,0,0:0:0:0:
475,192,61299,1,8,0:0:0:0:
329,192,61299,1,0,0:0:0:0:
402,192,61299,1,0,0:0:0:0:
475,192,61475,128,8,61652:0:0:0:0:
182,192,61652,1,4,0:0:0:0:
109,192,61652,1,8,0:0:0:0:
402,192,61652,1,0,0:0:0:0:
256,192,61652,1,0,0:0:0:0:
329,192,61652,1,0,0:0:0:0:
36,192,61828,128,8,62005:0:0:0:0:
109,192,62005,1,0,0:0:0:0:
256,192,62005,1,8,0:0:0:0:
402,192,62005,1,0,0:0:0:0:
182,192,62181,1,8,0:0:0:0:
329,192,62181,1,0,0:0:0:0:
402,192,62269,1,0,0:0:0:0:
109,192,62269,1,8,0:0:0:0:
36,192,62446,1,8,0:0:0:0:
475,192,62446,1,0,0:0:0:0:
109,192,62534,128,8,62710:0:0:0:0:
402,192,62534,128,0,62710:0:0:0:0:
256,192,62710,1,8,0:0:0:0:
329,192,62710,1,0,0:0:0:0:
182,192,62710,1,0,0:0:0:0:
36,192,62887,1,8,0:0:0:0:
402,192,62887,1,0,0:0:0:0:
182,192,63063,1,0,0:0:0:0:
329,192,63063,1,0,0:0:0:0:
256,192,63063,1,8,0:0:0:0:
475,192,63240,1,0,0:0:0:0:
109,192,63240,1,8,0:0:0:0:
329,192,63416,128,0,63593:0:0:0:0:
402,192,63416,128,2,63593:0:0:0:0:
256,192,63416,1,8,0:0:0:0:
182,192,63505,128,2,63857:0:0:0:0:
109,192,63505,128,0,63857:0:0:0:0:
329,192,63681,128,0,63857:0:0:0:0:
402,192,63681,128,0,63857:0:0:0:0:
36,192,63857,128,0,64122:0:0:0:0:
475,192,63857,128,0,64122:0:0:0:0:
256,192,63946,128,0,64122:0:0:0:0:
109,192,64122,1,0,0:0:0:0:
182,192,64122,1,8,0:0:0:0:
329,192,64122,1,4,0:0:0:0:
402,192,64122,1,0,0:0:0:0:
329,192,64299,128,8,64475:0:0:0:0:
256,192,64475,1,4,0:0:0:0:
109,192,64475,1,8,0:0:0:0:
475,192,64475,1,0,0:0:0:0:
36,192,64475,1,0,0:0:0:0:
182,192,64652,128,8,64828:0:0:0:0:
36,192,64828,1,0,0:0:0:0:
475,192,64828,1,8,0:0:0:0:
256,192,64828,1,0,0:0:0:0:
182,192,65005,1,8,0:0:0:0:
329,192,65005,1,0,0:0:0:0:
109,192,65093,1,8,0:0:0:0:
402,192,65093,1,0,0:0:0:0:
182,192,65269,1,8,0:0:0:0:
329,192,65269,1,0,0:0:0:0:
36,192,65357,128,8,65534:0:0:0:0:
475,192,65357,128,0,65534:0:0:0:0:
109,192,65534,1,0,0:0:0:0:
256,192,65534,1,8,0:0:0:0:
402,192,65534,1,0,0:0:0:0:
182,192,65710,1,0,0:0:0:0:
182,192,65799,1,0,0:0:0:0:
256,192,65887,1,8,0:0:0:0:
36,192,65887,1,0,0:0:0:0:
475,192,65887,1,0,0:0:0:0:
329,192,66063,1,0,0:0:0:0:
329,192,66152,1,0,0:0:0:0:
36,192,66240,128,0,66593:0:0:0:0:
475,192,66240,1,0,0:0:0:0:
256,192,66240,1,0,0:0:0:0:
329,192,66416,128,2,66593:0:0:0:0:
182,192,66505,128,2,66593:0:0:0:0:
109,192,66593,1,8,0:0:0:0:
475,192,66593,1,0,0:0:0:0:
256,192,66593,1,0,0:0:0:0:
402,192,66681,128,2,66946:0:0:0:0:
256,192,66769,128,2,66946:0:0:0:0:
329,192,66946,1,0,0:0:0:0:
475,192,66946,128,0,67299:0:0:0:0:
36,192,66946,128,8,67299:0:0:0:0:
329,192,67122,128,0,67299:0:0:0:0:
182,192,67122,128,8,67299:0:0:0:0:
256,192,67299,1,8,0:0:0:0:
109,192,67299,128,0,67475:0:0:0:0:
402,192,67299,128,0,67475:0:0:0:0:
256,192,67475,1,8,0:0:0:0:
402,192,67563,1,0,0:0:0:0:
182,192,67652,1,0,0:0:0:0:
36,192,67652,1,0,0:0:0:0:
329,192,67652,1,8,0:0:0:0:
109,192,67740,1,8,0:0:0:0:
256,192,67828,128,8,68005:0:0:0:0:
36,192,68005,1,0,0:0:0:0:
329,192,68005,1,2,0:0:0:0:
475,192,68005,1,8,0:0:0:0:
256,192,68181,1,2,0:0:0:0:
402,192,68181,1,0,0:0:0:0:
36,192,68357,1,8,0:0:0:0:
182,192,68357,1,0,0:0:0:0:
475,192,68357,1,0,0:0:0:0:
109,192,68357,1,0,0:0:0:0:
402,192,68357,1,0,0:0:0:0:
402,192,68534,1,0,0:0:0:0:
36,192,68534,1,0,0:0:0:0:
475,192,68534,1,0,0:0:0:0:
109,192,68534,1,0,0:0:0:0:
329,192,68534,1,0,0:0:0:0:
36,192,68710,1,8,0:0:0:0:
475,192,68710,1,0,0:0:0:0:
329,192,68710,1,0,0:0:0:0:
402,192,68710,1,0,0:0:0:0:
256,192,68710,1,0,0:0:0:0:
256,192,68887,1,8,0:0:0:0:
329,192,68887,1,0,0:0:0:0:
475,192,68887,1,0,0:0:0:0:
402,192,68887,1,0,0:0:0:0:
182,192,68887,1,0,0:0:0:0:
36,192,69063,1,8,0:0:0:0:
109,192,69063,1,0,0:0:0:0:
182,192,69063,1,0,0:0:0:0:
256,192,69063,1,0,0:0:0:0:
329,192,69063,1,0,0:0:0:0:
109,192,69240,1,0,0:0:0:0:
36,192,69240,1,0,0:0:0:0:
475,192,69240,1,0,0:0:0:0:
182,192,69240,1,0,0:0:0:0:
402,192,69240,1,0,0:0:0:0:
475,192,69416,1,0,0:0:0:0:
36,192,69416,1,0,0:0:0:0:
109,192,69416,1,0,0:0:0:0:
402,192,69416,1,0,0:0:0:0:
329,192,69416,1,0,0:0:0:0:
475,192,69593,1,0,0:0:0:0:
329,192,69593,1,0,0:0:0:0:
402,192,69593,1,0,0:0:0:0:
36,192,69593,1,0,0:0:0:0:
256,192,69593,1,0,0:0:0:0:
36,192,69769,128,0,70122:0:0:0:0:
109,192,69769,1,0,0:0:0:0:
182,192,69769,1,0,0:0:0:0:
182,192,69946,1,0,0:0:0:0:
109,192,69946,1,0,0:0:0:0:
475,192,70122,128,0,70475:0:0:0:0:
329,192,70122,1,0,0:0:0:0:
402,192,70122,1,0,0:0:0:0:
329,192,70299,1,0,0:0:0:0:
402,192,70299,1,0,0:0:0:0:
182,192,70475,128,0,70828:0:0:0:0:
109,192,70475,1,0,0:0:0:0:
36,192,70475,1,0,0:0:0:0:
36,192,70652,1,0,0:0:0:0:
109,192,70652,1,0,0:0:0:0:
329,192,70828,128,0,71181:0:0:0:0:
402,192,70828,1,0,0:0:0:0:
475,192,70828,1,0,0:0:0:0:
402,192,71005,1,0,0:0:0:0:
475,192,71005,1,0,0:0:0:0:
36,192,71181,1,0,0:0:0:0:
475,192,71181,1,0,0:0:0:0:
182,192,71269,1,0,0:0:0:0:
329,192,71269,1,0,0:0:0:0:
36,192,71357,1,0,0:0:0:0:
475,192,71357,1,0,0:0:0:0:
182,192,71446,1,0,0:0:0:0:
329,192,71446,1,0,0:0:0:0:
36,192,71534,1,0,0:0:0:0:
475,192,71534,1,0,0:0:0:0:
182,192,71622,1,0,0:0:0:0:
329,192,71622,1,0,0:0:0:0:
36,192,71710,1,0,0:0:0:0:
475,192,71710,1,0,0:0:0:0:
182,192,71799,1,0,0:0:0:0:
329,192,71799,1,0,0:0:0:0:
36,192,71887,1,0,0:0:0:0:
475,192,71887,1,0,0:0:0:0:
109,192,71975,1,0,0:0:0:0:
402,192,71975,1,0,0:0:0:0:
182,192,72063,1,0,0:0:0:0:
329,192,72063,1,0,0:0:0:0:
109,192,72152,1,0,0:0:0:0:
402,192,72152,1,0,0:0:0:0:
182,192,72240,1,0,0:0:0:0:
329,192,72240,1,0,0:0:0:0:
109,192,72328,1,0,0:0:0:0:
402,192,72328,1,0,0:0:0:0:
182,192,72416,1,0,0:0:0:0:
329,192,72416,1,0,0:0:0:0:
109,192,72505,1,0,0:0:0:0:
402,192,72505,1,0,0:0:0:0:
36,192,72593,128,0,73916:0:0:0:0:
256,192,72593,128,2,73916:0:0:0:0:
475,192,72593,128,0,73916:0:0:0:0:
109,192,73299,128,0,73916:0:0:0:0:
402,192,73652,128,0,73916:0:0:0:0:
256,192,74005,1,8,0:0:0:0:
109,192,74005,1,4,0:0:0:0:
402,192,74005,1,0,0:0:0:0:
475,192,74005,1,0,0:0:0:0:
36,192,74005,128,2,75416:0:0:0:0:
182,192,74093,1,0,0:0:0:0:
329,192,74181,1,0,0:0:0:0:
256,192,74269,1,8,0:0:0:0:
182,192,74357,1,8,0:0:0:0:
109,192,74357,1,0,0:0:0:0:
475,192,74357,1,0,0:0:0:0:
402,192,74446,1,0,0:0:0:0:
256,192,74534,1,0,0:0:0:0:
329,192,74622,1,0,0:0:0:0:
402,192,74710,1,0,0:0:0:0:
475,192,74710,1,0,0:0:0:0:
109,192,74710,1,8,0:0:0:0:
182,192,74799,1,0,0:0:0:0:
256,192,74887,1,0,0:0:0:0:
329,192,74975,1,0,0:0:0:0:
109,192,75063,1,8,0:0:0:0:
402,192,75063,1,0,0:0:0:0:
475,192,75063,1,0,0:0:0:0:
329,192,75152,1,0,0:0:0:0:
256,192,75240,1,0,0:0:0:0:
182,192,75328,1,0,0:0:0:0:
109,192,75416,1,8,0:0:0:0:
402,192,75416,1,0,0:0:0:0:
475,192,75416,128,0,76828:0:0:0:0:
256,192,75505,1,0,0:0:0:0:
329,192,75593,1,0,0:0:0:0:
256,192,75681,1,0,0:0:0:0:
36,192,75769,1,8,0:0:0:0:
402,192,75769,1,0,0:0:0:0:
182,192,75769,1,0,0:0:0:0:
329,192,75857,1,0,0:0:0:0:
109,192,75946,1,0,0:0:0:0:
182,192,76034,1,0,0:0:0:0:
36,192,76122,1,8,0:0:0:0:
256,192,76122,1,0,0:0:0:0:
402,192,76122,1,0,0:0:0:0:
329,192,76210,1,0,0:0:0:0:
109,192,76299,1,0,0:0:0:0:
182,192,76387,1,0,0:0:0:0:
256,192,76475,1,0,0:0:0:0:
402,192,76475,1,0,0:0:0:0:
36,192,76475,1,8,0:0:0:0:
329,192,76563,1,0,0:0:0:0:
256,192,76652,1,0,0:0:0:0:
182,192,76740,1,0,0:0:0:0:
36,192,76828,1,8,0:0:0:0:
109,192,76828,1,0,0:0:0:0:
402,192,76828,1,0,0:0:0:0:
329,192,76916,1,0,0:0:0:0:
402,192,77005,1,0,0:0:0:0:
475,192,77093,1,0,0:0:0:0:
256,192,77181,1,8,0:0:0:0:
402,192,77181,128,4,77534:0:0:0:0:
109,192,77181,1,0,0:0:0:0:
36,192,77181,1,0,0:0:0:0:
329,192,77269,1,0,0:0:0:0:
256,192,77357,1,0,0:0:0:0:
182,192,77446,1,0,0:0:0:0:
256,192,77534,1,8,0:0:0:0:
109,192,77534,1,0,0:0:0:0:
475,192,77534,1,0,0:0:0:0:
182,192,77622,1,0,0:0:0:0:
109,192,77710,1,0,0:0:0:0:
36,192,77799,1,0,0:0:0:0:
109,192,77887,128,4,78240:0:0:0:0:
475,192,77887,1,0,0:0:0:0:
256,192,77887,1,8,0:0:0:0:
402,192,77887,1,0,0:0:0:0:
182,192,77975,1,0,0:0:0:0:
256,192,78063,1,0,0:0:0:0:
329,192,78152,1,0,0:0:0:0:
36,192,78240,128,0,79652:0:0:0:0:
256,192,78240,1,8,0:0:0:0:
475,192,78240,1,0,0:0:0:0:
402,192,78328,1,0,0:0:0:0:
109,192,78416,1,0,0:0:0:0:
182,192,78505,1,0,0:0:0:0:
475,192,78593,1,8,0:0:0:0:
329,192,78593,1,0,0:0:0:0:
402,192,78593,1,0,0:0:0:0:
256,192,78681,1,0,0:0:0:0:
182,192,78769,1,0,0:0:0:0:
329,192,78857,1,0,0:0:0:0:
256,192,78946,1,0,0:0:0:0:
109,192,78946,1,0,0:0:0:0:
475,192,78946,1,8,0:0:0:0:
182,192,79034,1,0,0:0:0:0:
329,192,79122,1,0,0:0:0:0:
109,192,79210,1,0,0:0:0:0:
256,192,79299,1,0,0:0:0:0:
402,192,79299,1,0,0:0:0:0:
475,192,79299,1,8,0:0:0:0:
329,192,79387,1,0,0:0:0:0:
475,192,79475,1,0,0:0:0:0:
256,192,79563,1,0,0:0:0:0:
109,192,79652,128,0,81063:0:0:0:0:
402,192,79652,1,8,0:0:0:0:
182,192,79652,1,0,0:0:0:0:
329,192,79740,1,0,0:0:0:0:
256,192,79828,1,0,0:0:0:0:
402,192,79916,1,0,0:0:0:0:
475,192,80005,1,8,0:0:0:0:
36,192,80005,1,0,0:0:0:0:
182,192,80005,1,0,0:0:0:0:
329,192,80093,1,0,0:0:0:0:
256,192,80181,1,0,0:0:0:0:
329,192,80269,1,0,0:0:0:0:
402,192,80357,1,8,0:0:0:0:
36,192,80357,1,0,0:0:0:0:
182,192,80357,1,0,0:0:0:0:
329,192,80446,1,0,0:0:0:0:
475,192,80534,1,0,0:0:0:0:
256,192,80622,1,0,0:0:0:0:
475,192,80710,1,8,0:0:0:0:
36,192,80710,1,0,0:0:0:0:
402,192,80710,1,0,0:0:0:0:
329,192,80799,1,0,0:0:0:0:
182,192,80887,1,0,0:0:0:0:
329,192,80975,1,0,0:0:0:0:
182,192,81063,128,0,82475:0:0:0:0:
36,192,81063,1,0,0:0:0:0:
402,192,81063,1,8,0:0:0:0:
256,192,81152,1,0,0:0:0:0:
329,192,81240,1,0,0:0:0:0:
402,192,81328,1,0,0:0:0:0:
109,192,81416,1,0,0:0:0:0:
36,192,81416,1,0,0:0:0:0:
475,192,81416,1,8,0:0:0:0:
329,192,81505,1,0,0:0:0:0:
256,192,81593,1,0,0:0:0:0:
402,192,81681,1,0,0:0:0:0:
36,192,81769,1,0,0:0:0:0:
256,192,81769,1,0,0:0:0:0:
475,192,81769,1,8,0:0:0:0:
402,192,81857,1,0,0:0:0:0:
329,192,81946,1,0,0:0:0:0:
256,192,82034,1,0,0:0:0:0:
329,192,82122,1,0,0:0:0:0:
36,192,82122,1,0,0:0:0:0:
475,192,82122,1,8,0:0:0:0:
402,192,82210,1,0,0:0:0:0:
36,192,82299,1,0,0:0:0:0:
109,192,82387,1,0,0:0:0:0:
256,192,82475,1,0,0:0:0:0:
329,192,82475,1,0,0:0:0:0:
475,192,82475,128,8,83181:0:0:0:0:
109,192,82563,1,0,0:0:0:0:
182,192,82652,1,0,0:0:0:0:
256,192,82740,1,0,0:0:0:0:
402,192,82828,1,8,0:0:0:0:
36,192,82828,1,0,0:0:0:0:
109,192,82828,1,0,0:0:0:0:
329,192,82916,1,0,0:0:0:0:
256,192,83005,1,0,0:0:0:0:
182,192,83093,1,0,0:0:0:0:
36,192,83181,128,0,83887:0:0:0:0:
109,192,83181,1,0,0:0:0:0:
402,192,83181,1,8,0:0:0:0:
329,192,83269,1,0,0:0:0:0:
475,192,83357,1,0,0:0:0:0:
256,192,83446,1,0,0:0:0:0:
402,192,83534,1,0,0:0:0:0:
109,192,83534,1,8,0:0:0:0:
182,192,83534,1,0,0:0:0:0:
329,192,83622,1,0,0:0:0:0:
182,192,83710,1,0,0:0:0:0:
329,192,83799,1,0,0:0:0:0:
256,192,83887,128,0,85299:0:0:0:0:
109,192,83887,1,8,0:0:0:0:
475,192,83887,1,0,0:0:0:0:
402,192,83975,1,0,0:0:0:0:
182,192,84063,1,0,0:0:0:0:
329,192,84152,1,0,0:0:0:0:
36,192,84240,1,0,0:0:0:0:
109,192,84240,1,8,0:0:0:0:
475,192,84240,1,0,0:0:0:0:
402,192,84328,1,0,0:0:0:0:
182,192,84416,1,0,0:0:0:0:
329,192,84505,1,0,0:0:0:0:
402,192,84593,1,0,0:0:0:0:
475,192,84593,1,0,0:0:0:0:
36,192,84593,1,8,0:0:0:0:
109,192,84681,1,0,0:0:0:0:
329,192,84769,1,0,0:0:0:0:
182,192,84857,1,0,0:0:0:0:
36,192,84946,1,8,0:0:0:0:
109,192,84946,1,0,0:0:0:0:
475,192,84946,1,0,0:0:0:0:
402,192,85034,1,0,0:0:0:0:
329,192,85122,1,0,0:0:0:0:
182,192,85210,1,0,0:0:0:0:
36,192,85299,1,8,0:0:0:0:
475,192,85299,1,0,0:0:0:0:
109,192,85299,1,0,0:0:0:0:
329,192,85387,1,0,0:0:0:0:
36,192,85475,1,8,0:0:0:0:
182,192,85475,1,0,0:0:0:0:
402,192,85563,1,0,0:0:0:0:
475,192,85652,1,0,0:0:0:0:
256,192,85652,1,8,0:0:0:0:
36,192,85652,1,0,0:0:0:0:
109,192,85740,1,0,0:0:0:0:
329,192,85828,1,0,0:0:0:0:
475,192,85828,1,8,0:0:0:0:
182,192,85916,1,0,0:0:0:0:
475,192,86005,1,0,0:0:0:0:
109,192,86005,1,0,0:0:0:0:
36,192,86005,1,8,0:0:0:0:
329,192,86093,1,0,0:0:0:0:
182,192,86181,1,0,0:0:0:0:
36,192,86181,1,8,0:0:0:0:
402,192,86269,1,0,0:0:0:0:
36,192,86357,1,0,0:0:0:0:
475,192,86357,1,0,0:0:0:0:
256,192,86357,1,8,0:0:0:0:
109,192,86446,1,0,0:0:0:0:
475,192,86534,1,8,0:0:0:0:
329,192,86534,1,0,0:0:0:0:
182,192,86622,1,0,0:0:0:0:
109,192,86710,1,8,0:0:0:0:
36,192,86710,1,0,0:0:0:0:
475,192,86710,1,0,0:0:0:0:
402,192,86799,1,0,0:0:0:0:
182,192,86887,1,0,0:0:0:0:
329,192,86887,1,8,0:0:0:0:
109,192,86975,1,0,0:0:0:0:
256,192,87063,1,8,0:0:0:0:
475,192,87063,1,0,0:0:0:0:
36,192,87063,1,0,0:0:0:0:
329,192,87063,1,4,0:0:0:0:
182,192,87152,1,0,0:0:0:0:
109,192,87240,1,8,0:0:0:0:
402,192,87240,1,0,0:0:0:0:
329,192,87328,1,0,0:0:0:0:
36,192,87416,1,8,0:0:0:0:
256,192,87416,1,0,0:0:0:0:
475,192,87416,1,0,0:0:0:0:
109,192,87505,1,0,0:0:0:0:
329,192,87593,1,8,0:0:0:0:
182,192,87593,1,0,0:0:0:0:
402,192,87681,1,0,0:0:0:0:
475,192,87769,1,0,0:0:0:0:
256,192,87769,1,8,0:0:0:0:
36,192,87769,1,0,0:0:0:0:
182,192,87769,1,4,0:0:0:0:
329,192,87857,1,0,0:0:0:0:
402,192,87946,1,8,0:0:0:0:
109,192,87946,1,0,0:0:0:0:
182,192,88034,1,0,0:0:0:0:
36,192,88122,1,0,0:0:0:0:
109,192,88122,1,2,0:0:0:0:
475,192,88122,1,4,0:0:0:0:
256,192,88122,1,8,0:0:0:0:
402,192,88210,1,0,0:0:0:0:
329,192,88299,1,0,0:0:0:0:
36,192,88387,1,0,0:0:0:0:
109,192,88475,1,0,0:0:0:0:
256,192,88475,1,8,0:0:0:0:
402,192,88475,1,0,0:0:0:0:
182,192,88563,1,0,0:0:0:0:
475,192,88652,1,0,0:0:0:0:
402,192,88740,1,0,0:0:0:0:
329,192,88828,1,0,0:0:0:0:
182,192,88828,1,0,0:0:0:0:
256,192,88828,1,8,0:0:0:0:
36,192,88916,1,0,0:0:0:0:
109,192,89005,1,0,0:0:0:0:
182,192,89093,1,0,0:0:0:0:
256,192,89181,128,8,89446:0:0:0:0:
475,192,89181,128,0,89446:0:0:0:0:
36,192,89181,128,4,89446:0:0:0:0:
329,192,89534,1,0,0:0:0:0:
182,192,89534,1,8,0:0:0:0:
36,192,89534,1,0,0:0:0:0:
402,192,89622,1,0,0:0:0:0:
475,192,89710,1,0,0:0:0:0:
182,192,89799,1,0,0:0:0:0:
109,192,89887,1,0,0:0:0:0:
256,192,89887,1,8,0:0:0:0:
402,192,89887,1,0,0:0:0:0:
36,192,89975,1,0,0:0:0:0:
329,192,90063,1,0,0:0:0:0:
402,192,90152,1,0,0:0:0:0:
475,192,90240,1,0,0:0:0:0:
256,192,90240,1,8,0:0:0:0:
36,192,90240,1,0,0:0:0:0:
182,192,90328,1,0,0:0:0:0:
109,192,90416,1,0,0:0:0:0:
36,192,90505,1,0,0:0:0:0:
109,192,90593,1,4,0:0:0:0:
182,192,90593,1,8,0:0:0:0:
329,192,90593,1,0,0:0:0:0:
402,192,90593,1,0,0:0:0:0:
109,192,90769,1,4,0:0:0:0:
182,192,90769,1,8,0:0:0:0:
329,192,90769,1,0,0:0:0:0:
402,192,90769,1,0,0:0:0:0:
36,192,90946,1,0,0:0:0:0:
256,192,90946,1,8,0:0:0:0:
475,192,90946,1,0,0:0:0:0:
109,192,91034,1,0,0:0:0:0:
182,192,91122,1,0,0:0:0:0:
475,192,91210,1,0,0:0:0:0:
402,192,91299,1,0,0:0:0:0:
256,192,91299,1,8,0:0:0:0:
109,192,91299,1,0,0:0:0:0:
329,192,91387,1,0,0:0:0:0:
36,192,91475,1,0,0:0:0:0:
109,192,91563,1,0,0:0:0:0:
182,192,91652,1,0,0:0:0:0:
256,192,91652,1,8,0:0:0:0:
329,192,91652,1,0,0:0:0:0:
475,192,91740,1,0,0:0:0:0:
402,192,91828,1,0,0:0:0:0:
329,192,91916,1,0,0:0:0:0:
256,192,92005,1,0,0:0:0:0:
182,192,92005,1,0,0:0:0:0:
109,192,92005,1,8,0:0:0:0:
36,192,92005,1,0,0:0:0:0:
36,192,92093,1,0,0:0:0:0:
182,192,92093,1,0,0:0:0:0:
109,192,92093,1,0,0:0:0:0:
109,192,92181,1,0,0:0:0:0:
182,192,92181,1,8,0:0:0:0:
36,192,92181,1,0,0:0:0:0:
329,192,92357,128,2,92534:0:0:0:0:
475,192,92446,128,2,92622:0:0:0:0:
256,192,92534,128,2,92710:0:0:0:0:
402,192,92622,128,2,92799:0:0:0:0:
182,192,92710,128,2,92887:0:0:0:0:
329,192,92799,128,2,92975:0:0:0:0:
109,192,92887,128,2,93063:0:0:0:0:
402,192,93063,1,0,0:0:0:0:
475,192,93063,128,0,93240:0:0:0:0:
109,192,93152,1,8,0:0:0:0:
36,192,93152,128,0,93328:0:0:0:0:
402,192,93240,1,8,0:0:0:0:
329,192,93240,128,0,93416:0:0:0:0:
109,192,93328,1,0,0:0:0:0:
182,192,93328,128,0,93505:0:0:0:0:
475,192,93416,1,0,0:0:0:0:
402,192,93416,1,8,0:0:0:0:
109,192,93505,1,8,0:0:0:0:
36,192,93505,128,0,93681:0:0:0:0:
402,192,93593,1,8,0:0:0:0:
329,192,93593,128,0,93769:0:0:0:0:
109,192,93681,1,8,0:0:0:0:
182,192,93681,128,0,93769:0:0:0:0:
256,192,93769,1,0,0:0:0:0:
475,192,93769,1,8,0:0:0:0:
36,192,93769,1,0,0:0:0:0:
402,192,93857,1,0,0:0:0:0:
329,192,93946,1,0,0:0:0:0:
36,192,94034,1,0,0:0:0:0:
402,192,94122,1,0,0:0:0:0:
256,192,94122,1,8,0:0:0:0:
109,192,94122,1,0,0:0:0:0:
182,192,94210,1,0,0:0:0:0:
475,192,94299,1,0,0:0:0:0:
402,192,94387,1,0,0:0:0:0:
182,192,94475,1,0,0:0:0:0:
256,192,94475,1,8,0:0:0:0:
329,192,94475,1,0,0:0:0:0:
36,192,94563,1,0,0:0:0:0:
109,192,94652,1,0,0:0:0:0:
182,192,94740,1,0,0:0:0:0:
256,192,94828,128,8,95093:0:0:0:0:
475,192,94828,128,0,95093:0:0:0:0:
36,192,94828,128,4,95093:0:0:0:0:
182,192,95181,1,0,0:0:0:0:
329,192,95181,1,8,0:0:0:0:
475,192,95181,1,0,0:0:0:0:
109,192,95269,1,0,0:0:0:0:
36,192,95357,1,0,0:0:0:0:
329,192,95446,1,0,0:0:0:0:
402,192,95534,1,0,0:0:0:0:
109,192,95534,1,0,0:0:0:0:
256,192,95534,1,8,0:0:0:0:
475,192,95622,1,0,0:0:0:0:
182,192,95710,1,0,0:0:0:0:
109,192,95799,1,0,0:0:0:0:
36,192,95887,1,0,0:0:0:0:
256,192,95887,1,8,0:0:0:0:
475,192,95887,1,0,0:0:0:0:
329,192,95975,1,0,0:0:0:0:
402,192,96063,1,0,0:0:0:0:
475,192,96152,1,0,0:0:0:0:
329,192,96240,1,0,0:0:0:0:
182,192,96240,1,8,0:0:0:0:
402,192,96240,1,0,0:0:0:0:
109,192,96240,1,4,0:0:0:0:
182,192,96416,1,8,0:0:0:0:
109,192,96416,1,4,0:0:0:0:
329,192,96416,1,0,0:0:0:0:
402,192,96416,1,0,0:0:0:0:
475,192,96593,1,0,0:0:0:0:
256,192,96593,1,8,0:0:0:0:
36,192,96593,1,0,0:0:0:0:
402,192,96681,1,0,0:0:0:0:
329,192,96769,1,0,0:0:0:0:
36,192,96857,1,0,0:0:0:0:
109,192,96946,1,0,0:0:0:0:
402,192,96946,1,0,0:0:0:0:
256,192,96946,1,8,0:0:0:0:
182,192,97034,1,0,0:0:0:0:
475,192,97122,1,0,0:0:0:0:
402,192,97210,1,0,0:0:0:0:
329,192,97299,1,0,0:0:0:0:
256,192,97299,1,8,0:0:0:0:
182,192,97299,1,0,0:0:0:0:
36,192,97387,1,0,0:0:0:0:
109,192,97475,1,0,0:0:0:0:
182,192,97563,1,0,0:0:0:0:
109,192,97652,128,0,97916:0:0:0:0:
256,192,97652,128,8,97916:0:0:0:0:
402,192,97652,128,4,97916:0:0:0:0:
36,192,98005,1,0,0:0:0:0:
475,192,98005,1,0,0:0:0:0:
182,192,98181,128,0,98357:0:0:0:0:
329,192,98181,128,0,98357:0:0:0:0:
256,192,98357,1,8,0:0:0:0:
475,192,98357,1,0,0:0:0:0:
36,192,98357,1,0,0:0:0:0:
402,192,98446,1,0,0:0:0:0:
109,192,98446,1,0,0:0:0:0:
329,192,98534,128,0,98710:0:0:0:0:
182,192,98534,128,0,98710:0:0:0:0:
109,192,98710,1,0,0:0:0:0:
36,192,98710,1,0,0:0:0:0:
402,192,98710,1,0,0:0:0:0:
475,192,98710,1,0,0:0:0:0:
182,192,98799,1,0,0:0:0:0:
329,192,98799,1,0,0:0:0:0:
36,192,98887,1,0,0:0:0:0:
109,192,98887,1,0,0:0:0:0:
475,192,98887,1,0,0:0:0:0:
402,192,98887,1,0,0:0:0:0:
329,192,98975,1,0,0:0:0:0:
182,192,98975,1,0,0:0:0:0:
475,192,99063,1,0,0:0:0:0:
402,192,99063,1,0,0:0:0:0:
36,192,99063,1,0,0:0:0:0:
109,192,99063,1,0,0:0:0:0:
182,192,99152,1,0,0:0:0:0:
329,192,99152,1,0,0:0:0:0:
36,192,99240,1,0,0:0:0:0:
109,192,99240,1,0,0:0:0:0:
475,192,99240,1,0,0:0:0:0:
402,192,99240,1,0,0:0:0:0:
329,192,99328,1,0,0:0:0:0:
182,192,99328,1,0,0:0:0:0:
256,192,99416,128,2,100475:0:0:0:0:
475,192,99416,128,0,100828:0:0:0:0:
36,192,99416,128,0,100828:0:0:0:0:
182,192,99769,128,2,100475:0:0:0:0:
329,192,100122,128,2,100475:0:0:0:0:
109,192,100475,128,0,100828:0:0:0:0:
402,192,100475,128,2,100828:0:0:0:0:
182,192,100652,128,2,100828:0:0:0:0:
329,192,100652,128,0,100828:0:0:0:0:
256,192,100828,1,0,0:0:0:0:
329,192,100916,1,0,0:0:0:0:
402,192,101005,1,0,0:0:0:0:
475,192,101093,1,0,0:0:0:0:
109,192,101181,1,0,0:0:0:0:
182,192,101269,1,0,0:0:0:0:
256,192,101357,1,0,0:0:0:0:
329,192,101446,1,0,0:0:0:0:
256,192,101534,1,0,0:0:0:0:
329,192,101622,1,0,0:0:0:0:
402,192,101710,1,0,0:0:0:0:
329,192,101799,1,0,0:0:0:0:
475,192,101887,1,0,0:0:0:0:
329,192,101975,1,0,0:0:0:0:
256,192,102063,1,0,0:0:0:0:
182,192,102152,1,0,0:0:0:0:
109,192,102240,128,2,103299:0:0:0:0:
36,192,102240,128,0,103652:0:0:0:0:
475,192,102240,128,0,103652:0:0:0:0:
402,192,102593,128,2,103299:0:0:0:0:
256,192,102946,128,2,103299:0:0:0:0:
182,192,103299,128,2,103652:0:0:0:0:
329,192,103299,128,0,103652:0:0:0:0:
109,192,103475,128,0,103652:0:0:0:0:
402,192,103475,128,2,103652:0:0:0:0:
256,192,103652,128,0,103828:0:0:0:0:
36,192,103828,1,0,0:0:0:0:
182,192,103916,1,0,0:0:0:0:
329,192,104005,1,0,0:0:0:0:
182,192,104093,1,0,0:0:0:0:
475,192,104181,1,0,0:0:0:0:
329,192,104269,1,0,0:0:0:0:
182,192,104357,1,0,0:0:0:0:
36,192,104446,1,0,0:0:0:0:
256,192,104534,1,0,0:0:0:0:
109,192,104622,1,0,0:0:0:0:
329,192,104710,1,0,0:0:0:0:
182,192,104799,1,0,0:0:0:0:
402,192,104887,1,0,0:0:0:0:
256,192,104975,1,0,0:0:0:0:
36,192,105063,128,4,106475:0:0:0:0:
475,192,105063,128,0,106475:0:0:0:0:
402,192,105063,1,8,0:0:0:0:
109,192,105063,1,0,0:0:0:0:
182,192,105152,1,0,0:0:0:0:
329,192,105240,1,0,0:0:0:0:
402,192,105328,1,0,0:0:0:0:
182,192,105416,1,8,0:0:0:0:
109,192,105416,1,0,0:0:0:0:
256,192,105416,1,0,0:0:0:0:
329,192,105505,1,0,0:0:0:0:
182,192,105593,1,0,0:0:0:0:
109,192,105681,1,0,0:0:0:0:
256,192,105769,1,0,0:0:0:0:
329,192,105769,1,0,0:0:0:0:
402,192,105769,1,8,0:0:0:0:
182,192,105857,1,0,0:0:0:0:
329,192,105946,1,0,0:0:0:0:
182,192,106034,1,0,0:0:0:0:
256,192,106122,1,0,0:0:0:0:
402,192,106122,1,8,0:0:0:0:
109,192,106122,1,0,0:0:0:0:
329,192,106210,1,0,0:0:0:0:
182,192,106299,1,0,0:0:0:0:
329,192,106387,1,0,0:0:0:0:
182,192,106475,128,0,107181:0:0:0:0:
256,192,106475,1,8,0:0:0:0:
109,192,106475,1,0,0:0:0:0:
402,192,106563,1,0,0:0:0:0:
329,192,106652,1,0,0:0:0:0:
36,192,106740,1,0,0:0:0:0:
109,192,106828,1,0,0:0:0:0:
329,192,106828,1,0,0:0:0:0:
475,192,106828,1,8,0:0:0:0:
402,192,106916,1,0,0:0:0:0:
256,192,107005,1,0,0:0:0:0:
109,192,107093,1,0,0:0:0:0:
329,192,107181,128,0,109299:0:0:0:0:
36,192,107181,1,0,0:0:0:0:
475,192,107181,1,8,0:0:0:0:
256,192,107269,1,0,0:0:0:0:
109,192,107357,1,0,0:0:0:0:
182,192,107446,1,0,0:0:0:0:
402,192,107534,1,0,0:0:0:0:
475,192,107534,1,8,0:0:0:0:
36,192,107534,1,0,0:0:0:0:
256,192,107622,1,0,0:0:0:0:
109,192,107710,1,0,0:0:0:0:
182,192,107799,1,0,0:0:0:0:
36,192,107887,1,0,0:0:0:0:
256,192,107887,1,0,0:0:0:0:
475,192,107887,1,8,0:0:0:0:
402,192,107975,1,0,0:0:0:0:
109,192,108063,1,0,0:0:0:0:
182,192,108152,1,0,0:0:0:0:
36,192,108240,1,0,0:0:0:0:
402,192,108240,1,0,0:0:0:0:
475,192,108240,1,8,0:0:0:0:
256,192,108328,1,0,0:0:0:0:
109,192,108416,1,0,0:0:0:0:
182,192,108505,1,0,0:0:0:0:
36,192,108593,1,0,0:0:0:0:
256,192,108593,1,0,0:0:0:0:
475,192,108593,1,8,0:0:0:0:
402,192,108681,1,0,0:0:0:0:
182,192,108769,1,0,0:0:0:0:
109,192,108857,1,0,0:0:0:0:
475,192,108946,1,8,0:0:0:0:
36,192,108946,1,0,0:0:0:0:
402,192,108946,1,0,0:0:0:0:
256,192,109034,1,0,0:0:0:0:
109,192,109122,1,0,0:0:0:0:
182,192,109210,1,0,0:0:0:0:
36,192,109299,1,0,0:0:0:0:
256,192,109299,1,0,0:0:0:0:
475,192,109299,1,8,0:0:0:0:
402,192,109387,1,0,0:0:0:0:
182,192,109475,1,0,0:0:0:0:
109,192,109475,1,0,0:0:0:0:
329,192,109563,1,0,0:0:0:0:
475,192,109563,1,0,0:0:0:0:
256,192,109652,1,0,0:0:0:0:
36,192,109652,1,0,0:0:0:0:
182,192,109652,1,0,0:0:0:0:
329,192,109740,1,0,0:0:0:0:
402,192,109740,1,0,0:0:0:0:
109,192,109828,1,8,0:0:0:0:
182,192,109828,1,0,0:0:0:0:
475,192,109916,1,0,0:0:0:0:
329,192,109916,1,0,0:0:0:0:
182,192,110005,1,0,0:0:0:0:
256,192,110005,1,0,0:0:0:0:
36,192,110005,1,0,0:0:0:0:
402,192,110093,1,0,0:0:0:0:
109,192,110181,1,0,0:0:0:0:
256,192,110269,1,0,0:0:0:0:
36,192,110357,1,0,0:0:0:0:
402,192,110357,1,8,0:0:0:0:
475,192,110357,1,0,0:0:0:0:
109,192,110446,1,0,0:0:0:0:
329,192,110534,1,0,0:0:0:0:
182,192,110534,1,0,0:0:0:0:
256,192,110622,1,0,0:0:0:0:
36,192,110710,1,0,0:0:0:0:
109,192,110710,1,8,0:0:0:0:
402,192,110710,1,0,0:0:0:0:
475,192,110710,1,0,0:0:0:0:
36,192,110887,1,0,0:0:0:0:
109,192,110887,1,8,0:0:0:0:
402,192,110887,1,0,0:0:0:0:
475,192,110887,1,0,0:0:0:0:
182,192,111063,1,0,0:0:0:0:
109,192,111063,1,8,0:0:0:0:
402,192,111063,1,0,0:0:0:0:
329,192,111063,1,0,0:0:0:0:
182,192,111240,1,0,0:0:0:0:
109,192,111240,1,8,0:0:0:0:
402,192,111240,1,0,0:0:0:0:
329,192,111240,1,0,0:0:0:0:
36,192,111416,1,0,0:0:0:0:
182,192,111416,1,0,0:0:0:0:
329,192,111416,1,8,0:0:0:0:
475,192,111416,1,0,0:0:0:0:
475,192,111593,1,0,0:0:0:0:
36,192,111593,1,0,0:0:0:0:
182,192,111593,1,0,0:0:0:0:
329,192,111593,1,8,0:0:0:0:
36,192,111769,1,0,0:0:0:0:
475,192,111769,1,0,0:0:0:0:
109,192,111769,1,0,0:0:0:0:
402,192,111769,1,8,0:0:0:0:
36,192,111946,1,0,0:0:0:0:
475,192,111946,1,0,0:0:0:0:
109,192,111946,1,0,0:0:0:0:
402,192,111946,1,8,0:0:0:0:
182,192,112122,1,0,0:0:0:0:
475,192,112122,1,0,0:0:0:0:
36,192,112122,128,4,113534:0:0:0:0:
256,192,112122,1,8,0:0:0:0:
329,192,112122,1,0,0:0:0:0:
402,192,112210,1,0,0:0:0:0:
256,192,112299,1,0,0:0:0:0:
329,192,112387,1,0,0:0:0:0:
109,192,112475,1,0,0:0:0:0:
475,192,112475,1,8,0:0:0:0:
402,192,112475,1,0,0:0:0:0:
182,192,112563,1,0,0:0:0:0:
329,192,112652,1,0,0:0:0:0:
256,192,112740,1,0,0:0:0:0:
475,192,112828,1,8,0:0:0:0:
182,192,112828,1,0,0:0:0:0:
109,192,112828,128,0,113534:0:0:0:0:
402,192,112916,1,0,0:0:0:0:
329,192,113005,1,0,0:0:0:0:
182,192,113093,1,0,0:0:0:0:
402,192,113181,1,0,0:0:0:0:
475,192,113181,1,8,0:0:0:0:
256,192,113181,128,0,113534:0:0:0:0:
329,192,113269,1,0,0:0:0:0:
182,192,113357,1,0,0:0:0:0:
329,192,113446,1,0,0:0:0:0:
475,192,113534,128,0,114946:0:0:0:0:
182,192,113534,1,0,0:0:0:0:
402,192,113534,1,0,0:0:0:0:
329,192,113622,1,0,0:0:0:0:
109,192,113710,1,0,0:0:0:0:
182,192,113799,1,0,0:0:0:0:
256,192,113887,1,0,0:0:0:0:
36,192,113887,1,8,0:0:0:0:
402,192,113887,1,0,0:0:0:0:
109,192,113975,1,0,0:0:0:0:
329,192,114063,1,0,0:0:0:0:
256,192,114152,1,0,0:0:0:0:
182,192,114240,1,0,0:0:0:0:
36,192,114240,1,8,0:0:0:0:
402,192,114240,128,0,114946:0:0:0:0:
109,192,114328,1,0,0:0:0:0:
329,192,114416,1,0,0:0:0:0:
256,192,114505,1,0,0:0:0:0:
36,192,114593,1,8,0:0:0:0:
109,192,114593,1,0,0:0:0:0:
329,192,114593,1,0,0:0:0:0:
182,192,114681,1,0,0:0:0:0:
36,192,114769,1,8,0:0:0:0:
109,192,114769,1,0,0:0:0:0:
182,192,114857,1,0,0:0:0:0:
36,192,114946,1,8,0:0:0:0:
329,192,114946,1,0,0:0:0:0:
109,192,114946,128,0,115652:0:0:0:0:
256,192,115034,1,0,0:0:0:0:
402,192,115122,1,0,0:0:0:0:
329,192,115210,1,0,0:0:0:0:
475,192,115299,1,0,0:0:0:0:
36,192,115299,1,8,0:0:0:0:
182,192,115299,1,0,0:0:0:0:
402,192,115387,1,0,0:0:0:0:
256,192,115475,1,0,0:0:0:0:
329,192,115563,1,0,0:0:0:0:
36,192,115652,1,8,0:0:0:0:
402,192,115652,128,0,116357:0:0:0:0:
475,192,115652,1,0,0:0:0:0:
182,192,115740,1,0,0:0:0:0:
329,192,115828,1,0,0:0:0:0:
109,192,115916,1,0,0:0:0:0:
329,192,116005,128,0,116357:0:0:0:0:
256,192,116005,1,8,0:0:0:0:
475,192,116005,1,0,0:0:0:0:
36,192,116093,1,0,0:0:0:0:
182,192,116181,1,0,0:0:0:0:
109,192,116269,1,0,0:0:0:0:
36,192,116357,1,8,0:0:0:0:
256,192,116357,1,0,0:0:0:0:
475,192,116357,128,0,117063:0:0:0:0:
329,192,116446,1,0,0:0:0:0:
402,192,116534,1,0,0:0:0:0:
329,192,116622,1,0,0:0:0:0:
256,192,116710,1,0,0:0:0:0:
109,192,116710,1,0,0:0:0:0:
402,192,116710,128,0,117063:0:0:0:0:
36,192,116710,1,8,0:0:0:0:
182,192,116799,1,0,0:0:0:0:
256,192,116887,1,0,0:0:0:0:
329,192,116975,1,0,0:0:0:0:
109,192,117063,1,0,0:0:0:0:
256,192,117063,1,0,0:0:0:0:
36,192,117063,128,8,117769:0:0:0:0:
182,192,117152,1,0,0:0:0:0:
109,192,117240,1,0,0:0:0:0:
182,192,117328,1,0,0:0:0:0:
402,192,117416,1,0,0:0:0:0:
475,192,117416,1,0,0:0:0:0:
109,192,117416,128,0,117769:0:0:0:0:
256,192,117416,1,8,0:0:0:0:
329,192,117505,1,0,0:0:0:0:
256,192,117593,1,0,0:0:0:0:
182,192,117681,1,0,0:0:0:0:
475,192,117769,128,0,119181:0:0:0:0:
402,192,117769,1,0,0:0:0:0:
256,192,117769,1,8,0:0:0:0:
109,192,117857,1,0,0:0:0:0:
256,192,117946,1,0,0:0:0:0:
182,192,118034,1,0,0:0:0:0:
402,192,118122,1,0,0:0:0:0:
109,192,118122,1,0,0:0:0:0:
36,192,118122,1,8,0:0:0:0:
329,192,118210,1,0,0:0:0:0:
182,192,118299,1,0,0:0:0:0:
256,192,118387,1,0,0:0:0:0:
402,192,118475,128,0,119181:0:0:0:0:
329,192,118475,1,0,0:0:0:0:
36,192,118475,1,8,0:0:0:0:
109,192,118563,1,0,0:0:0:0:
182,192,118652,1,0,0:0:0:0:
329,192,118740,1,0,0:0:0:0:
36,192,118828,1,8,0:0:0:0:
256,192,118828,128,0,119181:0:0:0:0:
109,192,118828,1,0,0:0:0:0:
182,192,118916,1,0,0:0:0:0:
329,192,119005,1,0,0:0:0:0:
182,192,119093,1,0,0:0:0:0:
329,192,119181,1,0,0:0:0:0:
109,192,119181,1,0,0:0:0:0:
36,192,119181,128,8,120240:0:0:0:0:
182,192,119269,1,0,0:0:0:0:
402,192,119357,1,0,0:0:0:0:
329,192,119446,1,0,0:0:0:0:
256,192,119534,1,0,0:0:0:0:
475,192,119534,1,8,0:0:0:0:
109,192,119534,1,0,0:0:0:0:
402,192,119622,1,0,0:0:0:0:
182,192,119710,1,0,0:0:0:0:
256,192,119799,1,0,0:0:0:0:
475,192,119887,1,8,0:0:0:0:
329,192,119887,1,0,0:0:0:0:
109,192,119887,128,0,120240:0:0:0:0:
402,192,119975,1,0,0:0:0:0:
182,192,120063,1,0,0:0:0:0:
256,192,120152,1,0,0:0:0:0:
475,192,120240,1,8,0:0:0:0:
329,192,120240,1,0,0:0:0:0:
402,192,120240,128,0,120593:0:0:0:0:
256,192,120328,1,0,0:0:0:0:
182,192,120416,1,0,0:0:0:0:
329,192,120505,1,0,0:0:0:0:
36,192,120593,1,8,0:0:0:0:
256,192,120593,1,0,0:0:0:0:
109,192,120593,128,0,121299:0:0:0:0:
182,192,120681,1,0,0:0:0:0:
329,192,120769,1,0,0:0:0:0:
402,192,120857,1,0,0:0:0:0:
36,192,120946,1,8,0:0:0:0:
475,192,120946,1,0,0:0:0:0:
256,192,120946,1,0,0:0:0:0:
329,192,121034,1,0,0:0:0:0:
256,192,121122,1,0,0:0:0:0:
182,192,121210,1,0,0:0:0:0:
256,192,121299,1,8,0:0:0:0:
475,192,121299,1,0,0:0:0:0:
402,192,121299,128,0,121652:0:0:0:0:
36,192,121387,1,0,0:0:0:0:
329,192,121475,1,0,0:0:0:0:
109,192,121563,1,0,0:0:0:0:
475,192,121652,1,0,0:0:0:0:
36,192,121652,1,8,0:0:0:0:
256,192,121652,1,0,0:0:0:0:
182,192,121740,1,0,0:0:0:0:
402,192,121828,1,0,0:0:0:0:
256,192,121916,1,0,0:0:0:0:
36,192,122005,128,8,122710:0:0:0:0:
475,192,122005,1,0,0:0:0:0:
109,192,122005,1,0,0:0:0:0:
329,192,122093,1,0,0:0:0:0:
256,192,122181,1,0,0:0:0:0:
182,192,122269,1,0,0:0:0:0:
109,192,122357,1,0,0:0:0:0:
402,192,122357,1,0,0:0:0:0:
475,192,122357,1,8,0:0:0:0:
182,192,122446,1,0,0:0:0:0:
256,192,122534,1,0,0:0:0:0:
329,192,122622,1,0,0:0:0:0:
402,192,122710,1,0,0:0:0:0:
109,192,122710,1,0,0:0:0:0:
475,192,122710,128,8,123416:0:0:0:0:
329,192,122799,1,0,0:0:0:0:
256,192,122887,1,0,0:0:0:0:
182,192,122975,1,0,0:0:0:0:
402,192,123063,1,0,0:0:0:0:
36,192,123063,1,0,0:0:0:0:
109,192,123063,1,8,0:0:0:0:
182,192,123152,1,0,0:0:0:0:
256,192,123240,1,0,0:0:0:0:
329,192,123328,1,0,0:0:0:0:
36,192,123416,1,8,0:0:0:0:
402,192,123416,1,0,0:0:0:0:
182,192,123416,128,0,126240:0:0:0:0:
256,192,123505,1,0,0:0:0:0:
329,192,123593,1,0,0:0:0:0:
402,192,123681,1,0,0:0:0:0:
475,192,123769,1,0,0:0:0:0:
109,192,123769,1,0,0:0:0:0:
36,192,123769,1,8,0:0:0:0:
256,192,123769,1,0,0:0:0:0:
329,192,123857,1,0,0:0:0:0:
402,192,123946,1,0,0:0:0:0:
329,192,124034,1,0,0:0:0:0:
475,192,124122,1,0,0:0:0:0:
256,192,124122,1,0,0:0:0:0:
36,192,124122,1,8,0:0:0:0:
402,192,124210,1,0,0:0:0:0:
329,192,124299,1,0,0:0:0:0:
109,192,124387,1,0,0:0:0:0:
402,192,124475,1,0,0:0:0:0:
475,192,124475,1,0,0:0:0:0:
256,192,124475,1,0,0:0:0:0:
36,192,124475,1,8,0:0:0:0:
329,192,124563,1,0,0:0:0:0:
109,192,124652,1,0,0:0:0:0:
402,192,124740,1,0,0:0:0:0:
475,192,124828,1,0,0:0:0:0:
256,192,124828,1,0,0:0:0:0:
329,192,124828,128,0,126240:0:0:0:0:
36,192,124828,1,8,0:0:0:0:
109,192,124916,1,0,0:0:0:0:
402,192,125005,1,0,0:0:0:0:
256,192,125093,1,0,0:0:0:0:
402,192,125181,1,0,0:0:0:0:
475,192,125181,1,0,0:0:0:0:
36,192,125181,1,8,0:0:0:0:
109,192,125181,1,0,0:0:0:0:
256,192,125269,1,0,0:0:0:0:
109,192,125357,1,0,0:0:0:0:
402,192,125446,1,0,0:0:0:0:
475,192,125534,1,0,0:0:0:0:
36,192,125534,1,8,0:0:0:0:
256,192,125534,1,0,0:0:0:0:
109,192,125622,1,0,0:0:0:0:
402,192,125710,1,0,0:0:0:0:
256,192,125799,1,0,0:0:0:0:
36,192,125887,1,8,0:0:0:0:
109,192,125887,1,0,0:0:0:0:
475,192,125887,1,0,0:0:0:0:
402,192,125887,1,0,0:0:0:0:
256,192,125975,1,0,0:0:0:0:
109,192,126063,1,0,0:0:0:0:
402,192,126152,1,0,0:0:0:0:
475,192,126240,1,0,0:0:0:0:
256,192,126240,1,0,0:0:0:0:
36,192,126240,1,8,0:0:0:0:
109,192,126240,1,0,0:0:0:0:
256,192,126593,1,0,0:0:0:0:
256,192,126946,128,8,127563:0:0:0:0:
402,192,126946,1,0,0:0:0:0:
109,192,126946,1,0,0:0:0:0:
109,192,127299,128,0,127563:0:0:0:0:
402,192,127299,128,8,127563:0:0:0:0:
109,192,127652,1,0,0:0:0:0:
256,192,127652,1,4,0:0:0:0:
36,192,127652,1,8,0:0:0:0:
182,192,127652,1,0,0:0:0:0:
475,192,127740,1,8,0:0:0:0:
329,192,127740,1,0,0:0:0:0:
402,192,127740,1,0,0:0:0:0:
109,192,127828,1,0,0:0:0:0:
36,192,127828,1,8,0:0:0:0:
182,192,127828,1,0,0:0:0:0:
475,192,127916,1,8,0:0:0:0:
402,192,127916,1,0,0:0:0:0:
329,192,127916,1,0,0:0:0:0:
36,192,128005,1,8,0:0:0:0:
109,192,128005,1,0,0:0:0:0:
182,192,128005,1,0,0:0:0:0:
256,192,128181,1,8,0:0:0:0:
109,192,128181,1,0,0:0:0:0:
402,192,128181,1,0,0:0:0:0:
402,192,128269,1,0,0:0:0:0:
109,192,128269,1,0,0:0:0:0:
256,192,128269,1,8,0:0:0:0:
36,192,128446,1,0,0:0:0:0:
475,192,128446,1,0,0:0:0:0:
256,192,128446,1,8,0:0:0:0:
36,192,128534,1,0,0:0:0:0:
475,192,128534,1,0,0:0:0:0:
256,192,128534,1,8,0:0:0:0:
109,192,128710,1,0,0:0:0:0:
36,192,128710,1,0,0:0:0:0:
475,192,128710,1,0,0:0:0:0:
402,192,128710,1,0,0:0:0:0:
109,192,128887,1,0,0:0:0:0:
36,192,128887,1,0,0:0:0:0:
475,192,128887,1,0,0:0:0:0:
402,192,128887,1,0,0:0:0:0:
402,192,129063,1,0,0:0:0:0:
475,192,129063,1,0,0:0:0:0:
329,192,129063,1,8,0:0:0:0:
109,192,129152,1,0,0:0:0:0:
36,192,129152,1,0,0:0:0:0:
182,192,129152,1,8,0:0:0:0:
329,192,129240,1,8,0:0:0:0:
475,192,129240,1,0,0:0:0:0:
402,192,129240,1,0,0:0:0:0:
36,192,129328,1,0,0:0:0:0:
182,192,129328,1,8,0:0:0:0:
109,192,129328,1,0,0:0:0:0:
402,192,129416,1,0,0:0:0:0:
475,192,129416,1,0,0:0:0:0:
329,192,129416,1,8,0:0:0:0:
475,192,129593,1,0,0:0:0:0:
256,192,129593,1,8,0:0:0:0:
36,192,129593,1,0,0:0:0:0:
475,192,129681,1,0,0:0:0:0:
256,192,129681,1,8,0:0:0:0:
36,192,129681,1,0,0:0:0:0:
329,192,129857,1,0,0:0:0:0:
256,192,129857,1,8,0:0:0:0:
182,192,129857,1,0,0:0:0:0:
329,192,129946,1,0,0:0:0:0:
256,192,129946,1,8,0:0:0:0:
182,192,129946,1,0,0:0:0:0:
109,192,130122,1,0,0:0:0:0:
402,192,130122,1,0,0:0:0:0:
182,192,130122,1,0,0:0:0:0:
329,192,130122,1,0,0:0:0:0:
402,192,130299,1,8,0:0:0:0:
109,192,130299,1,0,0:0:0:0:
182,192,130299,1,0,0:0:0:0:
329,192,130299,1,0,0:0:0:0:
36,192,130475,1,8,0:0:0:0:
109,192,130475,1,0,0:0:0:0:
182,192,130475,1,0,0:0:0:0:
475,192,130563,1,8,0:0:0:0:
402,192,130563,1,0,0:0:0:0:
329,192,130563,1,0,0:0:0:0:
182,192,130652,1,0,0:0:0:0:
109,192,130652,1,0,0:0:0:0:
36,192,130652,1,8,0:0:0:0:
475,192,130740,1,8,0:0:0:0:
329,192,130740,1,0,0:0:0:0:
402,192,130740,1,0,0:0:0:0:
182,192,130828,1,0,0:0:0:0:
109,192,130828,1,0,0:0:0:0:
36,192,130828,1,8,0:0:0:0:
256,192,131005,1,8,0:0:0:0:
329,192,131005,1,0,0:0:0:0:
182,192,131005,1,0,0:0:0:0:
329,192,131093,1,0,0:0:0:0:
256,192,131093,1,8,0:0:0:0:
182,192,131093,1,0,0:0:0:0:
256,192,131269,1,8,0:0:0:0:
402,192,131269,1,0,0:0:0:0:
109,192,131269,1,0,0:0:0:0:
402,192,131357,1,0,0:0:0:0:
256,192,131357,1,8,0:0:0:0:
109,192,131357,1,0,0:0:0:0:
109,192,131534,1,0,0:0:0:0:
402,192,131534,1,0,0:0:0:0:
36,192,131534,1,0,0:0:0:0:
475,192,131534,1,0,0:0:0:0:
402,192,131710,1,0,0:0:0:0:
109,192,131710,1,0,0:0:0:0:
475,192,131710,1,0,0:0:0:0:
36,192,131710,1,0,0:0:0:0:
329,192,131887,1,8,0:0:0:0:
402,192,131887,1,0,0:0:0:0:
475,192,131887,1,0,0:0:0:0:
182,192,131975,1,8,0:0:0:0:
109,192,131975,1,0,0:0:0:0:
36,192,131975,1,0,0:0:0:0:
475,192,132063,1,0,0:0:0:0:
402,192,132063,1,0,0:0:0:0:
329,192,132063,1,8,0:0:0:0:
36,192,132152,5,0,0:0:0:0:
109,192,132152,1,0,0:0:0:0:
182,192,132152,1,8,0:0:0:0:
475,192,132240,1,0,0:0:0:0:
402,192,132240,1,0,0:0:0:0:
329,192,132240,1,8,0:0:0:0:
402,192,132416,1,0,0:0:0:0:
256,192,132416,1,8,0:0:0:0:
109,192,132416,1,0,0:0:0:0:
402,192,132505,1,0,0:0:0:0:
256,192,132505,1,8,0:0:0:0:
109,192,132505,1,0,0:0:0:0:
36,192,132681,1,0,0:0:0:0:
475,192,132681,1,0,0:0:0:0:
256,192,132681,1,8,0:0:0:0:
36,192,132769,1,0,0:0:0:0:
475,192,132769,1,0,0:0:0:0:
256,192,132769,1,8,0:0:0:0:
36,192,132946,1,0,0:0:0:0:
475,192,132946,1,0,0:0:0:0:
182,192,132946,1,0,0:0:0:0:
329,192,132946,1,0,0:0:0:0:
36,192,133122,1,0,0:0:0:0:
475,192,133122,1,0,0:0:0:0:
182,192,133122,1,0,0:0:0:0:
329,192,133122,1,0,0:0:0:0:
109,192,133299,5,0,0:0:0:0:
402,192,133387,1,0,0:0:0:0:
109,192,133475,1,0,0:0:0:0:
402,192,133563,1,0,0:0:0:0:
109,192,133652,1,0,0:0:0:0:
109,192,133828,1,0,0:0:0:0:
402,192,133916,1,0,0:0:0:0:
402,192,134093,1,0,0:0:0:0:
109,192,134181,1,0,0:0:0:0:
329,192,134357,1,4,0:0:0:0:
402,192,134357,1,0,0:0:0:0:
109,192,134357,1,0,0:0:0:0:
182,192,134357,1,4,0:0:0:0:
475,192,134534,1,0,0:0:0:0:
36,192,134534,1,0,0:0:0:0:
256,192,134534,1,8,0:0:0:0:
329,192,136122,128,0,136210:0:0:0:0:
182,192,136210,128,0,136299:0:0:0:0:
402,192,136299,128,0,136387:0:0:0:0:
256,192,136387,128,0,136475:0:0:0:0:
475,192,136475,128,0,136563:0:0:0:0:
182,192,136563,128,0,136652:0:0:0:0:
402,192,136652,128,0,136740:0:0:0:0:
256,192,136740,128,0,136828:0:0:0:0:
109,192,136828,128,0,136916:0:0:0:0:
329,192,136916,128,0,137005:0:0:0:0:
182,192,137005,128,0,137093:0:0:0:0:
36,192,137093,128,0,137181:0:0:0:0:
402,192,137181,128,0,137269:0:0:0:0:
256,192,137269,128,0,137357:0:0:0:0:
109,192,137357,128,0,137446:0:0:0:0:
256,192,137446,128,0,137534:0:0:0:0:
475,192,137534,1,0,0:0:0:0:
36,192,137534,128,4,140357:0:0:0:0:
402,192,137534,1,0,0:0:0:0:
182,192,137534,1,0,0:0:0:0:
329,192,137534,1,0,0:0:0:0:
402,192,138946,128,0,140357:0:0:0:0:
329,192,139652,128,0,140357:0:0:0:0:
256,192,140357,128,0,141769:0:0:0:0:
109,192,141063,128,0,141769:0:0:0:0:
402,192,141416,128,0,141769:0:0:0:0:
182,192,141769,128,0,142475:0:0:0:0:
475,192,141769,128,0,142475:0:0:0:0:
36,192,142475,128,0,143181:0:0:0:0:
329,192,142475,128,0,143181:0:0:0:0:
256,192,143181,128,0,144593:0:0:0:0:
475,192,144593,128,0,146005:0:0:0:0:
109,192,146005,128,0,148828:0:0:0:0:
402,192,147416,128,0,148828:0:0:0:0:
36,192,148828,1,0,0:0:0:0:
256,192,148828,128,12,150240:0:0:0:0:
182,192,148828,1,0,0:0:0:0:
475,192,148828,1,0,0:0:0:0:
329,192,148828,1,0,0:0:0:0:
109,192,149181,1,0,0:0:0:0:
182,192,149534,1,0,0:0:0:0:
329,192,149887,1,0,0:0:0:0:
109,192,150240,128,0,151652:0:0:0:0:
402,192,150240,128,0,150946:0:0:0:0:
182,192,150946,128,0,151652:0:0:0:0:
256,192,151652,128,0,153063:0:0:0:0:
36,192,151652,1,0,0:0:0:0:
475,192,152357,128,0,153063:0:0:0:0:
402,192,152710,128,0,153063:0:0:0:0:
36,192,153063,128,0,153769:0:0:0:0:
329,192,153063,128,0,153769:0:0:0:0:
109,192,153416,128,0,153769:0:0:0:0:
475,192,153769,128,0,154475:0:0:0:0:
182,192,153769,128,0,154475:0:0:0:0:
402,192,154122,128,0,154475:0:0:0:0:
109,192,154475,128,0,155887:0:0:0:0:
256,192,154475,128,0,155181:0:0:0:0:
329,192,155181,1,0,0:0:0:0:
402,192,155534,1,0,0:0:0:0:
475,192,155887,128,0,157299:0:0:0:0:
36,192,155887,1,0,0:0:0:0:
36,192,156593,128,0,157299:0:0:0:0:
182,192,156946,128,0,157299:0:0:0:0:
256,192,157299,128,0,161534:0:0:0:0:
402,192,157299,128,0,158005:0:0:0:0:
109,192,158005,1,0,0:0:0:0:
475,192,158710,128,0,161534:0:0:0:0:
36,192,158710,128,0,161534:0:0:0:0:
402,192,159416,128,0,161534:0:0:0:0:
109,192,160122,128,0,161534:0:0:0:0:
329,192,161534,128,0,164357:0:0:0:0:
475,192,161887,1,0,0:0:0:0:
402,192,162240,1,0,0:0:0:0:
256,192,162593,1,0,0:0:0:0:
109,192,162946,1,0,0:0:0:0:
36,192,163299,128,0,164357:0:0:0:0:
475,192,163652,128,0,164357:0:0:0:0:
182,192,164005,128,0,164357:0:0:0:0:
402,192,164357,1,4,0:0:0:0:
256,192,164357,1,2,0:0:0:0:
109,192,164357,1,4,0:0:0:0:
