osu file format v14

[General]
AudioFilename: over the top.mp3
AudioLeadIn: 0
PreviewTime: -1
Countdown: 1
SampleSet: Normal
StackLeniency: 0.7
Mode: 3
LetterboxInBreaks: 0
SpecialStyle: 0
WidescreenStoryboard: 1

[Editor]
DistanceSpacing: 0.8
BeatDivisor: 4
GridSize: 32
TimelineZoom: 1.8

[Metadata]
Title:Jungdongjin's 10th 4k LN Pack
TitleUnicode:Jungdongjin's 10th 4k LN Pack
Artist:Various Artist
ArtistUnicode:Various Artist
Creator:Jungdongjin
Version:xi - over the top (Marathon)
Source:
Tags:
BeatmapID:1358799
BeatmapSetID:640702

[Difficulty]
HPDrainRate:5
CircleSize:4
OverallDifficulty:5
ApproachRate:5
SliderMultiplier:1.4
SliderTickRate:1

[Events]
//Background and Video events
0,0,"title.jpg",0,0
//Break Periods
//Storyboard Layer 0 (Background)
//Storyboard Layer 1 (Fail)
//Storyboard Layer 2 (Pass)
//Storyboard Layer 3 (Foreground)
//Storyboard Sound Samples

[TimingPoints]
1291,297.029702970297,4,1,0,100,1,0

[HitObjects]
448,192,1291,5,0,0:0:0:0:
320,192,1291,1,0,0:0:0:0:
448,192,1390,1,0,0:0:0:0:
320,192,1390,1,0,0:0:0:0:
320,192,1489,1,0,0:0:0:0:
448,192,1489,1,0,0:0:0:0:
64,192,1588,1,0,0:0:0:0:
192,192,1588,1,0,0:0:0:0:
192,192,2182,1,0,0:0:0:0:
64,192,2182,1,0,0:0:0:0:
64,192,2281,1,0,0:0:0:0:
192,192,2281,1,0,0:0:0:0:
192,192,2380,1,0,0:0:0:0:
64,192,2380,1,0,0:0:0:0:
448,192,2479,1,0,0:0:0:0:
320,192,2479,1,0,0:0:0:0:
192,192,2776,128,0,3073:0:0:0:0:
320,192,3073,128,0,3370:0:0:0:0:
448,192,3370,128,0,3667:0:0:0:0:
192,192,3667,1,0,0:0:0:0:
320,192,3667,1,0,0:0:0:0:
192,192,3766,1,0,0:0:0:0:
320,192,3766,1,0,0:0:0:0:
320,192,3865,1,0,0:0:0:0:
192,192,3865,1,0,0:0:0:0:
64,192,3964,1,0,0:0:0:0:
448,192,3964,1,0,0:0:0:0:
64,192,4558,1,0,0:0:0:0:
448,192,4558,1,0,0:0:0:0:
448,192,4657,1,0,0:0:0:0:
64,192,4657,1,0,0:0:0:0:
64,192,4756,1,0,0:0:0:0:
448,192,4756,1,0,0:0:0:0:
192,192,4855,1,0,0:0:0:0:
320,192,4855,1,0,0:0:0:0:
448,192,5449,128,0,5969:0:0:0:0:
192,192,5746,1,0,0:0:0:0:
64,192,5746,1,0,0:0:0:0:
320,192,6043,128,0,6191:0:0:0:0:
448,192,6043,128,0,6266:0:0:0:0:
192,192,6117,128,0,6266:0:0:0:0:
64,192,6191,128,0,6340:0:0:0:0:
320,192,6266,128,0,6340:0:0:0:0:
448,192,6340,128,0,6489:0:0:0:0:
192,192,6340,128,0,6414:0:0:0:0:
320,192,6414,128,0,6563:0:0:0:0:
192,192,6489,128,0,6563:0:0:0:0:
64,192,6489,128,0,6563:0:0:0:0:
448,192,6563,128,0,6711:0:0:0:0:
192,192,6637,128,0,6786:0:0:0:0:
64,192,6637,128,0,6860:0:0:0:0:
320,192,6711,128,0,6860:0:0:0:0:
448,192,6786,128,0,6934:0:0:0:0:
192,192,6860,128,0,6934:0:0:0:0:
320,192,6934,128,0,7083:0:0:0:0:
64,192,6934,128,0,7008:0:0:0:0:
192,192,7008,128,0,7157:0:0:0:0:
64,192,7083,128,0,7231:0:0:0:0:
448,192,7083,128,0,7157:0:0:0:0:
320,192,7157,128,0,7231:0:0:0:0:
448,192,7231,128,0,7380:0:0:0:0:
192,192,7231,128,0,7305:0:0:0:0:
64,192,7305,128,0,7454:0:0:0:0:
192,192,7380,128,0,7528:0:0:0:0:
320,192,7380,128,0,7454:0:0:0:0:
448,192,7454,128,0,7528:0:0:0:0:
64,192,7528,128,0,7751:0:0:0:0:
320,192,7528,128,0,7677:0:0:0:0:
192,192,7602,128,0,7751:0:0:0:0:
448,192,7677,128,0,7825:0:0:0:0:
320,192,7751,128,0,7825:0:0:0:0:
64,192,7825,128,0,7899:0:0:0:0:
192,192,7825,128,0,7974:0:0:0:0:
320,192,7899,128,0,8048:0:0:0:0:
64,192,7974,128,0,8122:0:0:0:0:
448,192,7974,128,0,8048:0:0:0:0:
192,192,8048,128,0,8122:0:0:0:0:
320,192,8122,128,0,8271:0:0:0:0:
448,192,8122,128,0,8345:0:0:0:0:
192,192,8196,128,0,8345:0:0:0:0:
64,192,8271,128,0,8419:0:0:0:0:
320,192,8345,128,0,8419:0:0:0:0:
192,192,8419,128,0,8568:0:0:0:0:
448,192,8419,128,0,8493:0:0:0:0:
320,192,8493,128,0,8642:0:0:0:0:
448,192,8568,128,0,8716:0:0:0:0:
64,192,8568,128,0,8642:0:0:0:0:
192,192,8642,128,0,8716:0:0:0:0:
64,192,8716,128,0,8791:0:0:0:0:
320,192,8716,128,0,8865:0:0:0:0:
192,192,8791,128,0,8939:0:0:0:0:
64,192,8865,128,0,9013:0:0:0:0:
448,192,8865,128,0,8939:0:0:0:0:
320,192,8939,128,0,9013:0:0:0:0:
192,192,9013,128,0,9088:0:0:0:0:
448,192,9013,128,0,9236:0:0:0:0:
320,192,9088,128,0,9236:0:0:0:0:
64,192,9162,128,0,9310:0:0:0:0:
192,192,9236,128,0,9385:0:0:0:0:
320,192,9310,128,0,9533:0:0:0:0:
448,192,9310,128,0,9459:0:0:0:0:
64,192,9385,128,0,9533:0:0:0:0:
192,192,9459,128,0,9533:0:0:0:0:
448,192,9533,128,0,9607:0:0:0:0:
192,192,9607,128,0,9756:0:0:0:0:
64,192,9607,128,0,9682:0:0:0:0:
320,192,9682,128,0,9830:0:0:0:0:
64,192,9756,128,0,9904:0:0:0:0:
448,192,9756,128,0,9830:0:0:0:0:
192,192,9830,128,0,9904:0:0:0:0:
448,192,9904,128,0,10053:0:0:0:0:
320,192,9904,128,0,9979:0:0:0:0:
192,192,9979,128,0,10127:0:0:0:0:
320,192,10053,128,0,10201:0:0:0:0:
64,192,10053,128,0,10127:0:0:0:0:
448,192,10127,128,0,10201:0:0:0:0:
64,192,10201,128,0,10350:0:0:0:0:
192,192,10201,128,0,10276:0:0:0:0:
320,192,10276,128,0,10424:0:0:0:0:
192,192,10350,128,0,10498:0:0:0:0:
448,192,10350,128,0,10424:0:0:0:0:
64,192,10424,128,0,10498:0:0:0:0:
320,192,10498,128,0,10721:0:0:0:0:
448,192,10498,128,0,10647:0:0:0:0:
192,192,10573,128,0,10721:0:0:0:0:
64,192,10647,128,0,10795:0:0:0:0:
448,192,10721,128,0,10795:0:0:0:0:
320,192,10795,128,0,10870:0:0:0:0:
192,192,10795,128,0,10944:0:0:0:0:
64,192,10870,128,0,11018:0:0:0:0:
448,192,10944,128,0,11018:0:0:0:0:
320,192,10944,128,0,11092:0:0:0:0:
192,192,11018,128,0,11092:0:0:0:0:
64,192,11092,128,0,11315:0:0:0:0:
448,192,11092,128,0,11241:0:0:0:0:
320,192,11167,128,0,11315:0:0:0:0:
192,192,11241,128,0,11390:0:0:0:0:
448,192,11315,128,0,11390:0:0:0:0:
320,192,11390,128,0,11612:0:0:0:0:
64,192,11390,128,0,11464:0:0:0:0:
192,192,11464,128,0,11538:0:0:0:0:
64,192,11538,128,0,11687:0:0:0:0:
448,192,11538,128,0,11612:0:0:0:0:
192,192,11612,128,0,11687:0:0:0:0:
320,192,11687,128,0,11909:0:0:0:0:
448,192,11687,128,0,11835:0:0:0:0:
64,192,11761,128,0,11909:0:0:0:0:
192,192,11835,128,0,11984:0:0:0:0:
448,192,11909,128,0,11984:0:0:0:0:
320,192,11984,128,0,12132:0:0:0:0:
64,192,11984,128,0,12206:0:0:0:0:
192,192,12058,128,0,12206:0:0:0:0:
448,192,12132,128,0,12281:0:0:0:0:
320,192,12206,128,0,12281:0:0:0:0:
192,192,12281,128,0,12503:0:0:0:0:
64,192,12281,128,0,12429:0:0:0:0:
448,192,12355,128,0,12503:0:0:0:0:
320,192,12429,128,0,12578:0:0:0:0:
64,192,12503,128,0,12578:0:0:0:0:
192,192,12578,128,0,12800:0:0:0:0:
448,192,12578,128,0,12726:0:0:0:0:
320,192,12652,128,0,12800:0:0:0:0:
64,192,12726,128,0,12875:0:0:0:0:
448,192,12800,128,0,12875:0:0:0:0:
320,192,12875,128,0,13023:0:0:0:0:
192,192,12875,128,0,12949:0:0:0:0:
448,192,12949,128,0,13097:0:0:0:0:
64,192,13023,128,0,13172:0:0:0:0:
192,192,13023,128,0,13097:0:0:0:0:
320,192,13097,128,0,13172:0:0:0:0:
192,192,13172,128,0,13394:0:0:0:0:
448,192,13172,128,0,13320:0:0:0:0:
320,192,13246,128,0,13394:0:0:0:0:
64,192,13320,128,0,13469:0:0:0:0:
448,192,13394,128,0,13469:0:0:0:0:
320,192,13469,128,0,13691:0:0:0:0:
192,192,13469,128,0,13617:0:0:0:0:
448,192,13543,128,0,13691:0:0:0:0:
64,192,13617,128,0,13691:0:0:0:0:
192,192,13691,128,0,13766:0:0:0:0:
320,192,13766,128,0,13914:0:0:0:0:
448,192,13766,128,0,13989:0:0:0:0:
64,192,13766,128,0,13840:0:0:0:0:
192,192,13840,128,0,13989:0:0:0:0:
64,192,13914,128,0,14063:0:0:0:0:
320,192,13989,128,0,14063:0:0:0:0:
448,192,14063,128,0,14211:0:0:0:0:
192,192,14063,128,0,14137:0:0:0:0:
64,192,14137,128,0,14286:0:0:0:0:
192,192,14211,128,0,14360:0:0:0:0:
320,192,14211,128,0,14286:0:0:0:0:
448,192,14286,128,0,14360:0:0:0:0:
64,192,14360,128,0,14508:0:0:0:0:
320,192,14360,128,0,14434:0:0:0:0:
448,192,14434,128,0,14583:0:0:0:0:
192,192,14508,128,0,14657:0:0:0:0:
320,192,14508,128,0,14583:0:0:0:0:
64,192,14583,128,0,14657:0:0:0:0:
448,192,14657,128,0,14805:0:0:0:0:
320,192,14657,128,0,14731:0:0:0:0:
192,192,14731,128,0,14880:0:0:0:0:
320,192,14805,128,0,14954:0:0:0:0:
64,192,14805,128,0,14880:0:0:0:0:
448,192,14880,128,0,14954:0:0:0:0:
64,192,14954,128,0,15028:0:0:0:0:
192,192,14954,128,0,15102:0:0:0:0:
320,192,15028,128,0,15177:0:0:0:0:
448,192,15102,128,0,15177:0:0:0:0:
64,192,15102,128,0,15251:0:0:0:0:
192,192,15177,128,0,15251:0:0:0:0:
448,192,15251,128,0,15325:0:0:0:0:
320,192,15251,128,0,15399:0:0:0:0:
64,192,15325,128,0,15474:0:0:0:0:
448,192,15399,128,0,15548:0:0:0:0:
192,192,15399,128,0,15474:0:0:0:0:
320,192,15474,128,0,15548:0:0:0:0:
192,192,15548,1,0,0:0:0:0:
64,192,15548,128,0,16068:0:0:0:0:
320,192,15622,1,0,0:0:0:0:
448,192,15696,1,0,0:0:0:0:
192,192,15771,1,0,0:0:0:0:
320,192,15845,1,0,0:0:0:0:
448,192,15919,1,0,0:0:0:0:
320,192,15993,1,0,0:0:0:0:
192,192,16068,1,0,0:0:0:0:
64,192,16142,1,0,0:0:0:0:
448,192,16142,1,0,0:0:0:0:
320,192,16216,1,0,0:0:0:0:
192,192,16290,1,0,0:0:0:0:
448,192,16365,1,0,0:0:0:0:
320,192,16439,1,0,0:0:0:0:
192,192,16513,1,0,0:0:0:0:
64,192,16588,1,0,0:0:0:0:
192,192,16662,1,0,0:0:0:0:
320,192,16736,1,0,0:0:0:0:
448,192,16736,1,0,0:0:0:0:
64,192,16736,1,0,0:0:0:0:
192,192,16810,1,0,0:0:0:0:
320,192,16885,1,0,0:0:0:0:
448,192,16959,1,0,0:0:0:0:
64,192,17033,1,0,0:0:0:0:
192,192,17107,1,0,0:0:0:0:
320,192,17182,1,0,0:0:0:0:
64,192,17256,1,0,0:0:0:0:
448,192,17330,1,0,0:0:0:0:
320,192,17404,1,0,0:0:0:0:
192,192,17479,1,0,0:0:0:0:
448,192,17553,1,0,0:0:0:0:
320,192,17627,1,0,0:0:0:0:
64,192,17627,1,0,0:0:0:0:
192,192,17701,1,0,0:0:0:0:
320,192,17776,1,0,0:0:0:0:
448,192,17850,1,0,0:0:0:0:
64,192,17924,1,0,0:0:0:0:
192,192,17924,1,0,0:0:0:0:
320,192,17924,128,0,18444:0:0:0:0:
448,192,17998,1,0,0:0:0:0:
64,192,18073,1,0,0:0:0:0:
192,192,18147,1,0,0:0:0:0:
448,192,18221,1,0,0:0:0:0:
64,192,18295,1,0,0:0:0:0:
192,192,18370,1,0,0:0:0:0:
448,192,18444,1,0,0:0:0:0:
320,192,18518,1,0,0:0:0:0:
192,192,18592,1,0,0:0:0:0:
448,192,18667,1,0,0:0:0:0:
64,192,18741,1,0,0:0:0:0:
192,192,18815,1,0,0:0:0:0:
320,192,18890,1,0,0:0:0:0:
192,192,18964,1,0,0:0:0:0:
448,192,19038,1,0,0:0:0:0:
320,192,19112,1,0,0:0:0:0:
64,192,19112,1,0,0:0:0:0:
192,192,19112,1,0,0:0:0:0:
448,192,19187,1,0,0:0:0:0:
320,192,19261,1,0,0:0:0:0:
192,192,19335,1,0,0:0:0:0:
64,192,19409,1,0,0:0:0:0:
192,192,19484,1,0,0:0:0:0:
320,192,19558,1,0,0:0:0:0:
64,192,19632,1,0,0:0:0:0:
192,192,19706,1,0,0:0:0:0:
320,192,19781,1,0,0:0:0:0:
448,192,19855,1,0,0:0:0:0:
320,192,19929,1,0,0:0:0:0:
192,192,20003,1,0,0:0:0:0:
448,192,20078,1,0,0:0:0:0:
320,192,20152,1,0,0:0:0:0:
192,192,20226,1,0,0:0:0:0:
64,192,20300,1,0,0:0:0:0:
320,192,20300,1,0,0:0:0:0:
448,192,20300,128,0,20820:0:0:0:0:
192,192,20375,1,0,0:0:0:0:
64,192,20449,1,0,0:0:0:0:
320,192,20523,1,0,0:0:0:0:
64,192,20597,1,0,0:0:0:0:
192,192,20672,1,0,0:0:0:0:
320,192,20746,1,0,0:0:0:0:
64,192,20820,1,0,0:0:0:0:
448,192,20894,1,0,0:0:0:0:
192,192,20969,1,0,0:0:0:0:
320,192,21043,1,0,0:0:0:0:
192,192,21117,1,0,0:0:0:0:
448,192,21191,1,0,0:0:0:0:
320,192,21266,1,0,0:0:0:0:
192,192,21340,1,0,0:0:0:0:
64,192,21414,1,0,0:0:0:0:
192,192,21489,1,0,0:0:0:0:
320,192,21489,1,0,0:0:0:0:
448,192,21489,1,0,0:0:0:0:
64,192,21563,1,0,0:0:0:0:
320,192,21637,1,0,0:0:0:0:
448,192,21711,1,0,0:0:0:0:
64,192,21786,1,0,0:0:0:0:
192,192,21860,1,0,0:0:0:0:
320,192,21934,1,0,0:0:0:0:
448,192,22008,1,0,0:0:0:0:
192,192,22083,1,0,0:0:0:0:
64,192,22157,1,0,0:0:0:0:
320,192,22231,1,0,0:0:0:0:
192,192,22305,1,0,0:0:0:0:
320,192,22380,1,0,0:0:0:0:
64,192,22380,1,0,0:0:0:0:
448,192,22454,1,0,0:0:0:0:
320,192,22528,1,0,0:0:0:0:
192,192,22602,1,0,0:0:0:0:
64,192,22677,128,0,23493:0:0:0:0:
448,192,22677,1,0,0:0:0:0:
320,192,22751,1,0,0:0:0:0:
192,192,22825,1,0,0:0:0:0:
448,192,22899,1,0,0:0:0:0:
320,192,22974,1,0,0:0:0:0:
448,192,23048,1,0,0:0:0:0:
192,192,23122,1,0,0:0:0:0:
320,192,23196,1,0,0:0:0:0:
448,192,23271,1,0,0:0:0:0:
192,192,23345,1,0,0:0:0:0:
320,192,23419,1,0,0:0:0:0:
448,192,23493,1,0,0:0:0:0:
192,192,23568,1,0,0:0:0:0:
64,192,23642,1,0,0:0:0:0:
320,192,23716,1,0,0:0:0:0:
192,192,23791,1,0,0:0:0:0:
64,192,23865,1,0,0:0:0:0:
320,192,23865,128,0,24682:0:0:0:0:
448,192,23865,1,0,0:0:0:0:
192,192,23939,1,0,0:0:0:0:
64,192,24013,1,0,0:0:0:0:
448,192,24088,1,0,0:0:0:0:
192,192,24162,1,0,0:0:0:0:
64,192,24236,1,0,0:0:0:0:
448,192,24310,1,0,0:0:0:0:
192,192,24385,1,0,0:0:0:0:
448,192,24459,1,0,0:0:0:0:
64,192,24533,1,0,0:0:0:0:
192,192,24607,1,0,0:0:0:0:
448,192,24682,1,0,0:0:0:0:
320,192,24756,1,0,0:0:0:0:
192,192,24830,1,0,0:0:0:0:
448,192,24904,1,0,0:0:0:0:
320,192,24979,1,0,0:0:0:0:
448,192,25053,1,0,0:0:0:0:
64,192,25053,128,0,25276:0:0:0:0:
192,192,25053,128,0,25127:0:0:0:0:
320,192,25127,128,0,25201:0:0:0:0:
448,192,25201,128,0,25276:0:0:0:0:
192,192,25276,128,0,25350:0:0:0:0:
320,192,25350,128,0,25424:0:0:0:0:
448,192,25350,128,0,25573:0:0:0:0:
64,192,25350,1,0,0:0:0:0:
192,192,25424,128,0,25498:0:0:0:0:
64,192,25498,128,0,25573:0:0:0:0:
192,192,25573,128,0,25647:0:0:0:0:
320,192,25647,128,0,25870:0:0:0:0:
448,192,25647,128,0,25721:0:0:0:0:
64,192,25647,1,0,0:0:0:0:
192,192,25721,128,0,25795:0:0:0:0:
64,192,25795,128,0,25870:0:0:0:0:
192,192,25870,128,0,25944:0:0:0:0:
64,192,25944,128,0,26167:0:0:0:0:
320,192,25944,128,0,26018:0:0:0:0:
448,192,25944,1,0,0:0:0:0:
192,192,26018,128,0,26092:0:0:0:0:
320,192,26092,128,0,26167:0:0:0:0:
448,192,26167,128,0,26241:0:0:0:0:
64,192,26241,1,0,0:0:0:0:
320,192,26241,128,0,26315:0:0:0:0:
192,192,26241,128,0,26390:0:0:0:0:
448,192,26315,128,0,26390:0:0:0:0:
320,192,26390,128,0,26538:0:0:0:0:
64,192,26390,128,0,26464:0:0:0:0:
192,192,26464,128,0,26612:0:0:0:0:
64,192,26538,128,0,26612:0:0:0:0:
448,192,26538,128,0,26687:0:0:0:0:
320,192,26612,128,0,26761:0:0:0:0:
192,192,26687,128,0,26761:0:0:0:0:
64,192,26687,128,0,26835:0:0:0:0:
448,192,26761,128,0,26835:0:0:0:0:
192,192,26835,128,0,26984:0:0:0:0:
320,192,26835,128,0,26909:0:0:0:0:
448,192,26909,128,0,27058:0:0:0:0:
64,192,26984,128,0,27132:0:0:0:0:
320,192,26984,128,0,27058:0:0:0:0:
192,192,27058,128,0,27206:0:0:0:0:
320,192,27132,128,0,27281:0:0:0:0:
448,192,27132,128,0,27206:0:0:0:0:
64,192,27206,128,0,27355:0:0:0:0:
448,192,27281,128,0,27429:0:0:0:0:
192,192,27281,128,0,27355:0:0:0:0:
320,192,27355,128,0,27429:0:0:0:0:
64,192,27429,128,0,27652:0:0:0:0:
192,192,27429,128,0,27503:0:0:0:0:
320,192,27503,128,0,27578:0:0:0:0:
448,192,27578,128,0,27652:0:0:0:0:
320,192,27652,128,0,27726:0:0:0:0:
192,192,27726,128,0,27800:0:0:0:0:
64,192,27726,1,0,0:0:0:0:
448,192,27726,128,0,27949:0:0:0:0:
320,192,27800,128,0,27875:0:0:0:0:
64,192,27875,128,0,27949:0:0:0:0:
192,192,27949,128,0,28023:0:0:0:0:
320,192,28023,128,0,28097:0:0:0:0:
64,192,28023,128,0,28246:0:0:0:0:
448,192,28023,1,0,0:0:0:0:
192,192,28097,128,0,28172:0:0:0:0:
320,192,28172,128,0,28246:0:0:0:0:
448,192,28246,128,0,28320:0:0:0:0:
192,192,28320,128,0,28543:0:0:0:0:
320,192,28320,128,0,28394:0:0:0:0:
64,192,28320,1,0,0:0:0:0:
448,192,28394,128,0,28469:0:0:0:0:
64,192,28469,128,0,28543:0:0:0:0:
320,192,28543,128,0,28617:0:0:0:0:
448,192,28617,128,0,28691:0:0:0:0:
192,192,28617,128,0,28766:0:0:0:0:
64,192,28691,128,0,28840:0:0:0:0:
320,192,28766,128,0,28914:0:0:0:0:
448,192,28766,128,0,28840:0:0:0:0:
192,192,28840,128,0,28989:0:0:0:0:
64,192,28914,128,0,28989:0:0:0:0:
448,192,28914,128,0,29063:0:0:0:0:
320,192,28989,128,0,29137:0:0:0:0:
192,192,29063,128,0,29211:0:0:0:0:
64,192,29063,128,0,29137:0:0:0:0:
448,192,29137,128,0,29286:0:0:0:0:
64,192,29211,128,0,29360:0:0:0:0:
320,192,29211,128,0,29286:0:0:0:0:
192,192,29286,128,0,29434:0:0:0:0:
320,192,29360,128,0,29434:0:0:0:0:
448,192,29360,128,0,29508:0:0:0:0:
64,192,29434,128,0,29583:0:0:0:0:
192,192,29508,128,0,29583:0:0:0:0:
320,192,29508,128,0,29657:0:0:0:0:
448,192,29583,128,0,29731:0:0:0:0:
192,192,29657,128,0,29805:0:0:0:0:
64,192,29657,128,0,29731:0:0:0:0:
320,192,29731,128,0,29805:0:0:0:0:
64,192,29805,128,0,30028:0:0:0:0:
448,192,29805,128,0,29880:0:0:0:0:
320,192,29880,128,0,29954:0:0:0:0:
192,192,29954,128,0,30028:0:0:0:0:
448,192,30028,128,0,30102:0:0:0:0:
320,192,30102,128,0,30325:0:0:0:0:
192,192,30102,128,0,30177:0:0:0:0:
64,192,30102,1,0,0:0:0:0:
448,192,30177,128,0,30251:0:0:0:0:
64,192,30251,128,0,30325:0:0:0:0:
192,192,30325,128,0,30399:0:0:0:0:
320,192,30399,128,0,30474:0:0:0:0:
448,192,30399,128,0,30622:0:0:0:0:
64,192,30399,1,0,0:0:0:0:
192,192,30474,128,0,30548:0:0:0:0:
64,192,30548,128,0,30622:0:0:0:0:
192,192,30622,128,0,30696:0:0:0:0:
320,192,30696,128,0,30919:0:0:0:0:
448,192,30696,128,0,30771:0:0:0:0:
64,192,30696,1,0,0:0:0:0:
192,192,30771,128,0,30845:0:0:0:0:
64,192,30845,128,0,30919:0:0:0:0:
448,192,30919,128,0,30993:0:0:0:0:
192,192,30993,128,0,31068:0:0:0:0:
64,192,30993,128,0,31142:0:0:0:0:
448,192,31068,128,0,31216:0:0:0:0:
320,192,31142,128,0,31216:0:0:0:0:
192,192,31142,128,0,31291:0:0:0:0:
64,192,31216,128,0,31365:0:0:0:0:
320,192,31291,128,0,31439:0:0:0:0:
448,192,31291,128,0,31365:0:0:0:0:
192,192,31365,128,0,31513:0:0:0:0:
64,192,31439,128,0,31513:0:0:0:0:
448,192,31439,128,0,31588:0:0:0:0:
320,192,31513,128,0,31662:0:0:0:0:
192,192,31588,128,0,31736:0:0:0:0:
64,192,31588,128,0,31662:0:0:0:0:
448,192,31662,128,0,31810:0:0:0:0:
320,192,31736,128,0,31810:0:0:0:0:
64,192,31736,128,0,31885:0:0:0:0:
192,192,31810,128,0,31959:0:0:0:0:
320,192,31885,128,0,32033:0:0:0:0:
448,192,31885,128,0,31959:0:0:0:0:
64,192,31959,128,0,32107:0:0:0:0:
192,192,32033,128,0,32107:0:0:0:0:
448,192,32033,128,0,32182:0:0:0:0:
320,192,32107,128,0,32182:0:0:0:0:
192,192,32182,1,0,0:0:0:0:
64,192,32182,128,0,32404:0:0:0:0:
448,192,32256,128,0,32330:0:0:0:0:
192,192,32330,128,0,32404:0:0:0:0:
320,192,32330,128,0,32479:0:0:0:0:
448,192,32404,128,0,32553:0:0:0:0:
192,192,32479,128,0,32553:0:0:0:0:
64,192,32479,128,0,32627:0:0:0:0:
320,192,32553,128,0,32701:0:0:0:0:
192,192,32627,128,0,32776:0:0:0:0:
448,192,32627,128,0,32701:0:0:0:0:
64,192,32701,128,0,32776:0:0:0:0:
448,192,32776,128,0,32998:0:0:0:0:
320,192,32776,1,0,0:0:0:0:
192,192,32850,128,0,32924:0:0:0:0:
320,192,32924,128,0,33073:0:0:0:0:
64,192,32924,128,0,32998:0:0:0:0:
192,192,32998,128,0,33147:0:0:0:0:
64,192,33073,128,0,33295:0:0:0:0:
448,192,33073,128,0,33295:0:0:0:0:
320,192,33147,128,0,33221:0:0:0:0:
192,192,33221,128,0,33370:0:0:0:0:
320,192,33295,128,0,33370:0:0:0:0:
448,192,33370,1,0,0:0:0:0:
64,192,33370,128,0,33444:0:0:0:0:
192,192,33444,128,0,33518:0:0:0:0:
320,192,33518,128,0,33592:0:0:0:0:
448,192,33592,128,0,33667:0:0:0:0:
64,192,33667,1,0,0:0:0:0:
320,192,33667,128,0,33741:0:0:0:0:
192,192,33741,128,0,33815:0:0:0:0:
448,192,33815,1,0,0:0:0:0:
64,192,33815,128,0,33890:0:0:0:0:
320,192,33890,1,0,0:0:0:0:
64,192,33964,1,0,0:0:0:0:
192,192,33964,128,0,34038:0:0:0:0:
320,192,34038,128,0,34112:0:0:0:0:
64,192,34112,1,0,0:0:0:0:
448,192,34112,128,0,34187:0:0:0:0:
320,192,34187,128,0,34261:0:0:0:0:
192,192,34261,1,0,0:0:0:0:
64,192,34261,1,0,0:0:0:0:
448,192,34261,1,0,0:0:0:0:
320,192,34558,1,0,0:0:0:0:
448,192,34558,128,0,34781:0:0:0:0:
192,192,34558,1,0,0:0:0:0:
64,192,34706,128,0,34781:0:0:0:0:
192,192,34706,128,0,34781:0:0:0:0:
320,192,34781,128,0,34855:0:0:0:0:
64,192,34855,1,0,0:0:0:0:
448,192,34855,1,0,0:0:0:0:
192,192,34855,128,0,35078:0:0:0:0:
320,192,35003,128,0,35078:0:0:0:0:
448,192,35003,128,0,35078:0:0:0:0:
64,192,35078,128,0,35152:0:0:0:0:
192,192,35152,1,0,0:0:0:0:
448,192,35152,1,0,0:0:0:0:
320,192,35152,128,0,35300:0:0:0:0:
64,192,35300,1,0,0:0:0:0:
192,192,35300,1,0,0:0:0:0:
448,192,35300,128,0,35449:0:0:0:0:
320,192,35449,128,0,35672:0:0:0:0:
64,192,35523,1,0,0:0:0:0:
192,192,35523,128,0,35597:0:0:0:0:
448,192,35597,128,0,35746:0:0:0:0:
64,192,35672,128,0,35746:0:0:0:0:
320,192,35746,1,0,0:0:0:0:
192,192,35746,128,0,35894:0:0:0:0:
448,192,35820,128,0,35969:0:0:0:0:
320,192,35894,128,0,36043:0:0:0:0:
64,192,35894,1,0,0:0:0:0:
192,192,35969,128,0,36117:0:0:0:0:
64,192,36043,128,0,36191:0:0:0:0:
448,192,36043,1,0,0:0:0:0:
320,192,36117,1,0,0:0:0:0:
448,192,36191,1,0,0:0:0:0:
192,192,36191,128,0,36340:0:0:0:0:
320,192,36266,128,0,36340:0:0:0:0:
448,192,36340,128,0,36489:0:0:0:0:
64,192,36340,1,0,0:0:0:0:
320,192,36489,1,0,0:0:0:0:
64,192,36489,1,0,0:0:0:0:
192,192,36563,1,0,0:0:0:0:
320,192,36637,1,0,0:0:0:0:
448,192,36637,128,0,36786:0:0:0:0:
64,192,36637,128,0,36786:0:0:0:0:
192,192,36786,128,0,36860:0:0:0:0:
320,192,36860,128,0,36934:0:0:0:0:
64,192,36934,1,0,0:0:0:0:
192,192,36934,1,0,0:0:0:0:
448,192,36934,128,0,37083:0:0:0:0:
192,192,37083,128,0,37231:0:0:0:0:
448,192,37231,1,0,0:0:0:0:
320,192,37231,1,0,0:0:0:0:
64,192,37231,128,0,37380:0:0:0:0:
192,192,37305,1,0,0:0:0:0:
320,192,37380,128,0,37528:0:0:0:0:
192,192,37454,1,0,0:0:0:0:
448,192,37528,128,0,37677:0:0:0:0:
64,192,37528,128,0,37602:0:0:0:0:
320,192,37602,1,0,0:0:0:0:
192,192,37677,128,0,37825:0:0:0:0:
320,192,37751,1,0,0:0:0:0:
64,192,37825,128,0,37974:0:0:0:0:
448,192,37825,128,0,37899:0:0:0:0:
192,192,37899,1,0,0:0:0:0:
320,192,37974,128,0,38122:0:0:0:0:
64,192,38048,1,0,0:0:0:0:
448,192,38122,1,0,0:0:0:0:
192,192,38122,128,0,38271:0:0:0:0:
320,192,38271,1,0,0:0:0:0:
192,192,38419,1,0,0:0:0:0:
448,192,38419,1,0,0:0:0:0:
64,192,38419,128,0,38493:0:0:0:0:
320,192,38493,1,0,0:0:0:0:
192,192,38568,128,0,38642:0:0:0:0:
320,192,38642,1,0,0:0:0:0:
64,192,38716,1,0,0:0:0:0:
192,192,38716,1,0,0:0:0:0:
448,192,38716,128,0,38791:0:0:0:0:
320,192,38791,1,0,0:0:0:0:
448,192,38865,128,0,38939:0:0:0:0:
64,192,38865,1,0,0:0:0:0:
192,192,38939,1,0,0:0:0:0:
320,192,39013,1,0,0:0:0:0:
448,192,39013,1,0,0:0:0:0:
64,192,39013,128,0,39162:0:0:0:0:
192,192,39088,128,0,39236:0:0:0:0:
320,192,39162,128,0,39236:0:0:0:0:
448,192,39162,128,0,39236:0:0:0:0:
64,192,39236,1,0,0:0:0:0:
320,192,39310,1,0,0:0:0:0:
448,192,39310,1,0,0:0:0:0:
192,192,39310,128,0,39459:0:0:0:0:
64,192,39459,128,0,39607:0:0:0:0:
320,192,39459,1,0,0:0:0:0:
192,192,39607,1,0,0:0:0:0:
448,192,39607,1,0,0:0:0:0:
320,192,39607,128,0,39682:0:0:0:0:
64,192,39682,128,0,39756:0:0:0:0:
320,192,39756,128,0,39830:0:0:0:0:
448,192,39756,1,0,0:0:0:0:
192,192,39830,128,0,39904:0:0:0:0:
320,192,39904,1,0,0:0:0:0:
448,192,39904,128,0,40053:0:0:0:0:
64,192,39904,1,0,0:0:0:0:
192,192,39979,1,0,0:0:0:0:
320,192,40053,1,0,0:0:0:0:
64,192,40053,128,0,40201:0:0:0:0:
448,192,40127,1,0,0:0:0:0:
192,192,40201,1,0,0:0:0:0:
320,192,40201,128,0,40276:0:0:0:0:
448,192,40276,128,0,40350:0:0:0:0:
64,192,40350,128,0,40424:0:0:0:0:
192,192,40350,128,0,40424:0:0:0:0:
320,192,40424,128,0,40498:0:0:0:0:
448,192,40498,1,0,0:0:0:0:
192,192,40498,1,0,0:0:0:0:
64,192,40498,128,0,40721:0:0:0:0:
320,192,40573,128,0,40647:0:0:0:0:
448,192,40647,1,0,0:0:0:0:
192,192,40647,1,0,0:0:0:0:
320,192,40721,128,0,40795:0:0:0:0:
64,192,40795,128,0,40870:0:0:0:0:
192,192,40795,1,0,0:0:0:0:
448,192,40795,128,0,41018:0:0:0:0:
320,192,40870,128,0,40944:0:0:0:0:
192,192,40944,128,0,41092:0:0:0:0:
64,192,41018,128,0,41092:0:0:0:0:
448,192,41092,1,0,0:0:0:0:
320,192,41092,128,0,41315:0:0:0:0:
192,192,41167,128,0,41241:0:0:0:0:
64,192,41241,1,0,0:0:0:0:
448,192,41241,128,0,41390:0:0:0:0:
192,192,41315,128,0,41390:0:0:0:0:
320,192,41390,1,0,0:0:0:0:
64,192,41390,128,0,41464:0:0:0:0:
192,192,41464,128,0,41538:0:0:0:0:
448,192,41538,128,0,41612:0:0:0:0:
320,192,41538,1,0,0:0:0:0:
64,192,41612,128,0,41687:0:0:0:0:
448,192,41687,1,0,0:0:0:0:
192,192,41687,1,0,0:0:0:0:
320,192,41687,128,0,41835:0:0:0:0:
64,192,41835,128,0,41984:0:0:0:0:
448,192,41835,1,0,0:0:0:0:
192,192,41984,1,0,0:0:0:0:
320,192,41984,128,0,42132:0:0:0:0:
448,192,42058,128,0,42132:0:0:0:0:
192,192,42132,128,0,42281:0:0:0:0:
64,192,42132,1,0,0:0:0:0:
320,192,42206,128,0,42281:0:0:0:0:
64,192,42281,128,0,42429:0:0:0:0:
448,192,42281,128,0,42355:0:0:0:0:
192,192,42355,128,0,42429:0:0:0:0:
320,192,42429,128,0,42578:0:0:0:0:
448,192,42429,128,0,42503:0:0:0:0:
192,192,42503,128,0,42652:0:0:0:0:
64,192,42578,128,0,42726:0:0:0:0:
448,192,42578,128,0,42652:0:0:0:0:
320,192,42652,1,0,0:0:0:0:
192,192,42726,1,0,0:0:0:0:
448,192,42726,1,0,0:0:0:0:
320,192,42800,1,0,0:0:0:0:
64,192,42875,1,0,0:0:0:0:
192,192,42875,128,0,43023:0:0:0:0:
320,192,42949,128,0,43097:0:0:0:0:
448,192,43023,128,0,43172:0:0:0:0:
64,192,43023,128,0,43097:0:0:0:0:
192,192,43097,1,0,0:0:0:0:
320,192,43172,128,0,43320:0:0:0:0:
64,192,43172,128,0,43246:0:0:0:0:
192,192,43246,128,0,43394:0:0:0:0:
64,192,43320,128,0,43469:0:0:0:0:
448,192,43320,1,0,0:0:0:0:
320,192,43394,1,0,0:0:0:0:
192,192,43469,1,0,0:0:0:0:
448,192,43469,128,0,43543:0:0:0:0:
320,192,43543,128,0,43617:0:0:0:0:
192,192,43617,128,0,43691:0:0:0:0:
64,192,43617,128,0,43766:0:0:0:0:
448,192,43617,1,0,0:0:0:0:
320,192,43691,1,0,0:0:0:0:
448,192,43766,1,0,0:0:0:0:
192,192,43766,128,0,43840:0:0:0:0:
320,192,43840,128,0,43914:0:0:0:0:
448,192,43914,128,0,43989:0:0:0:0:
64,192,43914,1,0,0:0:0:0:
320,192,43989,1,0,0:0:0:0:
64,192,44063,1,0,0:0:0:0:
448,192,44063,1,0,0:0:0:0:
192,192,44063,128,0,44211:0:0:0:0:
448,192,44211,1,0,0:0:0:0:
320,192,44211,128,0,44360:0:0:0:0:
64,192,44360,1,0,0:0:0:0:
448,192,44360,1,0,0:0:0:0:
192,192,44360,128,0,44434:0:0:0:0:
320,192,44434,128,0,44508:0:0:0:0:
64,192,44508,1,0,0:0:0:0:
448,192,44508,128,0,44583:0:0:0:0:
192,192,44583,1,0,0:0:0:0:
64,192,44657,1,0,0:0:0:0:
320,192,44657,128,0,44805:0:0:0:0:
192,192,44731,128,0,44880:0:0:0:0:
448,192,44805,128,0,44880:0:0:0:0:
64,192,44805,128,0,44954:0:0:0:0:
320,192,44880,1,0,0:0:0:0:
448,192,44954,1,0,0:0:0:0:
192,192,44954,128,0,45102:0:0:0:0:
64,192,45028,128,0,45102:0:0:0:0:
320,192,45102,1,0,0:0:0:0:
448,192,45102,1,0,0:0:0:0:
192,192,45177,128,0,45251:0:0:0:0:
320,192,45251,128,0,45325:0:0:0:0:
64,192,45251,128,0,45399:0:0:0:0:
448,192,45251,1,0,0:0:0:0:
192,192,45325,128,0,45474:0:0:0:0:
448,192,45399,128,0,45474:0:0:0:0:
320,192,45399,128,0,45548:0:0:0:0:
64,192,45474,128,0,45696:0:0:0:0:
192,192,45548,128,0,45622:0:0:0:0:
448,192,45548,1,0,0:0:0:0:
320,192,45622,128,0,45771:0:0:0:0:
448,192,45696,1,0,0:0:0:0:
192,192,45696,128,0,45771:0:0:0:0:
64,192,45771,128,0,45845:0:0:0:0:
320,192,45845,1,0,0:0:0:0:
448,192,45845,128,0,46068:0:0:0:0:
64,192,45919,1,0,0:0:0:0:
192,192,45919,1,0,0:0:0:0:
320,192,45993,128,0,46216:0:0:0:0:
64,192,46068,1,0,0:0:0:0:
192,192,46142,128,0,46365:0:0:0:0:
448,192,46216,128,0,46291:0:0:0:0:
64,192,46291,128,0,46439:0:0:0:0:
320,192,46365,128,0,46439:0:0:0:0:
192,192,46439,1,0,0:0:0:0:
448,192,46439,128,0,46588:0:0:0:0:
64,192,46588,128,0,46736:0:0:0:0:
320,192,46588,1,0,0:0:0:0:
192,192,46736,1,0,0:0:0:0:
448,192,46736,1,0,0:0:0:0:
320,192,46736,128,0,46885:0:0:0:0:
64,192,46810,128,0,46959:0:0:0:0:
448,192,46885,1,0,0:0:0:0:
192,192,46885,128,0,47033:0:0:0:0:
320,192,46959,128,0,47033:0:0:0:0:
64,192,47033,1,0,0:0:0:0:
448,192,47033,128,0,47182:0:0:0:0:
192,192,47107,128,0,47256:0:0:0:0:
320,192,47182,128,0,47330:0:0:0:0:
64,192,47182,1,0,0:0:0:0:
448,192,47256,128,0,47330:0:0:0:0:
192,192,47330,1,0,0:0:0:0:
64,192,47330,128,0,47479:0:0:0:0:
320,192,47404,128,0,47553:0:0:0:0:
192,192,47479,128,0,47627:0:0:0:0:
448,192,47479,1,0,0:0:0:0:
64,192,47553,128,0,47627:0:0:0:0:
320,192,47627,128,0,47776:0:0:0:0:
448,192,47627,128,0,47701:0:0:0:0:
192,192,47701,128,0,47850:0:0:0:0:
448,192,47776,128,0,47924:0:0:0:0:
64,192,47776,128,0,47850:0:0:0:0:
320,192,47850,128,0,47998:0:0:0:0:
64,192,47924,128,0,47998:0:0:0:0:
192,192,47924,128,0,48073:0:0:0:0:
448,192,47998,128,0,48147:0:0:0:0:
64,192,48073,128,0,48147:0:0:0:0:
320,192,48073,128,0,48147:0:0:0:0:
192,192,48147,128,0,48221:0:0:0:0:
448,192,48221,1,0,0:0:0:0:
320,192,48221,1,0,0:0:0:0:
64,192,48221,1,0,0:0:0:0:
192,192,48295,128,0,48444:0:0:0:0:
320,192,48370,128,0,48444:0:0:0:0:
64,192,48370,128,0,48518:0:0:0:0:
448,192,48444,1,0,0:0:0:0:
192,192,48518,128,0,48592:0:0:0:0:
320,192,48518,128,0,48667:0:0:0:0:
448,192,48592,128,0,48667:0:0:0:0:
64,192,48667,1,0,0:0:0:0:
192,192,48667,128,0,48741:0:0:0:0:
320,192,48741,128,0,48815:0:0:0:0:
448,192,48815,1,0,0:0:0:0:
64,192,48815,1,0,0:0:0:0:
192,192,48890,1,0,0:0:0:0:
320,192,48964,128,0,49038:0:0:0:0:
448,192,48964,128,0,49038:0:0:0:0:
192,192,49038,1,0,0:0:0:0:
64,192,49112,1,0,0:0:0:0:
320,192,49112,128,0,49187:0:0:0:0:
448,192,49112,128,0,49187:0:0:0:0:
192,192,49187,128,0,49261:0:0:0:0:
64,192,49261,1,0,0:0:0:0:
320,192,49261,1,0,0:0:0:0:
192,192,49335,1,0,0:0:0:0:
64,192,49409,128,0,49558:0:0:0:0:
320,192,49409,128,0,49484:0:0:0:0:
448,192,49409,128,0,49632:0:0:0:0:
320,192,49558,1,0,0:0:0:0:
192,192,49558,128,0,49632:0:0:0:0:
64,192,49632,128,0,49781:0:0:0:0:
320,192,49706,128,0,49855:0:0:0:0:
192,192,49706,128,0,49781:0:0:0:0:
448,192,49781,128,0,49929:0:0:0:0:
192,192,49855,1,0,0:0:0:0:
64,192,49855,128,0,49929:0:0:0:0:
320,192,49929,128,0,50003:0:0:0:0:
448,192,50003,1,0,0:0:0:0:
64,192,50003,128,0,50226:0:0:0:0:
320,192,50078,1,0,0:0:0:0:
192,192,50152,128,0,50375:0:0:0:0:
448,192,50226,1,0,0:0:0:0:
320,192,50300,128,0,50523:0:0:0:0:
64,192,50300,1,0,0:0:0:0:
448,192,50375,1,0,0:0:0:0:
192,192,50449,128,0,50597:0:0:0:0:
64,192,50523,1,0,0:0:0:0:
320,192,50597,1,0,0:0:0:0:
448,192,50597,128,0,50820:0:0:0:0:
192,192,50672,1,0,0:0:0:0:
320,192,50746,128,0,50969:0:0:0:0:
64,192,50820,128,0,50894:0:0:0:0:
192,192,50894,128,0,51043:0:0:0:0:
64,192,50969,128,0,51117:0:0:0:0:
448,192,50969,128,0,51117:0:0:0:0:
320,192,51043,128,0,51117:0:0:0:0:
192,192,51117,128,0,51191:0:0:0:0:
64,192,51191,1,0,0:0:0:0:
320,192,51191,1,0,0:0:0:0:
448,192,51191,128,0,51414:0:0:0:0:
192,192,51266,1,0,0:0:0:0:
320,192,51340,1,0,0:0:0:0:
64,192,51340,1,0,0:0:0:0:
192,192,51414,1,0,0:0:0:0:
320,192,51489,1,0,0:0:0:0:
448,192,51489,1,0,0:0:0:0:
64,192,51489,128,0,51711:0:0:0:0:
320,192,51637,128,0,51711:0:0:0:0:
448,192,51637,128,0,51711:0:0:0:0:
192,192,51786,128,0,52008:0:0:0:0:
320,192,51786,1,0,0:0:0:0:
448,192,51786,1,0,0:0:0:0:
64,192,51934,128,0,52008:0:0:0:0:
320,192,51934,128,0,52008:0:0:0:0:
448,192,52083,128,0,52305:0:0:0:0:
192,192,52083,1,0,0:0:0:0:
64,192,52083,1,0,0:0:0:0:
320,192,52231,128,0,52305:0:0:0:0:
192,192,52231,128,0,52305:0:0:0:0:
64,192,52380,128,0,52602:0:0:0:0:
448,192,52380,1,0,0:0:0:0:
192,192,52380,1,0,0:0:0:0:
320,192,52380,128,0,52454:0:0:0:0:
448,192,52528,128,0,52602:0:0:0:0:
192,192,52528,128,0,52602:0:0:0:0:
320,192,52602,1,0,0:0:0:0:
64,192,52677,1,0,0:0:0:0:
448,192,52677,128,0,52899:0:0:0:0:
192,192,52677,128,0,52751:0:0:0:0:
320,192,52751,1,0,0:0:0:0:
192,192,52825,128,0,52899:0:0:0:0:
64,192,52825,128,0,52899:0:0:0:0:
320,192,52899,1,0,0:0:0:0:
448,192,52974,1,0,0:0:0:0:
64,192,52974,1,0,0:0:0:0:
192,192,52974,128,0,53048:0:0:0:0:
320,192,53048,128,0,53122:0:0:0:0:
448,192,53122,128,0,53196:0:0:0:0:
192,192,53122,128,0,53196:0:0:0:0:
64,192,53196,128,0,53271:0:0:0:0:
320,192,53271,128,0,53345:0:0:0:0:
192,192,53271,128,0,53345:0:0:0:0:
448,192,53271,128,0,53345:0:0:0:0:
64,192,53345,128,0,53419:0:0:0:0:
192,192,53419,128,0,53493:0:0:0:0:
320,192,53419,128,0,53493:0:0:0:0:
448,192,53493,128,0,53568:0:0:0:0:
64,192,53568,128,0,53642:0:0:0:0:
192,192,53568,1,0,0:0:0:0:
320,192,53568,1,0,0:0:0:0:
448,192,53642,1,0,0:0:0:0:
64,192,53716,1,0,0:0:0:0:
320,192,53791,1,0,0:0:0:0:
192,192,53865,1,0,0:0:0:0:
448,192,53939,1,0,0:0:0:0:
64,192,54013,1,0,0:0:0:0:
320,192,54088,1,0,0:0:0:0:
192,192,54162,1,0,0:0:0:0:
64,192,54162,1,0,0:0:0:0:
448,192,54236,1,0,0:0:0:0:
320,192,54310,1,0,0:0:0:0:
192,192,54385,1,0,0:0:0:0:
448,192,54459,1,0,0:0:0:0:
320,192,54533,1,0,0:0:0:0:
64,192,54607,1,0,0:0:0:0:
192,192,54682,1,0,0:0:0:0:
320,192,54756,1,0,0:0:0:0:
448,192,54756,1,0,0:0:0:0:
64,192,54756,1,0,0:0:0:0:
192,192,54830,1,0,0:0:0:0:
448,192,54904,1,0,0:0:0:0:
320,192,54979,1,0,0:0:0:0:
64,192,55053,1,0,0:0:0:0:
192,192,55127,1,0,0:0:0:0:
320,192,55201,1,0,0:0:0:0:
192,192,55276,1,0,0:0:0:0:
448,192,55350,1,0,0:0:0:0:
320,192,55424,1,0,0:0:0:0:
192,192,55498,1,0,0:0:0:0:
64,192,55573,1,0,0:0:0:0:
448,192,55647,1,0,0:0:0:0:
192,192,55721,1,0,0:0:0:0:
64,192,55795,1,0,0:0:0:0:
320,192,55795,1,0,0:0:0:0:
448,192,55870,1,0,0:0:0:0:
192,192,55944,1,0,0:0:0:0:
320,192,55944,1,0,0:0:0:0:
64,192,55944,1,0,0:0:0:0:
448,192,56018,1,0,0:0:0:0:
192,192,56092,1,0,0:0:0:0:
320,192,56167,1,0,0:0:0:0:
64,192,56241,1,0,0:0:0:0:
192,192,56315,1,0,0:0:0:0:
320,192,56390,1,0,0:0:0:0:
448,192,56464,1,0,0:0:0:0:
320,192,56538,1,0,0:0:0:0:
64,192,56538,1,0,0:0:0:0:
192,192,56612,1,0,0:0:0:0:
64,192,56687,1,0,0:0:0:0:
448,192,56687,1,0,0:0:0:0:
320,192,56761,1,0,0:0:0:0:
192,192,56835,1,0,0:0:0:0:
448,192,56835,1,0,0:0:0:0:
64,192,56909,1,0,0:0:0:0:
320,192,56984,1,0,0:0:0:0:
192,192,57058,1,0,0:0:0:0:
448,192,57132,1,0,0:0:0:0:
320,192,57132,1,0,0:0:0:0:
64,192,57132,1,0,0:0:0:0:
192,192,57206,1,0,0:0:0:0:
320,192,57281,1,0,0:0:0:0:
448,192,57355,1,0,0:0:0:0:
64,192,57429,1,0,0:0:0:0:
320,192,57429,1,0,0:0:0:0:
192,192,57503,1,0,0:0:0:0:
320,192,57578,1,0,0:0:0:0:
448,192,57578,1,0,0:0:0:0:
192,192,57652,1,0,0:0:0:0:
64,192,57726,1,0,0:0:0:0:
320,192,57800,1,0,0:0:0:0:
448,192,57875,1,0,0:0:0:0:
320,192,57949,1,0,0:0:0:0:
192,192,58023,1,0,0:0:0:0:
64,192,58023,1,0,0:0:0:0:
320,192,58097,1,0,0:0:0:0:
448,192,58172,1,0,0:0:0:0:
64,192,58246,1,0,0:0:0:0:
192,192,58320,1,0,0:0:0:0:
320,192,58320,128,0,58394:0:0:0:0:
448,192,58320,128,0,58394:0:0:0:0:
192,192,58469,1,0,0:0:0:0:
320,192,58469,1,0,0:0:0:0:
64,192,58469,128,0,58543:0:0:0:0:
448,192,58617,1,0,0:0:0:0:
320,192,58617,128,0,58691:0:0:0:0:
192,192,58617,128,0,58691:0:0:0:0:
448,192,58766,1,0,0:0:0:0:
64,192,58766,1,0,0:0:0:0:
192,192,58766,128,0,58840:0:0:0:0:
64,192,58914,1,0,0:0:0:0:
320,192,58914,128,0,58989:0:0:0:0:
448,192,58914,128,0,58989:0:0:0:0:
320,192,59063,1,0,0:0:0:0:
448,192,59063,1,0,0:0:0:0:
192,192,59063,128,0,59137:0:0:0:0:
192,192,59211,1,0,0:0:0:0:
64,192,59211,128,0,59286:0:0:0:0:
320,192,59211,128,0,59286:0:0:0:0:
320,192,59360,1,0,0:0:0:0:
64,192,59360,1,0,0:0:0:0:
448,192,59360,128,0,59434:0:0:0:0:
448,192,59508,1,0,0:0:0:0:
192,192,59508,128,0,59583:0:0:0:0:
64,192,59508,128,0,59583:0:0:0:0:
448,192,59657,1,0,0:0:0:0:
192,192,59657,1,0,0:0:0:0:
320,192,59657,128,0,59731:0:0:0:0:
448,192,59805,1,0,0:0:0:0:
64,192,59805,128,0,59880:0:0:0:0:
320,192,59805,128,0,59880:0:0:0:0:
448,192,59954,1,0,0:0:0:0:
64,192,59954,1,0,0:0:0:0:
192,192,59954,128,0,60028:0:0:0:0:
192,192,60102,1,0,0:0:0:0:
320,192,60102,128,0,60177:0:0:0:0:
64,192,60102,128,0,60177:0:0:0:0:
448,192,60177,1,0,0:0:0:0:
64,192,60251,1,0,0:0:0:0:
320,192,60251,1,0,0:0:0:0:
192,192,60325,1,0,0:0:0:0:
64,192,60399,1,0,0:0:0:0:
320,192,60399,1,0,0:0:0:0:
448,192,60399,1,0,0:0:0:0:
192,192,60474,1,0,0:0:0:0:
64,192,60548,1,0,0:0:0:0:
320,192,60548,1,0,0:0:0:0:
448,192,60622,1,0,0:0:0:0:
192,192,60696,128,0,60771:0:0:0:0:
64,192,60696,128,0,60771:0:0:0:0:
320,192,60771,1,0,0:0:0:0:
448,192,60771,1,0,0:0:0:0:
192,192,60845,1,0,0:0:0:0:
64,192,60845,1,0,0:0:0:0:
320,192,60919,1,0,0:0:0:0:
448,192,60919,1,0,0:0:0:0:
64,192,60993,1,0,0:0:0:0:
192,192,60993,1,0,0:0:0:0:
320,192,61068,1,0,0:0:0:0:
448,192,61068,1,0,0:0:0:0:
192,192,61142,1,0,0:0:0:0:
64,192,61142,1,0,0:0:0:0:
448,192,61216,1,0,0:0:0:0:
320,192,61291,128,0,61365:0:0:0:0:
192,192,61291,128,0,61365:0:0:0:0:
64,192,61291,128,0,61365:0:0:0:0:
448,192,61365,1,0,0:0:0:0:
320,192,61439,1,0,0:0:0:0:
192,192,61439,1,0,0:0:0:0:
64,192,61513,1,0,0:0:0:0:
448,192,61513,1,0,0:0:0:0:
320,192,61588,1,0,0:0:0:0:
192,192,61588,1,0,0:0:0:0:
448,192,61662,1,0,0:0:0:0:
64,192,61662,1,0,0:0:0:0:
320,192,61736,1,0,0:0:0:0:
192,192,61736,1,0,0:0:0:0:
64,192,61810,1,0,0:0:0:0:
192,192,61885,128,0,61959:0:0:0:0:
320,192,61885,128,0,61959:0:0:0:0:
448,192,61885,128,0,61959:0:0:0:0:
64,192,61959,1,0,0:0:0:0:
320,192,62033,1,0,0:0:0:0:
448,192,62033,1,0,0:0:0:0:
192,192,62107,1,0,0:0:0:0:
64,192,62182,128,0,62256:0:0:0:0:
320,192,62182,128,0,62256:0:0:0:0:
448,192,62182,128,0,62256:0:0:0:0:
192,192,62256,1,0,0:0:0:0:
448,192,62330,1,0,0:0:0:0:
64,192,62330,1,0,0:0:0:0:
192,192,62404,1,0,0:0:0:0:
320,192,62404,1,0,0:0:0:0:
448,192,62479,1,0,0:0:0:0:
64,192,62479,1,0,0:0:0:0:
192,192,62516,1,0,0:0:0:0:
320,192,62553,1,0,0:0:0:0:
448,192,62590,1,0,0:0:0:0:
64,192,62627,1,0,0:0:0:0:
192,192,62664,1,0,0:0:0:0:
320,192,62701,1,0,0:0:0:0:
448,192,62739,1,0,0:0:0:0:
64,192,62776,1,0,0:0:0:0:
192,192,62776,1,0,0:0:0:0:
320,192,62776,1,0,0:0:0:0:
64,192,63073,5,0,0:0:0:0:
192,192,63073,1,0,0:0:0:0:
192,192,63172,1,0,0:0:0:0:
64,192,63172,1,0,0:0:0:0:
64,192,63271,1,0,0:0:0:0:
192,192,63271,1,0,0:0:0:0:
320,192,63370,1,0,0:0:0:0:
448,192,63370,1,0,0:0:0:0:
448,192,63964,1,0,0:0:0:0:
320,192,63964,1,0,0:0:0:0:
320,192,64063,1,0,0:0:0:0:
448,192,64063,1,0,0:0:0:0:
448,192,64162,1,0,0:0:0:0:
320,192,64162,1,0,0:0:0:0:
192,192,64261,1,0,0:0:0:0:
64,192,64261,1,0,0:0:0:0:
320,192,64558,128,0,64855:0:0:0:0:
192,192,64855,128,0,65152:0:0:0:0:
64,192,65152,128,0,65449:0:0:0:0:
192,192,65449,1,0,0:0:0:0:
320,192,65449,1,0,0:0:0:0:
192,192,65548,1,0,0:0:0:0:
320,192,65548,1,0,0:0:0:0:
320,192,65647,1,0,0:0:0:0:
192,192,65647,1,0,0:0:0:0:
64,192,65746,1,0,0:0:0:0:
448,192,65746,1,0,0:0:0:0:
64,192,66340,1,0,0:0:0:0:
448,192,66340,1,0,0:0:0:0:
448,192,66439,1,0,0:0:0:0:
64,192,66439,1,0,0:0:0:0:
64,192,66538,1,0,0:0:0:0:
448,192,66538,1,0,0:0:0:0:
192,192,66637,1,0,0:0:0:0:
320,192,66637,1,0,0:0:0:0:
320,192,66934,128,0,67231:0:0:0:0:
192,192,67231,128,0,67528:0:0:0:0:
64,192,67528,128,0,67825:0:0:0:0:
448,192,67825,5,0,0:0:0:0:
320,192,67825,1,0,0:0:0:0:
320,192,67924,1,0,0:0:0:0:
448,192,67924,1,0,0:0:0:0:
448,192,68023,1,0,0:0:0:0:
320,192,68023,1,0,0:0:0:0:
192,192,68122,1,0,0:0:0:0:
64,192,68122,1,0,0:0:0:0:
64,192,68716,1,0,0:0:0:0:
192,192,68716,1,0,0:0:0:0:
192,192,68815,1,0,0:0:0:0:
64,192,68815,1,0,0:0:0:0:
64,192,68914,1,0,0:0:0:0:
192,192,68914,1,0,0:0:0:0:
320,192,69013,1,0,0:0:0:0:
448,192,69013,1,0,0:0:0:0:
192,192,69310,128,0,69607:0:0:0:0:
320,192,69607,128,0,69904:0:0:0:0:
448,192,69904,128,0,70201:0:0:0:0:
320,192,70201,1,0,0:0:0:0:
192,192,70201,128,0,70795:0:0:0:0:
64,192,70350,1,0,0:0:0:0:
320,192,70498,1,0,0:0:0:0:
448,192,70498,1,0,0:0:0:0:
64,192,70647,1,0,0:0:0:0:
64,192,70795,1,0,0:0:0:0:
320,192,70795,128,0,71390:0:0:0:0:
448,192,70944,1,0,0:0:0:0:
192,192,71092,1,0,0:0:0:0:
64,192,71092,1,0,0:0:0:0:
448,192,71241,1,0,0:0:0:0:
192,192,71390,1,0,0:0:0:0:
64,192,71390,1,0,0:0:0:0:
448,192,71390,128,0,71984:0:0:0:0:
320,192,71538,1,0,0:0:0:0:
64,192,71687,1,0,0:0:0:0:
192,192,71687,1,0,0:0:0:0:
320,192,71835,1,0,0:0:0:0:
320,192,71984,1,0,0:0:0:0:
192,192,71984,128,0,72503:0:0:0:0:
64,192,72132,1,0,0:0:0:0:
320,192,72281,1,0,0:0:0:0:
448,192,72281,1,0,0:0:0:0:
64,192,72429,1,0,0:0:0:0:
448,192,72578,128,0,72800:0:0:0:0:
320,192,72578,128,0,72652:0:0:0:0:
192,192,72578,128,0,72652:0:0:0:0:
64,192,72726,128,0,72875:0:0:0:0:
192,192,72726,128,0,72800:0:0:0:0:
192,192,72875,128,0,73023:0:0:0:0:
320,192,72875,128,0,72949:0:0:0:0:
448,192,72875,128,0,72949:0:0:0:0:
320,192,73023,128,0,73172:0:0:0:0:
64,192,73023,128,0,73097:0:0:0:0:
64,192,73172,128,0,73320:0:0:0:0:
192,192,73172,128,0,73246:0:0:0:0:
448,192,73172,128,0,73246:0:0:0:0:
320,192,73320,128,0,73394:0:0:0:0:
192,192,73320,128,0,73469:0:0:0:0:
320,192,73469,128,0,73543:0:0:0:0:
64,192,73469,128,0,73543:0:0:0:0:
448,192,73469,128,0,73617:0:0:0:0:
64,192,73617,128,0,73766:0:0:0:0:
192,192,73617,128,0,73691:0:0:0:0:
320,192,73617,128,0,73691:0:0:0:0:
192,192,73766,128,0,73840:0:0:0:0:
320,192,73766,128,0,73840:0:0:0:0:
448,192,73766,128,0,73989:0:0:0:0:
192,192,73914,128,0,74137:0:0:0:0:
320,192,73914,128,0,73989:0:0:0:0:
64,192,73914,128,0,73989:0:0:0:0:
320,192,74063,128,0,74286:0:0:0:0:
64,192,74063,128,0,74137:0:0:0:0:
448,192,74063,128,0,74137:0:0:0:0:
448,192,74211,128,0,74360:0:0:0:0:
192,192,74211,128,0,74286:0:0:0:0:
64,192,74211,128,0,74286:0:0:0:0:
64,192,74360,128,0,74583:0:0:0:0:
320,192,74360,128,0,74434:0:0:0:0:
192,192,74360,128,0,74434:0:0:0:0:
320,192,74508,128,0,74583:0:0:0:0:
192,192,74508,128,0,74583:0:0:0:0:
448,192,74508,128,0,74731:0:0:0:0:
192,192,74657,128,0,74880:0:0:0:0:
64,192,74657,128,0,74731:0:0:0:0:
320,192,74657,128,0,74731:0:0:0:0:
320,192,74805,128,0,74880:0:0:0:0:
448,192,74805,128,0,74880:0:0:0:0:
64,192,74805,128,0,74880:0:0:0:0:
448,192,74954,1,0,0:0:0:0:
320,192,74954,1,0,0:0:0:0:
192,192,75028,1,0,0:0:0:0:
64,192,75028,1,0,0:0:0:0:
320,192,75102,1,0,0:0:0:0:
448,192,75102,1,0,0:0:0:0:
192,192,75177,1,0,0:0:0:0:
64,192,75177,1,0,0:0:0:0:
320,192,75251,1,0,0:0:0:0:
448,192,75251,1,0,0:0:0:0:
192,192,75325,1,0,0:0:0:0:
64,192,75325,1,0,0:0:0:0:
320,192,75399,1,0,0:0:0:0:
448,192,75399,1,0,0:0:0:0:
192,192,75474,1,0,0:0:0:0:
64,192,75474,1,0,0:0:0:0:
448,192,75548,1,0,0:0:0:0:
320,192,75585,1,0,0:0:0:0:
192,192,75622,1,0,0:0:0:0:
64,192,75659,1,0,0:0:0:0:
320,192,75696,1,0,0:0:0:0:
448,192,75696,1,0,0:0:0:0:
192,192,75734,1,0,0:0:0:0:
64,192,75771,1,0,0:0:0:0:
448,192,75808,1,0,0:0:0:0:
320,192,75845,1,0,0:0:0:0:
192,192,75882,1,0,0:0:0:0:
64,192,75919,1,0,0:0:0:0:
448,192,75956,1,0,0:0:0:0:
320,192,75993,1,0,0:0:0:0:
192,192,75993,1,0,0:0:0:0:
64,192,76031,1,0,0:0:0:0:
448,192,76068,1,0,0:0:0:0:
320,192,76105,1,0,0:0:0:0:
192,192,76142,1,0,0:0:0:0:
64,192,76142,1,0,0:0:0:0:
320,192,76179,1,0,0:0:0:0:
448,192,76216,1,0,0:0:0:0:
64,192,76253,1,0,0:0:0:0:
192,192,76290,1,0,0:0:0:0:
320,192,76290,1,0,0:0:0:0:
448,192,76328,1,0,0:0:0:0:
64,192,76365,1,0,0:0:0:0:
192,192,76402,1,0,0:0:0:0:
320,192,76439,1,0,0:0:0:0:
448,192,76439,1,0,0:0:0:0:
64,192,76476,1,0,0:0:0:0:
192,192,76513,1,0,0:0:0:0:
320,192,76550,1,0,0:0:0:0:
448,192,76588,1,0,0:0:0:0:
64,192,76588,1,0,0:0:0:0:
192,192,76625,1,0,0:0:0:0:
320,192,76662,1,0,0:0:0:0:
448,192,76699,1,0,0:0:0:0:
64,192,76736,1,0,0:0:0:0:
192,192,76736,1,0,0:0:0:0:
320,192,76773,1,0,0:0:0:0:
448,192,76810,1,0,0:0:0:0:
64,192,76847,1,0,0:0:0:0:
192,192,76885,1,0,0:0:0:0:
320,192,76885,1,0,0:0:0:0:
448,192,76922,1,0,0:0:0:0:
64,192,76959,1,0,0:0:0:0:
192,192,76996,1,0,0:0:0:0:
320,192,77033,1,0,0:0:0:0:
448,192,77033,1,0,0:0:0:0:
448,192,77330,1,0,0:0:0:0:
320,192,77404,1,0,0:0:0:0:
192,192,77479,1,0,0:0:0:0:
64,192,77553,1,0,0:0:0:0:
448,192,77627,1,0,0:0:0:0:
320,192,77701,1,0,0:0:0:0:
192,192,77776,1,0,0:0:0:0:
448,192,77850,1,0,0:0:0:0:
64,192,77924,1,0,0:0:0:0:
192,192,77998,1,0,0:0:0:0:
320,192,78073,1,0,0:0:0:0:
448,192,78147,1,0,0:0:0:0:
64,192,78221,1,0,0:0:0:0:
192,192,78295,1,0,0:0:0:0:
320,192,78370,1,0,0:0:0:0:
192,192,78444,1,0,0:0:0:0:
64,192,78518,1,0,0:0:0:0:
320,192,78592,1,0,0:0:0:0:
192,192,78667,1,0,0:0:0:0:
448,192,78741,1,0,0:0:0:0:
320,192,78815,1,0,0:0:0:0:
192,192,78890,1,0,0:0:0:0:
64,192,78964,1,0,0:0:0:0:
320,192,79038,1,0,0:0:0:0:
448,192,79112,1,0,0:0:0:0:
64,192,79112,1,0,0:0:0:0:
192,192,79187,1,0,0:0:0:0:
320,192,79261,1,0,0:0:0:0:
192,192,79335,1,0,0:0:0:0:
64,192,79409,1,0,0:0:0:0:
320,192,79409,1,0,0:0:0:0:
448,192,79484,1,0,0:0:0:0:
320,192,79558,1,0,0:0:0:0:
64,192,79558,1,0,0:0:0:0:
192,192,79632,1,0,0:0:0:0:
320,192,79706,1,0,0:0:0:0:
448,192,79706,1,0,0:0:0:0:
192,192,79781,1,0,0:0:0:0:
64,192,79855,1,0,0:0:0:0:
320,192,79929,1,0,0:0:0:0:
192,192,80003,1,0,0:0:0:0:
64,192,80003,1,0,0:0:0:0:
448,192,80078,1,0,0:0:0:0:
320,192,80152,1,0,0:0:0:0:
192,192,80152,1,0,0:0:0:0:
64,192,80226,1,0,0:0:0:0:
448,192,80300,1,0,0:0:0:0:
320,192,80300,1,0,0:0:0:0:
192,192,80375,1,0,0:0:0:0:
64,192,80449,1,0,0:0:0:0:
448,192,80523,1,0,0:0:0:0:
320,192,80597,1,0,0:0:0:0:
192,192,80597,1,0,0:0:0:0:
64,192,80672,1,0,0:0:0:0:
448,192,80672,1,0,0:0:0:0:
320,192,80746,1,0,0:0:0:0:
192,192,80746,1,0,0:0:0:0:
64,192,80820,1,0,0:0:0:0:
320,192,80894,1,0,0:0:0:0:
448,192,80894,1,0,0:0:0:0:
192,192,80969,1,0,0:0:0:0:
64,192,80969,1,0,0:0:0:0:
320,192,81043,1,0,0:0:0:0:
448,192,81043,1,0,0:0:0:0:
192,192,81117,1,0,0:0:0:0:
64,192,81191,1,0,0:0:0:0:
320,192,81191,1,0,0:0:0:0:
448,192,81266,1,0,0:0:0:0:
192,192,81266,1,0,0:0:0:0:
320,192,81340,1,0,0:0:0:0:
64,192,81340,1,0,0:0:0:0:
448,192,81414,1,0,0:0:0:0:
320,192,81489,1,0,0:0:0:0:
192,192,81489,1,0,0:0:0:0:
64,192,81563,1,0,0:0:0:0:
448,192,81563,1,0,0:0:0:0:
320,192,81637,1,0,0:0:0:0:
192,192,81637,1,0,0:0:0:0:
448,192,81711,1,0,0:0:0:0:
64,192,81711,1,0,0:0:0:0:
320,192,81786,128,0,82083:0:0:0:0:
192,192,82083,1,0,0:0:0:0:
448,192,82083,128,0,82157:0:0:0:0:
64,192,82083,128,0,82231:0:0:0:0:
320,192,82157,1,0,0:0:0:0:
192,192,82231,128,0,82305:0:0:0:0:
448,192,82231,1,0,0:0:0:0:
320,192,82305,1,0,0:0:0:0:
448,192,82380,128,0,82454:0:0:0:0:
192,192,82380,128,0,82528:0:0:0:0:
64,192,82454,1,0,0:0:0:0:
320,192,82528,128,0,82602:0:0:0:0:
448,192,82528,1,0,0:0:0:0:
64,192,82602,1,0,0:0:0:0:
320,192,82677,128,0,82751:0:0:0:0:
448,192,82677,128,0,82825:0:0:0:0:
192,192,82751,1,0,0:0:0:0:
64,192,82825,128,0,82899:0:0:0:0:
320,192,82825,128,0,82899:0:0:0:0:
192,192,82899,1,0,0:0:0:0:
64,192,82974,128,0,83122:0:0:0:0:
320,192,82974,1,0,0:0:0:0:
448,192,82974,128,0,83048:0:0:0:0:
192,192,83048,1,0,0:0:0:0:
320,192,83122,128,0,83196:0:0:0:0:
448,192,83122,128,0,83196:0:0:0:0:
64,192,83196,1,0,0:0:0:0:
192,192,83271,1,0,0:0:0:0:
448,192,83271,1,0,0:0:0:0:
320,192,83271,128,0,83419:0:0:0:0:
64,192,83345,1,0,0:0:0:0:
192,192,83419,128,0,83493:0:0:0:0:
448,192,83419,128,0,83493:0:0:0:0:
320,192,83493,1,0,0:0:0:0:
192,192,83568,1,0,0:0:0:0:
64,192,83568,128,0,83716:0:0:0:0:
448,192,83568,1,0,0:0:0:0:
320,192,83642,1,0,0:0:0:0:
448,192,83716,128,0,83790:0:0:0:0:
192,192,83716,128,0,83790:0:0:0:0:
64,192,83790,1,0,0:0:0:0:
448,192,83865,1,0,0:0:0:0:
192,192,83865,128,0,84013:0:0:0:0:
320,192,83865,1,0,0:0:0:0:
64,192,83939,1,0,0:0:0:0:
320,192,84013,128,0,84088:0:0:0:0:
448,192,84013,128,0,84088:0:0:0:0:
192,192,84088,1,0,0:0:0:0:
64,192,84162,1,0,0:0:0:0:
448,192,84162,1,0,0:0:0:0:
320,192,84162,128,0,84310:0:0:0:0:
192,192,84236,1,0,0:0:0:0:
64,192,84310,128,0,84385:0:0:0:0:
448,192,84310,128,0,84385:0:0:0:0:
320,192,84385,1,0,0:0:0:0:
448,192,84459,128,0,84607:0:0:0:0:
192,192,84459,1,0,0:0:0:0:
64,192,84459,1,0,0:0:0:0:
320,192,84533,1,0,0:0:0:0:
64,192,84607,128,0,84682:0:0:0:0:
192,192,84607,128,0,84682:0:0:0:0:
448,192,84682,1,0,0:0:0:0:
64,192,84756,1,0,0:0:0:0:
192,192,84756,128,0,84904:0:0:0:0:
320,192,84756,128,0,84830:0:0:0:0:
448,192,84830,128,0,84904:0:0:0:0:
320,192,84904,128,0,84979:0:0:0:0:
64,192,84904,128,0,84979:0:0:0:0:
192,192,84979,128,0,85053:0:0:0:0:
320,192,85053,128,0,85201:0:0:0:0:
64,192,85053,128,0,85127:0:0:0:0:
448,192,85053,1,0,0:0:0:0:
192,192,85127,128,0,85201:0:0:0:0:
64,192,85201,128,0,85276:0:0:0:0:
448,192,85201,128,0,85350:0:0:0:0:
192,192,85276,128,0,85424:0:0:0:0:
64,192,85350,128,0,85498:0:0:0:0:
320,192,85350,128,0,85424:0:0:0:0:
448,192,85424,128,0,85573:0:0:0:0:
192,192,85498,128,0,85573:0:0:0:0:
320,192,85498,128,0,85573:0:0:0:0:
64,192,85573,128,0,85647:0:0:0:0:
448,192,85647,128,0,85870:0:0:0:0:
320,192,85647,128,0,85721:0:0:0:0:
192,192,85647,128,0,85721:0:0:0:0:
320,192,85795,128,0,85870:0:0:0:0:
64,192,85795,128,0,86018:0:0:0:0:
192,192,85944,128,0,86167:0:0:0:0:
320,192,85944,128,0,86018:0:0:0:0:
448,192,85944,128,0,86018:0:0:0:0:
320,192,86092,128,0,86315:0:0:0:0:
64,192,86092,128,0,86167:0:0:0:0:
64,192,86241,128,0,86464:0:0:0:0:
192,192,86241,128,0,86315:0:0:0:0:
448,192,86241,128,0,86315:0:0:0:0:
320,192,86390,128,0,86464:0:0:0:0:
448,192,86390,128,0,86538:0:0:0:0:
64,192,86538,128,0,86761:0:0:0:0:
192,192,86538,128,0,86612:0:0:0:0:
320,192,86538,128,0,86612:0:0:0:0:
448,192,86612,128,0,86687:0:0:0:0:
192,192,86687,128,0,86761:0:0:0:0:
448,192,86761,128,0,86835:0:0:0:0:
192,192,86835,1,0,0:0:0:0:
64,192,86835,128,0,86984:0:0:0:0:
320,192,86835,128,0,86909:0:0:0:0:
448,192,86909,128,0,86984:0:0:0:0:
192,192,86984,128,0,87132:0:0:0:0:
320,192,86984,128,0,87058:0:0:0:0:
64,192,87058,128,0,87206:0:0:0:0:
448,192,87132,128,0,87281:0:0:0:0:
320,192,87132,128,0,87206:0:0:0:0:
192,192,87206,128,0,87281:0:0:0:0:
320,192,87281,128,0,87429:0:0:0:0:
64,192,87281,128,0,87355:0:0:0:0:
192,192,87355,128,0,87503:0:0:0:0:
448,192,87429,128,0,87578:0:0:0:0:
64,192,87429,128,0,87503:0:0:0:0:
320,192,87503,128,0,87578:0:0:0:0:
192,192,87578,128,0,87726:0:0:0:0:
64,192,87578,128,0,87652:0:0:0:0:
448,192,87652,128,0,87800:0:0:0:0:
64,192,87726,128,0,87875:0:0:0:0:
320,192,87726,128,0,87800:0:0:0:0:
192,192,87800,128,0,87875:0:0:0:0:
320,192,87875,128,0,88023:0:0:0:0:
448,192,87875,128,0,87949:0:0:0:0:
192,192,87949,128,0,88097:0:0:0:0:
64,192,88023,128,0,88097:0:0:0:0:
448,192,88023,128,0,88172:0:0:0:0:
320,192,88097,128,0,88172:0:0:0:0:
192,192,88172,128,0,88246:0:0:0:0:
64,192,88172,128,0,88320:0:0:0:0:
320,192,88246,128,0,88394:0:0:0:0:
192,192,88320,128,0,88394:0:0:0:0:
448,192,88320,128,0,88469:0:0:0:0:
64,192,88394,128,0,88543:0:0:0:0:
192,192,88469,128,0,88543:0:0:0:0:
320,192,88469,128,0,88617:0:0:0:0:
448,192,88543,128,0,88691:0:0:0:0:
192,192,88617,128,0,88766:0:0:0:0:
64,192,88617,128,0,88691:0:0:0:0:
320,192,88691,128,0,88766:0:0:0:0:
448,192,88766,128,0,88840:0:0:0:0:
64,192,88766,128,0,88914:0:0:0:0:
192,192,88840,128,0,88989:0:0:0:0:
320,192,88914,128,0,89063:0:0:0:0:
448,192,88914,128,0,88989:0:0:0:0:
64,192,88989,128,0,89063:0:0:0:0:
192,192,89063,128,0,89137:0:0:0:0:
448,192,89063,128,0,89211:0:0:0:0:
64,192,89137,128,0,89211:0:0:0:0:
192,192,89211,128,0,89286:0:0:0:0:
320,192,89211,128,0,90325:0:0:0:0:
64,192,89286,128,0,89434:0:0:0:0:
192,192,89360,128,0,89508:0:0:0:0:
448,192,89360,128,0,89434:0:0:0:0:
64,192,89508,128,0,89583:0:0:0:0:
448,192,89508,128,0,89657:0:0:0:0:
192,192,89583,128,0,89731:0:0:0:0:
64,192,89657,128,0,89731:0:0:0:0:
448,192,89731,128,0,89805:0:0:0:0:
192,192,89805,128,0,89954:0:0:0:0:
64,192,89805,128,0,89880:0:0:0:0:
448,192,89880,128,0,90028:0:0:0:0:
64,192,89954,128,0,90028:0:0:0:0:
192,192,90028,128,0,90102:0:0:0:0:
448,192,90102,128,0,90251:0:0:0:0:
64,192,90102,128,0,90177:0:0:0:0:
192,192,90177,128,0,90325:0:0:0:0:
64,192,90251,128,0,90325:0:0:0:0:
448,192,90325,128,0,90399:0:0:0:0:
64,192,90399,128,0,90548:0:0:0:0:
192,192,90399,128,0,90474:0:0:0:0:
448,192,90474,128,0,90548:0:0:0:0:
320,192,90548,128,0,90622:0:0:0:0:
192,192,90548,128,0,90696:0:0:0:0:
448,192,90622,128,0,90771:0:0:0:0:
64,192,90696,128,0,90845:0:0:0:0:
320,192,90696,128,0,90771:0:0:0:0:
192,192,90771,128,0,90845:0:0:0:0:
320,192,90845,128,0,90993:0:0:0:0:
448,192,90845,128,0,90919:0:0:0:0:
64,192,90919,128,0,91068:0:0:0:0:
192,192,90993,128,0,91068:0:0:0:0:
448,192,90993,128,0,91142:0:0:0:0:
320,192,91068,128,0,91142:0:0:0:0:
192,192,91142,128,0,91290:0:0:0:0:
64,192,91142,128,0,91216:0:0:0:0:
320,192,91216,128,0,91365:0:0:0:0:
448,192,91290,128,0,91439:0:0:0:0:
64,192,91290,128,0,91365:0:0:0:0:
192,192,91365,128,0,91439:0:0:0:0:
320,192,91439,128,0,91513:0:0:0:0:
64,192,91439,128,0,91513:0:0:0:0:
192,192,91513,128,0,91588:0:0:0:0:
448,192,91588,128,0,92701:0:0:0:0:
320,192,91588,128,0,91736:0:0:0:0:
64,192,91588,128,0,91662:0:0:0:0:
192,192,91662,128,0,91810:0:0:0:0:
64,192,91736,128,0,91810:0:0:0:0:
320,192,91810,128,0,91885:0:0:0:0:
192,192,91885,128,0,92033:0:0:0:0:
64,192,91885,128,0,91959:0:0:0:0:
320,192,91959,128,0,92107:0:0:0:0:
64,192,92033,128,0,92107:0:0:0:0:
192,192,92107,128,0,92256:0:0:0:0:
64,192,92182,128,0,92330:0:0:0:0:
320,192,92182,128,0,92256:0:0:0:0:
192,192,92330,128,0,92479:0:0:0:0:
320,192,92330,128,0,92404:0:0:0:0:
64,192,92404,128,0,92553:0:0:0:0:
320,192,92479,128,0,92701:0:0:0:0:
192,192,92553,128,0,92627:0:0:0:0:
64,192,92627,128,0,92701:0:0:0:0:
192,192,92701,128,0,92776:0:0:0:0:
320,192,92776,128,0,92924:0:0:0:0:
448,192,92776,128,0,92850:0:0:0:0:
64,192,92776,128,0,93890:0:0:0:0:
192,192,92850,128,0,92998:0:0:0:0:
448,192,92924,128,0,92998:0:0:0:0:
320,192,92998,128,0,93073:0:0:0:0:
448,192,93073,128,0,93221:0:0:0:0:
192,192,93073,128,0,93147:0:0:0:0:
320,192,93147,128,0,93295:0:0:0:0:
192,192,93221,128,0,93295:0:0:0:0:
448,192,93295,128,0,93370:0:0:0:0:
320,192,93370,128,0,93592:0:0:0:0:
192,192,93370,128,0,93444:0:0:0:0:
448,192,93444,128,0,93518:0:0:0:0:
192,192,93518,128,0,93592:0:0:0:0:
448,192,93592,128,0,93667:0:0:0:0:
320,192,93667,128,0,93741:0:0:0:0:
192,192,93667,128,0,93890:0:0:0:0:
448,192,93741,128,0,93815:0:0:0:0:
320,192,93815,128,0,93890:0:0:0:0:
448,192,93890,128,0,93964:0:0:0:0:
192,192,93964,128,0,94484:0:0:0:0:
320,192,93964,128,0,94112:0:0:0:0:
64,192,93964,128,0,94038:0:0:0:0:
448,192,94038,128,0,94187:0:0:0:0:
64,192,94112,128,0,94187:0:0:0:0:
320,192,94187,128,0,94261:0:0:0:0:
448,192,94261,128,0,94335:0:0:0:0:
64,192,94261,128,0,94409:0:0:0:0:
320,192,94335,128,0,94409:0:0:0:0:
448,192,94409,128,0,94484:0:0:0:0:
64,192,94484,128,0,94558:0:0:0:0:
320,192,94558,128,0,95078:0:0:0:0:
192,192,94558,128,0,94706:0:0:0:0:
448,192,94558,128,0,94632:0:0:0:0:
64,192,94632,128,0,94781:0:0:0:0:
448,192,94706,128,0,94929:0:0:0:0:
192,192,94781,128,0,94855:0:0:0:0:
64,192,94855,128,0,95078:0:0:0:0:
192,192,94929,128,0,95003:0:0:0:0:
448,192,95003,128,0,95078:0:0:0:0:
192,192,95078,128,0,95152:0:0:0:0:
448,192,95152,128,0,95375:0:0:0:0:
64,192,95152,128,0,95300:0:0:0:0:
320,192,95152,128,0,95226:0:0:0:0:
192,192,95226,128,0,95375:0:0:0:0:
320,192,95300,128,0,95375:0:0:0:0:
64,192,95375,128,0,95449:0:0:0:0:
448,192,95449,128,0,95672:0:0:0:0:
192,192,95449,128,0,95597:0:0:0:0:
320,192,95449,128,0,95523:0:0:0:0:
64,192,95523,128,0,95672:0:0:0:0:
320,192,95597,128,0,95746:0:0:0:0:
192,192,95672,128,0,95746:0:0:0:0:
448,192,95746,128,0,95894:0:0:0:0:
64,192,95746,128,0,95820:0:0:0:0:
192,192,95820,128,0,95894:0:0:0:0:
64,192,95894,128,0,96043:0:0:0:0:
320,192,95894,128,0,95969:0:0:0:0:
192,192,95969,128,0,96117:0:0:0:0:
448,192,95969,128,0,96043:0:0:0:0:
320,192,96043,128,0,96191:0:0:0:0:
448,192,96117,128,0,96266:0:0:0:0:
64,192,96117,1,0,0:0:0:0:
192,192,96191,1,0,0:0:0:0:
320,192,96266,1,0,0:0:0:0:
64,192,96340,128,0,96414:0:0:0:0:
192,192,96340,128,0,96489:0:0:0:0:
448,192,96340,1,0,0:0:0:0:
320,192,96414,128,0,96489:0:0:0:0:
64,192,96489,128,0,96563:0:0:0:0:
448,192,96489,128,0,96637:0:0:0:0:
320,192,96563,128,0,96711:0:0:0:0:
192,192,96637,128,0,96711:0:0:0:0:
64,192,96637,128,0,96786:0:0:0:0:
448,192,96711,128,0,96786:0:0:0:0:
320,192,96786,128,0,96860:0:0:0:0:
192,192,96786,128,0,96934:0:0:0:0:
448,192,96860,128,0,97008:0:0:0:0:
320,192,96934,128,0,97008:0:0:0:0:
64,192,96934,128,0,97083:0:0:0:0:
192,192,97008,128,0,97083:0:0:0:0:
448,192,97083,128,0,97157:0:0:0:0:
320,192,97083,128,0,97231:0:0:0:0:
64,192,97157,128,0,97305:0:0:0:0:
192,192,97231,128,0,97305:0:0:0:0:
448,192,97231,128,0,97380:0:0:0:0:
320,192,97305,128,0,97380:0:0:0:0:
64,192,97380,128,0,97454:0:0:0:0:
192,192,97380,128,0,97528:0:0:0:0:
320,192,97454,128,0,97602:0:0:0:0:
64,192,97528,128,0,97677:0:0:0:0:
448,192,97528,128,0,97602:0:0:0:0:
192,192,97602,128,0,97677:0:0:0:0:
448,192,97677,128,0,97825:0:0:0:0:
320,192,97677,128,0,97751:0:0:0:0:
192,192,97751,128,0,97899:0:0:0:0:
64,192,97825,128,0,97974:0:0:0:0:
320,192,97825,128,0,97899:0:0:0:0:
448,192,97899,128,0,98048:0:0:0:0:
192,192,97974,128,0,98122:0:0:0:0:
320,192,97974,128,0,98048:0:0:0:0:
64,192,98048,128,0,98196:0:0:0:0:
448,192,98122,128,0,98196:0:0:0:0:
320,192,98122,128,0,98271:0:0:0:0:
192,192,98196,128,0,98271:0:0:0:0:
448,192,98271,128,0,98419:0:0:0:0:
64,192,98271,128,0,98345:0:0:0:0:
320,192,98345,128,0,98493:0:0:0:0:
64,192,98419,128,0,98493:0:0:0:0:
192,192,98419,128,0,98568:0:0:0:0:
448,192,98493,128,0,98568:0:0:0:0:
64,192,98568,128,0,98716:0:0:0:0:
320,192,98568,128,0,98642:0:0:0:0:
448,192,98642,128,0,98716:0:0:0:0:
192,192,98716,128,0,98790:0:0:0:0:
320,192,98716,128,0,98865:0:0:0:0:
448,192,98790,128,0,98865:0:0:0:0:
192,192,98865,128,0,98939:0:0:0:0:
64,192,98865,128,0,99013:0:0:0:0:
320,192,98939,128,0,99088:0:0:0:0:
192,192,99013,128,0,99088:0:0:0:0:
448,192,99013,128,0,99162:0:0:0:0:
64,192,99088,128,0,99162:0:0:0:0:
192,192,99162,128,0,99236:0:0:0:0:
320,192,99162,128,0,99310:0:0:0:0:
64,192,99236,128,0,99385:0:0:0:0:
192,192,99310,128,0,99385:0:0:0:0:
448,192,99310,128,0,99459:0:0:0:0:
320,192,99385,128,0,99459:0:0:0:0:
64,192,99459,128,0,99533:0:0:0:0:
192,192,99459,128,0,99607:0:0:0:0:
448,192,99533,128,0,99682:0:0:0:0:
320,192,99607,128,0,99682:0:0:0:0:
64,192,99607,128,0,99756:0:0:0:0:
192,192,99682,128,0,99756:0:0:0:0:
448,192,99756,128,0,99830:0:0:0:0:
320,192,99756,128,0,99904:0:0:0:0:
192,192,99830,128,0,99979:0:0:0:0:
448,192,99904,128,0,100053:0:0:0:0:
64,192,99904,128,0,100424:0:0:0:0:
320,192,99979,128,0,100053:0:0:0:0:
192,192,100053,128,0,100127:0:0:0:0:
320,192,100127,128,0,100201:0:0:0:0:
448,192,100201,128,0,100350:0:0:0:0:
192,192,100201,128,0,100276:0:0:0:0:
320,192,100276,128,0,100424:0:0:0:0:
192,192,100350,128,0,100424:0:0:0:0:
448,192,100424,128,0,100573:0:0:0:0:
320,192,100498,128,0,101018:0:0:0:0:
192,192,100498,128,0,100573:0:0:0:0:
64,192,100573,128,0,100647:0:0:0:0:
448,192,100647,128,0,100721:0:0:0:0:
192,192,100647,128,0,100870:0:0:0:0:
64,192,100721,128,0,100795:0:0:0:0:
448,192,100795,128,0,100870:0:0:0:0:
64,192,100870,128,0,100944:0:0:0:0:
448,192,100944,128,0,101092:0:0:0:0:
192,192,100944,128,0,101018:0:0:0:0:
64,192,101018,128,0,101092:0:0:0:0:
192,192,101092,128,0,101612:0:0:0:0:
320,192,101092,128,0,101241:0:0:0:0:
64,192,101167,128,0,101315:0:0:0:0:
448,192,101241,128,0,101390:0:0:0:0:
320,192,101315,128,0,101464:0:0:0:0:
64,192,101390,128,0,101538:0:0:0:0:
448,192,101464,128,0,101612:0:0:0:0:
320,192,101538,128,0,101612:0:0:0:0:
64,192,101612,128,0,101687:0:0:0:0:
448,192,101687,128,0,101761:0:0:0:0:
192,192,101687,128,0,101835:0:0:0:0:
320,192,101687,128,0,101761:0:0:0:0:
64,192,101761,128,0,101835:0:0:0:0:
448,192,101835,128,0,101909:0:0:0:0:
320,192,101835,128,0,101909:0:0:0:0:
64,192,101909,128,0,102058:0:0:0:0:
192,192,101909,128,0,101984:0:0:0:0:
448,192,101984,128,0,102132:0:0:0:0:
320,192,101984,128,0,102058:0:0:0:0:
192,192,102058,128,0,102132:0:0:0:0:
320,192,102132,128,0,102281:0:0:0:0:
64,192,102132,128,0,102206:0:0:0:0:
192,192,102206,128,0,102355:0:0:0:0:
448,192,102281,128,0,102355:0:0:0:0:
64,192,102281,128,0,102429:0:0:0:0:
320,192,102355,128,0,102429:0:0:0:0:
192,192,102429,128,0,102503:0:0:0:0:
448,192,102429,128,0,102578:0:0:0:0:
320,192,102503,128,0,102652:0:0:0:0:
192,192,102578,128,0,102652:0:0:0:0:
64,192,102578,128,0,102726:0:0:0:0:
448,192,102652,128,0,102800:0:0:0:0:
320,192,102726,128,0,102800:0:0:0:0:
192,192,102726,128,0,102875:0:0:0:0:
64,192,102800,128,0,102949:0:0:0:0:
320,192,102875,128,0,103023:0:0:0:0:
448,192,102875,128,0,102949:0:0:0:0:
192,192,102949,128,0,103023:0:0:0:0:
64,192,103023,128,0,103097:0:0:0:0:
448,192,103023,128,0,103172:0:0:0:0:
320,192,103097,128,0,103246:0:0:0:0:
192,192,103172,128,0,103320:0:0:0:0:
64,192,103172,128,0,103246:0:0:0:0:
448,192,103246,128,0,103320:0:0:0:0:
320,192,103320,128,0,103394:0:0:0:0:
64,192,103320,128,0,103469:0:0:0:0:
448,192,103394,128,0,103469:0:0:0:0:
192,192,103469,128,0,103617:0:0:0:0:
320,192,103469,128,0,103543:0:0:0:0:
64,192,103543,1,0,0:0:0:0:
448,192,103617,128,0,103766:0:0:0:0:
320,192,103617,128,0,103691:0:0:0:0:
192,192,103691,1,0,0:0:0:0:
320,192,103766,128,0,103914:0:0:0:0:
64,192,103766,128,0,103840:0:0:0:0:
192,192,103840,1,0,0:0:0:0:
448,192,103914,1,0,0:0:0:0:
64,192,103914,1,0,0:0:0:0:
320,192,103989,128,0,104063:0:0:0:0:
448,192,104063,128,0,104211:0:0:0:0:
192,192,104063,128,0,104137:0:0:0:0:
64,192,104063,1,0,0:0:0:0:
320,192,104137,128,0,104211:0:0:0:0:
192,192,104211,128,0,104286:0:0:0:0:
64,192,104286,128,0,104360:0:0:0:0:
448,192,104360,1,0,0:0:0:0:
320,192,104360,128,0,104508:0:0:0:0:
192,192,104360,1,0,0:0:0:0:
64,192,104434,128,0,104508:0:0:0:0:
192,192,104508,128,0,104583:0:0:0:0:
448,192,104508,1,0,0:0:0:0:
320,192,104583,128,0,104657:0:0:0:0:
448,192,104657,1,0,0:0:0:0:
192,192,104657,1,0,0:0:0:0:
64,192,104657,128,0,104880:0:0:0:0:
448,192,104805,1,0,0:0:0:0:
320,192,104805,128,0,104954:0:0:0:0:
64,192,104954,1,0,0:0:0:0:
192,192,104954,128,0,105177:0:0:0:0:
320,192,105102,128,0,105251:0:0:0:0:
448,192,105102,1,0,0:0:0:0:
192,192,105251,1,0,0:0:0:0:
64,192,105251,1,0,0:0:0:0:
448,192,105251,128,0,105474:0:0:0:0:
320,192,105399,128,0,105548:0:0:0:0:
192,192,105399,1,0,0:0:0:0:
64,192,105474,1,0,0:0:0:0:
448,192,105548,1,0,0:0:0:0:
192,192,105548,1,0,0:0:0:0:
320,192,105622,1,0,0:0:0:0:
64,192,105696,1,0,0:0:0:0:
192,192,105696,1,0,0:0:0:0:
448,192,105771,1,0,0:0:0:0:
320,192,105771,1,0,0:0:0:0:
64,192,105845,1,0,0:0:0:0:
448,192,105845,1,0,0:0:0:0:
192,192,105845,128,0,106068:0:0:0:0:
64,192,105993,1,0,0:0:0:0:
320,192,105993,128,0,106216:0:0:0:0:
192,192,106142,1,0,0:0:0:0:
64,192,106142,1,0,0:0:0:0:
448,192,106142,128,0,106365:0:0:0:0:
320,192,106290,1,0,0:0:0:0:
192,192,106290,128,0,106513:0:0:0:0:
448,192,106439,1,0,0:0:0:0:
64,192,106439,1,0,0:0:0:0:
320,192,106439,128,0,106662:0:0:0:0:
64,192,106588,1,0,0:0:0:0:
192,192,106588,128,0,106810:0:0:0:0:
320,192,106736,1,0,0:0:0:0:
448,192,106736,1,0,0:0:0:0:
64,192,106736,128,0,106959:0:0:0:0:
192,192,106885,1,0,0:0:0:0:
448,192,106885,128,0,107107:0:0:0:0:
320,192,107033,1,0,0:0:0:0:
192,192,107033,128,0,107256:0:0:0:0:
64,192,107107,128,0,107182:0:0:0:0:
320,192,107182,128,0,107404:0:0:0:0:
448,192,107256,128,0,107330:0:0:0:0:
64,192,107330,128,0,107553:0:0:0:0:
192,192,107404,128,0,107479:0:0:0:0:
448,192,107479,128,0,107701:0:0:0:0:
320,192,107553,128,0,107627:0:0:0:0:
192,192,107627,128,0,107850:0:0:0:0:
64,192,107701,128,0,107776:0:0:0:0:
320,192,107776,128,0,107998:0:0:0:0:
448,192,107850,128,0,107924:0:0:0:0:
192,192,107924,1,0,0:0:0:0:
64,192,107924,128,0,108147:0:0:0:0:
448,192,107998,128,0,108073:0:0:0:0:
320,192,108073,1,0,0:0:0:0:
192,192,108073,128,0,108147:0:0:0:0:
448,192,108147,128,0,108221:0:0:0:0:
320,192,108221,1,0,0:0:0:0:
192,192,108221,1,0,0:0:0:0:
64,192,108221,128,0,108370:0:0:0:0:
448,192,108295,128,0,108370:0:0:0:0:
320,192,108370,128,0,108518:0:0:0:0:
192,192,108370,128,0,108444:0:0:0:0:
64,192,108444,128,0,108518:0:0:0:0:
448,192,108518,128,0,108667:0:0:0:0:
192,192,108518,128,0,108592:0:0:0:0:
320,192,108592,128,0,108667:0:0:0:0:
192,192,108667,128,0,108815:0:0:0:0:
64,192,108667,128,0,108741:0:0:0:0:
448,192,108741,128,0,108815:0:0:0:0:
320,192,108815,128,0,108964:0:0:0:0:
64,192,108815,128,0,108890:0:0:0:0:
192,192,108890,128,0,108964:0:0:0:0:
64,192,108964,128,0,109112:0:0:0:0:
448,192,108964,128,0,109038:0:0:0:0:
320,192,109038,128,0,109112:0:0:0:0:
192,192,109112,128,0,109261:0:0:0:0:
448,192,109112,128,0,109187:0:0:0:0:
64,192,109187,128,0,109261:0:0:0:0:
320,192,109261,128,0,109409:0:0:0:0:
448,192,109261,128,0,109335:0:0:0:0:
192,192,109335,128,0,109409:0:0:0:0:
64,192,109409,128,0,109558:0:0:0:0:
448,192,109409,128,0,109484:0:0:0:0:
192,192,109484,128,0,109632:0:0:0:0:
448,192,109558,128,0,109706:0:0:0:0:
320,192,109558,1,0,0:0:0:0:
64,192,109632,128,0,109706:0:0:0:0:
192,192,109706,1,0,0:0:0:0:
320,192,109706,128,0,109855:0:0:0:0:
64,192,109781,128,0,109929:0:0:0:0:
192,192,109855,128,0,110003:0:0:0:0:
448,192,109855,1,0,0:0:0:0:
320,192,109929,128,0,110003:0:0:0:0:
448,192,110003,128,0,110152:0:0:0:0:
64,192,110003,128,0,110078:0:0:0:0:
192,192,110078,128,0,110226:0:0:0:0:
64,192,110152,128,0,110226:0:0:0:0:
320,192,110152,128,0,110300:0:0:0:0:
448,192,110226,128,0,110300:0:0:0:0:
64,192,110300,128,0,110449:0:0:0:0:
192,192,110300,128,0,110375:0:0:0:0:
320,192,110375,128,0,110523:0:0:0:0:
192,192,110449,128,0,110523:0:0:0:0:
448,192,110449,128,0,110597:0:0:0:0:
64,192,110523,128,0,110597:0:0:0:0:
192,192,110597,128,0,111711:0:0:0:0:
320,192,110597,128,0,110672:0:0:0:0:
448,192,110672,128,0,110746:0:0:0:0:
64,192,110746,128,0,110820:0:0:0:0:
320,192,110820,128,0,110894:0:0:0:0:
448,192,110894,128,0,110969:0:0:0:0:
320,192,110969,128,0,111043:0:0:0:0:
64,192,111043,128,0,111117:0:0:0:0:
448,192,111117,128,0,111191:0:0:0:0:
320,192,111191,128,0,111266:0:0:0:0:
448,192,111266,128,0,111340:0:0:0:0:
64,192,111340,128,0,111414:0:0:0:0:
320,192,111414,128,0,111489:0:0:0:0:
448,192,111489,128,0,111563:0:0:0:0:
320,192,111563,128,0,111637:0:0:0:0:
64,192,111637,128,0,111711:0:0:0:0:
320,192,111711,128,0,111786:0:0:0:0:
64,192,111786,1,0,0:0:0:0:
448,192,111786,128,0,112899:0:0:0:0:
192,192,111786,128,0,111860:0:0:0:0:
320,192,111860,128,0,111934:0:0:0:0:
64,192,111934,128,0,112008:0:0:0:0:
192,192,112008,128,0,112083:0:0:0:0:
320,192,112083,128,0,112157:0:0:0:0:
64,192,112157,128,0,112231:0:0:0:0:
192,192,112231,128,0,112305:0:0:0:0:
320,192,112305,128,0,112380:0:0:0:0:
192,192,112380,128,0,112454:0:0:0:0:
64,192,112454,128,0,112528:0:0:0:0:
192,192,112528,128,0,112602:0:0:0:0:
320,192,112602,128,0,112677:0:0:0:0:
64,192,112677,128,0,112751:0:0:0:0:
320,192,112751,128,0,112825:0:0:0:0:
192,192,112825,128,0,112899:0:0:0:0:
64,192,112899,128,0,112974:0:0:0:0:
320,192,112974,128,0,113419:0:0:0:0:
192,192,112974,128,0,113048:0:0:0:0:
448,192,112974,1,0,0:0:0:0:
64,192,113048,128,0,113122:0:0:0:0:
192,192,113122,128,0,113196:0:0:0:0:
448,192,113196,128,0,113271:0:0:0:0:
192,192,113271,128,0,113345:0:0:0:0:
64,192,113345,128,0,113419:0:0:0:0:
448,192,113419,128,0,113493:0:0:0:0:
192,192,113419,128,0,113493:0:0:0:0:
320,192,113493,128,0,113568:0:0:0:0:
64,192,113568,128,0,113642:0:0:0:0:
192,192,113568,128,0,113716:0:0:0:0:
448,192,113568,128,0,113642:0:0:0:0:
320,192,113642,128,0,113716:0:0:0:0:
64,192,113716,128,0,113790:0:0:0:0:
448,192,113716,128,0,113790:0:0:0:0:
192,192,113790,128,0,113865:0:0:0:0:
448,192,113865,1,0,0:0:0:0:
64,192,113865,1,0,0:0:0:0:
192,192,113939,1,0,0:0:0:0:
320,192,113939,128,0,114088:0:0:0:0:
448,192,114013,1,0,0:0:0:0:
64,192,114013,1,0,0:0:0:0:
192,192,114088,1,0,0:0:0:0:
64,192,114162,128,0,114199:0:0:0:0:
320,192,114162,128,0,114199:0:0:0:0:
448,192,114162,128,0,114199:0:0:0:0:
192,192,114236,128,0,114385:0:0:0:0:
320,192,114310,1,0,0:0:0:0:
64,192,114310,1,0,0:0:0:0:
448,192,114385,1,0,0:0:0:0:
320,192,114459,128,0,114496:0:0:0:0:
192,192,114459,128,0,114496:0:0:0:0:
64,192,114459,128,0,114496:0:0:0:0:
448,192,114533,128,0,114682:0:0:0:0:
320,192,114607,1,0,0:0:0:0:
64,192,114607,1,0,0:0:0:0:
192,192,114682,1,0,0:0:0:0:
320,192,114756,128,0,114793:0:0:0:0:
448,192,114756,128,0,114793:0:0:0:0:
64,192,114756,128,0,114793:0:0:0:0:
192,192,114830,1,0,0:0:0:0:
320,192,114904,1,0,0:0:0:0:
448,192,114904,1,0,0:0:0:0:
192,192,114979,1,0,0:0:0:0:
64,192,114979,1,0,0:0:0:0:
320,192,115053,1,0,0:0:0:0:
448,192,115053,1,0,0:0:0:0:
64,192,115053,1,0,0:0:0:0:
192,192,115127,1,0,0:0:0:0:
320,192,115201,1,0,0:0:0:0:
448,192,115276,1,0,0:0:0:0:
320,192,115350,1,0,0:0:0:0:
192,192,115350,1,0,0:0:0:0:
64,192,115350,1,0,0:0:0:0:
448,192,115350,1,0,0:0:0:0:
320,192,115647,1,0,0:0:0:0:
64,192,115647,1,0,0:0:0:0:
192,192,115647,1,0,0:0:0:0:
448,192,115647,128,0,119954:0:0:0:0:
64,192,116241,1,0,0:0:0:0:
64,192,116390,1,0,0:0:0:0:
64,192,116687,1,0,0:0:0:0:
64,192,116835,1,0,0:0:0:0:
64,192,117132,1,0,0:0:0:0:
64,192,117281,1,0,0:0:0:0:
64,192,117578,1,0,0:0:0:0:
64,192,117726,1,0,0:0:0:0:
64,192,118023,1,0,0:0:0:0:
64,192,118172,1,0,0:0:0:0:
64,192,118469,1,0,0:0:0:0:
64,192,118617,1,0,0:0:0:0:
64,192,118914,1,0,0:0:0:0:
64,192,119063,1,0,0:0:0:0:
64,192,119360,1,0,0:0:0:0:
64,192,119508,1,0,0:0:0:0:
64,192,119805,1,0,0:0:0:0:
64,192,120102,1,0,0:0:0:0:
