osu file format v14

[General]
AudioFilename: croiX - TeamGrimoire+Amaneko.mp3
AudioLeadIn: 0
PreviewTime: -1
Countdown: 0
SampleSet: Normal
StackLeniency: 0.7
Mode: 3
LetterboxInBreaks: 0
SpecialStyle: 0
WidescreenStoryboard: 1

[Editor]
DistanceSpacing: 0.8
BeatDivisor: 8
GridSize: 32
TimelineZoom: 2.1

[Metadata]
Title:Jungdongjin's 10th 4k LN Pack
TitleUnicode:Jungdongjin's 10th 4k LN Pack
Artist:Various Artist
ArtistUnicode:Various Artist
Creator:Jungdongjin
Version:TeamGrimoire+amaneko - croiX (Marathon)
Source:
Tags:
BeatmapID:1358798
BeatmapSetID:640702

[Difficulty]
HPDrainRate:8
CircleSize:4
OverallDifficulty:6
ApproachRate:5
SliderMultiplier:1.4
SliderTickRate:1

[Events]
//Background and Video events
0,0,"BG.jpg",0,0
//Break Periods
//Storyboard Layer 0 (Background)
//Storyboard Layer 1 (Fail)
//Storyboard Layer 2 (Pass)
//Storyboard Layer 3 (Foreground)
//Storyboard Sound Samples

[TimingPoints]
1541,307.692307692308,4,1,0,0,1,0
8925,333.333333333333,4,1,0,0,1,0
8925,-92.5925925925926,4,1,0,0,0,0
9591,352.941176470588,4,1,0,0,1,0
9591,-86.9565217391304,4,1,0,0,0,0
10296,375,4,1,0,0,1,0
10296,-81.9672131147541,4,1,0,0,0,0
13296,307.692307692308,4,1,0,0,1,0
16988,-100,4,1,0,0,0,0
36680,-100,4,1,0,0,0,0
56988,315.789473684211,4,1,0,0,1,0
56988,-97.0873786407767,4,1,0,0,0,0
57619,324.324324324324,4,1,0,0,1,0
57619,-95.2380952380952,4,1,0,0,0,0
58267,333.333333333333,4,1,0,0,1,0
58267,-92.5925925925926,4,1,0,0,0,0
58933,342.857142857143,4,1,0,0,1,0
58933,-90.0900900900901,4,1,0,0,0,0
59618,352.941176470588,4,1,0,0,1,0
59618,-86.9565217391304,4,1,0,0,0,0
60323,363.636363636364,4,1,0,0,1,0
60323,-84.7457627118644,4,1,0,0,0,0
61050,375,4,1,0,0,1,0
61050,-81.9672131147541,4,1,0,0,0,0
62550,363.636363636364,4,1,0,0,1,0
62550,-84.7457627118644,4,1,0,0,0,0
63277,352.941176470588,4,1,0,0,1,0
63277,-86.9565217391304,4,1,0,0,0,0
63982,342.857142857143,4,1,0,0,1,0
63982,-90.0900900900901,4,1,0,0,0,0
64667,333.333333333333,4,1,0,0,1,0
64667,-92.5925925925926,4,1,0,0,0,0
65333,324.324324324324,4,1,0,0,1,0
65333,-95.2380952380952,4,1,0,0,0,0
65981,315.789473684211,4,1,0,0,1,0
65981,-97.0873786407767,4,1,0,0,0,0
66612,307.692307692308,4,1,0,0,1,0
67227,307.692307692308,4,1,0,0,1,0
86919,-100,4,1,0,0,0,0
96457,-100,4,1,0,0,0,0
96765,-100,4,1,0,0,0,0
106611,-100,4,1,0,0,0,0

[HitObjects]
64,192,1540,5,0,0:0:0:0:
192,192,1694,1,0,0:0:0:0:
320,192,1848,1,0,0:0:0:0:
448,192,2002,1,0,0:0:0:0:
320,192,2156,1,0,0:0:0:0:
64,192,2156,128,0,2694:0:0:0:0:
448,192,2464,1,0,0:0:0:0:
192,192,2464,1,0,0:0:0:0:
320,192,2617,1,0,0:0:0:0:
64,192,2771,1,0,0:0:0:0:
448,192,2771,128,0,3002:0:0:0:0:
448,192,3079,1,0,0:0:0:0:
192,192,3079,1,0,0:0:0:0:
64,192,3233,1,0,0:0:0:0:
320,192,3387,1,0,0:0:0:0:
192,192,3387,1,0,0:0:0:0:
64,192,3541,1,0,0:0:0:0:
448,192,3694,1,0,0:0:0:0:
192,192,3694,1,0,0:0:0:0:
320,192,3848,1,0,0:0:0:0:
64,192,4002,1,0,0:0:0:0:
448,192,4002,128,0,4156:0:0:0:0:
320,192,4156,128,0,4310:0:0:0:0:
192,192,4310,128,0,4464:0:0:0:0:
448,192,4310,1,0,0:0:0:0:
64,192,4464,128,0,4617:0:0:0:0:
320,192,4464,1,0,0:0:0:0:
192,192,4617,1,0,0:0:0:0:
448,192,4617,128,0,4848:0:0:0:0:
64,192,4925,1,0,0:0:0:0:
448,192,4925,1,0,0:0:0:0:
192,192,5079,1,0,0:0:0:0:
448,192,5233,1,0,0:0:0:0:
64,192,5233,1,0,0:0:0:0:
320,192,5387,1,0,0:0:0:0:
192,192,5541,1,0,0:0:0:0:
64,192,5694,1,0,0:0:0:0:
448,192,5848,1,0,0:0:0:0:
192,192,5848,128,0,6156:0:0:0:0:
320,192,6156,128,0,6464:0:0:0:0:
64,192,6156,1,0,0:0:0:0:
192,192,6464,1,0,0:0:0:0:
448,192,6464,128,0,6771:0:0:0:0:
320,192,6771,1,0,0:0:0:0:
64,192,6771,1,0,0:0:0:0:
192,192,6925,1,0,0:0:0:0:
64,192,7079,128,0,7387:0:0:0:0:
448,192,7079,128,0,7387:0:0:0:0:
192,192,7387,1,0,0:0:0:0:
320,192,7387,1,0,0:0:0:0:
448,192,7541,1,0,0:0:0:0:
64,192,7694,1,0,0:0:0:0:
320,192,7694,1,0,0:0:0:0:
192,192,7848,1,0,0:0:0:0:
448,192,8002,1,0,0:0:0:0:
64,192,8002,1,0,0:0:0:0:
320,192,8156,1,0,0:0:0:0:
192,192,8310,1,0,0:0:0:0:
64,192,8310,128,0,8617:0:0:0:0:
448,192,8464,1,0,0:0:0:0:
320,192,8617,128,0,8925:0:0:0:0:
64,192,8925,128,0,9091:0:0:0:0:
192,192,9091,128,0,9258:0:0:0:0:
320,192,9258,128,0,9425:0:0:0:0:
448,192,9425,128,0,9591:0:0:0:0:
64,192,9591,128,0,9767:0:0:0:0:
192,192,9767,128,0,9943:0:0:0:0:
320,192,9943,128,0,10120:0:0:0:0:
448,192,10120,128,0,10296:0:0:0:0:
64,192,10296,128,0,10483:0:0:0:0:
320,192,10483,128,0,10671:0:0:0:0:
192,192,10671,128,0,10858:0:0:0:0:
448,192,10858,128,0,11046:0:0:0:0:
320,192,11046,128,0,11233:0:0:0:0:
192,192,11233,128,0,11421:0:0:0:0:
64,192,11421,1,0,0:0:0:0:
64,192,15757,1,0,0:0:0:0:
192,192,15834,1,0,0:0:0:0:
448,192,15911,1,0,0:0:0:0:
320,192,15988,1,0,0:0:0:0:
192,192,16065,1,0,0:0:0:0:
64,192,16142,1,0,0:0:0:0:
320,192,16219,1,0,0:0:0:0:
448,192,16296,1,0,0:0:0:0:
64,192,16372,1,0,0:0:0:0:
320,192,16372,1,0,0:0:0:0:
448,192,16449,1,0,0:0:0:0:
64,192,16526,1,0,0:0:0:0:
192,192,16526,1,0,0:0:0:0:
320,192,16603,1,0,0:0:0:0:
448,192,16680,1,0,0:0:0:0:
64,192,16680,128,0,16911:0:0:0:0:
192,192,16757,128,0,16834:0:0:0:0:
320,192,16834,128,0,16911:0:0:0:0:
448,192,16834,128,0,16911:0:0:0:0:
192,192,16911,128,0,16988:0:0:0:0:
64,192,16988,1,0,0:0:0:0:
448,192,16988,128,0,17142:0:0:0:0:
320,192,16988,128,0,17065:0:0:0:0:
192,192,17065,1,0,0:0:0:0:
64,192,17142,128,0,17296:0:0:0:0:
320,192,17142,128,0,17219:0:0:0:0:
192,192,17296,1,0,0:0:0:0:
320,192,17296,1,0,0:0:0:0:
448,192,17296,128,0,17449:0:0:0:0:
64,192,17449,1,0,0:0:0:0:
320,192,17449,1,0,0:0:0:0:
192,192,17526,1,0,0:0:0:0:
320,192,17603,128,0,17757:0:0:0:0:
448,192,17603,128,0,17680:0:0:0:0:
64,192,17603,1,0,0:0:0:0:
64,192,17757,128,0,17834:0:0:0:0:
192,192,17757,128,0,17911:0:0:0:0:
448,192,17757,1,0,0:0:0:0:
320,192,17911,128,0,17988:0:0:0:0:
64,192,17911,128,0,18065:0:0:0:0:
448,192,17988,128,0,18142:0:0:0:0:
192,192,18065,128,0,18142:0:0:0:0:
320,192,18065,128,0,18142:0:0:0:0:
64,192,18142,128,0,18219:0:0:0:0:
320,192,18219,1,0,0:0:0:0:
448,192,18219,1,0,0:0:0:0:
192,192,18219,128,0,18372:0:0:0:0:
64,192,18296,128,0,18449:0:0:0:0:
320,192,18372,1,0,0:0:0:0:
448,192,18372,1,0,0:0:0:0:
192,192,18449,1,0,0:0:0:0:
320,192,18526,1,0,0:0:0:0:
448,192,18526,128,0,18680:0:0:0:0:
64,192,18526,128,0,18680:0:0:0:0:
192,192,18680,128,0,18757:0:0:0:0:
320,192,18680,128,0,18834:0:0:0:0:
448,192,18757,128,0,18911:0:0:0:0:
192,192,18834,128,0,18911:0:0:0:0:
64,192,18834,128,0,18911:0:0:0:0:
192,192,18988,128,0,19142:0:0:0:0:
320,192,18988,128,0,19065:0:0:0:0:
448,192,18988,1,0,0:0:0:0:
448,192,19142,1,0,0:0:0:0:
320,192,19142,128,0,19296:0:0:0:0:
64,192,19142,1,0,0:0:0:0:
192,192,19219,1,0,0:0:0:0:
64,192,19296,128,0,19449:0:0:0:0:
448,192,19296,1,0,0:0:0:0:
320,192,19372,1,0,0:0:0:0:
448,192,19449,128,0,19603:0:0:0:0:
192,192,19449,128,0,19526:0:0:0:0:
320,192,19526,128,0,19680:0:0:0:0:
64,192,19603,128,0,19757:0:0:0:0:
192,192,19603,1,0,0:0:0:0:
320,192,19757,1,0,0:0:0:0:
448,192,19757,1,0,0:0:0:0:
192,192,19757,128,0,19911:0:0:0:0:
64,192,19834,128,0,19911:0:0:0:0:
320,192,19911,128,0,19988:0:0:0:0:
448,192,19911,128,0,20065:0:0:0:0:
192,192,19988,128,0,20065:0:0:0:0:
320,192,20065,128,0,20219:0:0:0:0:
64,192,20065,1,0,0:0:0:0:
192,192,20219,128,0,20372:0:0:0:0:
64,192,20219,1,0,0:0:0:0:
448,192,20219,1,0,0:0:0:0:
64,192,20372,128,0,20526:0:0:0:0:
448,192,20372,1,0,0:0:0:0:
320,192,20372,128,0,20449:0:0:0:0:
192,192,20449,128,0,20526:0:0:0:0:
448,192,20526,128,0,20680:0:0:0:0:
320,192,20526,128,0,20603:0:0:0:0:
64,192,20603,128,0,20680:0:0:0:0:
320,192,20680,1,0,0:0:0:0:
192,192,20680,128,0,20834:0:0:0:0:
320,192,20834,128,0,20911:0:0:0:0:
448,192,20834,128,0,20911:0:0:0:0:
64,192,20834,1,0,0:0:0:0:
192,192,20911,1,0,0:0:0:0:
64,192,20988,128,0,21219:0:0:0:0:
448,192,20988,128,0,21065:0:0:0:0:
320,192,20988,1,0,0:0:0:0:
448,192,21142,1,0,0:0:0:0:
320,192,21142,128,0,21219:0:0:0:0:
192,192,21219,128,0,21296:0:0:0:0:
448,192,21296,1,0,0:0:0:0:
64,192,21296,1,0,0:0:0:0:
320,192,21296,128,0,21526:0:0:0:0:
192,192,21449,128,0,21526:0:0:0:0:
64,192,21449,128,0,21526:0:0:0:0:
448,192,21526,128,0,21603:0:0:0:0:
64,192,21603,1,0,0:0:0:0:
192,192,21603,128,0,21757:0:0:0:0:
320,192,21603,128,0,21680:0:0:0:0:
320,192,21757,128,0,21911:0:0:0:0:
448,192,21757,128,0,21834:0:0:0:0:
192,192,21834,1,0,0:0:0:0:
448,192,21911,128,0,22065:0:0:0:0:
64,192,21911,128,0,21988:0:0:0:0:
320,192,22065,1,0,0:0:0:0:
64,192,22065,128,0,22219:0:0:0:0:
192,192,22065,128,0,22142:0:0:0:0:
448,192,22142,1,0,0:0:0:0:
320,192,22219,128,0,22372:0:0:0:0:
192,192,22219,128,0,22296:0:0:0:0:
448,192,22296,128,0,22449:0:0:0:0:
192,192,22372,128,0,22526:0:0:0:0:
64,192,22372,128,0,22449:0:0:0:0:
320,192,22449,1,0,0:0:0:0:
448,192,22526,128,0,22603:0:0:0:0:
64,192,22526,128,0,22680:0:0:0:0:
192,192,22603,128,0,22680:0:0:0:0:
448,192,22680,128,0,22834:0:0:0:0:
320,192,22680,128,0,22757:0:0:0:0:
64,192,22757,128,0,22834:0:0:0:0:
320,192,22834,128,0,22911:0:0:0:0:
192,192,22834,128,0,22911:0:0:0:0:
448,192,22911,128,0,23065:0:0:0:0:
64,192,22988,128,0,23142:0:0:0:0:
192,192,22988,1,0,0:0:0:0:
320,192,23065,128,0,23142:0:0:0:0:
448,192,23142,1,0,0:0:0:0:
192,192,23142,128,0,23372:0:0:0:0:
320,192,23296,1,0,0:0:0:0:
64,192,23296,1,0,0:0:0:0:
448,192,23449,1,0,0:0:0:0:
192,192,23449,1,0,0:0:0:0:
320,192,23449,128,0,23680:0:0:0:0:
192,192,23603,1,0,0:0:0:0:
64,192,23603,128,0,23680:0:0:0:0:
448,192,23680,128,0,23757:0:0:0:0:
320,192,23757,1,0,0:0:0:0:
192,192,23757,1,0,0:0:0:0:
64,192,23757,128,0,23988:0:0:0:0:
448,192,23911,1,0,0:0:0:0:
320,192,23911,128,0,23988:0:0:0:0:
192,192,23988,128,0,24065:0:0:0:0:
64,192,24065,1,0,0:0:0:0:
448,192,24065,1,0,0:0:0:0:
320,192,24065,128,0,24219:0:0:0:0:
64,192,24219,128,0,24372:0:0:0:0:
448,192,24219,1,0,0:0:0:0:
192,192,24219,1,0,0:0:0:0:
320,192,24296,128,0,24372:0:0:0:0:
448,192,24372,1,0,0:0:0:0:
192,192,24372,128,0,24526:0:0:0:0:
320,192,24449,128,0,24603:0:0:0:0:
448,192,24526,128,0,24680:0:0:0:0:
64,192,24526,1,0,0:0:0:0:
192,192,24603,1,0,0:0:0:0:
320,192,24680,1,0,0:0:0:0:
64,192,24680,128,0,24911:0:0:0:0:
448,192,24834,128,0,24911:0:0:0:0:
320,192,24834,1,0,0:0:0:0:
192,192,24911,128,0,24988:0:0:0:0:
320,192,24988,1,0,0:0:0:0:
64,192,24988,1,0,0:0:0:0:
448,192,24988,128,0,25219:0:0:0:0:
192,192,25142,128,0,25219:0:0:0:0:
64,192,25142,1,0,0:0:0:0:
320,192,25219,128,0,25296:0:0:0:0:
64,192,25296,1,0,0:0:0:0:
448,192,25296,1,0,0:0:0:0:
192,192,25296,128,0,25526:0:0:0:0:
320,192,25449,128,0,25526:0:0:0:0:
64,192,25449,128,0,25526:0:0:0:0:
448,192,25526,128,0,25680:0:0:0:0:
320,192,25603,128,0,25757:0:0:0:0:
192,192,25603,128,0,25680:0:0:0:0:
64,192,25603,1,0,0:0:0:0:
448,192,25757,1,0,0:0:0:0:
64,192,25757,128,0,25872:0:0:0:0:
192,192,25796,128,0,25834:0:0:0:0:
320,192,25834,128,0,25911:0:0:0:0:
448,192,25872,128,0,25949:0:0:0:0:
192,192,25911,128,0,25988:0:0:0:0:
64,192,25949,128,0,26065:0:0:0:0:
448,192,26065,128,0,26180:0:0:0:0:
320,192,26103,128,0,26142:0:0:0:0:
192,192,26142,128,0,26219:0:0:0:0:
64,192,26180,128,0,26257:0:0:0:0:
320,192,26219,128,0,26296:0:0:0:0:
448,192,26257,128,0,26334:0:0:0:0:
64,192,26372,128,0,26526:0:0:0:0:
192,192,26411,128,0,26488:0:0:0:0:
320,192,26449,1,0,0:0:0:0:
448,192,26488,128,0,26565:0:0:0:0:
320,192,26526,128,0,26603:0:0:0:0:
192,192,26565,128,0,26642:0:0:0:0:
64,192,26603,128,0,26680:0:0:0:0:
448,192,26642,128,0,26719:0:0:0:0:
320,192,26680,128,0,26757:0:0:0:0:
192,192,26719,128,0,26796:0:0:0:0:
64,192,26757,128,0,26834:0:0:0:0:
448,192,26796,128,0,26834:0:0:0:0:
192,192,26834,1,0,0:0:0:0:
320,192,26834,128,0,27065:0:0:0:0:
64,192,26911,128,0,26988:0:0:0:0:
192,192,26988,128,0,27142:0:0:0:0:
448,192,26988,1,0,0:0:0:0:
320,192,27142,1,0,0:0:0:0:
448,192,27142,1,0,0:0:0:0:
64,192,27142,128,0,27296:0:0:0:0:
192,192,27296,128,0,27372:0:0:0:0:
448,192,27296,1,0,0:0:0:0:
320,192,27296,1,0,0:0:0:0:
64,192,27372,128,0,27449:0:0:0:0:
192,192,27449,128,0,27680:0:0:0:0:
320,192,27449,1,0,0:0:0:0:
448,192,27449,1,0,0:0:0:0:
64,192,27526,128,0,27603:0:0:0:0:
320,192,27603,128,0,27757:0:0:0:0:
448,192,27603,128,0,27680:0:0:0:0:
192,192,27757,1,0,0:0:0:0:
448,192,27757,1,0,0:0:0:0:
64,192,27757,128,0,27988:0:0:0:0:
320,192,27834,128,0,27911:0:0:0:0:
192,192,27911,1,0,0:0:0:0:
448,192,27911,128,0,27988:0:0:0:0:
320,192,27988,1,0,0:0:0:0:
448,192,28065,1,0,0:0:0:0:
64,192,28065,1,0,0:0:0:0:
192,192,28065,128,0,28219:0:0:0:0:
320,192,28142,128,0,28296:0:0:0:0:
448,192,28219,128,0,28372:0:0:0:0:
64,192,28219,1,0,0:0:0:0:
64,192,28372,1,0,0:0:0:0:
192,192,28372,128,0,28526:0:0:0:0:
320,192,28372,128,0,28449:0:0:0:0:
448,192,28526,128,0,28680:0:0:0:0:
64,192,28526,1,0,0:0:0:0:
320,192,28526,1,0,0:0:0:0:
192,192,28603,128,0,28757:0:0:0:0:
320,192,28680,128,0,28834:0:0:0:0:
64,192,28680,1,0,0:0:0:0:
448,192,28757,128,0,28834:0:0:0:0:
192,192,28834,1,0,0:0:0:0:
64,192,28834,128,0,28988:0:0:0:0:
320,192,28911,1,0,0:0:0:0:
448,192,28988,1,0,0:0:0:0:
192,192,28988,128,0,29142:0:0:0:0:
64,192,29065,1,0,0:0:0:0:
448,192,29142,128,0,29296:0:0:0:0:
320,192,29142,128,0,29219:0:0:0:0:
192,192,29296,1,0,0:0:0:0:
320,192,29296,1,0,0:0:0:0:
64,192,29296,128,0,29526:0:0:0:0:
448,192,29372,128,0,29526:0:0:0:0:
320,192,29449,128,0,29603:0:0:0:0:
192,192,29449,1,0,0:0:0:0:
64,192,29603,1,0,0:0:0:0:
448,192,29603,1,0,0:0:0:0:
192,192,29603,128,0,29834:0:0:0:0:
320,192,29757,128,0,29834:0:0:0:0:
448,192,29757,128,0,29834:0:0:0:0:
64,192,29834,1,0,0:0:0:0:
320,192,29911,1,0,0:0:0:0:
448,192,29911,1,0,0:0:0:0:
192,192,29911,128,0,30065:0:0:0:0:
64,192,29988,128,0,30142:0:0:0:0:
320,192,30065,128,0,30142:0:0:0:0:
448,192,30065,1,0,0:0:0:0:
192,192,30142,1,0,0:0:0:0:
448,192,30219,1,0,0:0:0:0:
64,192,30219,1,0,0:0:0:0:
320,192,30219,128,0,30449:0:0:0:0:
64,192,30372,1,0,0:0:0:0:
192,192,30372,128,0,30526:0:0:0:0:
448,192,30449,128,0,30526:0:0:0:0:
320,192,30526,1,0,0:0:0:0:
64,192,30526,128,0,30680:0:0:0:0:
448,192,30680,1,0,0:0:0:0:
320,192,30719,1,0,0:0:0:0:
192,192,30757,1,0,0:0:0:0:
64,192,30796,1,0,0:0:0:0:
448,192,30834,128,0,31065:0:0:0:0:
320,192,30834,128,0,30911:0:0:0:0:
64,192,30988,1,0,0:0:0:0:
320,192,30988,128,0,31142:0:0:0:0:
192,192,31065,128,0,31142:0:0:0:0:
448,192,31142,128,0,31219:0:0:0:0:
64,192,31142,128,0,31372:0:0:0:0:
448,192,31296,1,0,0:0:0:0:
320,192,31296,128,0,31372:0:0:0:0:
192,192,31372,128,0,31449:0:0:0:0:
448,192,31449,1,0,0:0:0:0:
320,192,31449,128,0,31603:0:0:0:0:
64,192,31449,128,0,31526:0:0:0:0:
192,192,31526,128,0,31680:0:0:0:0:
448,192,31603,1,0,0:0:0:0:
64,192,31603,128,0,31680:0:0:0:0:
320,192,31680,1,0,0:0:0:0:
64,192,31757,1,0,0:0:0:0:
448,192,31757,128,0,31988:0:0:0:0:
192,192,31757,128,0,31834:0:0:0:0:
320,192,31911,128,0,31988:0:0:0:0:
192,192,31911,1,0,0:0:0:0:
320,192,32065,128,0,32296:0:0:0:0:
64,192,32065,1,0,0:0:0:0:
192,192,32065,128,0,32142:0:0:0:0:
192,192,32219,1,0,0:0:0:0:
448,192,32219,128,0,32296:0:0:0:0:
192,192,32372,128,0,32603:0:0:0:0:
320,192,32372,128,0,32449:0:0:0:0:
64,192,32372,128,0,32526:0:0:0:0:
320,192,32526,1,0,0:0:0:0:
448,192,32526,128,0,32603:0:0:0:0:
64,192,32680,128,0,32911:0:0:0:0:
192,192,32680,128,0,32834:0:0:0:0:
448,192,32680,128,0,32757:0:0:0:0:
320,192,32680,1,0,0:0:0:0:
320,192,32834,128,0,32911:0:0:0:0:
448,192,32834,1,0,0:0:0:0:
192,192,32911,1,0,0:0:0:0:
448,192,32988,1,0,0:0:0:0:
64,192,32988,128,0,33219:0:0:0:0:
320,192,32988,128,0,33065:0:0:0:0:
192,192,33142,128,0,33219:0:0:0:0:
320,192,33142,1,0,0:0:0:0:
192,192,33296,128,0,33526:0:0:0:0:
448,192,33296,1,0,0:0:0:0:
320,192,33296,128,0,33372:0:0:0:0:
320,192,33449,1,0,0:0:0:0:
64,192,33449,128,0,33526:0:0:0:0:
320,192,33603,128,0,33834:0:0:0:0:
192,192,33603,128,0,33680:0:0:0:0:
448,192,33603,128,0,33757:0:0:0:0:
192,192,33757,1,0,0:0:0:0:
64,192,33757,128,0,33834:0:0:0:0:
448,192,33911,128,0,34142:0:0:0:0:
320,192,33911,128,0,34065:0:0:0:0:
64,192,33911,128,0,33988:0:0:0:0:
192,192,33911,1,0,0:0:0:0:
192,192,34065,128,0,34142:0:0:0:0:
64,192,34065,1,0,0:0:0:0:
320,192,34142,1,0,0:0:0:0:
192,192,34219,1,0,0:0:0:0:
64,192,34219,1,0,0:0:0:0:
448,192,34219,128,0,34449:0:0:0:0:
320,192,34296,128,0,34372:0:0:0:0:
192,192,34372,128,0,34449:0:0:0:0:
64,192,34372,1,0,0:0:0:0:
320,192,34449,1,0,0:0:0:0:
192,192,34526,128,0,34757:0:0:0:0:
448,192,34526,1,0,0:0:0:0:
64,192,34526,1,0,0:0:0:0:
320,192,34603,128,0,34680:0:0:0:0:
448,192,34680,128,0,34757:0:0:0:0:
64,192,34680,1,0,0:0:0:0:
320,192,34757,1,0,0:0:0:0:
448,192,34834,1,0,0:0:0:0:
64,192,34834,128,0,35065:0:0:0:0:
192,192,34834,1,0,0:0:0:0:
320,192,34911,128,0,34988:0:0:0:0:
448,192,34988,1,0,0:0:0:0:
192,192,34988,128,0,35065:0:0:0:0:
320,192,35065,1,0,0:0:0:0:
192,192,35142,1,0,0:0:0:0:
64,192,35142,128,0,35296:0:0:0:0:
448,192,35142,1,0,0:0:0:0:
320,192,35219,128,0,35296:0:0:0:0:
192,192,35296,128,0,35372:0:0:0:0:
448,192,35296,128,0,35372:0:0:0:0:
64,192,35372,128,0,35449:0:0:0:0:
448,192,35449,1,0,0:0:0:0:
320,192,35488,1,0,0:0:0:0:
192,192,35526,1,0,0:0:0:0:
64,192,35565,1,0,0:0:0:0:
320,192,35603,1,0,0:0:0:0:
448,192,35642,1,0,0:0:0:0:
64,192,35680,1,0,0:0:0:0:
192,192,35719,1,0,0:0:0:0:
320,192,35757,1,0,0:0:0:0:
448,192,35796,1,0,0:0:0:0:
192,192,35834,1,0,0:0:0:0:
64,192,35872,1,0,0:0:0:0:
448,192,35911,1,0,0:0:0:0:
320,192,35949,1,0,0:0:0:0:
192,192,35988,1,0,0:0:0:0:
64,192,36026,1,0,0:0:0:0:
448,192,36065,1,0,0:0:0:0:
320,192,36065,1,0,0:0:0:0:
192,192,36103,1,0,0:0:0:0:
64,192,36142,1,0,0:0:0:0:
448,192,36180,1,0,0:0:0:0:
320,192,36219,1,0,0:0:0:0:
192,192,36296,1,0,0:0:0:0:
64,192,36372,1,0,0:0:0:0:
320,192,36372,1,0,0:0:0:0:
192,192,36449,1,0,0:0:0:0:
448,192,36449,1,0,0:0:0:0:
320,192,36526,1,0,0:0:0:0:
64,192,36526,1,0,0:0:0:0:
192,192,36603,1,0,0:0:0:0:
320,192,36680,1,0,0:0:0:0:
64,192,36680,1,0,0:0:0:0:
448,192,36680,128,0,36911:0:0:0:0:
192,192,36834,128,0,36911:0:0:0:0:
64,192,36834,1,0,0:0:0:0:
192,192,36988,1,0,0:0:0:0:
320,192,36988,1,0,0:0:0:0:
448,192,36988,1,0,0:0:0:0:
64,192,36988,128,0,37219:0:0:0:0:
448,192,37142,1,0,0:0:0:0:
320,192,37142,128,0,37219:0:0:0:0:
192,192,37219,1,0,0:0:0:0:
448,192,37296,1,0,0:0:0:0:
64,192,37296,1,0,0:0:0:0:
320,192,37296,128,0,37526:0:0:0:0:
64,192,37449,1,0,0:0:0:0:
192,192,37449,128,0,37526:0:0:0:0:
448,192,37526,1,0,0:0:0:0:
320,192,37603,1,0,0:0:0:0:
192,192,37603,1,0,0:0:0:0:
64,192,37603,128,0,37834:0:0:0:0:
448,192,37757,128,0,37834:0:0:0:0:
320,192,37757,128,0,37834:0:0:0:0:
192,192,37834,128,0,37911:0:0:0:0:
448,192,37911,1,0,0:0:0:0:
64,192,37911,1,0,0:0:0:0:
320,192,37911,128,0,38142:0:0:0:0:
192,192,38065,128,0,38296:0:0:0:0:
448,192,38065,128,0,38142:0:0:0:0:
64,192,38219,128,0,38449:0:0:0:0:
320,192,38219,1,0,0:0:0:0:
448,192,38219,1,0,0:0:0:0:
320,192,38372,128,0,38526:0:0:0:0:
192,192,38372,128,0,38449:0:0:0:0:
448,192,38449,1,0,0:0:0:0:
192,192,38526,128,0,38757:0:0:0:0:
64,192,38526,1,0,0:0:0:0:
320,192,38680,128,0,38911:0:0:0:0:
64,192,38680,128,0,38757:0:0:0:0:
448,192,38680,1,0,0:0:0:0:
64,192,38834,128,0,39065:0:0:0:0:
192,192,38834,1,0,0:0:0:0:
448,192,38834,128,0,38911:0:0:0:0:
192,192,38988,128,0,39065:0:0:0:0:
320,192,38988,1,0,0:0:0:0:
448,192,39065,128,0,39142:0:0:0:0:
64,192,39142,1,0,0:0:0:0:
192,192,39142,1,0,0:0:0:0:
320,192,39142,128,0,39372:0:0:0:0:
448,192,39296,128,0,39372:0:0:0:0:
64,192,39296,1,0,0:0:0:0:
320,192,39449,1,0,0:0:0:0:
448,192,39449,1,0,0:0:0:0:
192,192,39449,128,0,39680:0:0:0:0:
64,192,39449,1,0,0:0:0:0:
320,192,39603,128,0,39680:0:0:0:0:
64,192,39603,1,0,0:0:0:0:
448,192,39680,1,0,0:0:0:0:
192,192,39757,1,0,0:0:0:0:
64,192,39757,1,0,0:0:0:0:
320,192,39757,128,0,39988:0:0:0:0:
448,192,39911,128,0,40065:0:0:0:0:
64,192,39911,1,0,0:0:0:0:
192,192,39911,128,0,39988:0:0:0:0:
320,192,40065,1,0,0:0:0:0:
192,192,40065,128,0,40296:0:0:0:0:
64,192,40065,1,0,0:0:0:0:
320,192,40219,128,0,40372:0:0:0:0:
448,192,40219,128,0,40296:0:0:0:0:
64,192,40296,1,0,0:0:0:0:
192,192,40372,1,0,0:0:0:0:
448,192,40372,128,0,40449:0:0:0:0:
320,192,40449,128,0,40603:0:0:0:0:
448,192,40526,128,0,40603:0:0:0:0:
64,192,40526,1,0,0:0:0:0:
192,192,40603,128,0,40680:0:0:0:0:
320,192,40680,1,0,0:0:0:0:
448,192,40680,1,0,0:0:0:0:
64,192,40680,128,0,40757:0:0:0:0:
192,192,40757,128,0,40911:0:0:0:0:
448,192,40834,128,0,40911:0:0:0:0:
64,192,40834,1,0,0:0:0:0:
320,192,40911,128,0,40988:0:0:0:0:
192,192,40988,1,0,0:0:0:0:
64,192,40988,128,0,41142:0:0:0:0:
320,192,41142,1,0,0:0:0:0:
448,192,41142,1,0,0:0:0:0:
192,192,41219,1,0,0:0:0:0:
64,192,41219,1,0,0:0:0:0:
320,192,41296,1,0,0:0:0:0:
448,192,41296,1,0,0:0:0:0:
192,192,41372,1,0,0:0:0:0:
320,192,41372,1,0,0:0:0:0:
192,192,41449,1,0,0:0:0:0:
64,192,41449,1,0,0:0:0:0:
448,192,41449,1,0,0:0:0:0:
320,192,41526,1,0,0:0:0:0:
448,192,41603,1,0,0:0:0:0:
448,192,41757,1,0,0:0:0:0:
320,192,41796,1,0,0:0:0:0:
64,192,41834,1,0,0:0:0:0:
192,192,41872,1,0,0:0:0:0:
448,192,41911,1,0,0:0:0:0:
320,192,41911,128,0,42142:0:0:0:0:
64,192,42065,128,0,42142:0:0:0:0:
192,192,42065,1,0,0:0:0:0:
448,192,42142,1,0,0:0:0:0:
320,192,42219,1,0,0:0:0:0:
64,192,42219,1,0,0:0:0:0:
192,192,42219,128,0,42449:0:0:0:0:
448,192,42372,128,0,42449:0:0:0:0:
320,192,42372,1,0,0:0:0:0:
64,192,42449,1,0,0:0:0:0:
192,192,42526,1,0,0:0:0:0:
320,192,42526,128,0,42603:0:0:0:0:
448,192,42526,128,0,42757:0:0:0:0:
64,192,42603,128,0,42680:0:0:0:0:
192,192,42680,128,0,42757:0:0:0:0:
320,192,42680,1,0,0:0:0:0:
64,192,42757,1,0,0:0:0:0:
448,192,42834,1,0,0:0:0:0:
192,192,42834,128,0,42988:0:0:0:0:
320,192,42834,128,0,43065:0:0:0:0:
64,192,42988,128,0,43065:0:0:0:0:
448,192,42988,1,0,0:0:0:0:
192,192,43065,1,0,0:0:0:0:
320,192,43142,1,0,0:0:0:0:
448,192,43142,1,0,0:0:0:0:
64,192,43142,128,0,43372:0:0:0:0:
192,192,43296,128,0,43372:0:0:0:0:
448,192,43296,1,0,0:0:0:0:
320,192,43372,1,0,0:0:0:0:
64,192,43449,1,0,0:0:0:0:
448,192,43449,128,0,43680:0:0:0:0:
192,192,43449,128,0,43603:0:0:0:0:
64,192,43603,1,0,0:0:0:0:
320,192,43603,128,0,43680:0:0:0:0:
192,192,43757,1,0,0:0:0:0:
448,192,43757,1,0,0:0:0:0:
64,192,43757,128,0,43988:0:0:0:0:
320,192,43757,128,0,43911:0:0:0:0:
448,192,43911,128,0,43988:0:0:0:0:
192,192,43911,128,0,43988:0:0:0:0:
320,192,43988,1,0,0:0:0:0:
64,192,44065,1,0,0:0:0:0:
192,192,44065,128,0,44296:0:0:0:0:
448,192,44065,128,0,44219:0:0:0:0:
320,192,44219,128,0,44296:0:0:0:0:
64,192,44219,1,0,0:0:0:0:
192,192,44372,1,0,0:0:0:0:
64,192,44372,128,0,44603:0:0:0:0:
448,192,44372,128,0,44526:0:0:0:0:
320,192,44372,1,0,0:0:0:0:
320,192,44526,128,0,44603:0:0:0:0:
192,192,44526,128,0,44603:0:0:0:0:
448,192,44603,1,0,0:0:0:0:
64,192,44680,1,0,0:0:0:0:
320,192,44680,128,0,44911:0:0:0:0:
192,192,44680,128,0,44834:0:0:0:0:
448,192,44834,128,0,44911:0:0:0:0:
64,192,44834,128,0,44911:0:0:0:0:
192,192,44911,1,0,0:0:0:0:
448,192,44988,128,0,45219:0:0:0:0:
64,192,44988,1,0,0:0:0:0:
320,192,44988,128,0,45142:0:0:0:0:
192,192,45142,128,0,45219:0:0:0:0:
64,192,45142,128,0,45219:0:0:0:0:
320,192,45219,1,0,0:0:0:0:
192,192,45296,1,0,0:0:0:0:
448,192,45296,128,0,45526:0:0:0:0:
64,192,45296,128,0,45449:0:0:0:0:
320,192,45449,128,0,45526:0:0:0:0:
192,192,45449,128,0,45526:0:0:0:0:
64,192,45526,1,0,0:0:0:0:
320,192,45603,1,0,0:0:0:0:
192,192,45603,128,0,45834:0:0:0:0:
448,192,45603,128,0,45757:0:0:0:0:
320,192,45757,128,0,45834:0:0:0:0:
64,192,45757,128,0,45834:0:0:0:0:
448,192,45834,1,0,0:0:0:0:
192,192,45911,1,0,0:0:0:0:
320,192,45911,128,0,46142:0:0:0:0:
64,192,45911,128,0,45988:0:0:0:0:
448,192,45988,128,0,46142:0:0:0:0:
192,192,46065,128,0,46142:0:0:0:0:
64,192,46142,128,0,46219:0:0:0:0:
320,192,46219,1,0,0:0:0:0:
448,192,46219,1,0,0:0:0:0:
192,192,46219,128,0,46372:0:0:0:0:
64,192,46296,128,0,46449:0:0:0:0:
320,192,46372,1,0,0:0:0:0:
448,192,46372,1,0,0:0:0:0:
192,192,46449,1,0,0:0:0:0:
448,192,46526,128,0,46757:0:0:0:0:
64,192,46526,128,0,46603:0:0:0:0:
320,192,46526,128,0,46603:0:0:0:0:
320,192,46680,128,0,46911:0:0:0:0:
192,192,46680,1,0,0:0:0:0:
64,192,46680,1,0,0:0:0:0:
192,192,46834,128,0,47065:0:0:0:0:
448,192,46834,128,0,46911:0:0:0:0:
64,192,46834,128,0,46911:0:0:0:0:
448,192,46988,128,0,47142:0:0:0:0:
320,192,46988,128,0,47065:0:0:0:0:
64,192,46988,1,0,0:0:0:0:
320,192,47142,128,0,47372:0:0:0:0:
192,192,47142,128,0,47219:0:0:0:0:
64,192,47142,128,0,47219:0:0:0:0:
192,192,47296,128,0,47526:0:0:0:0:
448,192,47296,1,0,0:0:0:0:
64,192,47296,1,0,0:0:0:0:
320,192,47449,128,0,47526:0:0:0:0:
64,192,47449,128,0,47680:0:0:0:0:
448,192,47449,128,0,47526:0:0:0:0:
192,192,47603,128,0,47680:0:0:0:0:
320,192,47603,128,0,47757:0:0:0:0:
448,192,47680,1,0,0:0:0:0:
192,192,47757,128,0,47988:0:0:0:0:
64,192,47757,128,0,47834:0:0:0:0:
320,192,47911,128,0,48142:0:0:0:0:
448,192,47911,128,0,47988:0:0:0:0:
64,192,47911,128,0,47988:0:0:0:0:
192,192,48065,128,0,48142:0:0:0:0:
64,192,48065,128,0,48142:0:0:0:0:
448,192,48065,128,0,48219:0:0:0:0:
192,192,48219,128,0,48372:0:0:0:0:
320,192,48219,128,0,48296:0:0:0:0:
64,192,48219,128,0,48296:0:0:0:0:
448,192,48296,1,0,0:0:0:0:
64,192,48372,128,0,48603:0:0:0:0:
320,192,48372,128,0,48449:0:0:0:0:
192,192,48526,128,0,48757:0:0:0:0:
320,192,48526,1,0,0:0:0:0:
448,192,48526,1,0,0:0:0:0:
64,192,48680,128,0,48757:0:0:0:0:
448,192,48680,128,0,48911:0:0:0:0:
320,192,48680,128,0,48757:0:0:0:0:
64,192,48834,128,0,48911:0:0:0:0:
192,192,48834,128,0,48911:0:0:0:0:
320,192,48834,128,0,48988:0:0:0:0:
64,192,48988,128,0,49219:0:0:0:0:
448,192,48988,128,0,49065:0:0:0:0:
192,192,48988,128,0,49065:0:0:0:0:
192,192,49142,128,0,49372:0:0:0:0:
320,192,49142,1,0,0:0:0:0:
448,192,49142,1,0,0:0:0:0:
320,192,49296,128,0,49526:0:0:0:0:
64,192,49296,128,0,49372:0:0:0:0:
448,192,49296,128,0,49372:0:0:0:0:
64,192,49449,128,0,49603:0:0:0:0:
192,192,49449,128,0,49526:0:0:0:0:
448,192,49449,1,0,0:0:0:0:
192,192,49603,128,0,49834:0:0:0:0:
320,192,49603,128,0,49680:0:0:0:0:
448,192,49603,128,0,49680:0:0:0:0:
320,192,49757,128,0,49988:0:0:0:0:
64,192,49757,1,0,0:0:0:0:
448,192,49757,1,0,0:0:0:0:
192,192,49911,128,0,49988:0:0:0:0:
448,192,49911,128,0,50142:0:0:0:0:
64,192,49911,128,0,49988:0:0:0:0:
320,192,50065,128,0,50142:0:0:0:0:
192,192,50065,128,0,50219:0:0:0:0:
64,192,50142,1,0,0:0:0:0:
320,192,50219,128,0,50449:0:0:0:0:
448,192,50219,128,0,50296:0:0:0:0:
192,192,50372,128,0,50603:0:0:0:0:
64,192,50372,128,0,50449:0:0:0:0:
448,192,50372,128,0,50449:0:0:0:0:
320,192,50526,128,0,50603:0:0:0:0:
448,192,50526,128,0,50603:0:0:0:0:
64,192,50526,128,0,50680:0:0:0:0:
320,192,50680,128,0,50834:0:0:0:0:
192,192,50680,128,0,50757:0:0:0:0:
448,192,50680,128,0,50757:0:0:0:0:
64,192,50757,1,0,0:0:0:0:
448,192,50834,128,0,51065:0:0:0:0:
192,192,50834,128,0,50911:0:0:0:0:
320,192,50988,128,0,51219:0:0:0:0:
192,192,50988,1,0,0:0:0:0:
64,192,50988,1,0,0:0:0:0:
448,192,51142,128,0,51219:0:0:0:0:
192,192,51142,128,0,51372:0:0:0:0:
64,192,51142,128,0,51219:0:0:0:0:
320,192,51296,128,0,51372:0:0:0:0:
448,192,51296,128,0,51449:0:0:0:0:
64,192,51296,128,0,51372:0:0:0:0:
320,192,51449,128,0,51526:0:0:0:0:
192,192,51449,1,0,0:0:0:0:
64,192,51449,128,0,51603:0:0:0:0:
320,192,51603,128,0,51757:0:0:0:0:
448,192,51603,1,0,0:0:0:0:
192,192,51603,1,0,0:0:0:0:
64,192,51680,128,0,51757:0:0:0:0:
192,192,51757,128,0,51988:0:0:0:0:
448,192,51757,128,0,51834:0:0:0:0:
448,192,51911,128,0,52065:0:0:0:0:
320,192,51911,1,0,0:0:0:0:
64,192,51911,1,0,0:0:0:0:
64,192,52065,1,0,0:0:0:0:
320,192,52065,128,0,52219:0:0:0:0:
192,192,52065,128,0,52142:0:0:0:0:
192,192,52219,128,0,52372:0:0:0:0:
448,192,52219,1,0,0:0:0:0:
64,192,52219,1,0,0:0:0:0:
320,192,52296,128,0,52372:0:0:0:0:
448,192,52372,1,0,0:0:0:0:
64,192,52372,128,0,52449:0:0:0:0:
192,192,52449,1,0,0:0:0:0:
320,192,52526,128,0,52603:0:0:0:0:
64,192,52526,1,0,0:0:0:0:
448,192,52603,128,0,52680:0:0:0:0:
64,192,52680,128,0,52911:0:0:0:0:
192,192,52680,128,0,52834:0:0:0:0:
320,192,52680,128,0,52757:0:0:0:0:
448,192,52834,128,0,52911:0:0:0:0:
320,192,52834,128,0,52911:0:0:0:0:
192,192,52988,128,0,53065:0:0:0:0:
64,192,52988,128,0,53142:0:0:0:0:
448,192,52988,128,0,53219:0:0:0:0:
320,192,52988,1,0,0:0:0:0:
192,192,53142,128,0,53219:0:0:0:0:
320,192,53142,128,0,53219:0:0:0:0:
64,192,53219,1,0,0:0:0:0:
192,192,53296,1,0,0:0:0:0:
320,192,53296,128,0,53526:0:0:0:0:
64,192,53449,128,0,53526:0:0:0:0:
448,192,53449,1,0,0:0:0:0:
192,192,53526,1,0,0:0:0:0:
320,192,53603,1,0,0:0:0:0:
448,192,53603,1,0,0:0:0:0:
64,192,53603,128,0,53834:0:0:0:0:
192,192,53680,128,0,53757:0:0:0:0:
320,192,53757,128,0,53834:0:0:0:0:
448,192,53757,128,0,53834:0:0:0:0:
192,192,53834,1,0,0:0:0:0:
320,192,53911,1,0,0:0:0:0:
448,192,53911,128,0,54142:0:0:0:0:
64,192,53911,128,0,54065:0:0:0:0:
320,192,54065,128,0,54142:0:0:0:0:
192,192,54065,128,0,54142:0:0:0:0:
64,192,54219,1,0,0:0:0:0:
192,192,54219,128,0,54449:0:0:0:0:
320,192,54219,128,0,54372:0:0:0:0:
448,192,54219,1,0,0:0:0:0:
448,192,54372,128,0,54449:0:0:0:0:
64,192,54372,128,0,54449:0:0:0:0:
320,192,54449,1,0,0:0:0:0:
448,192,54526,128,0,54757:0:0:0:0:
192,192,54526,128,0,54680:0:0:0:0:
64,192,54526,128,0,54603:0:0:0:0:
64,192,54680,128,0,54757:0:0:0:0:
320,192,54680,128,0,54757:0:0:0:0:
64,192,54834,128,0,55065:0:0:0:0:
192,192,54834,128,0,54988:0:0:0:0:
320,192,54834,128,0,54911:0:0:0:0:
448,192,54834,1,0,0:0:0:0:
320,192,54988,128,0,55142:0:0:0:0:
448,192,54988,128,0,55065:0:0:0:0:
448,192,55142,128,0,55372:0:0:0:0:
192,192,55142,128,0,55296:0:0:0:0:
64,192,55142,128,0,55219:0:0:0:0:
320,192,55219,128,0,55372:0:0:0:0:
64,192,55296,128,0,55372:0:0:0:0:
192,192,55372,1,0,0:0:0:0:
448,192,55449,1,0,0:0:0:0:
320,192,55449,128,0,55680:0:0:0:0:
64,192,55526,1,0,0:0:0:0:
448,192,55603,1,0,0:0:0:0:
192,192,55603,128,0,55680:0:0:0:0:
64,192,55680,1,0,0:0:0:0:
192,192,55757,128,0,55988:0:0:0:0:
320,192,55757,1,0,0:0:0:0:
448,192,55834,1,0,0:0:0:0:
64,192,55911,128,0,55988:0:0:0:0:
320,192,55911,1,0,0:0:0:0:
448,192,55988,128,0,56065:0:0:0:0:
192,192,56065,1,0,0:0:0:0:
320,192,56065,128,0,56219:0:0:0:0:
64,192,56142,128,0,56219:0:0:0:0:
192,192,56219,128,0,56296:0:0:0:0:
448,192,56219,128,0,56296:0:0:0:0:
320,192,56296,128,0,56372:0:0:0:0:
192,192,56372,1,0,0:0:0:0:
64,192,56372,128,0,56526:0:0:0:0:
448,192,56372,128,0,56680:0:0:0:0:
192,192,56526,128,0,56680:0:0:0:0:
320,192,56526,1,0,0:0:0:0:
64,192,56680,1,0,0:0:0:0:
320,192,56680,128,0,56834:0:0:0:0:
192,192,56834,128,0,56988:0:0:0:0:
64,192,56834,1,0,0:0:0:0:
448,192,56911,1,0,0:0:0:0:
64,192,56988,128,0,57303:0:0:0:0:
320,192,56988,128,0,57145:0:0:0:0:
448,192,56988,1,0,0:0:0:0:
448,192,57145,128,0,57303:0:0:0:0:
192,192,57145,1,0,0:0:0:0:
192,192,57303,1,0,0:0:0:0:
320,192,57303,128,0,57461:0:0:0:0:
64,192,57461,128,0,57619:0:0:0:0:
448,192,57461,1,0,0:0:0:0:
192,192,57540,1,0,0:0:0:0:
448,192,57619,128,0,57781:0:0:0:0:
320,192,57619,128,0,57862:0:0:0:0:
192,192,57619,1,0,0:0:0:0:
192,192,57781,128,0,57943:0:0:0:0:
64,192,57781,1,0,0:0:0:0:
448,192,57862,1,0,0:0:0:0:
64,192,57943,128,0,58105:0:0:0:0:
320,192,57943,128,0,58105:0:0:0:0:
192,192,58105,1,0,0:0:0:0:
448,192,58105,128,0,58267:0:0:0:0:
64,192,58186,1,0,0:0:0:0:
192,192,58267,128,0,58433:0:0:0:0:
320,192,58267,1,0,0:0:0:0:
64,192,58267,128,0,58517:0:0:0:0:
320,192,58433,128,0,58600:0:0:0:0:
448,192,58433,1,0,0:0:0:0:
192,192,58517,1,0,0:0:0:0:
64,192,58600,128,0,58767:0:0:0:0:
448,192,58600,128,0,58850:0:0:0:0:
320,192,58767,128,0,58933:0:0:0:0:
192,192,58767,1,0,0:0:0:0:
64,192,58850,1,0,0:0:0:0:
448,192,58933,128,0,59104:0:0:0:0:
192,192,58933,128,0,59190:0:0:0:0:
64,192,58933,1,0,0:0:0:0:
64,192,59104,128,0,59275:0:0:0:0:
320,192,59104,1,0,0:0:0:0:
448,192,59275,1,0,0:0:0:0:
320,192,59275,128,0,59533:0:0:0:0:
192,192,59275,128,0,59447:0:0:0:0:
448,192,59447,128,0,59618:0:0:0:0:
64,192,59447,1,0,0:0:0:0:
192,192,59533,1,0,0:0:0:0:
64,192,59618,128,0,59882:0:0:0:0:
320,192,59618,128,0,59794:0:0:0:0:
192,192,59618,1,0,0:0:0:0:
192,192,59794,128,0,59970:0:0:0:0:
448,192,59794,1,0,0:0:0:0:
320,192,59882,1,0,0:0:0:0:
448,192,59970,128,0,60235:0:0:0:0:
64,192,59970,128,0,60147:0:0:0:0:
192,192,60147,128,0,60323:0:0:0:0:
320,192,60147,1,0,0:0:0:0:
64,192,60235,1,0,0:0:0:0:
448,192,60323,1,0,0:0:0:0:
320,192,60323,128,0,60504:0:0:0:0:
64,192,60323,1,0,0:0:0:0:
64,192,60504,128,0,60686:0:0:0:0:
192,192,60504,1,0,0:0:0:0:
448,192,60504,1,0,0:0:0:0:
192,192,60686,1,0,0:0:0:0:
448,192,60686,128,0,60868:0:0:0:0:
320,192,60686,128,0,60959:0:0:0:0:
64,192,60868,128,0,61050:0:0:0:0:
192,192,60868,1,0,0:0:0:0:
448,192,60959,1,0,0:0:0:0:
320,192,61050,128,0,61237:0:0:0:0:
192,192,61050,128,0,61331:0:0:0:0:
448,192,61050,1,0,0:0:0:0:
448,192,61237,128,0,61425:0:0:0:0:
64,192,61237,1,0,0:0:0:0:
320,192,61331,1,0,0:0:0:0:
64,192,61425,128,0,61706:0:0:0:0:
192,192,61425,128,0,61612:0:0:0:0:
320,192,61612,128,0,61800:0:0:0:0:
448,192,61612,1,0,0:0:0:0:
192,192,61706,1,0,0:0:0:0:
448,192,61800,128,0,62081:0:0:0:0:
64,192,61800,128,0,61987:0:0:0:0:
192,192,61800,1,0,0:0:0:0:
192,192,61987,128,0,62175:0:0:0:0:
320,192,61987,1,0,0:0:0:0:
64,192,62081,1,0,0:0:0:0:
448,192,62175,128,0,62362:0:0:0:0:
320,192,62175,128,0,62362:0:0:0:0:
64,192,62362,128,0,62550:0:0:0:0:
192,192,62362,1,0,0:0:0:0:
448,192,62456,1,0,0:0:0:0:
192,192,62550,128,0,62731:0:0:0:0:
320,192,62550,128,0,62731:0:0:0:0:
448,192,62550,1,0,0:0:0:0:
448,192,62731,128,0,62913:0:0:0:0:
64,192,62731,128,0,62822:0:0:0:0:
192,192,62822,1,0,0:0:0:0:
64,192,62913,128,0,63095:0:0:0:0:
320,192,62913,128,0,63095:0:0:0:0:
448,192,63095,128,0,63277:0:0:0:0:
192,192,63095,1,0,0:0:0:0:
192,192,63186,1,0,0:0:0:0:
320,192,63277,1,0,0:0:0:0:
64,192,63277,128,0,63453:0:0:0:0:
320,192,63453,128,0,63629:0:0:0:0:
448,192,63453,1,0,0:0:0:0:
64,192,63541,1,0,0:0:0:0:
64,192,63629,1,0,0:0:0:0:
448,192,63629,128,0,63806:0:0:0:0:
192,192,63629,128,0,63806:0:0:0:0:
64,192,63806,128,0,63982:0:0:0:0:
320,192,63806,1,0,0:0:0:0:
320,192,63894,1,0,0:0:0:0:
192,192,63982,1,0,0:0:0:0:
448,192,63982,128,0,64153:0:0:0:0:
192,192,64153,128,0,64324:0:0:0:0:
320,192,64153,1,0,0:0:0:0:
64,192,64153,1,0,0:0:0:0:
64,192,64324,1,0,0:0:0:0:
448,192,64324,1,0,0:0:0:0:
320,192,64324,128,0,64496:0:0:0:0:
448,192,64496,128,0,64667:0:0:0:0:
64,192,64496,128,0,64582:0:0:0:0:
192,192,64496,1,0,0:0:0:0:
320,192,64667,128,0,64917:0:0:0:0:
192,192,64667,128,0,64833:0:0:0:0:
64,192,64667,1,0,0:0:0:0:
64,192,64833,128,0,65083:0:0:0:0:
448,192,64833,128,0,64917:0:0:0:0:
192,192,65000,128,0,65250:0:0:0:0:
320,192,65000,128,0,65167:0:0:0:0:
448,192,65000,1,0,0:0:0:0:
64,192,65167,128,0,65250:0:0:0:0:
448,192,65167,128,0,65414:0:0:0:0:
64,192,65333,128,0,65576:0:0:0:0:
192,192,65333,128,0,65495:0:0:0:0:
320,192,65333,1,0,0:0:0:0:
448,192,65495,128,0,65576:0:0:0:0:
320,192,65495,128,0,65738:0:0:0:0:
64,192,65657,128,0,65819:0:0:0:0:
448,192,65657,128,0,65900:0:0:0:0:
192,192,65657,1,0,0:0:0:0:
192,192,65819,128,0,66059:0:0:0:0:
320,192,65819,1,0,0:0:0:0:
64,192,65981,1,0,0:0:0:0:
320,192,65981,128,0,66217:0:0:0:0:
448,192,65981,128,0,66138:0:0:0:0:
64,192,66138,128,0,66375:0:0:0:0:
192,192,66138,1,0,0:0:0:0:
448,192,66296,128,0,66533:0:0:0:0:
320,192,66296,128,0,66454:0:0:0:0:
192,192,66296,1,0,0:0:0:0:
192,192,66454,128,0,66612:0:0:0:0:
64,192,66454,128,0,66612:0:0:0:0:
320,192,66612,128,0,66688:0:0:0:0:
448,192,66612,128,0,66688:0:0:0:0:
192,192,66688,128,0,66765:0:0:0:0:
64,192,66688,128,0,66765:0:0:0:0:
448,192,66765,128,0,66842:0:0:0:0:
320,192,66765,128,0,66842:0:0:0:0:
64,192,66842,128,0,66919:0:0:0:0:
192,192,66842,128,0,66919:0:0:0:0:
320,192,66919,128,0,66996:0:0:0:0:
448,192,66919,128,0,66996:0:0:0:0:
192,192,66996,128,0,67073:0:0:0:0:
64,192,66996,128,0,67073:0:0:0:0:
448,192,67073,128,0,67150:0:0:0:0:
320,192,67073,128,0,67150:0:0:0:0:
192,192,67150,128,0,67227:0:0:0:0:
64,192,67150,1,0,0:0:0:0:
64,192,67227,128,0,67380:0:0:0:0:
448,192,67227,128,0,67303:0:0:0:0:
320,192,67303,128,0,67457:0:0:0:0:
448,192,67380,128,0,67611:0:0:0:0:
192,192,67380,128,0,67457:0:0:0:0:
64,192,67457,128,0,67534:0:0:0:0:
192,192,67534,128,0,67765:0:0:0:0:
320,192,67534,128,0,67611:0:0:0:0:
64,192,67611,128,0,67688:0:0:0:0:
448,192,67688,128,0,67842:0:0:0:0:
320,192,67688,128,0,67765:0:0:0:0:
64,192,67765,128,0,67919:0:0:0:0:
192,192,67842,128,0,67919:0:0:0:0:
320,192,67842,128,0,67996:0:0:0:0:
448,192,67919,128,0,68073:0:0:0:0:
64,192,67996,128,0,68073:0:0:0:0:
192,192,67996,128,0,68150:0:0:0:0:
320,192,68073,128,0,68227:0:0:0:0:
64,192,68150,128,0,68227:0:0:0:0:
448,192,68150,128,0,68303:0:0:0:0:
192,192,68227,128,0,68380:0:0:0:0:
64,192,68303,128,0,68534:0:0:0:0:
320,192,68303,128,0,68380:0:0:0:0:
448,192,68380,128,0,68457:0:0:0:0:
192,192,68457,128,0,68534:0:0:0:0:
320,192,68457,128,0,68611:0:0:0:0:
448,192,68534,128,0,68688:0:0:0:0:
64,192,68611,128,0,68688:0:0:0:0:
192,192,68611,128,0,68765:0:0:0:0:
320,192,68688,128,0,68842:0:0:0:0:
448,192,68765,128,0,68996:0:0:0:0:
64,192,68765,128,0,68842:0:0:0:0:
192,192,68842,128,0,68919:0:0:0:0:
64,192,68919,128,0,68996:0:0:0:0:
320,192,68919,128,0,69073:0:0:0:0:
192,192,68996,128,0,69150:0:0:0:0:
448,192,69073,128,0,69303:0:0:0:0:
64,192,69073,128,0,69227:0:0:0:0:
320,192,69150,128,0,69227:0:0:0:0:
192,192,69227,128,0,69303:0:0:0:0:
320,192,69303,128,0,69457:0:0:0:0:
64,192,69303,128,0,69380:0:0:0:0:
448,192,69380,128,0,69611:0:0:0:0:
192,192,69380,128,0,69534:0:0:0:0:
64,192,69457,128,0,69765:0:0:0:0:
320,192,69534,128,0,69611:0:0:0:0:
192,192,69611,128,0,69688:0:0:0:0:
320,192,69688,128,0,69919:0:0:0:0:
448,192,69688,128,0,69765:0:0:0:0:
192,192,69765,128,0,69842:0:0:0:0:
64,192,69842,128,0,69919:0:0:0:0:
448,192,69842,128,0,69996:0:0:0:0:
192,192,69919,128,0,70073:0:0:0:0:
64,192,69996,128,0,70227:0:0:0:0:
320,192,69996,128,0,70227:0:0:0:0:
448,192,70073,128,0,70150:0:0:0:0:
192,192,70150,128,0,70380:0:0:0:0:
448,192,70227,128,0,70303:0:0:0:0:
64,192,70303,128,0,70380:0:0:0:0:
320,192,70303,128,0,70457:0:0:0:0:
448,192,70380,128,0,70534:0:0:0:0:
192,192,70457,128,0,70534:0:0:0:0:
64,192,70457,128,0,70534:0:0:0:0:
320,192,70534,128,0,70611:0:0:0:0:
192,192,70611,128,0,70688:0:0:0:0:
448,192,70611,128,0,70688:0:0:0:0:
64,192,70611,128,0,70765:0:0:0:0:
320,192,70688,128,0,70842:0:0:0:0:
192,192,70765,128,0,71073:0:0:0:0:
448,192,70765,128,0,70842:0:0:0:0:
64,192,70842,128,0,70919:0:0:0:0:
448,192,70919,128,0,71073:0:0:0:0:
320,192,70919,128,0,70996:0:0:0:0:
64,192,70996,128,0,71150:0:0:0:0:
320,192,71073,128,0,71150:0:0:0:0:
192,192,71150,128,0,71227:0:0:0:0:
448,192,71150,128,0,71303:0:0:0:0:
64,192,71227,128,0,71303:0:0:0:0:
320,192,71227,128,0,71303:0:0:0:0:
192,192,71303,128,0,71457:0:0:0:0:
64,192,71380,128,0,71611:0:0:0:0:
320,192,71380,128,0,71611:0:0:0:0:
448,192,71380,128,0,71457:0:0:0:0:
448,192,71534,128,0,71765:0:0:0:0:
192,192,71534,128,0,71611:0:0:0:0:
320,192,71688,128,0,71765:0:0:0:0:
64,192,71688,128,0,71919:0:0:0:0:
192,192,71688,128,0,71765:0:0:0:0:
448,192,71842,128,0,71919:0:0:0:0:
192,192,71842,128,0,71919:0:0:0:0:
320,192,71842,128,0,71996:0:0:0:0:
448,192,71996,128,0,72073:0:0:0:0:
64,192,71996,128,0,72073:0:0:0:0:
192,192,71996,128,0,72073:0:0:0:0:
320,192,72073,128,0,72150:0:0:0:0:
192,192,72150,1,0,0:0:0:0:
448,192,72150,128,0,72227:0:0:0:0:
64,192,72150,128,0,72303:0:0:0:0:
320,192,72227,128,0,72303:0:0:0:0:
192,192,72303,128,0,72380:0:0:0:0:
448,192,72303,1,0,0:0:0:0:
320,192,72380,1,0,0:0:0:0:
64,192,72380,128,0,72457:0:0:0:0:
448,192,72457,128,0,72688:0:0:0:0:
192,192,72457,128,0,72611:0:0:0:0:
320,192,72534,128,0,72611:0:0:0:0:
64,192,72611,128,0,72765:0:0:0:0:
192,192,72688,128,0,72765:0:0:0:0:
448,192,72765,1,0,0:0:0:0:
320,192,72765,128,0,72996:0:0:0:0:
192,192,72842,128,0,72919:0:0:0:0:
448,192,72919,128,0,73073:0:0:0:0:
64,192,72919,1,0,0:0:0:0:
192,192,72996,1,0,0:0:0:0:
64,192,73073,1,0,0:0:0:0:
320,192,73073,128,0,73227:0:0:0:0:
192,192,73150,1,0,0:0:0:0:
64,192,73227,128,0,73380:0:0:0:0:
448,192,73227,128,0,73303:0:0:0:0:
192,192,73303,128,0,73380:0:0:0:0:
448,192,73380,128,0,73534:0:0:0:0:
320,192,73380,1,0,0:0:0:0:
64,192,73457,128,0,73534:0:0:0:0:
192,192,73534,128,0,73611:0:0:0:0:
320,192,73534,128,0,73688:0:0:0:0:
448,192,73611,128,0,73688:0:0:0:0:
64,192,73688,128,0,73919:0:0:0:0:
192,192,73765,128,0,73842:0:0:0:0:
320,192,73842,128,0,73919:0:0:0:0:
448,192,73842,128,0,73919:0:0:0:0:
192,192,73919,128,0,73996:0:0:0:0:
320,192,73996,1,0,0:0:0:0:
448,192,73996,128,0,74227:0:0:0:0:
64,192,74073,128,0,74150:0:0:0:0:
320,192,74150,128,0,74227:0:0:0:0:
192,192,74150,128,0,74227:0:0:0:0:
64,192,74227,128,0,74303:0:0:0:0:
320,192,74303,1,0,0:0:0:0:
448,192,74303,1,0,0:0:0:0:
192,192,74303,128,0,74380:0:0:0:0:
64,192,74380,128,0,74457:0:0:0:0:
448,192,74457,1,0,0:0:0:0:
320,192,74457,1,0,0:0:0:0:
192,192,74534,1,0,0:0:0:0:
64,192,74534,1,0,0:0:0:0:
448,192,74611,128,0,74842:0:0:0:0:
320,192,74611,128,0,74688:0:0:0:0:
192,192,74611,128,0,74688:0:0:0:0:
64,192,74611,128,0,74688:0:0:0:0:
320,192,74765,128,0,74842:0:0:0:0:
192,192,74765,128,0,74842:0:0:0:0:
64,192,74765,128,0,74996:0:0:0:0:
320,192,74919,128,0,74996:0:0:0:0:
448,192,74919,128,0,74996:0:0:0:0:
192,192,74919,128,0,75150:0:0:0:0:
320,192,75073,128,0,75150:0:0:0:0:
448,192,75073,128,0,75150:0:0:0:0:
64,192,75073,128,0,75150:0:0:0:0:
320,192,75227,128,0,75457:0:0:0:0:
192,192,75227,128,0,75303:0:0:0:0:
64,192,75227,128,0,75303:0:0:0:0:
448,192,75227,128,0,75303:0:0:0:0:
192,192,75380,128,0,75457:0:0:0:0:
64,192,75380,128,0,75611:0:0:0:0:
448,192,75380,128,0,75457:0:0:0:0:
448,192,75534,128,0,75765:0:0:0:0:
320,192,75534,128,0,75611:0:0:0:0:
192,192,75534,128,0,75611:0:0:0:0:
192,192,75688,128,0,75765:0:0:0:0:
64,192,75688,128,0,75765:0:0:0:0:
320,192,75688,128,0,75765:0:0:0:0:
448,192,75842,1,0,0:0:0:0:
64,192,75842,1,0,0:0:0:0:
320,192,75919,1,0,0:0:0:0:
192,192,75919,1,0,0:0:0:0:
448,192,75996,1,0,0:0:0:0:
64,192,75996,1,0,0:0:0:0:
320,192,76073,1,0,0:0:0:0:
192,192,76073,1,0,0:0:0:0:
448,192,76150,1,0,0:0:0:0:
64,192,76150,1,0,0:0:0:0:
320,192,76227,1,0,0:0:0:0:
192,192,76227,1,0,0:0:0:0:
448,192,76303,1,0,0:0:0:0:
64,192,76303,1,0,0:0:0:0:
320,192,76380,1,0,0:0:0:0:
64,192,76457,1,0,0:0:0:0:
192,192,76457,1,0,0:0:0:0:
320,192,76534,1,0,0:0:0:0:
448,192,76534,1,0,0:0:0:0:
192,192,76611,1,0,0:0:0:0:
64,192,76611,1,0,0:0:0:0:
320,192,76688,1,0,0:0:0:0:
448,192,76688,1,0,0:0:0:0:
192,192,76765,1,0,0:0:0:0:
64,192,76765,1,0,0:0:0:0:
448,192,76765,1,0,0:0:0:0:
320,192,76842,1,0,0:0:0:0:
448,192,76919,1,0,0:0:0:0:
320,192,76957,1,0,0:0:0:0:
64,192,76996,1,0,0:0:0:0:
192,192,76996,1,0,0:0:0:0:
448,192,77034,1,0,0:0:0:0:
320,192,77073,1,0,0:0:0:0:
192,192,77073,128,0,77150:0:0:0:0:
64,192,77073,128,0,77303:0:0:0:0:
448,192,77150,128,0,77303:0:0:0:0:
320,192,77227,128,0,77303:0:0:0:0:
192,192,77303,128,0,77380:0:0:0:0:
320,192,77380,128,0,77611:0:0:0:0:
64,192,77380,128,0,77457:0:0:0:0:
448,192,77380,1,0,0:0:0:0:
448,192,77534,128,0,77611:0:0:0:0:
192,192,77534,128,0,77611:0:0:0:0:
448,192,77688,128,0,77919:0:0:0:0:
192,192,77688,128,0,77765:0:0:0:0:
320,192,77688,128,0,77765:0:0:0:0:
64,192,77688,1,0,0:0:0:0:
64,192,77842,128,0,77919:0:0:0:0:
320,192,77842,128,0,77919:0:0:0:0:
320,192,77996,128,0,78227:0:0:0:0:
64,192,77996,128,0,78073:0:0:0:0:
192,192,77996,128,0,78073:0:0:0:0:
448,192,77996,1,0,0:0:0:0:
448,192,78150,128,0,78227:0:0:0:0:
64,192,78150,128,0,78227:0:0:0:0:
192,192,78227,128,0,78303:0:0:0:0:
64,192,78303,128,0,78534:0:0:0:0:
320,192,78303,128,0,78380:0:0:0:0:
448,192,78303,128,0,78380:0:0:0:0:
448,192,78457,128,0,78534:0:0:0:0:
192,192,78457,128,0,78534:0:0:0:0:
320,192,78534,128,0,78611:0:0:0:0:
448,192,78611,128,0,78842:0:0:0:0:
192,192,78611,128,0,78688:0:0:0:0:
64,192,78611,128,0,78688:0:0:0:0:
320,192,78765,128,0,78842:0:0:0:0:
192,192,78765,128,0,78842:0:0:0:0:
64,192,78842,128,0,78919:0:0:0:0:
192,192,78919,128,0,79073:0:0:0:0:
320,192,78919,128,0,79150:0:0:0:0:
448,192,78919,128,0,78996:0:0:0:0:
64,192,79073,1,0,0:0:0:0:
448,192,79073,1,0,0:0:0:0:
192,192,79150,1,0,0:0:0:0:
448,192,79227,1,0,0:0:0:0:
64,192,79227,128,0,79380:0:0:0:0:
320,192,79227,128,0,79303:0:0:0:0:
192,192,79303,128,0,79380:0:0:0:0:
320,192,79380,1,0,0:0:0:0:
448,192,79380,1,0,0:0:0:0:
192,192,79457,1,0,0:0:0:0:
64,192,79534,1,0,0:0:0:0:
320,192,79534,1,0,0:0:0:0:
448,192,79534,128,0,79765:0:0:0:0:
192,192,79611,128,0,79688:0:0:0:0:
320,192,79688,128,0,79765:0:0:0:0:
64,192,79688,1,0,0:0:0:0:
192,192,79765,128,0,79842:0:0:0:0:
320,192,79842,1,0,0:0:0:0:
448,192,79842,128,0,79919:0:0:0:0:
64,192,79842,128,0,79919:0:0:0:0:
192,192,79919,128,0,79996:0:0:0:0:
320,192,79996,128,0,80073:0:0:0:0:
448,192,79996,1,0,0:0:0:0:
64,192,79996,1,0,0:0:0:0:
192,192,80073,128,0,80150:0:0:0:0:
448,192,80150,1,0,0:0:0:0:
64,192,80150,128,0,80303:0:0:0:0:
320,192,80150,128,0,80227:0:0:0:0:
192,192,80227,128,0,80380:0:0:0:0:
320,192,80303,1,0,0:0:0:0:
448,192,80303,128,0,80380:0:0:0:0:
64,192,80380,1,0,0:0:0:0:
448,192,80457,1,0,0:0:0:0:
192,192,80457,128,0,80534:0:0:0:0:
320,192,80457,128,0,80688:0:0:0:0:
64,192,80534,128,0,80611:0:0:0:0:
448,192,80611,128,0,80688:0:0:0:0:
192,192,80611,1,0,0:0:0:0:
64,192,80688,128,0,80765:0:0:0:0:
320,192,80765,1,0,0:0:0:0:
448,192,80765,128,0,80919:0:0:0:0:
192,192,80765,128,0,80842:0:0:0:0:
64,192,80842,128,0,80919:0:0:0:0:
320,192,80919,128,0,80996:0:0:0:0:
192,192,80919,128,0,80996:0:0:0:0:
448,192,80996,128,0,81073:0:0:0:0:
320,192,81073,1,0,0:0:0:0:
192,192,81073,1,0,0:0:0:0:
64,192,81073,128,0,81227:0:0:0:0:
448,192,81150,128,0,81303:0:0:0:0:
320,192,81227,128,0,81380:0:0:0:0:
192,192,81227,128,0,81303:0:0:0:0:
64,192,81303,1,0,0:0:0:0:
192,192,81380,128,0,81457:0:0:0:0:
448,192,81380,1,0,0:0:0:0:
64,192,81457,128,0,81534:0:0:0:0:
320,192,81457,1,0,0:0:0:0:
192,192,81534,128,0,81611:0:0:0:0:
448,192,81534,128,0,81611:0:0:0:0:
320,192,81611,128,0,81688:0:0:0:0:
64,192,81611,1,0,0:0:0:0:
448,192,81688,1,0,0:0:0:0:
64,192,81688,1,0,0:0:0:0:
192,192,81688,128,0,81842:0:0:0:0:
320,192,81765,128,0,81919:0:0:0:0:
448,192,81842,128,0,81919:0:0:0:0:
64,192,81842,1,0,0:0:0:0:
192,192,81919,128,0,81996:0:0:0:0:
320,192,81996,1,0,0:0:0:0:
448,192,81996,1,0,0:0:0:0:
192,192,82073,1,0,0:0:0:0:
64,192,82073,1,0,0:0:0:0:
320,192,82150,1,0,0:0:0:0:
448,192,82150,1,0,0:0:0:0:
192,192,82227,1,0,0:0:0:0:
64,192,82227,1,0,0:0:0:0:
320,192,82303,1,0,0:0:0:0:
448,192,82303,1,0,0:0:0:0:
192,192,82380,1,0,0:0:0:0:
64,192,82380,1,0,0:0:0:0:
320,192,82457,1,0,0:0:0:0:
448,192,82534,1,0,0:0:0:0:
192,192,82534,1,0,0:0:0:0:
64,192,82611,1,0,0:0:0:0:
320,192,82611,1,0,0:0:0:0:
192,192,82688,1,0,0:0:0:0:
320,192,82765,1,0,0:0:0:0:
448,192,82765,1,0,0:0:0:0:
64,192,82842,1,0,0:0:0:0:
448,192,82919,1,0,0:0:0:0:
320,192,82919,1,0,0:0:0:0:
192,192,82919,1,0,0:0:0:0:
64,192,82996,1,0,0:0:0:0:
448,192,83073,1,0,0:0:0:0:
192,192,83073,1,0,0:0:0:0:
320,192,83150,1,0,0:0:0:0:
64,192,83150,1,0,0:0:0:0:
448,192,83227,1,0,0:0:0:0:
192,192,83227,1,0,0:0:0:0:
64,192,83303,1,0,0:0:0:0:
320,192,83380,1,0,0:0:0:0:
448,192,83380,1,0,0:0:0:0:
192,192,83457,1,0,0:0:0:0:
64,192,83457,1,0,0:0:0:0:
320,192,83534,1,0,0:0:0:0:
448,192,83534,1,0,0:0:0:0:
192,192,83611,1,0,0:0:0:0:
64,192,83688,1,0,0:0:0:0:
448,192,83688,1,0,0:0:0:0:
320,192,83765,1,0,0:0:0:0:
192,192,83765,1,0,0:0:0:0:
448,192,83842,1,0,0:0:0:0:
64,192,83842,1,0,0:0:0:0:
320,192,83919,1,0,0:0:0:0:
192,192,83919,1,0,0:0:0:0:
64,192,83996,1,0,0:0:0:0:
192,192,84073,1,0,0:0:0:0:
448,192,84073,1,0,0:0:0:0:
320,192,84150,1,0,0:0:0:0:
64,192,84150,1,0,0:0:0:0:
448,192,84227,1,0,0:0:0:0:
320,192,84303,1,0,0:0:0:0:
64,192,84303,1,0,0:0:0:0:
192,192,84303,1,0,0:0:0:0:
448,192,84380,1,0,0:0:0:0:
64,192,84457,128,0,84534:0:0:0:0:
192,192,84457,128,0,84534:0:0:0:0:
320,192,84457,128,0,84534:0:0:0:0:
64,192,84611,128,0,84688:0:0:0:0:
320,192,84611,128,0,84688:0:0:0:0:
192,192,84611,128,0,84688:0:0:0:0:
192,192,84765,128,0,84842:0:0:0:0:
320,192,84765,128,0,84842:0:0:0:0:
64,192,84765,128,0,84842:0:0:0:0:
64,192,84919,128,0,84996:0:0:0:0:
320,192,84919,128,0,84996:0:0:0:0:
448,192,84919,128,0,84996:0:0:0:0:
192,192,84996,128,0,85073:0:0:0:0:
448,192,85073,128,0,85150:0:0:0:0:
64,192,85073,128,0,85150:0:0:0:0:
320,192,85073,128,0,85150:0:0:0:0:
320,192,85227,128,0,85303:0:0:0:0:
64,192,85227,128,0,85303:0:0:0:0:
448,192,85227,128,0,85303:0:0:0:0:
448,192,85380,128,0,85457:0:0:0:0:
64,192,85380,128,0,85457:0:0:0:0:
320,192,85380,128,0,85457:0:0:0:0:
192,192,85380,128,0,85611:0:0:0:0:
448,192,85534,128,0,85611:0:0:0:0:
320,192,85534,128,0,85688:0:0:0:0:
64,192,85611,128,0,85688:0:0:0:0:
448,192,85688,1,0,0:0:0:0:
320,192,85727,5,0,0:0:0:0:
64,192,85765,1,0,0:0:0:0:
192,192,85803,1,0,0:0:0:0:
320,192,85842,1,0,0:0:0:0:
448,192,85880,1,0,0:0:0:0:
192,192,85919,1,0,0:0:0:0:
64,192,85957,1,0,0:0:0:0:
320,192,85996,1,0,0:0:0:0:
448,192,85996,128,0,86150:0:0:0:0:
192,192,86073,128,0,86227:0:0:0:0:
320,192,86150,128,0,86227:0:0:0:0:
64,192,86150,128,0,86227:0:0:0:0:
448,192,86227,128,0,86303:0:0:0:0:
64,192,86303,128,0,86534:0:0:0:0:
192,192,86303,128,0,86457:0:0:0:0:
320,192,86303,128,0,86380:0:0:0:0:
320,192,86457,128,0,86534:0:0:0:0:
448,192,86457,128,0,86534:0:0:0:0:
192,192,86534,128,0,86688:0:0:0:0:
320,192,86611,128,0,86765:0:0:0:0:
448,192,86611,128,0,86688:0:0:0:0:
64,192,86611,128,0,86842:0:0:0:0:
192,192,86765,128,0,86842:0:0:0:0:
448,192,86765,128,0,86842:0:0:0:0:
320,192,86842,128,0,86919:0:0:0:0:
64,192,86919,128,0,87073:0:0:0:0:
192,192,86919,128,0,86996:0:0:0:0:
448,192,86919,1,0,0:0:0:0:
320,192,86996,1,0,0:0:0:0:
448,192,87073,128,0,87227:0:0:0:0:
192,192,87073,128,0,87150:0:0:0:0:
320,192,87227,1,0,0:0:0:0:
192,192,87227,1,0,0:0:0:0:
64,192,87227,128,0,87380:0:0:0:0:
448,192,87380,1,0,0:0:0:0:
192,192,87380,1,0,0:0:0:0:
320,192,87457,1,0,0:0:0:0:
192,192,87534,128,0,87688:0:0:0:0:
64,192,87534,128,0,87611:0:0:0:0:
448,192,87534,1,0,0:0:0:0:
448,192,87688,128,0,87765:0:0:0:0:
320,192,87688,128,0,87842:0:0:0:0:
64,192,87688,1,0,0:0:0:0:
192,192,87842,128,0,87919:0:0:0:0:
448,192,87842,128,0,87996:0:0:0:0:
64,192,87919,128,0,88073:0:0:0:0:
320,192,87996,128,0,88073:0:0:0:0:
192,192,87996,128,0,88073:0:0:0:0:
448,192,88073,128,0,88150:0:0:0:0:
192,192,88150,1,0,0:0:0:0:
64,192,88150,1,0,0:0:0:0:
320,192,88150,128,0,88303:0:0:0:0:
448,192,88227,128,0,88380:0:0:0:0:
192,192,88303,1,0,0:0:0:0:
64,192,88303,1,0,0:0:0:0:
320,192,88380,1,0,0:0:0:0:
192,192,88457,1,0,0:0:0:0:
64,192,88457,128,0,88611:0:0:0:0:
448,192,88457,128,0,88611:0:0:0:0:
320,192,88611,128,0,88688:0:0:0:0:
192,192,88611,128,0,88765:0:0:0:0:
64,192,88688,128,0,88842:0:0:0:0:
320,192,88765,128,0,88842:0:0:0:0:
448,192,88765,128,0,88842:0:0:0:0:
320,192,88919,128,0,89073:0:0:0:0:
192,192,88919,128,0,88996:0:0:0:0:
64,192,88919,1,0,0:0:0:0:
64,192,89073,1,0,0:0:0:0:
192,192,89073,128,0,89227:0:0:0:0:
448,192,89073,1,0,0:0:0:0:
320,192,89150,1,0,0:0:0:0:
448,192,89227,128,0,89380:0:0:0:0:
64,192,89227,1,0,0:0:0:0:
192,192,89303,1,0,0:0:0:0:
64,192,89380,128,0,89534:0:0:0:0:
320,192,89380,128,0,89457:0:0:0:0:
192,192,89457,128,0,89611:0:0:0:0:
448,192,89534,128,0,89688:0:0:0:0:
320,192,89534,1,0,0:0:0:0:
192,192,89688,1,0,0:0:0:0:
64,192,89688,1,0,0:0:0:0:
320,192,89688,128,0,89842:0:0:0:0:
448,192,89765,128,0,89842:0:0:0:0:
192,192,89842,128,0,89919:0:0:0:0:
64,192,89842,128,0,89996:0:0:0:0:
320,192,89919,128,0,89996:0:0:0:0:
192,192,89996,128,0,90150:0:0:0:0:
448,192,89996,1,0,0:0:0:0:
320,192,90150,128,0,90303:0:0:0:0:
448,192,90150,1,0,0:0:0:0:
64,192,90150,1,0,0:0:0:0:
448,192,90303,128,0,90457:0:0:0:0:
64,192,90303,1,0,0:0:0:0:
192,192,90303,128,0,90380:0:0:0:0:
320,192,90380,128,0,90457:0:0:0:0:
64,192,90457,128,0,90611:0:0:0:0:
192,192,90457,128,0,90534:0:0:0:0:
448,192,90534,128,0,90611:0:0:0:0:
192,192,90611,1,0,0:0:0:0:
320,192,90611,128,0,90765:0:0:0:0:
192,192,90765,128,0,90842:0:0:0:0:
64,192,90765,128,0,90842:0:0:0:0:
448,192,90765,1,0,0:0:0:0:
320,192,90842,1,0,0:0:0:0:
448,192,90919,128,0,91150:0:0:0:0:
64,192,90919,128,0,90996:0:0:0:0:
192,192,90919,1,0,0:0:0:0:
64,192,91073,1,0,0:0:0:0:
192,192,91073,128,0,91150:0:0:0:0:
320,192,91150,128,0,91227:0:0:0:0:
64,192,91227,1,0,0:0:0:0:
448,192,91227,1,0,0:0:0:0:
192,192,91227,128,0,91457:0:0:0:0:
320,192,91380,128,0,91457:0:0:0:0:
448,192,91380,128,0,91457:0:0:0:0:
64,192,91457,128,0,91534:0:0:0:0:
448,192,91534,1,0,0:0:0:0:
320,192,91534,128,0,91688:0:0:0:0:
192,192,91534,128,0,91611:0:0:0:0:
192,192,91688,128,0,91842:0:0:0:0:
64,192,91688,128,0,91765:0:0:0:0:
320,192,91765,1,0,0:0:0:0:
64,192,91842,128,0,91996:0:0:0:0:
448,192,91842,128,0,91919:0:0:0:0:
192,192,91996,1,0,0:0:0:0:
448,192,91996,128,0,92150:0:0:0:0:
320,192,91996,128,0,92073:0:0:0:0:
64,192,92073,1,0,0:0:0:0:
192,192,92150,128,0,92303:0:0:0:0:
320,192,92150,128,0,92227:0:0:0:0:
64,192,92227,128,0,92380:0:0:0:0:
320,192,92303,128,0,92457:0:0:0:0:
448,192,92303,128,0,92380:0:0:0:0:
192,192,92380,1,0,0:0:0:0:
64,192,92457,128,0,92534:0:0:0:0:
448,192,92457,128,0,92611:0:0:0:0:
320,192,92534,128,0,92611:0:0:0:0:
64,192,92611,128,0,92765:0:0:0:0:
192,192,92611,128,0,92688:0:0:0:0:
448,192,92688,128,0,92765:0:0:0:0:
192,192,92765,128,0,92842:0:0:0:0:
320,192,92765,128,0,92842:0:0:0:0:
64,192,92842,128,0,92996:0:0:0:0:
448,192,92919,128,0,93073:0:0:0:0:
320,192,92919,1,0,0:0:0:0:
192,192,92996,128,0,93073:0:0:0:0:
64,192,93073,1,0,0:0:0:0:
320,192,93073,128,0,93303:0:0:0:0:
192,192,93227,1,0,0:0:0:0:
448,192,93227,1,0,0:0:0:0:
64,192,93380,1,0,0:0:0:0:
320,192,93380,1,0,0:0:0:0:
192,192,93380,128,0,93611:0:0:0:0:
320,192,93534,1,0,0:0:0:0:
448,192,93534,128,0,93611:0:0:0:0:
64,192,93611,128,0,93688:0:0:0:0:
192,192,93688,1,0,0:0:0:0:
320,192,93688,1,0,0:0:0:0:
448,192,93688,128,0,93919:0:0:0:0:
64,192,93842,1,0,0:0:0:0:
192,192,93842,128,0,93919:0:0:0:0:
320,192,93919,128,0,93996:0:0:0:0:
448,192,93996,1,0,0:0:0:0:
64,192,93996,1,0,0:0:0:0:
192,192,93996,128,0,94150:0:0:0:0:
448,192,94150,128,0,94303:0:0:0:0:
64,192,94150,1,0,0:0:0:0:
320,192,94150,1,0,0:0:0:0:
192,192,94227,128,0,94303:0:0:0:0:
64,192,94303,1,0,0:0:0:0:
320,192,94303,128,0,94457:0:0:0:0:
192,192,94380,128,0,94534:0:0:0:0:
64,192,94457,128,0,94611:0:0:0:0:
448,192,94457,1,0,0:0:0:0:
320,192,94534,1,0,0:0:0:0:
192,192,94611,1,0,0:0:0:0:
448,192,94611,128,0,94842:0:0:0:0:
64,192,94765,128,0,94842:0:0:0:0:
192,192,94765,1,0,0:0:0:0:
320,192,94842,128,0,94919:0:0:0:0:
192,192,94919,1,0,0:0:0:0:
448,192,94919,1,0,0:0:0:0:
64,192,94919,128,0,95150:0:0:0:0:
320,192,95073,128,0,95150:0:0:0:0:
448,192,95073,1,0,0:0:0:0:
192,192,95150,128,0,95227:0:0:0:0:
448,192,95227,1,0,0:0:0:0:
64,192,95227,1,0,0:0:0:0:
320,192,95227,128,0,95457:0:0:0:0:
192,192,95380,128,0,95457:0:0:0:0:
448,192,95380,128,0,95457:0:0:0:0:
64,192,95457,128,0,95611:0:0:0:0:
192,192,95534,128,0,95688:0:0:0:0:
320,192,95534,128,0,95611:0:0:0:0:
448,192,95534,1,0,0:0:0:0:
64,192,95688,1,0,0:0:0:0:
448,192,95688,128,0,95803:0:0:0:0:
320,192,95727,128,0,95765:0:0:0:0:
192,192,95765,128,0,95842:0:0:0:0:
64,192,95803,128,0,95880:0:0:0:0:
320,192,95842,128,0,95919:0:0:0:0:
448,192,95880,128,0,95996:0:0:0:0:
64,192,95996,128,0,96111:0:0:0:0:
192,192,96034,128,0,96073:0:0:0:0:
320,192,96073,128,0,96150:0:0:0:0:
448,192,96111,128,0,96188:0:0:0:0:
192,192,96150,128,0,96227:0:0:0:0:
64,192,96188,128,0,96265:0:0:0:0:
448,192,96303,128,0,96457:0:0:0:0:
320,192,96342,128,0,96419:0:0:0:0:
192,192,96380,1,0,0:0:0:0:
64,192,96419,128,0,96496:0:0:0:0:
192,192,96457,128,0,96534:0:0:0:0:
320,192,96496,128,0,96573:0:0:0:0:
448,192,96534,128,0,96611:0:0:0:0:
64,192,96573,128,0,96650:0:0:0:0:
192,192,96611,128,0,96688:0:0:0:0:
320,192,96650,128,0,96727:0:0:0:0:
448,192,96688,128,0,96765:0:0:0:0:
64,192,96727,128,0,96765:0:0:0:0:
192,192,96765,128,0,96919:0:0:0:0:
320,192,96765,1,0,0:0:0:0:
448,192,96842,1,0,0:0:0:0:
64,192,96919,128,0,97073:0:0:0:0:
320,192,96919,128,0,96996:0:0:0:0:
192,192,97073,1,0,0:0:0:0:
320,192,97073,1,0,0:0:0:0:
448,192,97073,128,0,97227:0:0:0:0:
192,192,97227,128,0,97380:0:0:0:0:
320,192,97227,128,0,97303:0:0:0:0:
64,192,97227,128,0,97303:0:0:0:0:
448,192,97303,1,0,0:0:0:0:
64,192,97380,1,0,0:0:0:0:
320,192,97380,128,0,97457:0:0:0:0:
448,192,97457,128,0,97534:0:0:0:0:
320,192,97534,128,0,97611:0:0:0:0:
64,192,97534,128,0,97688:0:0:0:0:
192,192,97534,128,0,97611:0:0:0:0:
448,192,97611,1,0,0:0:0:0:
192,192,97688,128,0,97765:0:0:0:0:
320,192,97688,128,0,97765:0:0:0:0:
448,192,97765,128,0,97842:0:0:0:0:
192,192,97842,1,0,0:0:0:0:
64,192,97842,1,0,0:0:0:0:
320,192,97842,128,0,97996:0:0:0:0:
448,192,97919,1,0,0:0:0:0:
64,192,97996,128,0,98150:0:0:0:0:
192,192,97996,128,0,98073:0:0:0:0:
320,192,98073,128,0,98150:0:0:0:0:
448,192,98150,128,0,98303:0:0:0:0:
192,192,98150,1,0,0:0:0:0:
64,192,98227,1,0,0:0:0:0:
320,192,98303,128,0,98380:0:0:0:0:
192,192,98303,128,0,98380:0:0:0:0:
64,192,98380,1,0,0:0:0:0:
448,192,98457,128,0,98534:0:0:0:0:
320,192,98457,128,0,98534:0:0:0:0:
192,192,98534,1,0,0:0:0:0:
64,192,98611,128,0,98688:0:0:0:0:
320,192,98611,128,0,98688:0:0:0:0:
448,192,98611,128,0,98842:0:0:0:0:
192,192,98765,128,0,98842:0:0:0:0:
320,192,98765,128,0,98842:0:0:0:0:
192,192,98919,128,0,99150:0:0:0:0:
320,192,98919,128,0,98996:0:0:0:0:
448,192,98919,128,0,98996:0:0:0:0:
64,192,98919,1,0,0:0:0:0:
64,192,99073,128,0,99150:0:0:0:0:
320,192,99073,128,0,99150:0:0:0:0:
448,192,99150,1,0,0:0:0:0:
192,192,99227,1,0,0:0:0:0:
64,192,99227,128,0,99380:0:0:0:0:
320,192,99227,128,0,99303:0:0:0:0:
448,192,99303,128,0,99380:0:0:0:0:
320,192,99380,128,0,99534:0:0:0:0:
192,192,99380,128,0,99457:0:0:0:0:
64,192,99534,128,0,99611:0:0:0:0:
448,192,99534,128,0,99611:0:0:0:0:
192,192,99534,1,0,0:0:0:0:
320,192,99611,1,0,0:0:0:0:
192,192,99688,128,0,99765:0:0:0:0:
64,192,99688,1,0,0:0:0:0:
448,192,99688,128,0,99765:0:0:0:0:
320,192,99765,1,0,0:0:0:0:
64,192,99842,128,0,99996:0:0:0:0:
448,192,99842,128,0,99919:0:0:0:0:
320,192,99842,128,0,99919:0:0:0:0:
320,192,99996,128,0,100073:0:0:0:0:
192,192,99996,128,0,100073:0:0:0:0:
448,192,99996,128,0,100073:0:0:0:0:
64,192,100073,128,0,100150:0:0:0:0:
320,192,100150,128,0,100303:0:0:0:0:
448,192,100150,128,0,100227:0:0:0:0:
192,192,100150,1,0,0:0:0:0:
192,192,100303,128,0,100380:0:0:0:0:
448,192,100303,1,0,0:0:0:0:
64,192,100303,128,0,100380:0:0:0:0:
320,192,100380,1,0,0:0:0:0:
192,192,100457,128,0,100534:0:0:0:0:
64,192,100457,128,0,100688:0:0:0:0:
448,192,100457,128,0,100534:0:0:0:0:
192,192,100611,128,0,100688:0:0:0:0:
320,192,100611,128,0,100688:0:0:0:0:
448,192,100688,128,0,100765:0:0:0:0:
320,192,100765,1,0,0:0:0:0:
192,192,100765,128,0,100996:0:0:0:0:
64,192,100765,128,0,100842:0:0:0:0:
448,192,100842,128,0,100919:0:0:0:0:
320,192,100919,128,0,100996:0:0:0:0:
64,192,100919,128,0,100996:0:0:0:0:
320,192,101073,128,0,101150:0:0:0:0:
192,192,101073,1,0,0:0:0:0:
448,192,101073,128,0,101303:0:0:0:0:
64,192,101227,128,0,101303:0:0:0:0:
192,192,101227,128,0,101303:0:0:0:0:
320,192,101227,1,0,0:0:0:0:
320,192,101380,128,0,101611:0:0:0:0:
192,192,101380,128,0,101457:0:0:0:0:
64,192,101380,128,0,101457:0:0:0:0:
448,192,101380,1,0,0:0:0:0:
448,192,101534,128,0,101611:0:0:0:0:
64,192,101534,128,0,101611:0:0:0:0:
192,192,101611,1,0,0:0:0:0:
320,192,101688,128,0,101765:0:0:0:0:
448,192,101688,128,0,101765:0:0:0:0:
64,192,101765,128,0,101842:0:0:0:0:
320,192,101842,128,0,101919:0:0:0:0:
448,192,101842,128,0,101919:0:0:0:0:
192,192,101842,128,0,101919:0:0:0:0:
64,192,101919,128,0,101996:0:0:0:0:
192,192,101996,128,0,102073:0:0:0:0:
320,192,101996,128,0,102073:0:0:0:0:
448,192,102073,128,0,102150:0:0:0:0:
64,192,102150,128,0,102227:0:0:0:0:
192,192,102150,128,0,102227:0:0:0:0:
320,192,102227,128,0,102303:0:0:0:0:
448,192,102227,128,0,102303:0:0:0:0:
192,192,102303,128,0,102457:0:0:0:0:
64,192,102303,128,0,102380:0:0:0:0:
320,192,102380,128,0,102534:0:0:0:0:
448,192,102457,128,0,102534:0:0:0:0:
64,192,102457,128,0,102534:0:0:0:0:
192,192,102534,128,0,102611:0:0:0:0:
320,192,102611,128,0,102688:0:0:0:0:
448,192,102611,128,0,102688:0:0:0:0:
64,192,102611,128,0,102765:0:0:0:0:
192,192,102688,128,0,102765:0:0:0:0:
320,192,102765,128,0,102842:0:0:0:0:
448,192,102765,128,0,102842:0:0:0:0:
192,192,102842,128,0,102919:0:0:0:0:
64,192,102842,128,0,102919:0:0:0:0:
320,192,102919,128,0,102996:0:0:0:0:
448,192,102919,128,0,103073:0:0:0:0:
192,192,102996,128,0,103150:0:0:0:0:
320,192,103073,128,0,103227:0:0:0:0:
64,192,103073,128,0,103150:0:0:0:0:
448,192,103150,128,0,103227:0:0:0:0:
192,192,103227,128,0,103380:0:0:0:0:
64,192,103227,128,0,103303:0:0:0:0:
320,192,103303,128,0,103380:0:0:0:0:
64,192,103380,128,0,103457:0:0:0:0:
448,192,103380,128,0,103457:0:0:0:0:
192,192,103457,128,0,103534:0:0:0:0:
320,192,103457,128,0,103534:0:0:0:0:
448,192,103534,128,0,103611:0:0:0:0:
64,192,103534,128,0,103611:0:0:0:0:
320,192,103611,128,0,103688:0:0:0:0:
192,192,103611,128,0,103765:0:0:0:0:
448,192,103688,128,0,103765:0:0:0:0:
64,192,103688,128,0,103765:0:0:0:0:
320,192,103765,128,0,103842:0:0:0:0:
64,192,103842,128,0,103919:0:0:0:0:
192,192,103842,128,0,103919:0:0:0:0:
448,192,103842,128,0,103996:0:0:0:0:
320,192,103919,128,0,103996:0:0:0:0:
64,192,103996,128,0,104073:0:0:0:0:
192,192,103996,128,0,104073:0:0:0:0:
320,192,104073,128,0,104150:0:0:0:0:
448,192,104073,128,0,104150:0:0:0:0:
64,192,104150,128,0,104227:0:0:0:0:
192,192,104150,128,0,104303:0:0:0:0:
320,192,104227,128,0,104380:0:0:0:0:
64,192,104303,128,0,104380:0:0:0:0:
448,192,104303,128,0,104534:0:0:0:0:
192,192,104380,128,0,104457:0:0:0:0:
64,192,104457,128,0,104688:0:0:0:0:
320,192,104457,128,0,104534:0:0:0:0:
192,192,104534,128,0,104611:0:0:0:0:
320,192,104611,128,0,104688:0:0:0:0:
448,192,104611,128,0,104688:0:0:0:0:
192,192,104688,128,0,104765:0:0:0:0:
64,192,104765,128,0,104919:0:0:0:0:
448,192,104765,128,0,104842:0:0:0:0:
192,192,104842,128,0,104919:0:0:0:0:
448,192,104919,128,0,104957:0:0:0:0:
320,192,104957,128,0,104996:0:0:0:0:
192,192,104996,128,0,105034:0:0:0:0:
64,192,105034,128,0,105073:0:0:0:0:
448,192,105073,128,0,105150:0:0:0:0:
320,192,105073,128,0,105150:0:0:0:0:
64,192,105150,128,0,105227:0:0:0:0:
192,192,105150,128,0,105227:0:0:0:0:
320,192,105227,128,0,105265:0:0:0:0:
448,192,105265,128,0,105303:0:0:0:0:
192,192,105303,128,0,105342:0:0:0:0:
64,192,105342,128,0,105380:0:0:0:0:
448,192,105380,128,0,105400:0:0:0:0:
320,192,105380,128,0,105400:0:0:0:0:
192,192,105457,128,0,105477:0:0:0:0:
64,192,105457,128,0,105477:0:0:0:0:
320,192,105534,128,0,105553:0:0:0:0:
448,192,105534,128,0,105553:0:0:0:0:
192,192,105611,128,0,105630:0:0:0:0:
64,192,105611,128,0,105630:0:0:0:0:
320,192,105688,128,0,105707:0:0:0:0:
448,192,105688,128,0,105707:0:0:0:0:
192,192,105765,128,0,105784:0:0:0:0:
64,192,105765,128,0,105784:0:0:0:0:
320,192,105842,128,0,105861:0:0:0:0:
448,192,105842,128,0,105861:0:0:0:0:
192,192,105919,128,0,105938:0:0:0:0:
64,192,105919,128,0,105938:0:0:0:0:
64,192,105996,128,0,106015:0:0:0:0:
320,192,105996,128,0,106015:0:0:0:0:
448,192,105996,128,0,106015:0:0:0:0:
192,192,106073,128,0,106150:0:0:0:0:
320,192,106150,1,0,0:0:0:0:
64,192,106150,128,0,106303:0:0:0:0:
448,192,106227,128,0,106303:0:0:0:0:
320,192,106303,128,0,106380:0:0:0:0:
192,192,106380,128,0,106457:0:0:0:0:
64,192,106457,1,0,0:0:0:0:
448,192,106457,128,0,106534:0:0:0:0:
320,192,106534,128,0,106611:0:0:0:0:
64,192,106611,1,0,0:0:0:0:
192,192,106611,1,0,0:0:0:0:
448,192,106611,1,0,0:0:0:0:
320,192,106688,1,0,0:0:0:0:
192,192,106765,1,0,0:0:0:0:
64,192,106842,1,0,0:0:0:0:
320,192,106919,1,0,0:0:0:0:
448,192,106996,1,0,0:0:0:0:
64,192,107073,1,0,0:0:0:0:
320,192,107073,1,0,0:0:0:0:
192,192,107150,1,0,0:0:0:0:
448,192,107227,1,0,0:0:0:0:
64,192,107227,1,0,0:0:0:0:
320,192,107303,1,0,0:0:0:0:
192,192,107380,1,0,0:0:0:0:
448,192,107380,1,0,0:0:0:0:
64,192,107457,1,0,0:0:0:0:
192,192,107534,1,0,0:0:0:0:
320,192,107534,1,0,0:0:0:0:
448,192,107611,1,0,0:0:0:0:
320,192,107688,1,0,0:0:0:0:
64,192,107688,1,0,0:0:0:0:
192,192,107765,1,0,0:0:0:0:
448,192,107842,1,0,0:0:0:0:
64,192,107842,1,0,0:0:0:0:
320,192,107919,1,0,0:0:0:0:
192,192,107996,1,0,0:0:0:0:
320,192,108073,1,0,0:0:0:0:
64,192,108150,1,0,0:0:0:0:
192,192,108150,1,0,0:0:0:0:
448,192,108227,1,0,0:0:0:0:
320,192,108303,1,0,0:0:0:0:
64,192,108303,1,0,0:0:0:0:
192,192,108380,1,0,0:0:0:0:
320,192,108457,1,0,0:0:0:0:
448,192,108457,1,0,0:0:0:0:
64,192,108534,1,0,0:0:0:0:
192,192,108534,1,0,0:0:0:0:
320,192,108611,1,0,0:0:0:0:
448,192,108688,1,0,0:0:0:0:
320,192,108765,1,0,0:0:0:0:
192,192,108765,1,0,0:0:0:0:
64,192,108842,1,0,0:0:0:0:
448,192,108842,1,0,0:0:0:0:
320,192,108919,1,0,0:0:0:0:
64,192,108996,1,0,0:0:0:0:
320,192,109073,1,0,0:0:0:0:
448,192,109073,1,0,0:0:0:0:
192,192,109150,1,0,0:0:0:0:
64,192,109227,1,0,0:0:0:0:
320,192,109227,1,0,0:0:0:0:
192,192,109303,1,0,0:0:0:0:
448,192,109380,1,0,0:0:0:0:
64,192,109380,1,0,0:0:0:0:
320,192,109457,1,0,0:0:0:0:
192,192,109534,1,0,0:0:0:0:
448,192,109534,1,0,0:0:0:0:
320,192,109611,1,0,0:0:0:0:
64,192,109611,1,0,0:0:0:0:
192,192,109688,1,0,0:0:0:0:
448,192,109688,1,0,0:0:0:0:
320,192,109765,1,0,0:0:0:0:
64,192,109842,1,0,0:0:0:0:
448,192,109842,1,0,0:0:0:0:
192,192,109919,1,0,0:0:0:0:
320,192,109996,1,0,0:0:0:0:
448,192,109996,1,0,0:0:0:0:
192,192,110073,1,0,0:0:0:0:
64,192,110150,1,0,0:0:0:0:
448,192,110227,1,0,0:0:0:0:
320,192,110303,1,0,0:0:0:0:
64,192,110380,1,0,0:0:0:0:
192,192,110457,1,0,0:0:0:0:
448,192,110534,1,0,0:0:0:0:
320,192,110611,1,0,0:0:0:0:
192,192,110611,1,0,0:0:0:0:
64,192,110688,1,0,0:0:0:0:
448,192,110765,1,0,0:0:0:0:
320,192,110842,1,0,0:0:0:0:
192,192,110919,1,0,0:0:0:0:
64,192,110919,1,0,0:0:0:0:
320,192,110996,1,0,0:0:0:0:
448,192,111073,1,0,0:0:0:0:
320,192,111150,1,0,0:0:0:0:
192,192,111227,128,0,111265:0:0:0:0:
64,192,111303,128,0,111342:0:0:0:0:
192,192,111380,128,0,111419:0:0:0:0:
320,192,111457,128,0,111496:0:0:0:0:
64,192,111534,128,0,113380:0:0:0:0:
448,192,111534,128,0,113380:0:0:0:0:
