osu file format v14

[General]
AudioFilename: audio.mp3
AudioLeadIn: 0
PreviewTime: -1
Countdown: 1
SampleSet: Normal
StackLeniency: 0.7
Mode: 3
LetterboxInBreaks: 0
SpecialStyle: 0
WidescreenStoryboard: 0

[Editor]
Bookmarks: 96061
DistanceSpacing: 0.8
BeatDivisor: 6
GridSize: 32
TimelineZoom: 1.8

[Metadata]
Title:Jungdongjin's 10th 4k LN Pack
TitleUnicode:Jungdongjin's 10th 4k LN Pack
Artist:Various Artist
ArtistUnicode:Various Artist
Creator:Jungdongjin
Version:Hatsune Miku - Romeo and Cinderella (Marathon)
Source:
Tags:
BeatmapID:1358797
BeatmapSetID:640702

[Difficulty]
HPDrainRate:5
CircleSize:4
OverallDifficulty:5
ApproachRate:5
SliderMultiplier:1.4
SliderTickRate:1

[Events]
//Background and Video events
//Break Periods
//Storyboard Layer 0 (Background)
//Storyboard Layer 1 (Fail)
//Storyboard Layer 2 (Pass)
//Storyboard Layer 3 (Foreground)
//Storyboard Sound Samples

[TimingPoints]
62,352.941176470588,4,1,0,100,1,0
69238,-10000,4,1,0,100,0,0
69260,-10.989010989011,4,1,0,100,0,0
69282,-10000,4,1,0,100,0,0
69304,-10.989010989011,4,1,0,100,0,0
69326,-10000,4,1,0,100,0,0
69348,-10.989010989011,4,1,0,100,0,0
69370,-10000,4,1,0,100,0,0
69392,-10.989010989011,4,1,0,100,0,0
69414,-10000,4,1,0,100,0,0
69436,-10.989010989011,4,1,0,100,0,0
69459,-10000,4,1,0,100,0,0
69481,-10.989010989011,4,1,0,100,0,0
69503,-10000,4,1,0,100,0,0
69525,-10.989010989011,4,1,0,100,0,0
69547,-10000,4,1,0,100,0,0
69569,-10.989010989011,4,1,0,100,0,0
69591,-10000,4,1,0,100,0,0
69613,-10.989010989011,4,1,0,100,0,0
69635,-10000,4,1,0,100,0,0
69635,-10000,4,1,0,100,0,0
69657,-10.989010989011,4,1,0,100,0,0
69657,-10.989010989011,4,1,0,100,0,0
69679,-10000,4,1,0,100,0,0
69701,-10.989010989011,4,1,0,100,0,0
69723,-10000,4,1,0,100,0,0
69745,-10.989010989011,4,1,0,100,0,0
69767,-10000,4,1,0,100,0,0
69789,-10.989010989011,4,1,0,100,0,0
69811,-10000,4,1,0,100,0,0
69833,-52.6315789473684,4,1,0,100,0,0
69856,-10000,4,1,0,100,0,0
69878,-52.6315789473684,4,1,0,100,0,0
69900,-10000,4,1,0,100,0,0
69922,-52.6315789473684,4,1,0,100,0,0
69944,-100,4,1,0,100,0,0

[HitObjects]
64,192,1473,128,0,2091:0:0:0:0:
320,192,1473,1,0,0:0:0:0:
192,192,1650,1,0,0:0:0:0:
448,192,1826,1,0,0:0:0:0:
320,192,2003,1,0,0:0:0:0:
64,192,2179,1,0,0:0:0:0:
192,192,2179,128,0,2797:0:0:0:0:
448,192,2179,128,0,2532:0:0:0:0:
320,192,2885,1,0,0:0:0:0:
64,192,2885,1,0,0:0:0:0:
448,192,2885,128,0,3503:0:0:0:0:
192,192,3061,1,0,0:0:0:0:
320,192,3238,1,0,0:0:0:0:
64,192,3414,1,0,0:0:0:0:
448,192,3591,1,0,0:0:0:0:
320,192,3591,128,0,4209:0:0:0:0:
192,192,3591,128,0,3767:0:0:0:0:
64,192,3767,128,0,3944:0:0:0:0:
192,192,3944,128,0,4120:0:0:0:0:
448,192,4120,128,0,4297:0:0:0:0:
320,192,4297,1,0,0:0:0:0:
64,192,4297,1,0,0:0:0:0:
192,192,4297,128,0,4914:0:0:0:0:
320,192,4473,1,0,0:0:0:0:
448,192,4650,1,0,0:0:0:0:
448,192,4826,128,0,5003:0:0:0:0:
192,192,5003,128,0,5179:0:0:0:0:
64,192,5179,128,0,5532:0:0:0:0:
320,192,5532,128,0,5709:0:0:0:0:
448,192,5709,1,0,0:0:0:0:
192,192,5709,128,0,6238:0:0:0:0:
64,192,6061,128,0,6414:0:0:0:0:
448,192,6414,1,0,0:0:0:0:
192,192,6414,128,0,6767:0:0:0:0:
64,192,6591,1,0,0:0:0:0:
320,192,6767,128,0,7120:0:0:0:0:
448,192,6767,1,0,0:0:0:0:
192,192,6944,1,0,0:0:0:0:
64,192,7120,1,0,0:0:0:0:
448,192,7120,128,0,7738:0:0:0:0:
192,192,7297,1,0,0:0:0:0:
320,192,7473,1,0,0:0:0:0:
192,192,7650,1,0,0:0:0:0:
448,192,7826,1,0,0:0:0:0:
64,192,7826,128,0,8444:0:0:0:0:
320,192,7826,128,0,8179:0:0:0:0:
448,192,8179,128,0,8532:0:0:0:0:
64,192,8532,1,0,0:0:0:0:
320,192,8532,128,0,9150:0:0:0:0:
192,192,8709,1,0,0:0:0:0:
448,192,8709,1,0,0:0:0:0:
64,192,8885,1,0,0:0:0:0:
448,192,9061,1,0,0:0:0:0:
320,192,9238,1,0,0:0:0:0:
192,192,9238,128,0,9856:0:0:0:0:
448,192,9591,128,0,9944:0:0:0:0:
192,192,9944,1,0,0:0:0:0:
64,192,9944,1,0,0:0:0:0:
320,192,9944,128,0,10561:0:0:0:0:
448,192,10120,128,0,11091:0:0:0:0:
192,192,10297,128,0,10914:0:0:0:0:
64,192,10473,128,0,10738:0:0:0:0:
320,192,10650,128,0,11356:0:0:0:0:
64,192,10826,128,0,10914:0:0:0:0:
192,192,11003,128,0,11091:0:0:0:0:
448,192,11179,128,0,11267:0:0:0:0:
192,192,11356,1,0,0:0:0:0:
64,192,11356,1,0,0:0:0:0:
448,192,11356,1,0,0:0:0:0:
448,192,12414,128,0,12591:0:0:0:0:
64,192,12414,1,0,0:0:0:0:
192,192,12591,128,0,12679:0:0:0:0:
64,192,12591,1,0,0:0:0:0:
320,192,12679,128,0,12767:0:0:0:0:
192,192,12767,1,0,0:0:0:0:
64,192,12767,1,0,0:0:0:0:
448,192,12767,1,0,0:0:0:0:
192,192,12944,1,0,0:0:0:0:
320,192,12944,128,0,13120:0:0:0:0:
448,192,13120,1,0,0:0:0:0:
192,192,13120,1,0,0:0:0:0:
64,192,13120,128,0,13297:0:0:0:0:
320,192,13297,1,0,0:0:0:0:
448,192,13297,1,0,0:0:0:0:
448,192,13473,1,0,0:0:0:0:
192,192,13473,128,0,13650:0:0:0:0:
64,192,13561,1,0,0:0:0:0:
320,192,13650,128,0,13826:0:0:0:0:
192,192,13738,1,0,0:0:0:0:
448,192,13826,128,0,14003:0:0:0:0:
64,192,13826,1,0,0:0:0:0:
64,192,14003,128,0,14179:0:0:0:0:
192,192,14003,1,0,0:0:0:0:
448,192,14091,1,0,0:0:0:0:
320,192,14179,1,0,0:0:0:0:
192,192,14179,1,0,0:0:0:0:
448,192,14356,128,0,14532:0:0:0:0:
64,192,14356,1,0,0:0:0:0:
192,192,14532,1,0,0:0:0:0:
64,192,14532,1,0,0:0:0:0:
320,192,14532,128,0,14709:0:0:0:0:
192,192,14709,1,0,0:0:0:0:
448,192,14709,128,0,14885:0:0:0:0:
64,192,14797,1,0,0:0:0:0:
320,192,14885,1,0,0:0:0:0:
192,192,14885,128,0,15150:0:0:0:0:
320,192,15061,128,0,15326:0:0:0:0:
192,192,15238,128,0,15326:0:0:0:0:
448,192,15238,128,0,15503:0:0:0:0:
320,192,15414,1,0,0:0:0:0:
192,192,15414,1,0,0:0:0:0:
64,192,15414,128,0,15591:0:0:0:0:
448,192,15591,1,0,0:0:0:0:
192,192,15591,1,0,0:0:0:0:
320,192,15591,1,0,0:0:0:0:
64,192,15767,1,0,0:0:0:0:
192,192,15767,1,0,0:0:0:0:
448,192,15944,1,0,0:0:0:0:
64,192,15944,1,0,0:0:0:0:
320,192,15944,128,0,16120:0:0:0:0:
192,192,16120,128,0,16297:0:0:0:0:
64,192,16209,1,0,0:0:0:0:
320,192,16297,128,0,16561:0:0:0:0:
192,192,16473,128,0,16738:0:0:0:0:
448,192,16473,1,0,0:0:0:0:
64,192,16650,128,0,16914:0:0:0:0:
320,192,16650,1,0,0:0:0:0:
448,192,16826,128,0,16914:0:0:0:0:
192,192,16826,1,0,0:0:0:0:
320,192,16914,1,0,0:0:0:0:
192,192,17003,1,0,0:0:0:0:
448,192,17003,1,0,0:0:0:0:
64,192,17003,1,0,0:0:0:0:
320,192,17179,128,0,17356:0:0:0:0:
192,192,17356,128,0,17532:0:0:0:0:
448,192,17356,1,0,0:0:0:0:
64,192,17356,1,0,0:0:0:0:
448,192,17532,128,0,17709:0:0:0:0:
320,192,17532,1,0,0:0:0:0:
192,192,17620,1,0,0:0:0:0:
320,192,17709,1,0,0:0:0:0:
64,192,17709,128,0,17973:0:0:0:0:
192,192,17797,1,0,0:0:0:0:
320,192,17885,128,0,18150:0:0:0:0:
192,192,18061,128,0,18326:0:0:0:0:
448,192,18061,1,0,0:0:0:0:
64,192,18061,1,0,0:0:0:0:
320,192,18238,1,0,0:0:0:0:
64,192,18238,128,0,18326:0:0:0:0:
448,192,18326,1,0,0:0:0:0:
192,192,18414,1,0,0:0:0:0:
320,192,18414,1,0,0:0:0:0:
64,192,18414,1,0,0:0:0:0:
448,192,18591,1,0,0:0:0:0:
320,192,18591,1,0,0:0:0:0:
192,192,18767,1,0,0:0:0:0:
320,192,18767,1,0,0:0:0:0:
448,192,18767,1,0,0:0:0:0:
64,192,18767,128,0,18944:0:0:0:0:
320,192,18944,1,0,0:0:0:0:
448,192,18944,1,0,0:0:0:0:
192,192,19032,1,0,0:0:0:0:
64,192,19120,1,0,0:0:0:0:
320,192,19120,128,0,19385:0:0:0:0:
448,192,19209,1,0,0:0:0:0:
192,192,19297,128,0,19561:0:0:0:0:
64,192,19297,1,0,0:0:0:0:
448,192,19473,128,0,19738:0:0:0:0:
320,192,19473,1,0,0:0:0:0:
64,192,19473,1,0,0:0:0:0:
320,192,19650,128,0,19738:0:0:0:0:
192,192,19650,1,0,0:0:0:0:
320,192,19826,1,0,0:0:0:0:
448,192,19826,1,0,0:0:0:0:
64,192,19826,1,0,0:0:0:0:
320,192,20003,1,0,0:0:0:0:
192,192,20003,128,0,20179:0:0:0:0:
448,192,20179,128,0,20356:0:0:0:0:
64,192,20179,1,0,0:0:0:0:
320,192,20179,1,0,0:0:0:0:
320,192,20356,128,0,20532:0:0:0:0:
192,192,20356,1,0,0:0:0:0:
448,192,20532,1,0,0:0:0:0:
64,192,20532,1,0,0:0:0:0:
320,192,20620,1,0,0:0:0:0:
64,192,20709,1,0,0:0:0:0:
448,192,20709,1,0,0:0:0:0:
192,192,20797,1,0,0:0:0:0:
448,192,20885,1,0,0:0:0:0:
64,192,20885,1,0,0:0:0:0:
320,192,20885,128,0,21061:0:0:0:0:
192,192,21061,128,0,21238:0:0:0:0:
448,192,21061,1,0,0:0:0:0:
320,192,21238,1,0,0:0:0:0:
448,192,21238,1,0,0:0:0:0:
64,192,21238,1,0,0:0:0:0:
192,192,21414,1,0,0:0:0:0:
320,192,21414,1,0,0:0:0:0:
320,192,21591,1,0,0:0:0:0:
448,192,21591,1,0,0:0:0:0:
64,192,21591,1,0,0:0:0:0:
192,192,21591,128,0,21767:0:0:0:0:
448,192,21767,128,0,21944:0:0:0:0:
320,192,21767,1,0,0:0:0:0:
64,192,21856,1,0,0:0:0:0:
320,192,21944,1,0,0:0:0:0:
192,192,21944,128,0,22209:0:0:0:0:
448,192,22032,1,0,0:0:0:0:
320,192,22120,128,0,22297:0:0:0:0:
448,192,22297,128,0,22561:0:0:0:0:
192,192,22297,1,0,0:0:0:0:
64,192,22297,1,0,0:0:0:0:
320,192,22473,128,0,22561:0:0:0:0:
192,192,22473,1,0,0:0:0:0:
320,192,22650,1,0,0:0:0:0:
64,192,22650,128,0,22826:0:0:0:0:
448,192,22650,128,0,22826:0:0:0:0:
192,192,22826,1,0,0:0:0:0:
320,192,22826,1,0,0:0:0:0:
448,192,22914,1,0,0:0:0:0:
64,192,22914,1,0,0:0:0:0:
192,192,23003,1,0,0:0:0:0:
320,192,23003,1,0,0:0:0:0:
448,192,23091,1,0,0:0:0:0:
64,192,23091,1,0,0:0:0:0:
192,192,23179,1,0,0:0:0:0:
320,192,23179,1,0,0:0:0:0:
320,192,23267,1,0,0:0:0:0:
448,192,23267,1,0,0:0:0:0:
192,192,23356,1,0,0:0:0:0:
64,192,23356,1,0,0:0:0:0:
448,192,23356,1,0,0:0:0:0:
448,192,23591,1,0,0:0:0:0:
192,192,23591,1,0,0:0:0:0:
64,192,23591,1,0,0:0:0:0:
64,192,23885,1,0,0:0:0:0:
448,192,23885,1,0,0:0:0:0:
320,192,23885,1,0,0:0:0:0:
192,192,23973,1,0,0:0:0:0:
320,192,24061,1,0,0:0:0:0:
448,192,24061,1,0,0:0:0:0:
64,192,24061,1,0,0:0:0:0:
320,192,24238,1,0,0:0:0:0:
192,192,24238,1,0,0:0:0:0:
64,192,24414,1,0,0:0:0:0:
320,192,24414,1,0,0:0:0:0:
448,192,24414,1,0,0:0:0:0:
192,192,24591,1,0,0:0:0:0:
64,192,24591,1,0,0:0:0:0:
320,192,24767,1,0,0:0:0:0:
448,192,24767,1,0,0:0:0:0:
192,192,24856,1,0,0:0:0:0:
448,192,24944,1,0,0:0:0:0:
320,192,24944,1,0,0:0:0:0:
64,192,25032,128,0,25120:0:0:0:0:
192,192,25120,1,0,0:0:0:0:
320,192,25120,1,0,0:0:0:0:
192,192,25297,1,0,0:0:0:0:
64,192,25297,1,0,0:0:0:0:
448,192,25473,128,0,25738:0:0:0:0:
320,192,25473,1,0,0:0:0:0:
64,192,25473,1,0,0:0:0:0:
192,192,25650,1,0,0:0:0:0:
320,192,25826,1,0,0:0:0:0:
448,192,25826,1,0,0:0:0:0:
64,192,25826,1,0,0:0:0:0:
192,192,26003,1,0,0:0:0:0:
448,192,26179,1,0,0:0:0:0:
64,192,26179,1,0,0:0:0:0:
192,192,26267,1,0,0:0:0:0:
320,192,26356,1,0,0:0:0:0:
448,192,26356,128,0,26444:0:0:0:0:
448,192,26532,1,0,0:0:0:0:
192,192,26532,128,0,26709:0:0:0:0:
64,192,26532,1,0,0:0:0:0:
320,192,26709,128,0,26885:0:0:0:0:
448,192,26885,1,0,0:0:0:0:
192,192,26885,1,0,0:0:0:0:
64,192,27061,1,0,0:0:0:0:
192,192,27061,1,0,0:0:0:0:
320,192,27238,1,0,0:0:0:0:
448,192,27238,1,0,0:0:0:0:
64,192,27238,1,0,0:0:0:0:
192,192,27414,1,0,0:0:0:0:
448,192,27414,1,0,0:0:0:0:
320,192,27503,1,0,0:0:0:0:
192,192,27591,1,0,0:0:0:0:
64,192,27591,1,0,0:0:0:0:
448,192,27679,1,0,0:0:0:0:
320,192,27679,1,0,0:0:0:0:
192,192,27767,1,0,0:0:0:0:
64,192,27767,1,0,0:0:0:0:
320,192,27944,128,0,28120:0:0:0:0:
192,192,27944,1,0,0:0:0:0:
64,192,28120,1,0,0:0:0:0:
448,192,28120,1,0,0:0:0:0:
320,192,28297,1,0,0:0:0:0:
448,192,28297,128,0,28561:0:0:0:0:
192,192,28297,1,0,0:0:0:0:
64,192,28473,1,0,0:0:0:0:
64,192,28650,1,0,0:0:0:0:
448,192,28650,1,0,0:0:0:0:
320,192,28650,128,0,28914:0:0:0:0:
192,192,28826,1,0,0:0:0:0:
320,192,29003,1,0,0:0:0:0:
448,192,29003,1,0,0:0:0:0:
64,192,29091,1,0,0:0:0:0:
320,192,29179,1,0,0:0:0:0:
192,192,29179,128,0,29356:0:0:0:0:
448,192,29356,1,0,0:0:0:0:
320,192,29356,1,0,0:0:0:0:
64,192,29356,1,0,0:0:0:0:
320,192,29532,1,0,0:0:0:0:
448,192,29620,1,0,0:0:0:0:
320,192,29709,1,0,0:0:0:0:
64,192,29709,1,0,0:0:0:0:
192,192,29709,128,0,29797:0:0:0:0:
192,192,29885,128,0,29973:0:0:0:0:
320,192,30061,1,0,0:0:0:0:
448,192,30061,1,0,0:0:0:0:
192,192,30061,1,0,0:0:0:0:
64,192,30238,1,0,0:0:0:0:
320,192,30238,128,0,30414:0:0:0:0:
192,192,30414,1,0,0:0:0:0:
448,192,30414,1,0,0:0:0:0:
64,192,30414,1,0,0:0:0:0:
320,192,30503,1,0,0:0:0:0:
192,192,30591,1,0,0:0:0:0:
448,192,30591,1,0,0:0:0:0:
320,192,30767,1,0,0:0:0:0:
64,192,30767,1,0,0:0:0:0:
192,192,30767,128,0,30944:0:0:0:0:
448,192,30944,1,0,0:0:0:0:
320,192,30944,128,0,31120:0:0:0:0:
64,192,31120,1,0,0:0:0:0:
192,192,31120,1,0,0:0:0:0:
448,192,31120,1,0,0:0:0:0:
192,192,31297,1,0,0:0:0:0:
64,192,31297,1,0,0:0:0:0:
320,192,31473,1,0,0:0:0:0:
448,192,31473,1,0,0:0:0:0:
64,192,31473,1,0,0:0:0:0:
192,192,31650,1,0,0:0:0:0:
320,192,31650,128,0,31826:0:0:0:0:
64,192,31738,1,0,0:0:0:0:
192,192,31826,1,0,0:0:0:0:
448,192,31826,128,0,32091:0:0:0:0:
320,192,32003,128,0,32091:0:0:0:0:
64,192,32003,1,0,0:0:0:0:
192,192,32179,1,0,0:0:0:0:
320,192,32179,1,0,0:0:0:0:
448,192,32179,1,0,0:0:0:0:
192,192,32356,1,0,0:0:0:0:
64,192,32356,1,0,0:0:0:0:
320,192,32444,1,0,0:0:0:0:
64,192,32532,1,0,0:0:0:0:
192,192,32532,1,0,0:0:0:0:
448,192,32532,128,0,32620:0:0:0:0:
448,192,32709,128,0,32885:0:0:0:0:
320,192,32709,1,0,0:0:0:0:
192,192,32885,1,0,0:0:0:0:
320,192,32885,1,0,0:0:0:0:
64,192,32885,1,0,0:0:0:0:
192,192,33061,128,0,33238:0:0:0:0:
448,192,33061,1,0,0:0:0:0:
320,192,33150,1,0,0:0:0:0:
448,192,33238,1,0,0:0:0:0:
64,192,33238,128,0,33414:0:0:0:0:
192,192,33326,1,0,0:0:0:0:
320,192,33414,128,0,33591:0:0:0:0:
448,192,33414,1,0,0:0:0:0:
192,192,33503,1,0,0:0:0:0:
64,192,33591,128,0,33679:0:0:0:0:
448,192,33591,128,0,33679:0:0:0:0:
64,192,33767,128,0,34032:0:0:0:0:
320,192,33767,128,0,34209:0:0:0:0:
192,192,33767,128,0,34209:0:0:0:0:
448,192,33767,128,0,34297:0:0:0:0:
64,192,34120,128,0,34209:0:0:0:0:
64,192,34297,128,0,34473:0:0:0:0:
192,192,34297,128,0,34561:0:0:0:0:
320,192,34297,128,0,34650:0:0:0:0:
448,192,34473,128,0,34561:0:0:0:0:
64,192,34561,128,0,34650:0:0:0:0:
448,192,34650,128,0,34738:0:0:0:0:
192,192,34650,128,0,34738:0:0:0:0:
320,192,34738,1,0,0:0:0:0:
64,192,34826,1,0,0:0:0:0:
192,192,34826,1,0,0:0:0:0:
320,192,34914,1,0,0:0:0:0:
448,192,34914,1,0,0:0:0:0:
192,192,35003,128,0,35179:0:0:0:0:
64,192,35003,1,0,0:0:0:0:
64,192,35179,128,0,35356:0:0:0:0:
320,192,35179,1,0,0:0:0:0:
320,192,35356,1,0,0:0:0:0:
448,192,35356,1,0,0:0:0:0:
192,192,35356,1,0,0:0:0:0:
64,192,35532,1,0,0:0:0:0:
192,192,35532,128,0,35709:0:0:0:0:
320,192,35709,1,0,0:0:0:0:
448,192,35709,1,0,0:0:0:0:
64,192,35709,1,0,0:0:0:0:
192,192,35885,1,0,0:0:0:0:
320,192,35885,1,0,0:0:0:0:
448,192,36061,1,0,0:0:0:0:
64,192,36061,1,0,0:0:0:0:
320,192,36150,1,0,0:0:0:0:
192,192,36238,1,0,0:0:0:0:
448,192,36238,1,0,0:0:0:0:
64,192,36238,1,0,0:0:0:0:
320,192,36414,1,0,0:0:0:0:
192,192,36414,128,0,36591:0:0:0:0:
448,192,36591,1,0,0:0:0:0:
64,192,36591,1,0,0:0:0:0:
320,192,36679,1,0,0:0:0:0:
192,192,36767,1,0,0:0:0:0:
64,192,36767,128,0,37032:0:0:0:0:
448,192,36767,1,0,0:0:0:0:
320,192,36944,1,0,0:0:0:0:
320,192,37120,1,0,0:0:0:0:
64,192,37120,1,0,0:0:0:0:
192,192,37120,1,0,0:0:0:0:
448,192,37297,1,0,0:0:0:0:
192,192,37297,128,0,37473:0:0:0:0:
320,192,37473,1,0,0:0:0:0:
64,192,37473,1,0,0:0:0:0:
448,192,37561,1,0,0:0:0:0:
320,192,37650,1,0,0:0:0:0:
192,192,37650,128,0,37738:0:0:0:0:
320,192,37826,1,0,0:0:0:0:
192,192,37826,1,0,0:0:0:0:
64,192,37826,1,0,0:0:0:0:
448,192,37826,128,0,38003:0:0:0:0:
64,192,38003,128,0,38179:0:0:0:0:
320,192,38179,1,0,0:0:0:0:
448,192,38179,1,0,0:0:0:0:
192,192,38179,1,0,0:0:0:0:
192,192,38356,1,0,0:0:0:0:
320,192,38356,128,0,38532:0:0:0:0:
448,192,38532,1,0,0:0:0:0:
64,192,38532,128,0,38709:0:0:0:0:
192,192,38532,1,0,0:0:0:0:
320,192,38709,1,0,0:0:0:0:
448,192,38709,1,0,0:0:0:0:
192,192,38797,1,0,0:0:0:0:
320,192,38885,1,0,0:0:0:0:
448,192,38885,1,0,0:0:0:0:
64,192,38885,1,0,0:0:0:0:
192,192,38973,1,0,0:0:0:0:
320,192,39061,1,0,0:0:0:0:
64,192,39061,1,0,0:0:0:0:
448,192,39061,128,0,39238:0:0:0:0:
320,192,39238,1,0,0:0:0:0:
192,192,39238,128,0,39414:0:0:0:0:
448,192,39414,1,0,0:0:0:0:
320,192,39414,1,0,0:0:0:0:
64,192,39591,1,0,0:0:0:0:
192,192,39591,1,0,0:0:0:0:
320,192,39591,128,0,39856:0:0:0:0:
448,192,39767,1,0,0:0:0:0:
320,192,39944,1,0,0:0:0:0:
64,192,39944,1,0,0:0:0:0:
448,192,39944,1,0,0:0:0:0:
448,192,40120,1,0,0:0:0:0:
192,192,40120,128,0,40385:0:0:0:0:
320,192,40297,1,0,0:0:0:0:
448,192,40297,1,0,0:0:0:0:
64,192,40385,1,0,0:0:0:0:
192,192,40473,1,0,0:0:0:0:
320,192,40473,1,0,0:0:0:0:
448,192,40650,1,0,0:0:0:0:
192,192,40650,1,0,0:0:0:0:
64,192,40650,128,0,40826:0:0:0:0:
320,192,40826,128,0,41003:0:0:0:0:
448,192,40826,1,0,0:0:0:0:
448,192,41003,1,0,0:0:0:0:
64,192,41003,1,0,0:0:0:0:
192,192,41003,128,0,41091:0:0:0:0:
192,192,41179,128,0,41267:0:0:0:0:
320,192,41179,1,0,0:0:0:0:
192,192,41356,1,0,0:0:0:0:
64,192,41356,1,0,0:0:0:0:
448,192,41356,128,0,41620:0:0:0:0:
320,192,41532,128,0,41620:0:0:0:0:
64,192,41532,1,0,0:0:0:0:
192,192,41620,1,0,0:0:0:0:
448,192,41709,1,0,0:0:0:0:
320,192,41709,128,0,41885:0:0:0:0:
64,192,41797,1,0,0:0:0:0:
192,192,41885,128,0,42061:0:0:0:0:
448,192,41973,1,0,0:0:0:0:
320,192,42061,1,0,0:0:0:0:
64,192,42061,128,0,42326:0:0:0:0:
448,192,42238,128,0,42326:0:0:0:0:
320,192,42238,1,0,0:0:0:0:
192,192,42326,1,0,0:0:0:0:
64,192,42414,1,0,0:0:0:0:
320,192,42414,1,0,0:0:0:0:
448,192,42414,128,0,42503:0:0:0:0:
320,192,42591,1,0,0:0:0:0:
192,192,42591,128,0,42767:0:0:0:0:
320,192,42767,1,0,0:0:0:0:
448,192,42767,1,0,0:0:0:0:
64,192,42767,1,0,0:0:0:0:
192,192,42944,1,0,0:0:0:0:
64,192,42944,1,0,0:0:0:0:
320,192,43032,1,0,0:0:0:0:
448,192,43120,1,0,0:0:0:0:
192,192,43120,128,0,43297:0:0:0:0:
64,192,43120,1,0,0:0:0:0:
320,192,43209,1,0,0:0:0:0:
448,192,43297,128,0,43473:0:0:0:0:
64,192,43385,1,0,0:0:0:0:
192,192,43473,1,0,0:0:0:0:
320,192,43473,128,0,43650:0:0:0:0:
448,192,43650,128,0,43826:0:0:0:0:
64,192,43650,1,0,0:0:0:0:
320,192,43826,1,0,0:0:0:0:
192,192,43826,128,0,44091:0:0:0:0:
448,192,44003,1,0,0:0:0:0:
320,192,44003,1,0,0:0:0:0:
192,192,44179,1,0,0:0:0:0:
448,192,44179,1,0,0:0:0:0:
64,192,44179,128,0,44356:0:0:0:0:
320,192,44356,1,0,0:0:0:0:
448,192,44356,1,0,0:0:0:0:
448,192,44532,1,0,0:0:0:0:
64,192,44532,1,0,0:0:0:0:
192,192,44532,128,0,44620:0:0:0:0:
320,192,44620,128,0,44709:0:0:0:0:
448,192,44709,1,0,0:0:0:0:
192,192,44709,128,0,44885:0:0:0:0:
64,192,44797,1,0,0:0:0:0:
448,192,44885,1,0,0:0:0:0:
320,192,44885,128,0,45061:0:0:0:0:
448,192,45061,128,0,45326:0:0:0:0:
192,192,45061,128,0,45503:0:0:0:0:
64,192,45061,128,0,45679:0:0:0:0:
320,192,45238,1,0,0:0:0:0:
448,192,45414,128,0,45503:0:0:0:0:
192,192,45591,128,0,45679:0:0:0:0:
320,192,45591,1,0,0:0:0:0:
448,192,45591,1,0,0:0:0:0:
320,192,45767,1,0,0:0:0:0:
64,192,45767,128,0,46032:0:0:0:0:
192,192,45856,128,0,45944:0:0:0:0:
448,192,45944,1,0,0:0:0:0:
320,192,45944,128,0,46032:0:0:0:0:
192,192,46032,128,0,46120:0:0:0:0:
64,192,46120,128,0,46209:0:0:0:0:
320,192,46120,128,0,46385:0:0:0:0:
192,192,46209,128,0,46297:0:0:0:0:
64,192,46297,128,0,46385:0:0:0:0:
448,192,46297,128,0,46473:0:0:0:0:
192,192,46385,128,0,46473:0:0:0:0:
320,192,46473,128,0,46561:0:0:0:0:
448,192,46561,128,0,46650:0:0:0:0:
320,192,46650,1,0,0:0:0:0:
192,192,46650,128,0,46826:0:0:0:0:
64,192,46738,128,0,46826:0:0:0:0:
448,192,46826,128,0,46914:0:0:0:0:
320,192,46826,128,0,47003:0:0:0:0:
192,192,46914,128,0,47003:0:0:0:0:
64,192,47003,128,0,47179:0:0:0:0:
448,192,47003,128,0,47091:0:0:0:0:
320,192,47091,128,0,47179:0:0:0:0:
192,192,47179,128,0,47267:0:0:0:0:
448,192,47179,128,0,47444:0:0:0:0:
64,192,47267,128,0,47356:0:0:0:0:
320,192,47267,128,0,47444:0:0:0:0:
192,192,47356,128,0,47532:0:0:0:0:
64,192,47444,128,0,47620:0:0:0:0:
448,192,47532,128,0,47620:0:0:0:0:
320,192,47532,128,0,47709:0:0:0:0:
192,192,47620,128,0,47709:0:0:0:0:
448,192,47709,128,0,47885:0:0:0:0:
64,192,47709,128,0,47797:0:0:0:0:
320,192,47885,128,0,47973:0:0:0:0:
192,192,47885,128,0,48061:0:0:0:0:
448,192,47973,1,0,0:0:0:0:
320,192,48061,128,0,48238:0:0:0:0:
64,192,48061,1,0,0:0:0:0:
448,192,48150,128,0,48238:0:0:0:0:
64,192,48238,128,0,48326:0:0:0:0:
192,192,48238,128,0,48414:0:0:0:0:
320,192,48326,128,0,48414:0:0:0:0:
448,192,48414,128,0,48591:0:0:0:0:
64,192,48414,128,0,48503:0:0:0:0:
192,192,48503,128,0,48591:0:0:0:0:
320,192,48591,128,0,48679:0:0:0:0:
64,192,48591,128,0,48856:0:0:0:0:
448,192,48679,128,0,48767:0:0:0:0:
192,192,48679,128,0,48856:0:0:0:0:
320,192,48767,128,0,48944:0:0:0:0:
448,192,48856,128,0,49032:0:0:0:0:
192,192,48944,128,0,49032:0:0:0:0:
64,192,48944,128,0,49032:0:0:0:0:
320,192,49032,128,0,49120:0:0:0:0:
192,192,49120,1,0,0:0:0:0:
64,192,49120,1,0,0:0:0:0:
448,192,49120,128,0,49297:0:0:0:0:
320,192,49297,1,0,0:0:0:0:
192,192,49297,128,0,49473:0:0:0:0:
448,192,49473,1,0,0:0:0:0:
320,192,49473,128,0,49650:0:0:0:0:
64,192,49473,128,0,49561:0:0:0:0:
192,192,49561,128,0,49738:0:0:0:0:
64,192,49650,128,0,49738:0:0:0:0:
448,192,49650,128,0,49826:0:0:0:0:
320,192,49738,128,0,49826:0:0:0:0:
192,192,49826,128,0,50003:0:0:0:0:
64,192,49826,128,0,49914:0:0:0:0:
320,192,49914,128,0,50091:0:0:0:0:
64,192,50003,128,0,50091:0:0:0:0:
448,192,50003,128,0,50179:0:0:0:0:
192,192,50091,128,0,50267:0:0:0:0:
64,192,50179,128,0,50356:0:0:0:0:
320,192,50179,128,0,50267:0:0:0:0:
448,192,50267,128,0,50444:0:0:0:0:
320,192,50356,128,0,50532:0:0:0:0:
192,192,50356,128,0,50444:0:0:0:0:
64,192,50444,128,0,50532:0:0:0:0:
448,192,50532,1,0,0:0:0:0:
192,192,50532,128,0,50709:0:0:0:0:
448,192,50709,128,0,51150:0:0:0:0:
320,192,50709,128,0,51150:0:0:0:0:
64,192,50709,128,0,51238:0:0:0:0:
192,192,51061,128,0,51150:0:0:0:0:
448,192,51238,1,0,0:0:0:0:
192,192,51238,1,0,0:0:0:0:
320,192,51238,128,0,51414:0:0:0:0:
64,192,51414,1,0,0:0:0:0:
192,192,51414,1,0,0:0:0:0:
320,192,51503,1,0,0:0:0:0:
192,192,51591,1,0,0:0:0:0:
448,192,51591,1,0,0:0:0:0:
64,192,51591,128,0,51856:0:0:0:0:
320,192,51767,128,0,51944:0:0:0:0:
448,192,51767,1,0,0:0:0:0:
192,192,51944,1,0,0:0:0:0:
64,192,51944,1,0,0:0:0:0:
448,192,51944,1,0,0:0:0:0:
192,192,52120,1,0,0:0:0:0:
320,192,52120,1,0,0:0:0:0:
448,192,52297,1,0,0:0:0:0:
320,192,52297,1,0,0:0:0:0:
64,192,52297,1,0,0:0:0:0:
64,192,52473,1,0,0:0:0:0:
192,192,52473,128,0,52650:0:0:0:0:
320,192,52650,1,0,0:0:0:0:
448,192,52650,1,0,0:0:0:0:
64,192,52650,1,0,0:0:0:0:
320,192,52826,1,0,0:0:0:0:
448,192,52826,1,0,0:0:0:0:
64,192,52914,1,0,0:0:0:0:
192,192,53003,1,0,0:0:0:0:
320,192,53003,1,0,0:0:0:0:
448,192,53091,1,0,0:0:0:0:
192,192,53179,1,0,0:0:0:0:
64,192,53179,128,0,53356:0:0:0:0:
192,192,53356,1,0,0:0:0:0:
448,192,53356,1,0,0:0:0:0:
320,192,53356,128,0,53620:0:0:0:0:
192,192,53532,128,0,53620:0:0:0:0:
448,192,53620,1,0,0:0:0:0:
64,192,53709,1,0,0:0:0:0:
320,192,53709,1,0,0:0:0:0:
192,192,53709,1,0,0:0:0:0:
192,192,53885,1,0,0:0:0:0:
448,192,53885,128,0,54061:0:0:0:0:
320,192,54061,1,0,0:0:0:0:
64,192,54061,1,0,0:0:0:0:
192,192,54061,1,0,0:0:0:0:
448,192,54238,128,0,54414:0:0:0:0:
64,192,54238,1,0,0:0:0:0:
192,192,54326,1,0,0:0:0:0:
320,192,54414,1,0,0:0:0:0:
64,192,54414,128,0,54591:0:0:0:0:
192,192,54591,128,0,54767:0:0:0:0:
448,192,54591,1,0,0:0:0:0:
320,192,54767,1,0,0:0:0:0:
448,192,54767,1,0,0:0:0:0:
64,192,54767,1,0,0:0:0:0:
192,192,54944,1,0,0:0:0:0:
320,192,54944,1,0,0:0:0:0:
192,192,55120,1,0,0:0:0:0:
64,192,55120,1,0,0:0:0:0:
448,192,55120,128,0,55209:0:0:0:0:
448,192,55297,128,0,55473:0:0:0:0:
320,192,55297,1,0,0:0:0:0:
320,192,55473,1,0,0:0:0:0:
192,192,55473,1,0,0:0:0:0:
64,192,55473,1,0,0:0:0:0:
192,192,55650,128,0,55826:0:0:0:0:
64,192,55826,1,0,0:0:0:0:
448,192,55826,128,0,56003:0:0:0:0:
320,192,56003,1,0,0:0:0:0:
64,192,56003,1,0,0:0:0:0:
192,192,56091,1,0,0:0:0:0:
448,192,56091,1,0,0:0:0:0:
320,192,56179,1,0,0:0:0:0:
64,192,56179,1,0,0:0:0:0:
448,192,56356,128,0,56620:0:0:0:0:
64,192,56356,128,0,56797:0:0:0:0:
448,192,56709,128,0,56797:0:0:0:0:
320,192,56709,1,0,0:0:0:0:
64,192,56885,128,0,56973:0:0:0:0:
192,192,56885,128,0,56973:0:0:0:0:
320,192,56885,128,0,57150:0:0:0:0:
448,192,57061,128,0,57150:0:0:0:0:
192,192,57238,1,0,0:0:0:0:
320,192,57238,1,0,0:0:0:0:
448,192,57238,1,0,0:0:0:0:
64,192,57326,1,0,0:0:0:0:
192,192,57414,1,0,0:0:0:0:
320,192,57414,1,0,0:0:0:0:
448,192,57503,1,0,0:0:0:0:
192,192,57591,1,0,0:0:0:0:
64,192,57591,1,0,0:0:0:0:
320,192,57591,1,0,0:0:0:0:
448,192,57679,1,0,0:0:0:0:
320,192,57767,1,0,0:0:0:0:
192,192,57767,1,0,0:0:0:0:
64,192,57856,1,0,0:0:0:0:
320,192,57944,128,0,58120:0:0:0:0:
448,192,58032,128,0,58120:0:0:0:0:
64,192,58120,128,0,58209:0:0:0:0:
192,192,58120,128,0,58297:0:0:0:0:
320,192,58209,128,0,58297:0:0:0:0:
448,192,58297,128,0,58473:0:0:0:0:
64,192,58297,128,0,58385:0:0:0:0:
192,192,58385,128,0,58473:0:0:0:0:
320,192,58473,128,0,58561:0:0:0:0:
64,192,58473,128,0,58738:0:0:0:0:
448,192,58561,128,0,58650:0:0:0:0:
192,192,58561,128,0,58738:0:0:0:0:
320,192,58650,128,0,58826:0:0:0:0:
448,192,58738,128,0,58914:0:0:0:0:
64,192,58826,128,0,58914:0:0:0:0:
192,192,58826,128,0,59003:0:0:0:0:
320,192,58914,128,0,59003:0:0:0:0:
64,192,59003,128,0,59179:0:0:0:0:
448,192,59003,128,0,59091:0:0:0:0:
192,192,59179,128,0,59267:0:0:0:0:
320,192,59179,128,0,59356:0:0:0:0:
64,192,59267,1,0,0:0:0:0:
192,192,59356,128,0,59532:0:0:0:0:
448,192,59356,1,0,0:0:0:0:
64,192,59444,128,0,59532:0:0:0:0:
448,192,59532,128,0,59620:0:0:0:0:
320,192,59532,128,0,59709:0:0:0:0:
192,192,59620,128,0,59709:0:0:0:0:
64,192,59709,128,0,59885:0:0:0:0:
448,192,59709,128,0,59797:0:0:0:0:
320,192,59797,128,0,59885:0:0:0:0:
192,192,59885,128,0,59973:0:0:0:0:
448,192,59885,128,0,60150:0:0:0:0:
64,192,59973,128,0,60061:0:0:0:0:
320,192,59973,128,0,60150:0:0:0:0:
192,192,60061,128,0,60238:0:0:0:0:
64,192,60150,128,0,60326:0:0:0:0:
320,192,60238,128,0,60326:0:0:0:0:
448,192,60238,128,0,60326:0:0:0:0:
192,192,60326,128,0,60414:0:0:0:0:
320,192,60414,1,0,0:0:0:0:
448,192,60414,1,0,0:0:0:0:
64,192,60414,128,0,60591:0:0:0:0:
192,192,60591,1,0,0:0:0:0:
320,192,60591,128,0,60767:0:0:0:0:
64,192,60767,1,0,0:0:0:0:
192,192,60767,128,0,60944:0:0:0:0:
448,192,60767,128,0,60856:0:0:0:0:
320,192,60856,128,0,61032:0:0:0:0:
448,192,60944,128,0,61032:0:0:0:0:
64,192,60944,128,0,61120:0:0:0:0:
192,192,61032,128,0,61120:0:0:0:0:
320,192,61120,128,0,61297:0:0:0:0:
448,192,61120,128,0,61209:0:0:0:0:
192,192,61209,128,0,61385:0:0:0:0:
448,192,61297,128,0,61385:0:0:0:0:
64,192,61297,128,0,61473:0:0:0:0:
320,192,61385,128,0,61561:0:0:0:0:
448,192,61473,128,0,61650:0:0:0:0:
192,192,61473,128,0,61561:0:0:0:0:
64,192,61561,128,0,61738:0:0:0:0:
192,192,61650,128,0,61826:0:0:0:0:
320,192,61650,128,0,61738:0:0:0:0:
448,192,61738,128,0,61826:0:0:0:0:
64,192,61826,1,0,0:0:0:0:
320,192,61826,128,0,62003:0:0:0:0:
64,192,62003,128,0,62444:0:0:0:0:
192,192,62003,128,0,62444:0:0:0:0:
448,192,62003,128,0,62532:0:0:0:0:
320,192,62356,128,0,62444:0:0:0:0:
64,192,62532,1,0,0:0:0:0:
320,192,62532,1,0,0:0:0:0:
192,192,62532,128,0,62709:0:0:0:0:
448,192,62709,1,0,0:0:0:0:
320,192,62709,1,0,0:0:0:0:
192,192,62797,1,0,0:0:0:0:
320,192,62885,1,0,0:0:0:0:
64,192,62885,1,0,0:0:0:0:
448,192,62885,128,0,63150:0:0:0:0:
192,192,63061,128,0,63238:0:0:0:0:
64,192,63061,1,0,0:0:0:0:
320,192,63238,1,0,0:0:0:0:
448,192,63238,1,0,0:0:0:0:
64,192,63238,1,0,0:0:0:0:
320,192,63414,1,0,0:0:0:0:
192,192,63414,1,0,0:0:0:0:
192,192,63591,1,0,0:0:0:0:
448,192,63591,1,0,0:0:0:0:
64,192,63591,128,0,63767:0:0:0:0:
448,192,63767,1,0,0:0:0:0:
320,192,63767,128,0,63856:0:0:0:0:
192,192,63944,1,0,0:0:0:0:
64,192,63944,1,0,0:0:0:0:
448,192,63944,1,0,0:0:0:0:
320,192,63944,1,0,0:0:0:0:
192,192,64120,1,0,0:0:0:0:
64,192,64120,1,0,0:0:0:0:
448,192,64209,1,0,0:0:0:0:
320,192,64297,1,0,0:0:0:0:
192,192,64297,1,0,0:0:0:0:
64,192,64385,1,0,0:0:0:0:
320,192,64473,1,0,0:0:0:0:
448,192,64473,128,0,64650:0:0:0:0:
320,192,64650,1,0,0:0:0:0:
64,192,64650,1,0,0:0:0:0:
192,192,64650,1,0,0:0:0:0:
448,192,64826,128,0,64914:0:0:0:0:
64,192,64914,128,0,65003:0:0:0:0:
192,192,65003,1,0,0:0:0:0:
320,192,65003,1,0,0:0:0:0:
320,192,65179,1,0,0:0:0:0:
64,192,65179,128,0,65356:0:0:0:0:
192,192,65356,1,0,0:0:0:0:
448,192,65356,1,0,0:0:0:0:
320,192,65356,1,0,0:0:0:0:
64,192,65532,128,0,65709:0:0:0:0:
448,192,65532,1,0,0:0:0:0:
320,192,65620,1,0,0:0:0:0:
192,192,65709,1,0,0:0:0:0:
448,192,65709,1,0,0:0:0:0:
320,192,65885,128,0,66061:0:0:0:0:
64,192,65885,1,0,0:0:0:0:
192,192,66061,1,0,0:0:0:0:
64,192,66061,1,0,0:0:0:0:
448,192,66061,1,0,0:0:0:0:
320,192,66238,1,0,0:0:0:0:
192,192,66238,1,0,0:0:0:0:
320,192,66414,1,0,0:0:0:0:
448,192,66414,1,0,0:0:0:0:
64,192,66414,128,0,66503:0:0:0:0:
192,192,66591,1,0,0:0:0:0:
64,192,66591,128,0,66679:0:0:0:0:
320,192,66679,128,0,66767:0:0:0:0:
192,192,66767,1,0,0:0:0:0:
448,192,66767,1,0,0:0:0:0:
64,192,66767,1,0,0:0:0:0:
320,192,66944,128,0,67120:0:0:0:0:
192,192,66944,1,0,0:0:0:0:
448,192,67120,1,0,0:0:0:0:
64,192,67120,128,0,67297:0:0:0:0:
192,192,67297,1,0,0:0:0:0:
448,192,67297,1,0,0:0:0:0:
64,192,67385,1,0,0:0:0:0:
448,192,67473,1,0,0:0:0:0:
320,192,67473,1,0,0:0:0:0:
192,192,67473,128,0,67650:0:0:0:0:
448,192,67650,1,0,0:0:0:0:
64,192,67650,1,0,0:0:0:0:
320,192,67738,1,0,0:0:0:0:
192,192,67826,1,0,0:0:0:0:
64,192,67826,1,0,0:0:0:0:
448,192,68003,1,0,0:0:0:0:
64,192,68003,1,0,0:0:0:0:
320,192,68179,1,0,0:0:0:0:
448,192,68179,1,0,0:0:0:0:
192,192,68179,1,0,0:0:0:0:
64,192,68179,128,0,68532:0:0:0:0:
320,192,68356,1,0,0:0:0:0:
448,192,68532,128,0,68620:0:0:0:0:
320,192,68532,1,0,0:0:0:0:
192,192,68532,128,0,68709:0:0:0:0:
448,192,68709,128,0,68797:0:0:0:0:
320,192,68709,128,0,68885:0:0:0:0:
192,192,68797,128,0,68973:0:0:0:0:
64,192,68885,128,0,68973:0:0:0:0:
448,192,68885,128,0,69061:0:0:0:0:
320,192,68973,128,0,69150:0:0:0:0:
64,192,69061,128,0,69150:0:0:0:0:
192,192,69061,128,0,69150:0:0:0:0:
448,192,69150,128,0,69238:0:0:0:0:
320,192,69238,1,0,0:0:0:0:
192,192,69238,1,0,0:0:0:0:
64,192,69238,1,0,0:0:0:0:
448,192,69944,1,0,0:0:0:0:
192,192,69944,1,0,0:0:0:0:
64,192,69944,1,0,0:0:0:0:
320,192,70120,1,0,0:0:0:0:
448,192,70120,1,0,0:0:0:0:
192,192,70209,1,0,0:0:0:0:
64,192,70209,1,0,0:0:0:0:
320,192,70297,1,0,0:0:0:0:
448,192,70297,1,0,0:0:0:0:
192,192,70385,1,0,0:0:0:0:
64,192,70385,128,0,70473:0:0:0:0:
320,192,70473,128,0,70561:0:0:0:0:
448,192,70473,1,0,0:0:0:0:
192,192,70561,128,0,70650:0:0:0:0:
320,192,70650,1,0,0:0:0:0:
64,192,70650,128,0,71003:0:0:0:0:
448,192,70650,128,0,70826:0:0:0:0:
192,192,70738,128,0,70914:0:0:0:0:
320,192,70826,128,0,70914:0:0:0:0:
320,192,71003,1,0,0:0:0:0:
192,192,71003,1,0,0:0:0:0:
448,192,71003,128,0,71356:0:0:0:0:
64,192,71179,128,0,71356:0:0:0:0:
192,192,71179,1,0,0:0:0:0:
192,192,71356,1,0,0:0:0:0:
320,192,71356,128,0,71620:0:0:0:0:
64,192,71444,128,0,71620:0:0:0:0:
192,192,71532,128,0,71620:0:0:0:0:
448,192,71532,128,0,71620:0:0:0:0:
320,192,71709,1,0,0:0:0:0:
448,192,71709,1,0,0:0:0:0:
192,192,71709,1,0,0:0:0:0:
64,192,71709,1,0,0:0:0:0:
192,192,71885,128,0,72061:0:0:0:0:
448,192,71885,128,0,71973:0:0:0:0:
320,192,72061,1,0,0:0:0:0:
448,192,72061,1,0,0:0:0:0:
192,192,72238,128,0,72326:0:0:0:0:
64,192,72238,128,0,72414:0:0:0:0:
448,192,72414,1,0,0:0:0:0:
320,192,72414,128,0,72591:0:0:0:0:
192,192,72503,128,0,72679:0:0:0:0:
448,192,72591,128,0,72679:0:0:0:0:
64,192,72591,128,0,72767:0:0:0:0:
192,192,72767,128,0,72944:0:0:0:0:
448,192,72767,1,0,0:0:0:0:
320,192,72767,1,0,0:0:0:0:
320,192,72944,1,0,0:0:0:0:
448,192,72944,128,0,73032:0:0:0:0:
192,192,73032,128,0,73120:0:0:0:0:
64,192,73120,1,0,0:0:0:0:
320,192,73120,1,0,0:0:0:0:
448,192,73120,1,0,0:0:0:0:
192,192,73297,1,0,0:0:0:0:
320,192,73297,1,0,0:0:0:0:
320,192,73473,1,0,0:0:0:0:
448,192,73473,1,0,0:0:0:0:
64,192,73473,128,0,73738:0:0:0:0:
192,192,73650,1,0,0:0:0:0:
320,192,73650,1,0,0:0:0:0:
448,192,73738,128,0,73826:0:0:0:0:
320,192,73826,1,0,0:0:0:0:
64,192,73826,1,0,0:0:0:0:
192,192,73826,128,0,74003:0:0:0:0:
448,192,74003,128,0,74179:0:0:0:0:
320,192,74003,1,0,0:0:0:0:
192,192,74091,128,0,74267:0:0:0:0:
64,192,74179,128,0,74356:0:0:0:0:
320,192,74179,1,0,0:0:0:0:
192,192,74356,1,0,0:0:0:0:
320,192,74356,1,0,0:0:0:0:
64,192,74444,1,0,0:0:0:0:
448,192,74532,1,0,0:0:0:0:
192,192,74532,1,0,0:0:0:0:
320,192,74532,128,0,74709:0:0:0:0:
64,192,74709,128,0,74885:0:0:0:0:
192,192,74709,1,0,0:0:0:0:
320,192,74797,1,0,0:0:0:0:
192,192,74885,128,0,75061:0:0:0:0:
448,192,74885,128,0,75150:0:0:0:0:
320,192,74973,128,0,75150:0:0:0:0:
64,192,75061,128,0,75238:0:0:0:0:
192,192,75238,1,0,0:0:0:0:
320,192,75238,1,0,0:0:0:0:
448,192,75238,1,0,0:0:0:0:
320,192,75414,1,0,0:0:0:0:
64,192,75414,128,0,75591:0:0:0:0:
192,192,75414,1,0,0:0:0:0:
448,192,75591,128,0,75856:0:0:0:0:
320,192,75591,1,0,0:0:0:0:
64,192,75679,1,0,0:0:0:0:
192,192,75767,128,0,75856:0:0:0:0:
320,192,75767,1,0,0:0:0:0:
64,192,75856,1,0,0:0:0:0:
320,192,75944,1,0,0:0:0:0:
448,192,75944,1,0,0:0:0:0:
192,192,75944,1,0,0:0:0:0:
64,192,76120,128,0,76297:0:0:0:0:
320,192,76297,1,0,0:0:0:0:
192,192,76297,1,0,0:0:0:0:
448,192,76297,128,0,76561:0:0:0:0:
64,192,76385,128,0,76473:0:0:0:0:
192,192,76473,128,0,76561:0:0:0:0:
320,192,76561,128,0,76650:0:0:0:0:
448,192,76650,128,0,76738:0:0:0:0:
64,192,76650,128,0,76826:0:0:0:0:
320,192,76738,128,0,76826:0:0:0:0:
192,192,76826,128,0,76914:0:0:0:0:
64,192,76914,128,0,77003:0:0:0:0:
320,192,77003,1,0,0:0:0:0:
192,192,77003,1,0,0:0:0:0:
448,192,77091,1,0,0:0:0:0:
192,192,77179,1,0,0:0:0:0:
320,192,77179,1,0,0:0:0:0:
64,192,77267,1,0,0:0:0:0:
320,192,77356,1,0,0:0:0:0:
192,192,77356,1,0,0:0:0:0:
448,192,77356,128,0,77620:0:0:0:0:
64,192,77532,1,0,0:0:0:0:
192,192,77532,128,0,77620:0:0:0:0:
64,192,77709,128,0,77973:0:0:0:0:
192,192,77709,1,0,0:0:0:0:
448,192,77797,128,0,77885:0:0:0:0:
320,192,77885,128,0,77973:0:0:0:0:
192,192,77973,128,0,78061:0:0:0:0:
448,192,78061,128,0,78238:0:0:0:0:
64,192,78061,128,0,78150:0:0:0:0:
192,192,78150,128,0,78238:0:0:0:0:
320,192,78238,128,0,78326:0:0:0:0:
448,192,78326,128,0,78414:0:0:0:0:
192,192,78414,1,0,0:0:0:0:
64,192,78414,1,0,0:0:0:0:
320,192,78414,1,0,0:0:0:0:
448,192,78503,1,0,0:0:0:0:
192,192,78591,1,0,0:0:0:0:
320,192,78591,128,0,78767:0:0:0:0:
448,192,78767,1,0,0:0:0:0:
192,192,78767,1,0,0:0:0:0:
64,192,78767,128,0,78944:0:0:0:0:
320,192,78856,1,0,0:0:0:0:
192,192,78944,1,0,0:0:0:0:
448,192,78944,1,0,0:0:0:0:
320,192,79032,128,0,79120:0:0:0:0:
448,192,79120,1,0,0:0:0:0:
192,192,79120,1,0,0:0:0:0:
64,192,79120,128,0,79385:0:0:0:0:
320,192,79297,1,0,0:0:0:0:
448,192,79297,1,0,0:0:0:0:
192,192,79473,1,0,0:0:0:0:
64,192,79473,1,0,0:0:0:0:
448,192,79473,1,0,0:0:0:0:
320,192,79473,1,0,0:0:0:0:
192,192,79650,128,0,79826:0:0:0:0:
448,192,79650,1,0,0:0:0:0:
64,192,79738,1,0,0:0:0:0:
320,192,79826,1,0,0:0:0:0:
448,192,79826,1,0,0:0:0:0:
192,192,79914,1,0,0:0:0:0:
320,192,80003,1,0,0:0:0:0:
64,192,80003,128,0,80179:0:0:0:0:
448,192,80179,128,0,80356:0:0:0:0:
320,192,80179,1,0,0:0:0:0:
192,192,80179,1,0,0:0:0:0:
64,192,80267,1,0,0:0:0:0:
192,192,80356,128,0,80532:0:0:0:0:
320,192,80444,128,0,80532:0:0:0:0:
448,192,80532,128,0,80709:0:0:0:0:
64,192,80532,128,0,80709:0:0:0:0:
320,192,80709,1,0,0:0:0:0:
192,192,80709,1,0,0:0:0:0:
448,192,80797,1,0,0:0:0:0:
64,192,80797,1,0,0:0:0:0:
192,192,80885,1,0,0:0:0:0:
320,192,80885,1,0,0:0:0:0:
448,192,80973,1,0,0:0:0:0:
192,192,81061,1,0,0:0:0:0:
320,192,81061,1,0,0:0:0:0:
64,192,81061,1,0,0:0:0:0:
448,192,81414,1,0,0:0:0:0:
320,192,81414,1,0,0:0:0:0:
192,192,81414,1,0,0:0:0:0:
64,192,81591,1,0,0:0:0:0:
192,192,81591,1,0,0:0:0:0:
320,192,81591,1,0,0:0:0:0:
448,192,81679,1,0,0:0:0:0:
320,192,81679,1,0,0:0:0:0:
192,192,81767,1,0,0:0:0:0:
64,192,81767,1,0,0:0:0:0:
320,192,81856,1,0,0:0:0:0:
448,192,81856,1,0,0:0:0:0:
448,192,81944,1,0,0:0:0:0:
64,192,81944,128,0,82120:0:0:0:0:
192,192,82032,128,0,82209:0:0:0:0:
320,192,82120,128,0,82297:0:0:0:0:
448,192,82120,1,0,0:0:0:0:
192,192,82297,1,0,0:0:0:0:
64,192,82297,1,0,0:0:0:0:
448,192,82297,128,0,82561:0:0:0:0:
64,192,82473,128,0,82561:0:0:0:0:
448,192,82650,1,0,0:0:0:0:
64,192,82650,1,0,0:0:0:0:
192,192,82650,128,0,82826:0:0:0:0:
320,192,82738,128,0,82914:0:0:0:0:
64,192,82826,128,0,82914:0:0:0:0:
320,192,83003,1,0,0:0:0:0:
64,192,83003,1,0,0:0:0:0:
192,192,83003,1,0,0:0:0:0:
448,192,83003,1,0,0:0:0:0:
448,192,83179,128,0,83356:0:0:0:0:
64,192,83179,1,0,0:0:0:0:
320,192,83356,1,0,0:0:0:0:
192,192,83356,1,0,0:0:0:0:
64,192,83356,128,0,83532:0:0:0:0:
448,192,83444,128,0,83620:0:0:0:0:
320,192,83532,1,0,0:0:0:0:
192,192,83532,128,0,83709:0:0:0:0:
320,192,83709,1,0,0:0:0:0:
448,192,83709,1,0,0:0:0:0:
64,192,83709,1,0,0:0:0:0:
192,192,83885,1,0,0:0:0:0:
320,192,83885,1,0,0:0:0:0:
320,192,84061,128,0,84238:0:0:0:0:
448,192,84061,1,0,0:0:0:0:
64,192,84061,1,0,0:0:0:0:
192,192,84150,128,0,84326:0:0:0:0:
64,192,84238,128,0,84414:0:0:0:0:
448,192,84238,1,0,0:0:0:0:
320,192,84414,1,0,0:0:0:0:
448,192,84414,128,0,84679:0:0:0:0:
192,192,84414,128,0,84503:0:0:0:0:
64,192,84591,128,0,84679:0:0:0:0:
192,192,84591,1,0,0:0:0:0:
448,192,84767,1,0,0:0:0:0:
192,192,84767,1,0,0:0:0:0:
64,192,84767,128,0,85032:0:0:0:0:
320,192,84856,128,0,85032:0:0:0:0:
192,192,84944,128,0,85120:0:0:0:0:
448,192,84944,128,0,85032:0:0:0:0:
320,192,85120,1,0,0:0:0:0:
448,192,85120,1,0,0:0:0:0:
64,192,85120,128,0,85473:0:0:0:0:
448,192,85297,128,0,85473:0:0:0:0:
192,192,85297,1,0,0:0:0:0:
320,192,85473,1,0,0:0:0:0:
192,192,85473,128,0,85650:0:0:0:0:
64,192,85561,128,0,85738:0:0:0:0:
320,192,85650,1,0,0:0:0:0:
448,192,85650,128,0,85738:0:0:0:0:
192,192,85738,128,0,85826:0:0:0:0:
320,192,85826,1,0,0:0:0:0:
64,192,85826,1,0,0:0:0:0:
448,192,85826,1,0,0:0:0:0:
192,192,86003,128,0,86179:0:0:0:0:
320,192,86003,1,0,0:0:0:0:
320,192,86179,1,0,0:0:0:0:
64,192,86179,1,0,0:0:0:0:
448,192,86179,128,0,86444:0:0:0:0:
192,192,86267,128,0,86444:0:0:0:0:
320,192,86356,128,0,86532:0:0:0:0:
64,192,86532,128,0,86797:0:0:0:0:
192,192,86532,128,0,86709:0:0:0:0:
448,192,86532,128,0,86620:0:0:0:0:
320,192,86709,128,0,86797:0:0:0:0:
192,192,86797,128,0,86885:0:0:0:0:
320,192,86885,1,0,0:0:0:0:
64,192,86885,1,0,0:0:0:0:
448,192,86885,128,0,87061:0:0:0:0:
192,192,86973,128,0,87150:0:0:0:0:
320,192,87061,128,0,87238:0:0:0:0:
64,192,87061,1,0,0:0:0:0:
448,192,87238,1,0,0:0:0:0:
192,192,87238,1,0,0:0:0:0:
64,192,87238,128,0,87414:0:0:0:0:
320,192,87414,128,0,87591:0:0:0:0:
448,192,87414,1,0,0:0:0:0:
448,192,87591,1,0,0:0:0:0:
192,192,87591,1,0,0:0:0:0:
64,192,87591,128,0,87944:0:0:0:0:
448,192,87767,128,0,87856:0:0:0:0:
320,192,87767,1,0,0:0:0:0:
448,192,87944,1,0,0:0:0:0:
192,192,87944,1,0,0:0:0:0:
320,192,87944,1,0,0:0:0:0:
64,192,88032,1,0,0:0:0:0:
448,192,88120,1,0,0:0:0:0:
320,192,88120,1,0,0:0:0:0:
192,192,88209,128,0,88297:0:0:0:0:
320,192,88297,1,0,0:0:0:0:
448,192,88297,1,0,0:0:0:0:
64,192,88297,1,0,0:0:0:0:
192,192,88385,128,0,88473:0:0:0:0:
320,192,88473,128,0,88561:0:0:0:0:
448,192,88473,128,0,88561:0:0:0:0:
64,192,88561,1,0,0:0:0:0:
192,192,88650,1,0,0:0:0:0:
448,192,88650,1,0,0:0:0:0:
320,192,88650,128,0,88914:0:0:0:0:
64,192,88826,1,0,0:0:0:0:
192,192,88826,128,0,88914:0:0:0:0:
320,192,89003,1,0,0:0:0:0:
192,192,89003,1,0,0:0:0:0:
448,192,89003,128,0,89267:0:0:0:0:
64,192,89091,128,0,89267:0:0:0:0:
320,192,89179,128,0,89267:0:0:0:0:
192,192,89179,128,0,89267:0:0:0:0:
320,192,89356,1,0,0:0:0:0:
448,192,89356,1,0,0:0:0:0:
64,192,89356,1,0,0:0:0:0:
192,192,89356,128,0,89532:0:0:0:0:
320,192,89532,128,0,89709:0:0:0:0:
448,192,89709,1,0,0:0:0:0:
64,192,89709,1,0,0:0:0:0:
320,192,89885,1,0,0:0:0:0:
448,192,89885,1,0,0:0:0:0:
64,192,89885,128,0,90061:0:0:0:0:
192,192,89973,128,0,90150:0:0:0:0:
448,192,90061,128,0,90238:0:0:0:0:
320,192,90061,128,0,90150:0:0:0:0:
64,192,90238,128,0,90414:0:0:0:0:
192,192,90238,1,0,0:0:0:0:
320,192,90238,1,0,0:0:0:0:
320,192,90414,1,0,0:0:0:0:
448,192,90414,128,0,90679:0:0:0:0:
64,192,90591,128,0,90679:0:0:0:0:
192,192,90591,1,0,0:0:0:0:
320,192,90679,1,0,0:0:0:0:
64,192,90767,1,0,0:0:0:0:
192,192,90767,128,0,90944:0:0:0:0:
448,192,90767,128,0,91032:0:0:0:0:
320,192,90944,128,0,91032:0:0:0:0:
448,192,91120,128,0,91209:0:0:0:0:
320,192,91120,1,0,0:0:0:0:
64,192,91120,1,0,0:0:0:0:
192,192,91209,1,0,0:0:0:0:
320,192,91297,128,0,91473:0:0:0:0:
64,192,91297,1,0,0:0:0:0:
448,192,91385,1,0,0:0:0:0:
64,192,91473,1,0,0:0:0:0:
192,192,91473,128,0,91561:0:0:0:0:
64,192,91650,1,0,0:0:0:0:
192,192,91650,1,0,0:0:0:0:
320,192,91650,128,0,91738:0:0:0:0:
192,192,91826,1,0,0:0:0:0:
320,192,91826,1,0,0:0:0:0:
64,192,91826,128,0,92179:0:0:0:0:
448,192,91826,128,0,92091:0:0:0:0:
192,192,92003,1,0,0:0:0:0:
320,192,92091,1,0,0:0:0:0:
448,192,92179,1,0,0:0:0:0:
192,192,92179,1,0,0:0:0:0:
64,192,92267,1,0,0:0:0:0:
192,192,92356,1,0,0:0:0:0:
320,192,92356,1,0,0:0:0:0:
448,192,92356,1,0,0:0:0:0:
64,192,92532,1,0,0:0:0:0:
192,192,92532,1,0,0:0:0:0:
448,192,92620,1,0,0:0:0:0:
320,192,92620,1,0,0:0:0:0:
320,192,92709,1,0,0:0:0:0:
64,192,92709,1,0,0:0:0:0:
192,192,92709,128,0,92973:0:0:0:0:
320,192,92885,1,0,0:0:0:0:
448,192,92885,128,0,92973:0:0:0:0:
64,192,92973,128,0,93061:0:0:0:0:
320,192,93061,1,0,0:0:0:0:
192,192,93061,128,0,93150:0:0:0:0:
448,192,93150,128,0,93238:0:0:0:0:
192,192,93238,1,0,0:0:0:0:
64,192,93238,128,0,93503:0:0:0:0:
320,192,93414,1,0,0:0:0:0:
192,192,93414,128,0,93503:0:0:0:0:
192,192,93591,1,0,0:0:0:0:
64,192,93591,1,0,0:0:0:0:
448,192,93591,128,0,93767:0:0:0:0:
320,192,93767,128,0,93944:0:0:0:0:
192,192,93944,1,0,0:0:0:0:
448,192,93944,1,0,0:0:0:0:
64,192,93944,1,0,0:0:0:0:
320,192,94032,1,0,0:0:0:0:
192,192,94120,1,0,0:0:0:0:
64,192,94120,1,0,0:0:0:0:
448,192,94209,1,0,0:0:0:0:
320,192,94297,1,0,0:0:0:0:
192,192,94297,1,0,0:0:0:0:
64,192,94297,1,0,0:0:0:0:
448,192,94473,1,0,0:0:0:0:
192,192,94473,1,0,0:0:0:0:
448,192,94650,1,0,0:0:0:0:
64,192,94650,1,0,0:0:0:0:
320,192,94650,128,0,94826:0:0:0:0:
192,192,94738,128,0,94914:0:0:0:0:
64,192,94826,128,0,95003:0:0:0:0:
448,192,95003,1,0,0:0:0:0:
192,192,95003,128,0,95179:0:0:0:0:
320,192,95091,128,0,95267:0:0:0:0:
448,192,95179,128,0,95356:0:0:0:0:
320,192,95356,128,0,95532:0:0:0:0:
64,192,95356,1,0,0:0:0:0:
192,192,95444,128,0,95620:0:0:0:0:
448,192,95532,128,0,95709:0:0:0:0:
64,192,95620,128,0,95709:0:0:0:0:
192,192,95709,1,0,0:0:0:0:
320,192,95709,128,0,95885:0:0:0:0:
64,192,95885,128,0,96061:0:0:0:0:
192,192,95885,1,0,0:0:0:0:
448,192,95973,128,0,96061:0:0:0:0:
192,192,96061,1,0,0:0:0:0:
320,192,96061,128,0,96326:0:0:0:0:
64,192,96150,128,0,96326:0:0:0:0:
192,192,96238,128,0,96414:0:0:0:0:
448,192,96326,128,0,96414:0:0:0:0:
320,192,96414,1,0,0:0:0:0:
64,192,96414,128,0,96679:0:0:0:0:
192,192,96503,128,0,96679:0:0:0:0:
448,192,96591,128,0,96767:0:0:0:0:
320,192,96679,128,0,96767:0:0:0:0:
64,192,96767,128,0,97032:0:0:0:0:
192,192,96767,128,0,96944:0:0:0:0:
320,192,96856,128,0,97032:0:0:0:0:
448,192,96944,128,0,97120:0:0:0:0:
192,192,97032,128,0,97120:0:0:0:0:
320,192,97120,1,0,0:0:0:0:
64,192,97120,1,0,0:0:0:0:
192,192,97209,1,0,0:0:0:0:
448,192,97209,1,0,0:0:0:0:
320,192,97297,1,0,0:0:0:0:
64,192,97297,1,0,0:0:0:0:
192,192,97385,1,0,0:0:0:0:
320,192,97473,1,0,0:0:0:0:
448,192,97473,1,0,0:0:0:0:
64,192,97473,1,0,0:0:0:0:
192,192,97738,1,0,0:0:0:0:
320,192,97738,1,0,0:0:0:0:
448,192,97738,1,0,0:0:0:0:
64,192,98003,1,0,0:0:0:0:
192,192,98003,1,0,0:0:0:0:
448,192,98003,1,0,0:0:0:0:
320,192,98179,1,0,0:0:0:0:
192,192,98179,1,0,0:0:0:0:
64,192,98179,1,0,0:0:0:0:
448,192,98444,1,0,0:0:0:0:
320,192,98444,1,0,0:0:0:0:
64,192,98444,1,0,0:0:0:0:
320,192,98709,1,0,0:0:0:0:
448,192,98709,1,0,0:0:0:0:
64,192,98797,1,0,0:0:0:0:
192,192,98797,1,0,0:0:0:0:
320,192,98885,1,0,0:0:0:0:
448,192,98885,1,0,0:0:0:0:
64,192,98885,1,0,0:0:0:0:
192,192,99061,1,0,0:0:0:0:
320,192,99061,1,0,0:0:0:0:
64,192,99238,128,0,99414:0:0:0:0:
448,192,99238,1,0,0:0:0:0:
320,192,99238,1,0,0:0:0:0:
192,192,99414,1,0,0:0:0:0:
320,192,99414,1,0,0:0:0:0:
448,192,99591,128,0,99767:0:0:0:0:
192,192,99591,1,0,0:0:0:0:
64,192,99679,1,0,0:0:0:0:
320,192,99767,128,0,99944:0:0:0:0:
448,192,99944,1,0,0:0:0:0:
64,192,99944,1,0,0:0:0:0:
192,192,99944,128,0,100120:0:0:0:0:
448,192,100120,128,0,100473:0:0:0:0:
320,192,100297,1,0,0:0:0:0:
192,192,100297,1,0,0:0:0:0:
64,192,100473,128,0,100650:0:0:0:0:
320,192,100650,128,0,100826:0:0:0:0:
192,192,100650,1,0,0:0:0:0:
448,192,100650,1,0,0:0:0:0:
448,192,100826,1,0,0:0:0:0:
64,192,100826,128,0,101003:0:0:0:0:
320,192,101003,128,0,101179:0:0:0:0:
448,192,101003,128,0,101091:0:0:0:0:
192,192,101179,128,0,101356:0:0:0:0:
64,192,101179,128,0,101267:0:0:0:0:
320,192,101356,1,0,0:0:0:0:
64,192,101356,1,0,0:0:0:0:
448,192,101356,128,0,101709:0:0:0:0:
320,192,101532,128,0,101709:0:0:0:0:
192,192,101709,1,0,0:0:0:0:
64,192,101709,1,0,0:0:0:0:
320,192,101885,1,0,0:0:0:0:
192,192,101885,1,0,0:0:0:0:
448,192,102061,1,0,0:0:0:0:
64,192,102061,1,0,0:0:0:0:
192,192,102061,128,0,102238:0:0:0:0:
320,192,102238,128,0,102414:0:0:0:0:
64,192,102414,128,0,102591:0:0:0:0:
448,192,102414,1,0,0:0:0:0:
320,192,102503,1,0,0:0:0:0:
192,192,102591,128,0,102767:0:0:0:0:
448,192,102591,1,0,0:0:0:0:
320,192,102767,1,0,0:0:0:0:
64,192,102767,1,0,0:0:0:0:
448,192,102767,128,0,102944:0:0:0:0:
64,192,102944,128,0,103297:0:0:0:0:
320,192,103120,1,0,0:0:0:0:
448,192,103120,1,0,0:0:0:0:
192,192,103297,128,0,103473:0:0:0:0:
64,192,103473,1,0,0:0:0:0:
320,192,103473,1,0,0:0:0:0:
448,192,103473,128,0,103650:0:0:0:0:
320,192,103650,128,0,103826:0:0:0:0:
64,192,103826,128,0,104003:0:0:0:0:
192,192,103826,128,0,103914:0:0:0:0:
448,192,104003,128,0,104179:0:0:0:0:
320,192,104003,128,0,104091:0:0:0:0:
320,192,104179,1,0,0:0:0:0:
64,192,104179,1,0,0:0:0:0:
192,192,104179,128,0,104444:0:0:0:0:
448,192,104356,128,0,104532:0:0:0:0:
64,192,104444,1,0,0:0:0:0:
64,192,104532,1,0,0:0:0:0:
192,192,104532,1,0,0:0:0:0:
320,192,104532,1,0,0:0:0:0:
320,192,104709,1,0,0:0:0:0:
448,192,104709,1,0,0:0:0:0:
64,192,104885,1,0,0:0:0:0:
448,192,104885,1,0,0:0:0:0:
192,192,104885,128,0,105061:0:0:0:0:
320,192,105061,128,0,105238:0:0:0:0:
64,192,105238,1,0,0:0:0:0:
448,192,105238,128,0,105414:0:0:0:0:
192,192,105326,1,0,0:0:0:0:
320,192,105414,128,0,105591:0:0:0:0:
64,192,105414,1,0,0:0:0:0:
448,192,105591,1,0,0:0:0:0:
192,192,105591,1,0,0:0:0:0:
64,192,105591,128,0,105767:0:0:0:0:
192,192,105767,128,0,106120:0:0:0:0:
320,192,105944,1,0,0:0:0:0:
448,192,105944,1,0,0:0:0:0:
64,192,106120,128,0,106297:0:0:0:0:
320,192,106297,128,0,106473:0:0:0:0:
448,192,106297,1,0,0:0:0:0:
192,192,106297,1,0,0:0:0:0:
192,192,106473,128,0,106650:0:0:0:0:
64,192,106473,1,0,0:0:0:0:
448,192,106650,128,0,106826:0:0:0:0:
320,192,106650,128,0,106738:0:0:0:0:
192,192,106738,1,0,0:0:0:0:
320,192,106826,128,0,107003:0:0:0:0:
64,192,106826,128,0,106914:0:0:0:0:
448,192,107003,1,0,0:0:0:0:
64,192,107003,1,0,0:0:0:0:
192,192,107003,128,0,107356:0:0:0:0:
320,192,107179,128,0,107356:0:0:0:0:
448,192,107356,1,0,0:0:0:0:
64,192,107356,1,0,0:0:0:0:
64,192,107532,1,0,0:0:0:0:
192,192,107532,1,0,0:0:0:0:
448,192,107709,1,0,0:0:0:0:
192,192,107709,1,0,0:0:0:0:
320,192,107709,128,0,107885:0:0:0:0:
64,192,107885,1,0,0:0:0:0:
192,192,107885,1,0,0:0:0:0:
448,192,108061,128,0,108326:0:0:0:0:
320,192,108061,1,0,0:0:0:0:
192,192,108150,1,0,0:0:0:0:
320,192,108238,128,0,108414:0:0:0:0:
64,192,108238,1,0,0:0:0:0:
448,192,108414,1,0,0:0:0:0:
64,192,108414,1,0,0:0:0:0:
192,192,108414,128,0,108591:0:0:0:0:
320,192,108591,128,0,108767:0:0:0:0:
448,192,108591,1,0,0:0:0:0:
192,192,108767,1,0,0:0:0:0:
448,192,108767,128,0,109120:0:0:0:0:
64,192,108767,128,0,109120:0:0:0:0:
320,192,108944,1,0,0:0:0:0:
192,192,109032,1,0,0:0:0:0:
320,192,109120,128,0,109209:0:0:0:0:
192,192,109209,128,0,109297:0:0:0:0:
320,192,109297,128,0,109385:0:0:0:0:
192,192,109385,128,0,109473:0:0:0:0:
448,192,109473,1,0,0:0:0:0:
320,192,109473,1,0,0:0:0:0:
64,192,109473,128,0,109738:0:0:0:0:
320,192,109738,1,0,0:0:0:0:
448,192,109738,1,0,0:0:0:0:
192,192,109738,128,0,110003:0:0:0:0:
448,192,110003,128,0,110179:0:0:0:0:
320,192,110003,1,0,0:0:0:0:
64,192,110003,1,0,0:0:0:0:
192,192,110091,1,0,0:0:0:0:
320,192,110179,1,0,0:0:0:0:
64,192,110179,1,0,0:0:0:0:
