osu file format v14

[General]
AudioFilename: hexenring.mp3
AudioLeadIn: 0
PreviewTime: 112687
Countdown: 0
SampleSet: None
StackLeniency: 0.7
Mode: 3
LetterboxInBreaks: 0
SpecialStyle: 0
WidescreenStoryboard: 1

[Editor]
DistanceSpacing: 0.8
BeatDivisor: 4
GridSize: 4
TimelineZoom: 2.1

[Metadata]
Title:Experiment map
TitleUnicode:Experiment map
Artist:Various Artist
ArtistUnicode:Various Artist
Creator:Noch Einen
Version:hexenring - BRING IT ON
Source:
Tags:
BeatmapID:2099235
BeatmapSetID:971300

[Difficulty]
HPDrainRate:8.5
CircleSize:4
OverallDifficulty:9
ApproachRate:5
SliderMultiplier:1.4
SliderTickRate:1

[Events]
//Background and Video events
0,0,"hex.jpg",0,0
//Break Periods
//Storyboard Layer 0 (Background)
//Storyboard Layer 1 (Fail)
//Storyboard Layer 2 (Pass)
//Storyboard Layer 3 (Foreground)
//Storyboard Sound Samples

[TimingPoints]
1525,375,4,2,0,0,1,0
8650,-66.6666666666667,4,2,0,0,0,0
8712,-111.111111111111,4,2,0,0,0,0
8837,-100,4,2,0,0,0,0
10150,-66.6666666666667,4,2,0,0,0,0
10212,-111.111111111111,4,2,0,0,0,0
10337,-100,4,2,0,0,0,0
11650,-66.6666666666667,4,2,0,0,0,0
11712,-111.111111111111,4,2,0,0,0,0
11837,-100,4,2,0,0,0,0
12775,-90.9090909090909,4,2,0,0,0,0
12962,-58.8235294117647,4,2,0,0,0,0
13056,-76.9230769230769,4,2,0,0,0,0
13150,-111.111111111111,4,2,0,0,0,0
13243,-200,4,2,0,0,0,0
13337,-1000,4,2,0,0,0,0
13478,-47.6190476190476,4,2,0,0,0,0
13525,-100,4,2,0,0,0,0
25150,-58.8235294117647,4,2,0,0,0,0
25243,-76.9230769230769,4,2,0,0,0,0
25337,-111.111111111111,4,2,0,0,0,0
25431,-200,4,2,0,0,0,0
25525,-100,4,2,0,0,0,0
38837,-500,4,2,0,0,0,0
38978,-45.4545454545455,4,2,0,0,0,0
39025,-500,4,2,0,0,0,0
39165,-45.4545454545455,4,2,0,0,0,0
39212,-100,4,2,0,0,0,0
39962,-500,4,2,0,0,0,0
40103,-45.4545454545455,4,2,0,0,0,0
40150,-100,4,2,0,0,0,0
40337,-500,4,2,0,0,0,0
40478,-45.4545454545455,4,2,0,0,0,0
40525,-500,4,2,0,0,0,0
40665,-45.4545454545455,4,2,0,0,0,0
40712,-100,4,2,0,0,0,0
41837,-500,4,2,0,0,0,0
41978,-45.4545454545455,4,2,0,0,0,0
42025,-100,4,2,0,0,0,0
44462,-500,4,2,0,0,0,0
44603,-45.4545454545455,4,2,0,0,0,0
44650,-100,4,2,0,0,0,0
44837,-500,4,2,0,0,0,0
44978,-45.4545454545455,4,2,0,0,0,0
45025,-500,4,2,0,0,0,0
45165,-45.4545454545455,4,2,0,0,0,0
45212,-100,4,2,0,0,0,0
45962,-500,4,2,0,0,0,0
46103,-45.4545454545455,4,2,0,0,0,0
46150,-100,4,2,0,0,0,0
46337,-500,4,2,0,0,0,0
46478,-45.4545454545455,4,2,0,0,0,0
46525,-500,4,2,0,0,0,0
46665,-45.4545454545455,4,2,0,0,0,0
46712,-100,4,2,0,0,0,0
47837,-500,4,2,0,0,0,0
47978,-45.4545454545455,4,2,0,0,0,0
48025,-100,4,2,0,0,0,0
48962,-500,4,2,0,0,0,0
49103,-45.4545454545455,4,2,0,0,0,0
49150,-100,4,2,0,0,0,0
49337,-500,4,2,0,0,0,0
49478,-31.25,4,2,0,0,0,0
49525,-1000,4,2,0,0,0,0
49712,-100,4,2,0,0,0,0
49853,-71.4285714285714,4,2,0,0,0,0
49900,-100,4,2,0,0,0,0
50087,-500,4,2,0,0,0,0
50228,-45.4545454545455,4,2,0,0,0,0
50275,-1000,4,2,0,0,0,0
50462,-100,4,2,0,0,0,0
50603,-71.4285714285714,4,2,0,0,0,0
50650,-100,4,2,0,0,0,0
50837,-500,4,2,0,0,0,0
50978,-45.4545454545455,4,2,0,0,0,0
51118,-1000,4,2,0,0,0,0
51353,-45.4545454545455,4,2,0,0,0,0
51493,-1000,4,2,0,0,0,0
51728,-45.4545454545455,4,2,0,0,0,0
51775,-1000,4,2,0,0,0,0
51915,-45.4545454545455,4,2,0,0,0,0
51962,-1000,4,2,0,0,0,0
52103,-45.4545454545455,4,2,0,0,0,0
52150,-1000,4,2,0,0,0,0
52290,-45.4545454545455,4,2,0,0,0,0
52337,-1000,4,2,0,0,0,0
52478,-45.4545454545455,4,2,0,0,0,0
52525,-100,4,2,0,0,0,0

[HitObjects]
192,192,1212,128,0,1525:0:0:0:0:
64,192,1525,128,0,1743:0:0:0:0:
320,192,1525,128,0,1743:0:0:0:0:
448,192,1525,128,0,1743:0:0:0:0:
320,192,4275,128,0,4525:0:0:0:0:
192,192,4525,128,0,4743:0:0:0:0:
64,192,4525,128,0,4743:0:0:0:0:
448,192,4525,128,0,4743:0:0:0:0:
320,192,4900,128,0,4931:0:0:0:0:
192,192,5275,1,0,0:0:0:0:
320,192,5556,1,0,0:0:0:0:
192,192,5650,1,0,0:0:0:0:
64,192,5837,1,0,0:0:0:0:
192,192,5868,1,0,0:0:0:0:
320,192,5900,1,0,0:0:0:0:
448,192,5931,1,0,0:0:0:0:
64,192,6025,1,0,0:0:0:0:
192,192,6212,1,0,0:0:0:0:
64,192,6400,1,0,0:0:0:0:
192,192,6775,1,0,0:0:0:0:
448,192,6775,1,0,0:0:0:0:
64,192,6962,1,0,0:0:0:0:
320,192,7150,1,0,0:0:0:0:
192,192,7212,1,0,0:0:0:0:
448,192,7337,1,0,0:0:0:0:
320,192,7400,1,0,0:0:0:0:
192,192,7462,1,0,0:0:0:0:
448,192,7525,1,0,0:0:0:0:
64,192,7525,1,0,0:0:0:0:
320,192,7712,1,0,0:0:0:0:
192,192,7806,1,0,0:0:0:0:
320,192,7900,1,0,0:0:0:0:
64,192,7900,1,0,0:0:0:0:
448,192,7993,1,0,0:0:0:0:
192,192,8087,1,0,0:0:0:0:
320,192,8181,1,0,0:0:0:0:
192,192,8275,1,0,0:0:0:0:
64,192,8275,1,0,0:0:0:0:
448,192,8368,1,0,0:0:0:0:
320,192,8462,1,0,0:0:0:0:
192,192,8556,1,0,0:0:0:0:
64,192,8650,1,0,0:0:0:0:
320,192,8650,1,0,0:0:0:0:
448,192,8650,1,0,0:0:0:0:
192,192,8837,1,0,0:0:0:0:
448,192,8884,1,0,0:0:0:0:
64,192,8931,1,0,0:0:0:0:
320,192,8978,1,0,0:0:0:0:
192,192,9025,1,0,0:0:0:0:
448,192,9025,1,0,0:0:0:0:
320,192,9212,1,0,0:0:0:0:
192,192,9306,1,0,0:0:0:0:
64,192,9400,1,0,0:0:0:0:
448,192,9400,1,0,0:0:0:0:
320,192,9493,1,0,0:0:0:0:
192,192,9587,1,0,0:0:0:0:
448,192,9681,1,0,0:0:0:0:
320,192,9775,1,0,0:0:0:0:
64,192,9775,1,0,0:0:0:0:
192,192,9868,1,0,0:0:0:0:
320,192,9962,1,0,0:0:0:0:
192,192,10056,1,0,0:0:0:0:
64,192,10150,1,0,0:0:0:0:
448,192,10150,1,0,0:0:0:0:
320,192,10150,1,0,0:0:0:0:
192,192,10337,1,0,0:0:0:0:
448,192,10384,1,0,0:0:0:0:
64,192,10431,1,0,0:0:0:0:
320,192,10478,1,0,0:0:0:0:
192,192,10525,1,0,0:0:0:0:
448,192,10525,1,0,0:0:0:0:
320,192,10712,1,0,0:0:0:0:
192,192,10806,1,0,0:0:0:0:
64,192,10900,1,0,0:0:0:0:
448,192,10900,1,0,0:0:0:0:
320,192,10993,1,0,0:0:0:0:
192,192,11087,1,0,0:0:0:0:
320,192,11181,1,0,0:0:0:0:
448,192,11275,1,0,0:0:0:0:
64,192,11275,1,0,0:0:0:0:
192,192,11337,1,0,0:0:0:0:
320,192,11400,1,0,0:0:0:0:
448,192,11462,1,0,0:0:0:0:
64,192,11556,1,0,0:0:0:0:
192,192,11650,1,0,0:0:0:0:
448,192,11650,1,0,0:0:0:0:
320,192,11650,1,0,0:0:0:0:
64,192,11837,1,0,0:0:0:0:
192,192,11931,1,0,0:0:0:0:
448,192,12025,128,0,12118:0:0:0:0:
64,192,12025,1,0,0:0:0:0:
320,192,12212,128,0,12306:0:0:0:0:
192,192,12400,128,0,12493:0:0:0:0:
64,192,12400,1,0,0:0:0:0:
320,192,12587,128,0,12681:0:0:0:0:
448,192,12775,128,0,13525:0:0:0:0:
64,192,12962,128,0,13525:0:0:0:0:
192,192,13525,1,0,0:0:0:0:
320,192,13525,1,0,0:0:0:0:
64,192,13712,128,0,13900:0:0:0:0:
448,192,13900,1,0,0:0:0:0:
192,192,13900,1,0,0:0:0:0:
320,192,13993,1,0,0:0:0:0:
64,192,14087,128,0,14275:0:0:0:0:
192,192,14275,1,0,0:0:0:0:
448,192,14275,1,0,0:0:0:0:
64,192,14462,128,0,14650:0:0:0:0:
320,192,14462,128,0,14650:0:0:0:0:
192,192,14650,1,0,0:0:0:0:
448,192,14650,1,0,0:0:0:0:
64,192,14837,128,0,15025:0:0:0:0:
320,192,14837,128,0,15025:0:0:0:0:
192,192,15025,1,0,0:0:0:0:
448,192,15025,1,0,0:0:0:0:
320,192,15212,1,0,0:0:0:0:
64,192,15400,1,0,0:0:0:0:
448,192,15400,1,0,0:0:0:0:
192,192,15587,1,0,0:0:0:0:
320,192,15775,1,0,0:0:0:0:
448,192,15775,1,0,0:0:0:0:
320,192,15962,1,0,0:0:0:0:
192,192,16150,1,0,0:0:0:0:
64,192,16150,1,0,0:0:0:0:
448,192,16243,128,0,16525:0:0:0:0:
320,192,16525,1,0,0:0:0:0:
192,192,16525,1,0,0:0:0:0:
64,192,16712,128,0,16900:0:0:0:0:
448,192,16900,1,0,0:0:0:0:
192,192,16900,1,0,0:0:0:0:
320,192,16993,1,0,0:0:0:0:
64,192,17087,128,0,17275:0:0:0:0:
192,192,17275,1,0,0:0:0:0:
448,192,17275,1,0,0:0:0:0:
64,192,17462,128,0,17650:0:0:0:0:
320,192,17462,128,0,17650:0:0:0:0:
192,192,17650,1,0,0:0:0:0:
448,192,17650,1,0,0:0:0:0:
64,192,17837,128,0,18025:0:0:0:0:
320,192,17837,128,0,18025:0:0:0:0:
192,192,18025,1,0,0:0:0:0:
448,192,18025,1,0,0:0:0:0:
320,192,18212,1,0,0:0:0:0:
64,192,18400,1,0,0:0:0:0:
448,192,18400,1,0,0:0:0:0:
64,192,18587,1,0,0:0:0:0:
320,192,18775,1,0,0:0:0:0:
448,192,18775,1,0,0:0:0:0:
320,192,18962,1,0,0:0:0:0:
192,192,19150,1,0,0:0:0:0:
64,192,19150,1,0,0:0:0:0:
448,192,19243,128,0,19525:0:0:0:0:
320,192,19525,1,0,0:0:0:0:
192,192,19525,1,0,0:0:0:0:
64,192,19712,1,0,0:0:0:0:
192,192,19900,1,0,0:0:0:0:
448,192,19900,1,0,0:0:0:0:
320,192,20087,1,0,0:0:0:0:
64,192,20275,1,0,0:0:0:0:
192,192,20275,1,0,0:0:0:0:
448,192,20462,1,0,0:0:0:0:
192,192,20556,1,0,0:0:0:0:
320,192,20603,1,0,0:0:0:0:
64,192,20650,1,0,0:0:0:0:
448,192,20650,1,0,0:0:0:0:
320,192,20837,1,0,0:0:0:0:
192,192,20884,1,0,0:0:0:0:
64,192,20931,1,0,0:0:0:0:
320,192,21025,1,0,0:0:0:0:
448,192,21025,1,0,0:0:0:0:
192,192,21071,1,0,0:0:0:0:
64,192,21212,1,0,0:0:0:0:
320,192,21400,1,0,0:0:0:0:
448,192,21400,1,0,0:0:0:0:
192,192,21446,1,0,0:0:0:0:
448,192,21587,1,0,0:0:0:0:
320,192,21634,1,0,0:0:0:0:
64,192,21775,1,0,0:0:0:0:
448,192,21775,1,0,0:0:0:0:
192,192,21821,1,0,0:0:0:0:
64,192,21962,1,0,0:0:0:0:
192,192,22025,1,0,0:0:0:0:
320,192,22087,1,0,0:0:0:0:
448,192,22150,1,0,0:0:0:0:
64,192,22150,1,0,0:0:0:0:
448,192,22337,1,0,0:0:0:0:
320,192,22384,1,0,0:0:0:0:
192,192,22431,1,0,0:0:0:0:
64,192,22478,1,0,0:0:0:0:
448,192,22525,128,0,22806:0:0:0:0:
320,192,22525,1,0,0:0:0:0:
320,192,22806,1,0,0:0:0:0:
192,192,22900,1,0,0:0:0:0:
64,192,22900,1,0,0:0:0:0:
448,192,23087,1,0,0:0:0:0:
192,192,23275,1,0,0:0:0:0:
64,192,23275,128,0,23556:0:0:0:0:
192,192,23556,1,0,0:0:0:0:
320,192,23603,1,0,0:0:0:0:
448,192,23650,1,0,0:0:0:0:
64,192,23650,1,0,0:0:0:0:
448,192,23837,1,0,0:0:0:0:
320,192,23884,1,0,0:0:0:0:
192,192,23931,1,0,0:0:0:0:
64,192,24025,1,0,0:0:0:0:
320,192,24025,128,0,24306:0:0:0:0:
64,192,24306,1,0,0:0:0:0:
192,192,24400,1,0,0:0:0:0:
448,192,24400,1,0,0:0:0:0:
64,192,24587,1,0,0:0:0:0:
320,192,24775,1,0,0:0:0:0:
448,192,24775,1,0,0:0:0:0:
64,192,24868,1,0,0:0:0:0:
192,192,24868,1,0,0:0:0:0:
320,192,24962,1,0,0:0:0:0:
448,192,24962,1,0,0:0:0:0:
192,192,25056,1,0,0:0:0:0:
64,192,25056,1,0,0:0:0:0:
64,192,25150,1,0,0:0:0:0:
320,192,25150,1,0,0:0:0:0:
448,192,25150,1,0,0:0:0:0:
192,192,25525,1,0,0:0:0:0:
448,192,25525,1,0,0:0:0:0:
320,192,25712,1,0,0:0:0:0:
192,192,25806,1,0,0:0:0:0:
64,192,25900,1,0,0:0:0:0:
448,192,25900,1,0,0:0:0:0:
320,192,26087,1,0,0:0:0:0:
320,192,26275,1,0,0:0:0:0:
64,192,26275,1,0,0:0:0:0:
192,192,26462,1,0,0:0:0:0:
64,192,26650,1,0,0:0:0:0:
448,192,26650,1,0,0:0:0:0:
320,192,26837,1,0,0:0:0:0:
192,192,26900,1,0,0:0:0:0:
64,192,26962,1,0,0:0:0:0:
448,192,27025,1,0,0:0:0:0:
320,192,27025,1,0,0:0:0:0:
192,192,27212,1,0,0:0:0:0:
320,192,27306,1,0,0:0:0:0:
448,192,27400,1,0,0:0:0:0:
64,192,27400,1,0,0:0:0:0:
192,192,27587,1,0,0:0:0:0:
320,192,27775,1,0,0:0:0:0:
64,192,27775,1,0,0:0:0:0:
448,192,27962,1,0,0:0:0:0:
192,192,28150,1,0,0:0:0:0:
448,192,28150,1,0,0:0:0:0:
192,192,28337,1,0,0:0:0:0:
320,192,28400,1,0,0:0:0:0:
448,192,28462,1,0,0:0:0:0:
192,192,28525,1,0,0:0:0:0:
64,192,28525,1,0,0:0:0:0:
320,192,28712,1,0,0:0:0:0:
192,192,28806,1,0,0:0:0:0:
64,192,28900,1,0,0:0:0:0:
320,192,28900,1,0,0:0:0:0:
192,192,29087,1,0,0:0:0:0:
320,192,29181,1,0,0:0:0:0:
448,192,29275,1,0,0:0:0:0:
64,192,29275,1,0,0:0:0:0:
64,192,29462,1,0,0:0:0:0:
448,192,29650,1,0,0:0:0:0:
192,192,29650,1,0,0:0:0:0:
320,192,29837,1,0,0:0:0:0:
192,192,29900,1,0,0:0:0:0:
64,192,29962,1,0,0:0:0:0:
448,192,30025,1,0,0:0:0:0:
320,192,30025,1,0,0:0:0:0:
192,192,30212,1,0,0:0:0:0:
320,192,30306,1,0,0:0:0:0:
448,192,30400,1,0,0:0:0:0:
192,192,30400,1,0,0:0:0:0:
64,192,30587,128,0,30775:0:0:0:0:
192,192,30775,1,0,0:0:0:0:
320,192,30775,1,0,0:0:0:0:
64,192,30962,1,0,0:0:0:0:
320,192,31056,1,0,0:0:0:0:
192,192,31150,1,0,0:0:0:0:
448,192,31150,1,0,0:0:0:0:
320,192,31337,128,0,31525:0:0:0:0:
192,192,31525,1,0,0:0:0:0:
64,192,31525,1,0,0:0:0:0:
448,192,31712,1,0,0:0:0:0:
320,192,31806,1,0,0:0:0:0:
192,192,31900,1,0,0:0:0:0:
64,192,31900,1,0,0:0:0:0:
192,192,32087,1,0,0:0:0:0:
320,192,32275,1,0,0:0:0:0:
448,192,32275,1,0,0:0:0:0:
64,192,32462,128,0,32743:0:0:0:0:
192,192,32650,128,0,32743:0:0:0:0:
320,192,32650,128,0,32743:0:0:0:0:
448,192,32837,1,0,0:0:0:0:
320,192,32931,1,0,0:0:0:0:
192,192,33025,1,0,0:0:0:0:
64,192,33025,1,0,0:0:0:0:
320,192,33212,1,0,0:0:0:0:
64,192,33400,1,0,0:0:0:0:
192,192,33400,1,0,0:0:0:0:
320,192,33446,1,0,0:0:0:0:
64,192,33587,1,0,0:0:0:0:
192,192,33634,1,0,0:0:0:0:
448,192,33775,1,0,0:0:0:0:
320,192,33775,1,0,0:0:0:0:
192,192,33821,1,0,0:0:0:0:
448,192,33962,128,0,34243:0:0:0:0:
320,192,34150,128,0,34243:0:0:0:0:
192,192,34150,128,0,34243:0:0:0:0:
64,192,34337,1,0,0:0:0:0:
192,192,34525,1,0,0:0:0:0:
448,192,34525,1,0,0:0:0:0:
320,192,34712,1,0,0:0:0:0:
192,192,34806,1,0,0:0:0:0:
320,192,34900,1,0,0:0:0:0:
64,192,34900,1,0,0:0:0:0:
192,192,35087,1,0,0:0:0:0:
320,192,35181,1,0,0:0:0:0:
448,192,35275,1,0,0:0:0:0:
64,192,35275,1,0,0:0:0:0:
64,192,35462,1,0,0:0:0:0:
192,192,35509,1,0,0:0:0:0:
320,192,35556,1,0,0:0:0:0:
448,192,35603,1,0,0:0:0:0:
64,192,35650,1,0,0:0:0:0:
192,192,35650,1,0,0:0:0:0:
448,192,35837,1,0,0:0:0:0:
320,192,35884,1,0,0:0:0:0:
192,192,35931,1,0,0:0:0:0:
64,192,35978,1,0,0:0:0:0:
320,192,36025,1,0,0:0:0:0:
448,192,36025,1,0,0:0:0:0:
192,192,36212,1,0,0:0:0:0:
320,192,36306,1,0,0:0:0:0:
192,192,36400,1,0,0:0:0:0:
64,192,36400,1,0,0:0:0:0:
320,192,36462,1,0,0:0:0:0:
448,192,36525,1,0,0:0:0:0:
64,192,36587,1,0,0:0:0:0:
192,192,36681,1,0,0:0:0:0:
320,192,36775,1,0,0:0:0:0:
448,192,36775,1,0,0:0:0:0:
192,192,36868,1,0,0:0:0:0:
320,192,36962,1,0,0:0:0:0:
448,192,37056,1,0,0:0:0:0:
192,192,37150,1,0,0:0:0:0:
320,192,37150,1,0,0:0:0:0:
64,192,37150,128,0,37243:0:0:0:0:
64,192,37337,128,0,37525:0:0:0:0:
192,192,37525,128,0,37806:0:0:0:0:
320,192,37525,128,0,37806:0:0:0:0:
448,192,37525,128,0,37806:0:0:0:0:
64,192,37900,128,0,37993:0:0:0:0:
192,192,37900,128,0,37993:0:0:0:0:
448,192,38087,1,0,0:0:0:0:
320,192,38181,1,0,0:0:0:0:
448,192,38275,1,0,0:0:0:0:
320,192,38462,1,0,0:0:0:0:
192,192,38650,128,0,38743:0:0:0:0:
64,192,38650,128,0,38743:0:0:0:0:
320,192,38837,1,0,0:0:0:0:
320,192,39025,1,0,0:0:0:0:
320,192,39212,1,0,0:0:0:0:
448,192,39306,1,0,0:0:0:0:
64,192,39400,128,0,39493:0:0:0:0:
192,192,39400,128,0,39493:0:0:0:0:
448,192,39587,1,0,0:0:0:0:
320,192,39634,1,0,0:0:0:0:
192,192,39681,1,0,0:0:0:0:
448,192,39775,1,0,0:0:0:0:
320,192,39821,1,0,0:0:0:0:
192,192,39868,1,0,0:0:0:0:
64,192,39962,1,0,0:0:0:0:
320,192,40150,128,0,40243:0:0:0:0:
192,192,40150,128,0,40243:0:0:0:0:
64,192,40337,1,0,0:0:0:0:
64,192,40525,1,0,0:0:0:0:
448,192,40712,1,0,0:0:0:0:
192,192,40900,128,0,40993:0:0:0:0:
320,192,40900,128,0,40993:0:0:0:0:
64,192,41087,1,0,0:0:0:0:
448,192,41181,1,0,0:0:0:0:
64,192,41275,1,0,0:0:0:0:
448,192,41462,128,0,41650:0:0:0:0:
192,192,41650,128,0,41743:0:0:0:0:
320,192,41650,128,0,41743:0:0:0:0:
64,192,41837,1,0,0:0:0:0:
64,192,42025,1,0,0:0:0:0:
448,192,42118,1,0,0:0:0:0:
64,192,42212,1,0,0:0:0:0:
448,192,42306,1,0,0:0:0:0:
192,192,42400,128,0,42462:0:0:0:0:
320,192,42400,128,0,42462:0:0:0:0:
64,192,42462,128,0,42525:0:0:0:0:
448,192,42525,128,0,42587:0:0:0:0:
320,192,42587,128,0,42650:0:0:0:0:
192,192,42650,128,0,42712:0:0:0:0:
448,192,42712,128,0,42775:0:0:0:0:
64,192,42775,128,0,42837:0:0:0:0:
320,192,42837,128,0,42900:0:0:0:0:
192,192,42900,128,0,42962:0:0:0:0:
448,192,42962,128,0,43025:0:0:0:0:
64,192,42962,128,0,43025:0:0:0:0:
320,192,43025,128,0,43087:0:0:0:0:
192,192,43087,128,0,43150:0:0:0:0:
64,192,43150,128,0,43212:0:0:0:0:
448,192,43150,128,0,43212:0:0:0:0:
320,192,43243,128,0,43306:0:0:0:0:
192,192,43337,128,0,43400:0:0:0:0:
64,192,43525,128,0,43806:0:0:0:0:
192,192,43525,128,0,43806:0:0:0:0:
448,192,43525,128,0,43806:0:0:0:0:
320,192,43900,128,0,43993:0:0:0:0:
448,192,43900,128,0,43993:0:0:0:0:
64,192,44087,1,0,0:0:0:0:
192,192,44181,1,0,0:0:0:0:
64,192,44275,1,0,0:0:0:0:
192,192,44462,1,0,0:0:0:0:
448,192,44650,128,0,44743:0:0:0:0:
320,192,44650,128,0,44743:0:0:0:0:
192,192,44837,1,0,0:0:0:0:
192,192,45025,1,0,0:0:0:0:
192,192,45212,1,0,0:0:0:0:
64,192,45306,1,0,0:0:0:0:
320,192,45400,128,0,45493:0:0:0:0:
448,192,45400,128,0,45493:0:0:0:0:
64,192,45587,1,0,0:0:0:0:
192,192,45634,1,0,0:0:0:0:
320,192,45681,1,0,0:0:0:0:
64,192,45775,1,0,0:0:0:0:
192,192,45821,1,0,0:0:0:0:
320,192,45868,1,0,0:0:0:0:
448,192,45962,1,0,0:0:0:0:
320,192,46150,128,0,46243:0:0:0:0:
192,192,46150,128,0,46243:0:0:0:0:
448,192,46337,1,0,0:0:0:0:
448,192,46525,1,0,0:0:0:0:
64,192,46712,1,0,0:0:0:0:
192,192,46900,128,0,46993:0:0:0:0:
320,192,46900,128,0,46993:0:0:0:0:
448,192,47087,1,0,0:0:0:0:
64,192,47181,1,0,0:0:0:0:
448,192,47275,1,0,0:0:0:0:
64,192,47462,128,0,47650:0:0:0:0:
192,192,47650,128,0,47743:0:0:0:0:
320,192,47650,128,0,47743:0:0:0:0:
448,192,47837,1,0,0:0:0:0:
448,192,48025,1,0,0:0:0:0:
64,192,48118,1,0,0:0:0:0:
448,192,48212,1,0,0:0:0:0:
64,192,48306,1,0,0:0:0:0:
192,192,48400,128,0,48493:0:0:0:0:
320,192,48400,128,0,48493:0:0:0:0:
448,192,48587,1,0,0:0:0:0:
320,192,48634,1,0,0:0:0:0:
192,192,48681,1,0,0:0:0:0:
448,192,48775,1,0,0:0:0:0:
320,192,48821,1,0,0:0:0:0:
192,192,48868,1,0,0:0:0:0:
64,192,48962,1,0,0:0:0:0:
192,192,49150,128,0,49243:0:0:0:0:
320,192,49150,128,0,49243:0:0:0:0:
448,192,49337,1,0,0:0:0:0:
192,192,49525,1,0,0:0:0:0:
64,192,49525,1,0,0:0:0:0:
448,192,49525,1,0,0:0:0:0:
192,192,49900,128,0,49993:0:0:0:0:
320,192,49900,128,0,49993:0:0:0:0:
64,192,50087,1,0,0:0:0:0:
320,192,50275,1,0,0:0:0:0:
448,192,50275,1,0,0:0:0:0:
64,192,50275,1,0,0:0:0:0:
192,192,50650,128,0,50743:0:0:0:0:
320,192,50650,128,0,50743:0:0:0:0:
448,192,50837,1,0,0:0:0:0:
448,192,51025,1,0,0:0:0:0:
192,192,51025,1,0,0:0:0:0:
64,192,51025,1,0,0:0:0:0:
192,192,51400,1,0,0:0:0:0:
64,192,51400,1,0,0:0:0:0:
448,192,51400,1,0,0:0:0:0:
64,192,51775,1,0,0:0:0:0:
320,192,51775,1,0,0:0:0:0:
448,192,51775,1,0,0:0:0:0:
192,192,51962,1,0,0:0:0:0:
192,192,52150,1,0,0:0:0:0:
64,192,52150,1,0,0:0:0:0:
448,192,52150,1,0,0:0:0:0:
320,192,52337,1,0,0:0:0:0:
320,192,52525,128,0,52712:0:0:0:0:
448,192,52525,128,0,53275:0:0:0:0:
64,192,52712,128,0,52900:0:0:0:0:
192,192,52900,128,0,53275:0:0:0:0:
320,192,53275,128,0,53462:0:0:0:0:
64,192,53462,128,0,53556:0:0:0:0:
192,192,53556,1,0,0:0:0:0:
448,192,53650,128,0,53837:0:0:0:0:
320,192,53650,128,0,53743:0:0:0:0:
64,192,53837,128,0,53931:0:0:0:0:
192,192,53931,1,0,0:0:0:0:
64,192,54025,1,0,0:0:0:0:
448,192,54025,128,0,54212:0:0:0:0:
320,192,54025,128,0,54212:0:0:0:0:
192,192,54306,1,0,0:0:0:0:
320,192,54400,128,0,54587:0:0:0:0:
448,192,54400,128,0,54587:0:0:0:0:
64,192,54587,1,0,0:0:0:0:
320,192,54775,128,0,54962:0:0:0:0:
448,192,54775,128,0,54962:0:0:0:0:
64,192,54962,1,0,0:0:0:0:
192,192,55056,1,0,0:0:0:0:
320,192,55150,1,0,0:0:0:0:
448,192,55150,1,0,0:0:0:0:
192,192,55337,1,0,0:0:0:0:
64,192,55525,128,0,55712:0:0:0:0:
320,192,55525,128,0,55712:0:0:0:0:
448,192,55712,1,0,0:0:0:0:
320,192,55806,1,0,0:0:0:0:
192,192,55900,128,0,56087:0:0:0:0:
64,192,55900,128,0,56087:0:0:0:0:
448,192,56087,1,0,0:0:0:0:
320,192,56275,128,0,56462:0:0:0:0:
192,192,56275,128,0,56462:0:0:0:0:
64,192,56462,1,0,0:0:0:0:
192,192,56556,1,0,0:0:0:0:
320,192,56650,128,0,56837:0:0:0:0:
448,192,56650,128,0,56837:0:0:0:0:
64,192,56837,128,0,57025:0:0:0:0:
192,192,57025,128,0,57212:0:0:0:0:
448,192,57025,128,0,57212:0:0:0:0:
320,192,57212,1,0,0:0:0:0:
192,192,57306,1,0,0:0:0:0:
64,192,57400,128,0,57587:0:0:0:0:
448,192,57400,128,0,57587:0:0:0:0:
320,192,57587,128,0,57775:0:0:0:0:
64,192,57775,128,0,57962:0:0:0:0:
192,192,57775,128,0,57962:0:0:0:0:
448,192,57962,1,0,0:0:0:0:
320,192,58056,1,0,0:0:0:0:
64,192,58150,1,0,0:0:0:0:
192,192,58150,1,0,0:0:0:0:
320,192,58337,128,0,58525:0:0:0:0:
448,192,58337,128,0,58525:0:0:0:0:
192,192,58525,1,0,0:0:0:0:
64,192,58525,1,0,0:0:0:0:
320,192,58712,128,0,58900:0:0:0:0:
448,192,58900,128,0,59087:0:0:0:0:
64,192,58900,128,0,59275:0:0:0:0:
192,192,59087,128,0,59275:0:0:0:0:
320,192,59275,128,0,59462:0:0:0:0:
448,192,59275,128,0,59462:0:0:0:0:
192,192,59462,1,0,0:0:0:0:
320,192,59556,1,0,0:0:0:0:
448,192,59650,128,0,59837:0:0:0:0:
64,192,59650,128,0,59837:0:0:0:0:
320,192,59837,128,0,60025:0:0:0:0:
448,192,60025,1,0,0:0:0:0:
64,192,60025,128,0,60212:0:0:0:0:
192,192,60025,128,0,60212:0:0:0:0:
320,192,60306,1,0,0:0:0:0:
192,192,60400,128,0,60587:0:0:0:0:
64,192,60400,128,0,60587:0:0:0:0:
448,192,60587,1,0,0:0:0:0:
192,192,60775,128,0,60962:0:0:0:0:
64,192,60775,128,0,60962:0:0:0:0:
448,192,60962,1,0,0:0:0:0:
320,192,61056,1,0,0:0:0:0:
192,192,61150,1,0,0:0:0:0:
64,192,61150,1,0,0:0:0:0:
320,192,61337,1,0,0:0:0:0:
448,192,61525,128,0,61712:0:0:0:0:
192,192,61525,128,0,61712:0:0:0:0:
64,192,61712,1,0,0:0:0:0:
192,192,61806,1,0,0:0:0:0:
320,192,61900,128,0,62087:0:0:0:0:
448,192,61900,128,0,62087:0:0:0:0:
64,192,62087,1,0,0:0:0:0:
192,192,62275,128,0,62462:0:0:0:0:
320,192,62275,128,0,62462:0:0:0:0:
448,192,62462,1,0,0:0:0:0:
320,192,62556,1,0,0:0:0:0:
192,192,62650,128,0,62837:0:0:0:0:
64,192,62650,128,0,62837:0:0:0:0:
448,192,62837,128,0,63025:0:0:0:0:
320,192,63025,128,0,63212:0:0:0:0:
64,192,63025,128,0,63212:0:0:0:0:
192,192,63212,1,0,0:0:0:0:
320,192,63306,1,0,0:0:0:0:
448,192,63400,128,0,63587:0:0:0:0:
64,192,63400,128,0,63587:0:0:0:0:
192,192,63587,128,0,63775:0:0:0:0:
448,192,63775,128,0,63962:0:0:0:0:
320,192,63775,128,0,63962:0:0:0:0:
64,192,63962,1,0,0:0:0:0:
192,192,64056,1,0,0:0:0:0:
448,192,64150,1,0,0:0:0:0:
320,192,64150,1,0,0:0:0:0:
192,192,64337,128,0,64525:0:0:0:0:
64,192,64337,128,0,64525:0:0:0:0:
320,192,64525,1,0,0:0:0:0:
448,192,64525,1,0,0:0:0:0:
192,192,64712,1,0,0:0:0:0:
448,192,64775,1,0,0:0:0:0:
64,192,64837,1,0,0:0:0:0:
320,192,64900,1,0,0:0:0:0:
320,192,65087,1,0,0:0:0:0:
448,192,65087,1,0,0:0:0:0:
192,192,65275,1,0,0:0:0:0:
64,192,65275,1,0,0:0:0:0:
448,192,65462,1,0,0:0:0:0:
320,192,65556,1,0,0:0:0:0:
64,192,65556,1,0,0:0:0:0:
192,192,65650,1,0,0:0:0:0:
320,192,65837,128,0,66025:0:0:0:0:
64,192,66025,1,0,0:0:0:0:
448,192,66025,1,0,0:0:0:0:
320,192,66212,1,0,0:0:0:0:
192,192,66306,1,0,0:0:0:0:
64,192,66400,1,0,0:0:0:0:
448,192,66400,1,0,0:0:0:0:
320,192,66493,1,0,0:0:0:0:
192,192,66587,1,0,0:0:0:0:
64,192,66681,1,0,0:0:0:0:
320,192,66775,1,0,0:0:0:0:
448,192,66775,1,0,0:0:0:0:
192,192,66868,1,0,0:0:0:0:
320,192,66962,1,0,0:0:0:0:
448,192,67056,1,0,0:0:0:0:
64,192,67150,128,0,67337:0:0:0:0:
192,192,67150,128,0,67337:0:0:0:0:
448,192,67337,1,0,0:0:0:0:
320,192,67384,1,0,0:0:0:0:
192,192,67431,1,0,0:0:0:0:
64,192,67478,1,0,0:0:0:0:
448,192,67525,1,0,0:0:0:0:
320,192,67525,1,0,0:0:0:0:
192,192,67712,1,0,0:0:0:0:
320,192,67806,1,0,0:0:0:0:
448,192,67900,1,0,0:0:0:0:
64,192,67900,1,0,0:0:0:0:
192,192,67993,1,0,0:0:0:0:
320,192,68087,1,0,0:0:0:0:
448,192,68181,1,0,0:0:0:0:
192,192,68275,1,0,0:0:0:0:
64,192,68275,1,0,0:0:0:0:
320,192,68368,1,0,0:0:0:0:
192,192,68462,1,0,0:0:0:0:
64,192,68556,1,0,0:0:0:0:
320,192,68650,128,0,68837:0:0:0:0:
448,192,68650,128,0,68837:0:0:0:0:
64,192,68837,1,0,0:0:0:0:
192,192,68884,1,0,0:0:0:0:
320,192,68931,1,0,0:0:0:0:
448,192,68978,1,0,0:0:0:0:
192,192,69025,1,0,0:0:0:0:
64,192,69025,1,0,0:0:0:0:
320,192,69212,1,0,0:0:0:0:
192,192,69306,1,0,0:0:0:0:
64,192,69400,1,0,0:0:0:0:
448,192,69400,1,0,0:0:0:0:
320,192,69493,1,0,0:0:0:0:
192,192,69587,1,0,0:0:0:0:
64,192,69681,1,0,0:0:0:0:
448,192,69775,1,0,0:0:0:0:
320,192,69775,1,0,0:0:0:0:
192,192,69837,1,0,0:0:0:0:
320,192,69900,1,0,0:0:0:0:
448,192,69962,1,0,0:0:0:0:
64,192,70056,1,0,0:0:0:0:
320,192,70150,128,0,70337:0:0:0:0:
192,192,70150,128,0,70337:0:0:0:0:
448,192,70337,1,0,0:0:0:0:
320,192,70431,1,0,0:0:0:0:
64,192,70525,1,0,0:0:0:0:
192,192,70571,1,0,0:0:0:0:
320,192,70618,1,0,0:0:0:0:
64,192,70712,1,0,0:0:0:0:
192,192,70759,1,0,0:0:0:0:
320,192,70806,1,0,0:0:0:0:
192,192,70900,1,0,0:0:0:0:
64,192,70993,1,0,0:0:0:0:
448,192,71040,1,0,0:0:0:0:
320,192,71087,1,0,0:0:0:0:
192,192,71134,1,0,0:0:0:0:
64,192,71181,1,0,0:0:0:0:
448,192,71275,1,0,0:0:0:0:
320,192,71337,1,0,0:0:0:0:
192,192,71400,1,0,0:0:0:0:
64,192,71462,1,0,0:0:0:0:
448,192,71525,1,0,0:0:0:0:
320,192,71587,1,0,0:0:0:0:
64,192,71650,128,0,72025:0:0:0:0:
192,192,71650,128,0,72025:0:0:0:0:
320,192,72025,128,0,72243:0:0:0:0:
448,192,72025,128,0,72243:0:0:0:0:
448,192,72400,128,0,72618:0:0:0:0:
320,192,72400,128,0,72618:0:0:0:0:
192,192,72775,128,0,72993:0:0:0:0:
320,192,72775,128,0,72993:0:0:0:0:
64,192,73056,1,0,0:0:0:0:
192,192,73150,128,0,73275:0:0:0:0:
448,192,73150,128,0,73275:0:0:0:0:
320,192,73337,128,0,73525:0:0:0:0:
64,192,73337,128,0,73525:0:0:0:0:
192,192,73525,1,0,0:0:0:0:
448,192,73525,1,0,0:0:0:0:
64,192,73712,128,0,73900:0:0:0:0:
192,192,73712,128,0,73900:0:0:0:0:
320,192,73900,1,0,0:0:0:0:
448,192,73900,1,0,0:0:0:0:
320,192,74087,128,0,74275:0:0:0:0:
448,192,74087,128,0,74275:0:0:0:0:
192,192,74275,128,0,74556:0:0:0:0:
64,192,74275,128,0,74556:0:0:0:0:
192,192,74650,128,0,74931:0:0:0:0:
64,192,74650,128,0,74931:0:0:0:0:
320,192,75025,128,0,75243:0:0:0:0:
448,192,75025,128,0,75243:0:0:0:0:
448,192,75400,128,0,75618:0:0:0:0:
320,192,75400,128,0,75618:0:0:0:0:
192,192,75775,128,0,75993:0:0:0:0:
320,192,75775,128,0,75993:0:0:0:0:
64,192,76056,1,0,0:0:0:0:
192,192,76150,128,0,76275:0:0:0:0:
448,192,76150,128,0,76275:0:0:0:0:
320,192,76337,128,0,76525:0:0:0:0:
64,192,76337,128,0,76525:0:0:0:0:
192,192,76525,1,0,0:0:0:0:
448,192,76525,1,0,0:0:0:0:
320,192,76712,128,0,76775:0:0:0:0:
320,192,76900,128,0,76962:0:0:0:0:
192,192,77087,128,0,77150:0:0:0:0:
192,192,77275,128,0,77337:0:0:0:0:
64,192,77462,128,0,77743:0:0:0:0:
320,192,77650,128,0,77743:0:0:0:0:
448,192,77650,128,0,77743:0:0:0:0:
192,192,77743,128,0,77775:0:0:0:0:
64,192,77837,128,0,77868:0:0:0:0:
448,192,78025,128,0,78400:0:0:0:0:
320,192,78025,128,0,78400:0:0:0:0:
192,192,78025,128,0,78400:0:0:0:0:
64,192,78400,1,0,0:0:0:0:
320,192,78493,1,0,0:0:0:0:
64,192,78587,1,0,0:0:0:0:
320,192,78681,1,0,0:0:0:0:
192,192,78775,1,0,0:0:0:0:
448,192,78775,1,0,0:0:0:0:
64,192,78868,1,0,0:0:0:0:
320,192,78962,1,0,0:0:0:0:
192,192,79056,1,0,0:0:0:0:
448,192,79150,1,0,0:0:0:0:
320,192,79196,1,0,0:0:0:0:
192,192,79243,1,0,0:0:0:0:
64,192,79290,1,0,0:0:0:0:
448,192,79337,1,0,0:0:0:0:
320,192,79384,1,0,0:0:0:0:
192,192,79431,1,0,0:0:0:0:
64,192,79478,1,0,0:0:0:0:
320,192,79525,1,0,0:0:0:0:
448,192,79525,1,0,0:0:0:0:
192,192,79618,1,0,0:0:0:0:
320,192,79712,1,0,0:0:0:0:
64,192,79806,1,0,0:0:0:0:
448,192,79900,1,0,0:0:0:0:
192,192,79900,1,0,0:0:0:0:
320,192,79993,1,0,0:0:0:0:
192,192,80087,1,0,0:0:0:0:
320,192,80181,1,0,0:0:0:0:
64,192,80275,1,0,0:0:0:0:
448,192,80275,1,0,0:0:0:0:
192,192,80368,1,0,0:0:0:0:
320,192,80462,1,0,0:0:0:0:
448,192,80556,1,0,0:0:0:0:
64,192,80650,1,0,0:0:0:0:
192,192,80696,1,0,0:0:0:0:
320,192,80743,1,0,0:0:0:0:
448,192,80790,1,0,0:0:0:0:
64,192,80837,1,0,0:0:0:0:
192,192,80884,1,0,0:0:0:0:
320,192,80931,1,0,0:0:0:0:
448,192,80978,1,0,0:0:0:0:
64,192,81025,1,0,0:0:0:0:
192,192,81025,1,0,0:0:0:0:
320,192,81118,1,0,0:0:0:0:
192,192,81212,1,0,0:0:0:0:
448,192,81306,1,0,0:0:0:0:
320,192,81400,1,0,0:0:0:0:
64,192,81493,1,0,0:0:0:0:
320,192,81587,1,0,0:0:0:0:
64,192,81681,1,0,0:0:0:0:
192,192,81775,1,0,0:0:0:0:
448,192,81775,1,0,0:0:0:0:
320,192,81868,1,0,0:0:0:0:
64,192,81962,1,0,0:0:0:0:
192,192,82056,1,0,0:0:0:0:
448,192,82150,1,0,0:0:0:0:
320,192,82243,1,0,0:0:0:0:
64,192,82337,1,0,0:0:0:0:
192,192,82431,1,0,0:0:0:0:
320,192,82525,1,0,0:0:0:0:
448,192,82525,1,0,0:0:0:0:
192,192,82618,1,0,0:0:0:0:
64,192,82712,1,0,0:0:0:0:
448,192,82759,1,0,0:0:0:0:
320,192,82806,1,0,0:0:0:0:
192,192,82853,1,0,0:0:0:0:
64,192,82900,1,0,0:0:0:0:
448,192,82900,1,0,0:0:0:0:
320,192,82993,1,0,0:0:0:0:
192,192,83087,1,0,0:0:0:0:
320,192,83181,1,0,0:0:0:0:
448,192,83275,1,0,0:0:0:0:
192,192,83275,1,0,0:0:0:0:
64,192,83368,1,0,0:0:0:0:
320,192,83462,1,0,0:0:0:0:
64,192,83556,1,0,0:0:0:0:
320,192,83650,128,0,84025:0:0:0:0:
448,192,84025,128,0,84400:0:0:0:0:
192,192,84025,128,0,84400:0:0:0:0:
64,192,84400,1,0,0:0:0:0:
320,192,84493,1,0,0:0:0:0:
64,192,84587,1,0,0:0:0:0:
320,192,84681,1,0,0:0:0:0:
448,192,84775,1,0,0:0:0:0:
192,192,84775,1,0,0:0:0:0:
64,192,84868,1,0,0:0:0:0:
320,192,84962,1,0,0:0:0:0:
192,192,85056,1,0,0:0:0:0:
448,192,85150,1,0,0:0:0:0:
320,192,85196,1,0,0:0:0:0:
192,192,85243,1,0,0:0:0:0:
64,192,85290,1,0,0:0:0:0:
448,192,85337,1,0,0:0:0:0:
320,192,85384,1,0,0:0:0:0:
192,192,85431,1,0,0:0:0:0:
64,192,85478,1,0,0:0:0:0:
448,192,85525,1,0,0:0:0:0:
320,192,85525,1,0,0:0:0:0:
192,192,85618,1,0,0:0:0:0:
320,192,85712,1,0,0:0:0:0:
64,192,85806,1,0,0:0:0:0:
448,192,85900,1,0,0:0:0:0:
192,192,85900,1,0,0:0:0:0:
320,192,85993,1,0,0:0:0:0:
192,192,86087,1,0,0:0:0:0:
320,192,86181,1,0,0:0:0:0:
64,192,86275,1,0,0:0:0:0:
448,192,86275,1,0,0:0:0:0:
192,192,86368,1,0,0:0:0:0:
320,192,86462,1,0,0:0:0:0:
448,192,86556,1,0,0:0:0:0:
64,192,86650,1,0,0:0:0:0:
192,192,86696,1,0,0:0:0:0:
320,192,86743,1,0,0:0:0:0:
448,192,86790,1,0,0:0:0:0:
64,192,86837,1,0,0:0:0:0:
192,192,86884,1,0,0:0:0:0:
320,192,86931,1,0,0:0:0:0:
448,192,86978,1,0,0:0:0:0:
192,192,87025,1,0,0:0:0:0:
64,192,87025,1,0,0:0:0:0:
320,192,87118,1,0,0:0:0:0:
192,192,87212,1,0,0:0:0:0:
448,192,87306,1,0,0:0:0:0:
320,192,87400,1,0,0:0:0:0:
64,192,87493,1,0,0:0:0:0:
320,192,87587,1,0,0:0:0:0:
64,192,87681,1,0,0:0:0:0:
192,192,87775,1,0,0:0:0:0:
448,192,87775,1,0,0:0:0:0:
320,192,87868,1,0,0:0:0:0:
64,192,87962,1,0,0:0:0:0:
192,192,88056,1,0,0:0:0:0:
448,192,88150,1,0,0:0:0:0:
320,192,88243,1,0,0:0:0:0:
64,192,88337,1,0,0:0:0:0:
192,192,88431,1,0,0:0:0:0:
448,192,88525,1,0,0:0:0:0:
320,192,88525,1,0,0:0:0:0:
192,192,88618,1,0,0:0:0:0:
64,192,88712,1,0,0:0:0:0:
320,192,88806,1,0,0:0:0:0:
64,192,88900,1,0,0:0:0:0:
448,192,88900,1,0,0:0:0:0:
320,192,88993,1,0,0:0:0:0:
192,192,89087,1,0,0:0:0:0:
320,192,89181,1,0,0:0:0:0:
192,192,89275,1,0,0:0:0:0:
448,192,89275,1,0,0:0:0:0:
64,192,89368,1,0,0:0:0:0:
320,192,89462,128,0,89650:0:0:0:0:
64,192,89650,128,0,89837:0:0:0:0:
448,192,89837,128,0,90025:0:0:0:0:
64,192,90025,128,0,90400:0:0:0:0:
192,192,90025,128,0,90400:0:0:0:0:
320,192,90025,128,0,90400:0:0:0:0:
448,192,90400,128,0,90587:0:0:0:0:
192,192,90587,1,0,0:0:0:0:
320,192,90681,1,0,0:0:0:0:
448,192,90775,128,0,90962:0:0:0:0:
192,192,90962,1,0,0:0:0:0:
64,192,90962,1,0,0:0:0:0:
320,192,91056,1,0,0:0:0:0:
448,192,91150,1,0,0:0:0:0:
64,192,91196,1,0,0:0:0:0:
192,192,91243,1,0,0:0:0:0:
320,192,91290,1,0,0:0:0:0:
448,192,91337,1,0,0:0:0:0:
64,192,91384,1,0,0:0:0:0:
192,192,91431,1,0,0:0:0:0:
320,192,91478,1,0,0:0:0:0:
448,192,91525,1,0,0:0:0:0:
64,192,91525,1,0,0:0:0:0:
320,192,91712,1,0,0:0:0:0:
192,192,91806,1,0,0:0:0:0:
64,192,91900,128,0,92087:0:0:0:0:
320,192,92087,1,0,0:0:0:0:
192,192,92181,1,0,0:0:0:0:
64,192,92275,128,0,92462:0:0:0:0:
320,192,92462,1,0,0:0:0:0:
448,192,92462,1,0,0:0:0:0:
192,192,92556,1,0,0:0:0:0:
64,192,92650,1,0,0:0:0:0:
448,192,92696,1,0,0:0:0:0:
320,192,92743,1,0,0:0:0:0:
192,192,92790,1,0,0:0:0:0:
64,192,92837,1,0,0:0:0:0:
448,192,92884,1,0,0:0:0:0:
320,192,92931,1,0,0:0:0:0:
192,192,92978,1,0,0:0:0:0:
448,192,93025,1,0,0:0:0:0:
64,192,93025,1,0,0:0:0:0:
192,192,93212,1,0,0:0:0:0:
320,192,93306,1,0,0:0:0:0:
448,192,93400,128,0,93587:0:0:0:0:
192,192,93587,1,0,0:0:0:0:
320,192,93681,1,0,0:0:0:0:
448,192,93775,128,0,93962:0:0:0:0:
192,192,93962,1,0,0:0:0:0:
64,192,93962,1,0,0:0:0:0:
320,192,94056,1,0,0:0:0:0:
448,192,94150,128,0,94196:0:0:0:0:
192,192,94337,128,0,94384:0:0:0:0:
448,192,94525,128,0,94571:0:0:0:0:
64,192,94525,1,0,0:0:0:0:
320,192,94712,1,0,0:0:0:0:
192,192,94806,1,0,0:0:0:0:
64,192,94900,128,0,95087:0:0:0:0:
320,192,95087,1,0,0:0:0:0:
192,192,95181,1,0,0:0:0:0:
64,192,95275,128,0,95462:0:0:0:0:
448,192,95462,1,0,0:0:0:0:
320,192,95462,1,0,0:0:0:0:
192,192,95556,1,0,0:0:0:0:
64,192,95650,128,0,96025:0:0:0:0:
192,192,96025,1,0,0:0:0:0:
320,192,96025,128,0,96400:0:0:0:0:
448,192,96025,128,0,96400:0:0:0:0:
192,192,96400,1,0,0:0:0:0:
64,192,96400,1,0,0:0:0:0:
320,192,96493,1,0,0:0:0:0:
192,192,96587,1,0,0:0:0:0:
448,192,96681,1,0,0:0:0:0:
320,192,96775,1,0,0:0:0:0:
64,192,96775,1,0,0:0:0:0:
192,192,96868,1,0,0:0:0:0:
448,192,96962,1,0,0:0:0:0:
320,192,97056,1,0,0:0:0:0:
192,192,97150,1,0,0:0:0:0:
64,192,97150,1,0,0:0:0:0:
448,192,97196,1,0,0:0:0:0:
320,192,97243,1,0,0:0:0:0:
192,192,97290,1,0,0:0:0:0:
64,192,97337,1,0,0:0:0:0:
448,192,97384,1,0,0:0:0:0:
320,192,97431,1,0,0:0:0:0:
192,192,97478,1,0,0:0:0:0:
64,192,97525,1,0,0:0:0:0:
448,192,97525,1,0,0:0:0:0:
320,192,97618,1,0,0:0:0:0:
192,192,97712,1,0,0:0:0:0:
320,192,97806,1,0,0:0:0:0:
448,192,97900,1,0,0:0:0:0:
64,192,97900,1,0,0:0:0:0:
192,192,97993,1,0,0:0:0:0:
320,192,98087,1,0,0:0:0:0:
64,192,98181,1,0,0:0:0:0:
192,192,98275,1,0,0:0:0:0:
448,192,98275,1,0,0:0:0:0:
320,192,98368,1,0,0:0:0:0:
64,192,98462,1,0,0:0:0:0:
192,192,98556,1,0,0:0:0:0:
320,192,98650,1,0,0:0:0:0:
448,192,98650,1,0,0:0:0:0:
64,192,98696,1,0,0:0:0:0:
192,192,98743,1,0,0:0:0:0:
320,192,98790,1,0,0:0:0:0:
448,192,98837,1,0,0:0:0:0:
64,192,98884,1,0,0:0:0:0:
192,192,98931,1,0,0:0:0:0:
320,192,98978,1,0,0:0:0:0:
448,192,99025,1,0,0:0:0:0:
64,192,99025,1,0,0:0:0:0:
192,192,99118,1,0,0:0:0:0:
320,192,99212,1,0,0:0:0:0:
192,192,99306,1,0,0:0:0:0:
448,192,99400,1,0,0:0:0:0:
64,192,99400,1,0,0:0:0:0:
320,192,99493,1,0,0:0:0:0:
192,192,99587,1,0,0:0:0:0:
448,192,99681,1,0,0:0:0:0:
320,192,99775,1,0,0:0:0:0:
64,192,99775,1,0,0:0:0:0:
192,192,99868,1,0,0:0:0:0:
320,192,99962,1,0,0:0:0:0:
448,192,100056,1,0,0:0:0:0:
192,192,100150,1,0,0:0:0:0:
64,192,100150,1,0,0:0:0:0:
320,192,100243,1,0,0:0:0:0:
192,192,100337,1,0,0:0:0:0:
320,192,100431,1,0,0:0:0:0:
448,192,100525,1,0,0:0:0:0:
64,192,100525,1,0,0:0:0:0:
192,192,100571,1,0,0:0:0:0:
320,192,100618,1,0,0:0:0:0:
64,192,100712,1,0,0:0:0:0:
192,192,100806,1,0,0:0:0:0:
448,192,100900,5,0,0:0:0:0:
320,192,100946,1,0,0:0:0:0:
192,192,100993,1,0,0:0:0:0:
448,192,101087,1,0,0:0:0:0:
320,192,101134,1,0,0:0:0:0:
192,192,101181,1,0,0:0:0:0:
64,192,101275,128,0,101321:0:0:0:0:
192,192,101462,128,0,101509:0:0:0:0:
320,192,101650,128,0,101696:0:0:0:0:
192,192,101743,128,0,101790:0:0:0:0:
320,192,101837,128,0,101884:0:0:0:0:
448,192,102025,5,0,0:0:0:0:
192,192,102025,128,0,102400:0:0:0:0:
64,192,102025,128,0,102400:0:0:0:0:
320,192,102400,128,0,102493:0:0:0:0:
448,192,102400,128,0,102493:0:0:0:0:
64,192,102587,1,0,0:0:0:0:
192,192,102681,1,0,0:0:0:0:
64,192,102775,1,0,0:0:0:0:
192,192,102962,1,0,0:0:0:0:
448,192,103150,128,0,103243:0:0:0:0:
320,192,103150,128,0,103243:0:0:0:0:
192,192,103337,1,0,0:0:0:0:
192,192,103525,1,0,0:0:0:0:
192,192,103712,1,0,0:0:0:0:
64,192,103806,1,0,0:0:0:0:
320,192,103900,128,0,103993:0:0:0:0:
448,192,103900,128,0,103993:0:0:0:0:
64,192,104087,1,0,0:0:0:0:
192,192,104134,1,0,0:0:0:0:
320,192,104181,1,0,0:0:0:0:
64,192,104275,1,0,0:0:0:0:
192,192,104321,1,0,0:0:0:0:
320,192,104368,1,0,0:0:0:0:
448,192,104462,1,0,0:0:0:0:
320,192,104650,128,0,104743:0:0:0:0:
192,192,104650,128,0,104743:0:0:0:0:
448,192,104837,1,0,0:0:0:0:
448,192,105025,1,0,0:0:0:0:
64,192,105212,1,0,0:0:0:0:
192,192,105400,128,0,105493:0:0:0:0:
320,192,105400,128,0,105493:0:0:0:0:
448,192,105587,1,0,0:0:0:0:
64,192,105681,1,0,0:0:0:0:
448,192,105775,1,0,0:0:0:0:
64,192,105962,128,0,106150:0:0:0:0:
192,192,106150,128,0,106243:0:0:0:0:
320,192,106150,128,0,106243:0:0:0:0:
448,192,106337,1,0,0:0:0:0:
448,192,106525,1,0,0:0:0:0:
64,192,106618,1,0,0:0:0:0:
448,192,106712,1,0,0:0:0:0:
64,192,106806,1,0,0:0:0:0:
320,192,106900,128,0,106962:0:0:0:0:
192,192,106900,128,0,106962:0:0:0:0:
448,192,106962,128,0,107025:0:0:0:0:
64,192,107025,128,0,107087:0:0:0:0:
192,192,107087,128,0,107150:0:0:0:0:
320,192,107150,128,0,107212:0:0:0:0:
64,192,107212,128,0,107275:0:0:0:0:
448,192,107275,128,0,107337:0:0:0:0:
192,192,107337,128,0,107400:0:0:0:0:
320,192,107400,128,0,107462:0:0:0:0:
448,192,107462,128,0,107525:0:0:0:0:
64,192,107462,128,0,107525:0:0:0:0:
192,192,107525,128,0,107587:0:0:0:0:
320,192,107587,128,0,107650:0:0:0:0:
448,192,107650,128,0,107712:0:0:0:0:
64,192,107650,128,0,107712:0:0:0:0:
192,192,107743,128,0,107806:0:0:0:0:
320,192,107837,128,0,107900:0:0:0:0:
64,192,108025,128,0,108306:0:0:0:0:
320,192,108025,128,0,108306:0:0:0:0:
448,192,108025,128,0,108306:0:0:0:0:
64,192,108400,128,0,108493:0:0:0:0:
192,192,108400,128,0,108493:0:0:0:0:
448,192,108587,1,0,0:0:0:0:
320,192,108681,1,0,0:0:0:0:
448,192,108775,1,0,0:0:0:0:
320,192,108962,1,0,0:0:0:0:
192,192,109150,128,0,109243:0:0:0:0:
64,192,109150,128,0,109243:0:0:0:0:
320,192,109337,1,0,0:0:0:0:
320,192,109525,1,0,0:0:0:0:
320,192,109712,1,0,0:0:0:0:
448,192,109806,1,0,0:0:0:0:
64,192,109900,128,0,109993:0:0:0:0:
192,192,109900,128,0,109993:0:0:0:0:
448,192,110087,1,0,0:0:0:0:
320,192,110134,1,0,0:0:0:0:
192,192,110181,1,0,0:0:0:0:
448,192,110275,1,0,0:0:0:0:
320,192,110321,1,0,0:0:0:0:
192,192,110368,1,0,0:0:0:0:
64,192,110462,1,0,0:0:0:0:
320,192,110650,128,0,110743:0:0:0:0:
192,192,110650,128,0,110743:0:0:0:0:
64,192,110837,1,0,0:0:0:0:
64,192,111025,1,0,0:0:0:0:
448,192,111025,1,0,0:0:0:0:
448,192,111212,1,0,0:0:0:0:
448,192,111400,1,0,0:0:0:0:
64,192,111400,1,0,0:0:0:0:
448,192,111587,1,0,0:0:0:0:
320,192,111681,1,0,0:0:0:0:
448,192,111775,1,0,0:0:0:0:
64,192,111775,1,0,0:0:0:0:
192,192,111962,1,0,0:0:0:0:
320,192,111962,1,0,0:0:0:0:
64,192,112150,1,0,0:0:0:0:
448,192,112150,1,0,0:0:0:0:
192,192,112243,1,0,0:0:0:0:
320,192,112243,1,0,0:0:0:0:
64,192,112337,1,0,0:0:0:0:
448,192,112337,1,0,0:0:0:0:
192,192,112431,1,0,0:0:0:0:
320,192,112431,1,0,0:0:0:0:
448,192,112525,1,0,0:0:0:0:
64,192,112525,1,0,0:0:0:0:
320,192,112525,1,0,0:0:0:0:
64,192,113275,1,0,0:0:0:0:
192,192,113275,1,0,0:0:0:0:
320,192,113275,1,0,0:0:0:0:
448,192,113275,1,0,0:0:0:0:
192,192,113462,1,0,0:0:0:0:
64,192,113650,128,0,113931:0:0:0:0:
448,192,113650,128,0,113931:0:0:0:0:
192,192,113837,128,0,113931:0:0:0:0:
448,192,114025,1,0,0:0:0:0:
64,192,114025,128,0,114212:0:0:0:0:
192,192,114025,128,0,114212:0:0:0:0:
320,192,114306,1,0,0:0:0:0:
192,192,114400,128,0,114587:0:0:0:0:
64,192,114400,128,0,114587:0:0:0:0:
448,192,114587,1,0,0:0:0:0:
192,192,114775,128,0,114962:0:0:0:0:
64,192,114775,128,0,114962:0:0:0:0:
448,192,114962,1,0,0:0:0:0:
320,192,115056,1,0,0:0:0:0:
192,192,115150,1,0,0:0:0:0:
64,192,115150,128,0,115337:0:0:0:0:
320,192,115337,128,0,115525:0:0:0:0:
448,192,115525,128,0,115712:0:0:0:0:
192,192,115525,128,0,115712:0:0:0:0:
64,192,115712,1,0,0:0:0:0:
192,192,115806,1,0,0:0:0:0:
320,192,115900,128,0,116087:0:0:0:0:
448,192,115900,128,0,116087:0:0:0:0:
64,192,116087,1,0,0:0:0:0:
192,192,116275,128,0,116462:0:0:0:0:
320,192,116275,128,0,116462:0:0:0:0:
448,192,116462,1,0,0:0:0:0:
320,192,116556,1,0,0:0:0:0:
192,192,116650,128,0,116837:0:0:0:0:
64,192,116650,128,0,116837:0:0:0:0:
448,192,116837,128,0,117025:0:0:0:0:
320,192,117025,128,0,117212:0:0:0:0:
64,192,117025,128,0,117212:0:0:0:0:
192,192,117212,1,0,0:0:0:0:
320,192,117306,1,0,0:0:0:0:
448,192,117400,128,0,117587:0:0:0:0:
64,192,117400,128,0,117587:0:0:0:0:
192,192,117587,1,0,0:0:0:0:
320,192,117775,128,0,117962:0:0:0:0:
448,192,117775,128,0,117962:0:0:0:0:
64,192,117962,1,0,0:0:0:0:
320,192,118056,1,0,0:0:0:0:
448,192,118150,128,0,118337:0:0:0:0:
192,192,118150,128,0,118337:0:0:0:0:
64,192,118337,128,0,118900:0:0:0:0:
192,192,118525,1,0,0:0:0:0:
448,192,118525,1,0,0:0:0:0:
320,192,118712,128,0,118900:0:0:0:0:
448,192,118900,128,0,119275:0:0:0:0:
192,192,118900,128,0,119087:0:0:0:0:
320,192,119087,128,0,119275:0:0:0:0:
64,192,119275,128,0,119556:0:0:0:0:
192,192,119275,128,0,119556:0:0:0:0:
448,192,119462,1,0,0:0:0:0:
320,192,119556,1,0,0:0:0:0:
192,192,119650,128,0,119837:0:0:0:0:
64,192,119650,128,0,119837:0:0:0:0:
320,192,119837,1,0,0:0:0:0:
192,192,119931,1,0,0:0:0:0:
64,192,120025,1,0,0:0:0:0:
448,192,120025,128,0,120212:0:0:0:0:
320,192,120025,128,0,120212:0:0:0:0:
192,192,120306,1,0,0:0:0:0:
320,192,120400,128,0,120587:0:0:0:0:
448,192,120400,128,0,120587:0:0:0:0:
64,192,120587,1,0,0:0:0:0:
320,192,120775,128,0,120962:0:0:0:0:
448,192,120775,128,0,120962:0:0:0:0:
64,192,120962,1,0,0:0:0:0:
192,192,121056,1,0,0:0:0:0:
320,192,121150,1,0,0:0:0:0:
448,192,121150,128,0,121337:0:0:0:0:
192,192,121337,128,0,121525:0:0:0:0:
64,192,121525,128,0,121712:0:0:0:0:
320,192,121525,128,0,121712:0:0:0:0:
448,192,121712,1,0,0:0:0:0:
320,192,121806,1,0,0:0:0:0:
192,192,121900,128,0,122087:0:0:0:0:
64,192,121900,128,0,122087:0:0:0:0:
448,192,122087,1,0,0:0:0:0:
320,192,122275,128,0,122462:0:0:0:0:
192,192,122275,128,0,122462:0:0:0:0:
64,192,122462,1,0,0:0:0:0:
192,192,122556,1,0,0:0:0:0:
320,192,122650,128,0,122837:0:0:0:0:
448,192,122650,128,0,122837:0:0:0:0:
64,192,122837,128,0,123025:0:0:0:0:
192,192,123025,128,0,123212:0:0:0:0:
448,192,123025,128,0,123212:0:0:0:0:
320,192,123212,1,0,0:0:0:0:
64,192,123306,1,0,0:0:0:0:
192,192,123400,128,0,123587:0:0:0:0:
448,192,123400,128,0,123587:0:0:0:0:
320,192,123587,1,0,0:0:0:0:
64,192,123775,128,0,123962:0:0:0:0:
192,192,123775,128,0,123962:0:0:0:0:
320,192,123962,1,0,0:0:0:0:
64,192,124056,1,0,0:0:0:0:
192,192,124150,128,0,124337:0:0:0:0:
448,192,124150,128,0,124337:0:0:0:0:
320,192,124337,128,0,124525:0:0:0:0:
64,192,124525,1,0,0:0:0:0:
448,192,124525,1,0,0:0:0:0:
320,192,124712,1,0,0:0:0:0:
64,192,124775,1,0,0:0:0:0:
448,192,124837,1,0,0:0:0:0:
192,192,124900,1,0,0:0:0:0:
192,192,125087,1,0,0:0:0:0:
64,192,125087,1,0,0:0:0:0:
320,192,125275,1,0,0:0:0:0:
448,192,125275,1,0,0:0:0:0:
