osu file format v14

[General]
AudioFilename: kai dan.mp3
AudioLeadIn: 0
PreviewTime: 96623
Countdown: 0
SampleSet: Normal
StackLeniency: 0.7
Mode: 0
LetterboxInBreaks: 0
WidescreenStoryboard: 1

[Editor]
Bookmarks: 8807,9919,11474,12363,15919,18252,18474,18696,18919,19030,19474,24807,25696,26585,30141,32807,33696,37141,39030,39919,40807,44363,47919,51474,53030,55030,67857,68685,69512,69926,71995,73236,74892,81512,83289,85067,86845,88623,89511,90400,91289,91734,92178,93956,95734,96623,97511,111734,117956,118845,120623,122402,130601
DistanceSpacing: 1.5
BeatDivisor: 4
GridSize: 4
TimelineZoom: 3.099999

[Metadata]
Title:Experiment map
TitleUnicode:Experiment map
Artist:Various Artist
ArtistUnicode:Various Artist
Creator:Noch Einen
Version:Kai Dan (expert) (remap practice)
Source:
Tags:
BeatmapID:2033710
BeatmapSetID:971300

[Difficulty]
HPDrainRate:5
CircleSize:5
OverallDifficulty:8
ApproachRate:9
SliderMultiplier:1
SliderTickRate:1

[Events]
//Background and Video events
0,0,"kai dan.jpg",0,0
//Break Periods
//Storyboard Layer 0 (Background)
//Storyboard Layer 1 (Fail)
//Storyboard Layer 2 (Pass)
//Storyboard Layer 3 (Foreground)
//Storyboard Layer 4 (Overlay)
//Storyboard Sound Samples

[TimingPoints]
808,222.222222222222,4,1,1,40,1,0
4363,-175.438596491228,4,1,1,40,0,0
5252,-100,4,1,1,40,0,0
8919,-50,4,1,1,40,0,0
9141,-100,4,1,1,40,0,0
9252,-50,4,1,1,40,0,0
9474,-100,4,1,1,40,0,0
9585,-50,4,1,1,40,0,0
9807,-100,4,1,1,40,0,0
9919,-50,4,1,1,40,0,0
10141,-100,4,1,1,40,0,0
10585,-100,4,1,1,40,0,0
10807,-100,4,1,1,40,0,0
11474,-50,4,1,1,40,0,0
12141,-100,4,1,1,40,0,0
16030,-50,4,1,1,40,0,0
16141,-100,4,1,1,40,0,0
16363,-50,4,1,1,40,0,0
16474,-100,4,1,1,40,0,0
16696,-50,4,1,1,40,0,0
16807,-100,4,1,1,40,0,0
17030,-50,4,1,1,40,0,0
17141,-100,4,1,1,40,0,0
19030,-50,4,1,1,40,0,0
19252,-44.4444444444445,4,1,1,40,0,0
19474,-100,4,1,1,40,0,0
20363,-50,4,1,1,40,0,0
20474,-100,4,1,1,40,0,0
20585,-100,4,1,1,40,0,0
24807,-133.333333333333,4,1,1,40,0,0
32807,-250,4,1,1,40,0,0
33696,-100,4,1,1,40,0,0
55030,413.793103448276,4,1,1,40,1,1
55030,-53.763440860215,4,1,1,40,0,1
81512,222.222222222222,4,1,1,40,1,0
81512,-100,4,1,1,40,0,0
97511,-100,4,1,1,40,0,1
122402,240.963855421687,4,1,1,15,1,0
122402,-92.5925925925926,4,1,1,15,0,0
122643,367.197062423501,4,1,1,15,1,0
122643,-60.6060606060606,4,1,1,15,0,0
123010,259.74025974026,4,1,1,15,1,0
123010,-85.4700854700855,4,1,1,15,0,0
123417,276.497695852535,4,1,1,15,1,0
123417,-80.6451612903226,4,1,1,15,0,0
123693,451.127819548872,4,1,1,15,1,0
123693,-49.2610837438424,4,1,1,15,0,0
124142,458.015267175573,4,1,1,15,1,0
124142,-48.5436893203883,4,1,1,15,0,0
124600,709.219858156028,4,1,1,15,1,0
124600,-31.3479623824451,4,1,1,15,0,0
125309,269.058295964126,4,1,1,15,1,0
125309,-82.6446280991736,4,1,1,15,0,0
125577,267.857142857143,4,1,1,15,1,0
125577,-82.6446280991736,4,1,1,15,0,0
125845,267.857142857143,4,1,1,15,1,0
125845,-82.6446280991736,4,1,1,15,0,0
126101,500,4,1,1,15,1,0
126101,-44.4444444444444,4,1,1,15,0,0

[Colours]
Combo1 : 240,5,5
Combo2 : 5,240,5
Combo3 : 5,5,240

[HitObjects]
254,192,808,5,0,0:0:0:0:
36,189,1696,1,0,0:0:0:0:
427,35,2141,1,0,0:0:0:0:
84,168,2530,1,0,0:0:0:0:
378,57,2863,1,0,0:0:0:0:
132,151,3141,1,0,0:0:0:0:
328,77,3363,1,0,0:0:0:0:
180,133,3530,1,0,0:0:0:0:
325,75,3696,1,0,0:0:0:0:
227,114,3807,1,0,0:0:0:0:
278,21,3919,2,0,L|321:-3,2,33.3333333333333
284,90,4141,2,0,L|326:71,3,25
317,98,4363,2,0,B|330:134|314:201|286:278|262:289,1,199.499997564697
212,337,5252,6,0,P|185:364|144:365,1,75
109,330,5474,1,0,0:0:0:0:
41,329,5585,2,0,P|34:293|54:240,1,75
83,226,5807,1,0,0:0:0:0:
136,181,5919,2,0,P|121:156|62:149,1,75
22,137,6141,6,0,P|31:66|43:60,1,75
77,62,6363,1,0,0:0:0:0:
142,51,6474,2,0,P|153:23|196:7,1,75
240,14,6696,1,0,0:0:0:0:
303,25,6807,2,0,P|335:55|348:82,1,75
295,99,7030,6,0,P|279:113|270:166,1,75
308,204,7252,1,0,0:0:0:0:
365,243,7363,2,0,P|385:284|378:321,1,75
333,324,7585,1,0,0:0:0:0:
265,287,7696,2,0,P|247:287|208:344,1,75
166,352,7919,6,0,P|114:345|100:324,1,75
82,279,8141,1,0,0:0:0:0:
133,223,8252,2,0,P|182:177|182:152,1,75
215,144,8474,1,0,0:0:0:0:
289,120,8585,2,0,P|324:121|359:147,1,75
371,191,8807,5,0,0:0:0:0:
261,191,8919,2,0,B|261:313,1,100
374,291,9141,5,0,0:0:0:0:
477,292,9252,2,0,L|477:190,1,100
476,70,9474,5,0,0:0:0:0:
357,70,9585,2,0,L|250:70,1,100
130,69,9807,1,0,0:0:0:0:
128,189,9919,2,0,L|128:297,1,100
255,214,10141,6,0,L|255:161,1,50
193,121,10363,2,0,L|147:98,1,50
111,165,10585,2,0,L|164:194,1,50
155,263,10807,6,0,L|200:289,1,50
240,350,11030,2,0,L|290:331,1,50
311,261,11252,2,0,L|356:238,1,50
439,114,11474,6,0,L|392:95,3,50
320,71,11696,1,0,0:0:0:0:
229,70,11807,2,0,L|192:105,3,50
194,164,12030,1,0,0:0:0:0:
148,196,12141,2,0,L|134:206,2,12.5
90,249,12252,1,0,0:0:0:0:
154,301,12363,6,0,P|181:328|222:329,1,75
266,332,12585,1,0,0:0:0:0:
340,332,12696,2,0,P|347:296|327:243,1,75
308,220,12918,1,0,0:0:0:0:
368,176,13030,2,0,P|383:151|442:144,1,75
480,140,13252,6,0,P|471:69|459:63,1,75
429,54,13474,1,0,0:0:0:0:
349,53,13585,2,0,P|338:25|295:9,1,75
250,16,13807,1,0,0:0:0:0:
180,29,13918,2,0,P|148:59|135:86,1,75
188,107,14141,6,0,P|204:121|213:174,1,75
199,220,14363,1,0,0:0:0:0:
134,266,14474,2,0,P|114:307|121:344,1,75
171,354,14696,1,0,0:0:0:0:
224,303,14807,2,0,P|242:303|281:360,1,75
326,354,15030,6,0,P|378:347|392:326,1,75
399,294,15252,1,0,0:0:0:0:
367,226,15363,2,0,P|318:180|319:154,1,75
296,145,15585,1,0,0:0:0:0:
225,123,15696,2,0,P|190:124|155:150,1,75
139,200,15918,5,0,0:0:0:0:
255,198,16030,2,0,B|255:320,1,100
141,299,16252,5,0,0:0:0:0:
24,302,16363,2,0,L|24:200,1,100
28,82,16585,5,0,0:0:0:0:
147,83,16696,2,0,L|254:83,1,100
367,83,16918,1,0,0:0:0:0:
365,203,17030,2,0,L|365:311,1,100
257,214,17252,6,0,L|257:161,1,50
320,122,17474,2,0,L|366:99,1,50
424,145,17696,2,0,L|451:159,1,25
411,207,17807,6,0,L|383:219,6,25
318,232,18252,2,0,L|284:215,3,25
183,113,18474,2,0,L|212:127,3,25
250,71,18696,2,0,L|279:88,4,25
235,221,19030,2,0,L|209:240,7,25
279,255,19252,2,0,L|253:280,6,28.1250010728836
257,181,19474,5,0,0:0:0:0:
129,131,19696,1,0,0:0:0:0:
290,76,19919,1,0,0:0:0:0:
375,154,20141,1,0,0:0:0:0:
420,221,20252,1,0,0:0:0:0:
376,260,20307,1,0,0:0:0:0:
328,296,20363,1,0,0:0:0:0:
244,262,20474,2,0,L|202:242,1,25
144,210,20585,1,0,0:0:0:0:
