osu file format v14

[General]
AudioFilename: HAVOX.mp3
AudioLeadIn: 0
PreviewTime: 69187
Countdown: 0
SampleSet: Soft
StackLeniency: 0.7
Mode: 0
LetterboxInBreaks: 0
WidescreenStoryboard: 1

[Editor]
Bookmarks: 1187,10329,27472,36615,45187,45758,48044,50329,51472,52615,52901,52972,53187,53615,54329,57758,64044,68615,69187,69329,69472,69615,69758,74329,78901,83472,88044,92615,95472,96044,96615,97187,101187,101758,106329,106520,109757,113186,118901,124615
DistanceSpacing: 0.8
BeatDivisor: 4
GridSize: 16
TimelineZoom: 2.799999

[Metadata]
Title:Experiment map
TitleUnicode:Experiment map
Artist:Various Artist
ArtistUnicode:Various Artist
Creator:Noch Einen
Version:HAVOX (normal)
Source:
Tags:
BeatmapID:2033716
BeatmapSetID:971300

[Difficulty]
HPDrainRate:4
CircleSize:3
OverallDifficulty:4
ApproachRate:5
SliderMultiplier:0.999999999999999
SliderTickRate:1

[Events]
//Background and Video events
0,0,"havox.jpg",0,0
//Break Periods
//Storyboard Layer 0 (Background)
//Storyboard Layer 1 (Fail)
//Storyboard Layer 2 (Pass)
//Storyboard Layer 3 (Foreground)
//Storyboard Sound Samples

[TimingPoints]
1187,285.714285714286,4,2,1,50,1,0
9187,-100,4,2,1,20,0,0
9258,-100,4,2,1,25,0,0
9329,-100,4,2,1,30,0,0
9401,-100,4,2,1,35,0,0
9472,-100,4,2,1,40,0,0
9544,-100,4,2,1,45,0,0
9615,-100,4,2,1,50,0,0
9687,-100,4,2,1,55,0,0
9758,-100,4,2,1,40,0,0
10329,-100,4,2,1,50,0,0
14329,-100,4,2,1,55,0,0
14901,-100,4,2,1,50,0,0
18329,-100,4,2,1,60,0,0
22329,-100,4,2,1,65,0,0
22901,-100,4,2,1,60,0,0
25187,-100,4,2,1,65,0,0
25472,-100,4,2,1,70,0,0
25758,-100,4,2,1,75,0,0
26044,-100,4,2,1,80,0,0
26329,-100,4,2,1,60,0,0
27115,-100,4,2,1,45,0,0
27187,-100,4,2,1,50,0,0
27258,-100,4,2,1,55,0,0
27329,-100,4,2,1,60,0,0
27401,-100,4,2,1,65,0,0
27472,-100,4,2,1,70,0,0
31472,-100,4,2,1,71,0,0
31544,-100,4,2,1,72,0,0
31615,-100,4,2,1,73,0,0
31687,-100,4,2,1,74,0,0
31758,-100,4,2,1,75,0,0
31829,-100,4,2,1,76,0,0
31901,-100,4,2,1,77,0,0
31972,-100,4,2,1,78,0,0
32044,-100,4,2,1,70,0,0
36044,-100,4,2,1,80,0,0
36329,-100,4,2,1,90,0,0
36615,-100,4,2,1,80,0,0
40615,-100,4,2,1,90,0,0
41187,-100,4,2,1,80,0,0
44615,-100,4,2,1,90,0,0
45187,-100,4,2,2,50,0,0
45758,-100,4,2,1,70,0,0
54901,-100,4,2,1,80,0,0
62901,-100,4,2,1,85,0,0
64044,-100,4,2,1,90,0,0
66329,-100,4,2,1,95,0,0
68615,-100,4,2,1,60,0,0
69758,-100,4,2,1,80,0,0
78329,-100,4,2,1,60,0,0
78520,-100,4,2,1,70,0,0
78710,-100,4,2,1,80,0,0
78901,-100,4,2,1,85,0,0
80901,-100,4,2,1,76,0,0
80996,-100,4,2,1,79,0,0
81091,-100,4,2,1,82,0,0
81187,-100,4,2,1,85,0,0
82901,-100,4,2,1,70,0,0
83091,-100,4,2,1,75,0,0
83282,-100,4,2,1,80,0,0
83472,-100,4,2,1,85,0,0
83758,-100,4,2,1,88,0,0
84044,-100,4,2,1,91,0,0
84329,-100,4,2,1,94,0,0
84615,-100,4,2,1,90,0,0
84901,-100,4,2,1,86,0,0
85187,-100,4,2,1,82,0,0
85758,-100,4,2,1,90,0,0
102901,-100,4,2,1,85,0,0
103472,-100,4,2,1,80,0,0
104044,-100,4,2,1,75,0,0
104329,-100,4,2,1,70,0,0
105187,-100,4,2,1,65,0,0
105758,-100,4,2,1,60,0,0
105901,-100,4,2,1,65,0,0
106044,-100,4,2,1,70,0,0
106187,-100,4,2,1,75,0,0
106329,285.714285714286,6,2,1,70,1,0
106329,-100,4,2,1,70,0,0
109757,-100,4,2,1,75,0,0
111471,-100,4,2,1,80,0,0
113186,-100,4,2,1,50,0,0
113471,-100,4,2,1,35,0,0
114900,-100,4,2,1,55,0,0
115186,-100,4,2,1,40,0,0
116614,-100,4,2,1,60,0,0
116900,-100,4,2,1,45,0,0
118329,-100,4,2,1,40,0,0
118614,-100,4,2,1,30,0,0
118900,285.714285714286,4,2,1,60,1,0
118900,-100,4,2,1,60,0,0
120042,-100,4,2,1,50,0,0
121185,-100,4,2,1,40,0,0
122328,-100,4,2,1,30,0,0
123471,-100,4,2,1,20,0,0

[Colours]
Combo1 : 142,193,187
Combo2 : 226,18,7
Combo3 : 156,164,184
Combo4 : 240,125,146

[HitObjects]
111,87,1187,5,0,0:0:0:0:
264,79,1472,2,0,P|301:87|323:148,1,99.9999999999999
225,207,2044,2,0,P|283:255|290:245,1,99.9999999999999
407,175,2901,2,0,L|367:258,3,66.6666666666666
367,109,3758,6,0,P|359:87|277:67,1,99.9999999999999
282,175,4329,2,0,P|303:214|362:207,1,99.9999999999999
217,277,5187,2,0,L|278:316,3,66.6666666666666
99,234,6044,6,0,L|188:161,1,99.9999999999999
238,134,6615,2,0,L|349:68,1,99.9999999999999
448,116,7472,2,0,L|395:159,2,66.6666666666666
371,274,8044,2,0,L|178:113,1,250
428,96,9187,6,0,B|275:273|236:217|236:102|214:214|213:187|200:228|192:264|190:319|185:122|157:303|167:189|155:232|152:186|173:113|139:185|127:227|128:185|113:227,1,400
176,112,10615,5,0,0:0:0:0:
278,87,10901,2,0,P|357:104|364:211,1,200
305,232,11758,2,0,P|321:264|289:328,1,99.9999999999999
227,280,12329,2,0,P|182:273|168:215,1,99.9999999999999
336,112,12901,5,0,0:0:0:0:
243,66,13187,2,0,P|159:60|162:155,1,200
234,189,14044,2,0,P|250:221|218:285,1,99.9999999999999
143,252,14615,2,0,P|95:251|66:197,1,99.9999999999999
232,128,15187,5,0,0:0:0:0:
310,241,15472,2,0,P|400:273|438:183,1,200
393,101,16329,2,0,P|393:85|329:37,1,99.9999999999999
261,109,16901,2,0,P|279:156|341:150,1,99.9999999999999
393,213,17758,2,0,B|395:255|324:245|385:316|405:289,2,99.9999999999999
336,272,18615,5,0,0:0:0:0:
244,283,18901,2,0,B|143:281|146:273|150:277|146:272|150:276|147:272|151:276|152:170,1,200
151,170,19758,2,0,P|152:218|151:289,1,99.9999999999999
258,271,20329,2,0,B|296:271|296:271|296:203,2,99.9999999999999
268,283,21187,6,0,B|369:281|366:273|361:277|366:272|361:276|365:272|360:276|360:170,1,200
360,170,22044,2,0,P|360:218|361:289,1,99.9999999999999
253,273,22615,2,0,L|179:199,2,99.9999999999999
194,120,23472,6,0,B|294:90|291:98|286:93|291:99|286:94|290:99|285:94|343:188,1,200
318,264,24329,2,0,B|218:294|221:286|225:290|221:285|225:289|222:285|226:289|169:196,1,200
384,256,25187,6,0,P|352:288|288:288,1,99.9999999999999
206,216,25758,2,0,P|225:169|277:162,1,99.9999999999999
376,285,26329,2,0,B|312:301|280:269|376:205|264:157,2,200
382,194,27615,1,0,0:0:0:0:
312,110,28044,1,0,0:0:0:0:
166,161,28329,6,0,L|206:121,1,50
330,225,28758,2,0,L|288:267,1,50
257,102,29187,2,0,P|274:81|313:83,1,50
371,130,29472,2,0,P|363:154|332:166,1,50
219,170,29758,2,0,P|231:196|245:231,1,50
104,113,30329,1,0,0:0:0:0:
129,202,30615,2,0,L|174:157,1,50
313,237,31044,2,0,L|263:287,1,50
271,133,31472,1,0,0:0:0:0:
116,189,32044,6,0,L|63:216,1,50
200,110,32616,1,0,0:0:0:0:
346,161,32901,6,0,L|306:121,1,50
182,225,33330,2,0,L|224:267,1,50
255,102,33759,2,0,P|238:81|199:83,1,50
141,130,34044,2,0,P|149:154|180:166,1,50
293,170,34330,2,0,P|281:196|267:231,1,50
408,113,34901,1,0,0:0:0:0:
383,202,35187,2,0,L|338:157,1,50
199,237,35616,2,0,L|249:287,1,50
241,133,36044,5,0,0:0:0:0:
374,195,36329,5,0,0:0:0:0:
256,261,36615,5,0,0:0:0:0:
179,193,36758,1,0,0:0:0:0:
111,126,36901,1,0,0:0:0:0:
238,113,37472,1,0,0:0:0:0:
238,113,38044,5,0,0:0:0:0:
376,131,38329,1,0,0:0:0:0:
321,204,38472,1,0,0:0:0:0:
260,279,38615,2,0,L|185:210,1,99.9999999999999
