osu file format v14

[General]
AudioFilename: BoW.mp3
AudioLeadIn: 0
PreviewTime: 52173
Countdown: 0
SampleSet: Normal
StackLeniency: 0.7
Mode: 3
LetterboxInBreaks: 0
EpilepsyWarning: 1
SpecialStyle: 0
WidescreenStoryboard: 1

[Editor]
Bookmarks: 52497,119957
DistanceSpacing: 0.9
BeatDivisor: 4
GridSize: 8
TimelineZoom: 2.3

[Metadata]
Title:Experiment map
TitleUnicode:Experiment map
Artist:Various Artist
ArtistUnicode:Various Artist
Creator:Noch Einen
Version:BlackYooh vs. siromaru - BLACK or WHITE? [4k]
Source:
Tags:
BeatmapID:2099233
BeatmapSetID:971300

[Difficulty]
HPDrainRate:8.5
CircleSize:4
OverallDifficulty:8.5
ApproachRate:5
SliderMultiplier:1.4
SliderTickRate:1

[Events]
//Background and Video events
0,0,"BoW.jpg",0,0
//Break Periods
//Storyboard Layer 0 (Background)
//Storyboard Layer 1 (Fail)
//Storyboard Layer 2 (Pass)
//Storyboard Layer 3 (Foreground)
//Storyboard Sound Samples

[TimingPoints]
606,324.324324324324,4,1,1,70,1,0
9524,-80,4,1,1,70,0,0
9849,-100,4,1,1,70,0,0
10660,-80,4,1,1,70,0,0
10741,-133.333333333333,4,1,1,70,0,0
10903,-66.6666666666667,4,1,1,70,0,0
10984,-100,4,1,1,70,0,0
31741,-125,4,2,1,70,0,0
41470,-111.111111111111,4,2,1,70,0,0
42119,-100,4,1,1,70,0,0
52497,-100,4,1,1,70,0,1
53795,-80,4,1,1,70,0,1
53876,-133.333333333333,4,1,1,70,0,1
53957,-100,4,1,1,70,0,1
54119,-80,4,1,1,70,0,1
54200,-133.333333333333,4,1,1,70,0,1
54281,-100,4,1,1,70,0,1
54443,-79.9999999999999,4,1,1,70,0,1
54524,-133.333333333333,4,1,1,70,0,1
54605,-79.9999999999999,4,1,1,70,0,1
54687,-133.333333333333,4,1,1,70,0,1
54768,-86.9565217391304,4,1,1,70,0,1
55092,-117.647058823529,4,1,1,70,0,1
55254,-100,4,1,1,70,0,1
56389,-80,4,1,1,70,0,1
56470,-133.333333333333,4,1,1,70,0,1
56633,-100,4,1,1,70,0,1
56714,-80,4,1,1,70,0,1
56795,-133.333333333333,4,1,1,70,0,1
56957,-80,4,1,1,70,0,1
57038,-100,4,1,1,70,0,1
57362,-80,4,1,1,70,0,1
57443,-133.333333333333,4,1,1,70,0,1
57605,-80,4,1,1,70,0,1
57687,-100,4,1,1,70,0,1
58984,-80,4,1,1,70,0,1
59065,-100,4,1,1,70,0,1
59308,-80,4,1,1,70,0,1
59389,-100,4,1,1,70,0,1
59633,-80,4,1,1,70,0,1
59714,-100,4,1,1,70,0,1
59957,-100,4,1,1,70,0,1
61578,-80,4,1,1,70,0,1
61660,-100,4,1,1,70,0,1
61903,-80,4,1,1,70,0,1
61984,-100,4,1,1,70,0,1
62227,-80,4,1,1,70,0,1
62308,-100,4,1,1,70,0,1
62551,-100,4,1,1,70,0,1
73254,-125,4,2,1,70,0,0
82335,-111.111111111111,4,2,1,70,0,0
83633,-100,4,1,1,70,0,0
94335,-100,4,1,1,70,0,1
99200,-80,4,1,1,70,0,1
99443,-133.333333333333,4,1,1,70,0,1
99524,-100,4,1,1,70,0,1
114660,-80,4,1,1,70,0,1
114984,-133.333333333333,4,1,1,70,0,1
115092,-100,4,1,1,70,0,0

[HitObjects]
64,192,606,5,0,0:0:0:0:
192,192,606,1,0,0:0:0:0:
448,192,606,1,0,0:0:0:0:
320,192,687,1,0,0:0:0:0:
448,192,768,1,0,0:0:0:0:
192,192,849,1,0,0:0:0:0:
320,192,930,1,0,0:0:0:0:
64,192,930,1,0,0:0:0:0:
192,192,1011,1,0,0:0:0:0:
448,192,1092,1,0,0:0:0:0:
320,192,1173,1,0,0:0:0:0:
192,192,1254,1,0,0:0:0:0:
64,192,1254,1,0,0:0:0:0:
192,192,1416,1,0,0:0:0:0:
448,192,1416,1,0,0:0:0:0:
320,192,1497,1,0,0:0:0:0:
64,192,1578,1,0,0:0:0:0:
448,192,1578,1,0,0:0:0:0:
192,192,1660,1,0,0:0:0:0:
320,192,1741,1,0,0:0:0:0:
64,192,1822,1,0,0:0:0:0:
192,192,1903,1,0,0:0:0:0:
448,192,1903,1,0,0:0:0:0:
320,192,2065,1,0,0:0:0:0:
192,192,2146,1,0,0:0:0:0:
64,192,2227,1,0,0:0:0:0:
448,192,2227,1,0,0:0:0:0:
320,192,2308,1,0,0:0:0:0:
192,192,2389,1,0,0:0:0:0:
320,192,2470,1,0,0:0:0:0:
448,192,2551,1,0,0:0:0:0:
64,192,2551,1,0,0:0:0:0:
320,192,2714,1,0,0:0:0:0:
64,192,2714,1,0,0:0:0:0:
192,192,2795,1,0,0:0:0:0:
320,192,2876,1,0,0:0:0:0:
448,192,2876,1,0,0:0:0:0:
64,192,2957,1,0,0:0:0:0:
192,192,3038,1,0,0:0:0:0:
448,192,3119,1,0,0:0:0:0:
320,192,3200,1,0,0:0:0:0:
64,192,3200,1,0,0:0:0:0:
448,192,3362,1,0,0:0:0:0:
192,192,3443,1,0,0:0:0:0:
320,192,3524,1,0,0:0:0:0:
64,192,3524,1,0,0:0:0:0:
448,192,3605,1,0,0:0:0:0:
192,192,3687,1,0,0:0:0:0:
64,192,3768,1,0,0:0:0:0:
448,192,3849,1,0,0:0:0:0:
320,192,3849,1,0,0:0:0:0:
64,192,4011,1,0,0:0:0:0:
320,192,4011,1,0,0:0:0:0:
192,192,4092,1,0,0:0:0:0:
448,192,4173,1,0,0:0:0:0:
64,192,4173,1,0,0:0:0:0:
320,192,4254,1,0,0:0:0:0:
192,192,4335,1,0,0:0:0:0:
448,192,4416,1,0,0:0:0:0:
320,192,4497,1,0,0:0:0:0:
64,192,4497,1,0,0:0:0:0:
192,192,4660,1,0,0:0:0:0:
320,192,4741,1,0,0:0:0:0:
448,192,4822,1,0,0:0:0:0:
64,192,4822,1,0,0:0:0:0:
192,192,4903,1,0,0:0:0:0:
320,192,4984,1,0,0:0:0:0:
64,192,5065,1,0,0:0:0:0:
192,192,5146,1,0,0:0:0:0:
448,192,5146,1,0,0:0:0:0:
448,192,5308,1,0,0:0:0:0:
320,192,5308,1,0,0:0:0:0:
192,192,5389,1,0,0:0:0:0:
320,192,5470,1,0,0:0:0:0:
64,192,5470,1,0,0:0:0:0:
448,192,5551,1,0,0:0:0:0:
192,192,5633,1,0,0:0:0:0:
320,192,5714,1,0,0:0:0:0:
64,192,5795,1,0,0:0:0:0:
448,192,5795,128,0,7092:0:0:0:0:
64,192,5957,1,0,0:0:0:0:
192,192,6038,1,0,0:0:0:0:
320,192,6119,1,0,0:0:0:0:
192,192,6200,1,0,0:0:0:0:
64,192,6281,1,0,0:0:0:0:
320,192,6362,1,0,0:0:0:0:
192,192,6443,1,0,0:0:0:0:
64,192,6443,1,0,0:0:0:0:
320,192,6605,1,0,0:0:0:0:
192,192,6687,1,0,0:0:0:0:
64,192,6768,1,0,0:0:0:0:
192,192,6849,1,0,0:0:0:0:
320,192,6930,1,0,0:0:0:0:
64,192,7011,1,0,0:0:0:0:
192,192,7092,1,0,0:0:0:0:
320,192,7092,1,0,0:0:0:0:
192,192,7254,1,0,0:0:0:0:
448,192,7254,1,0,0:0:0:0:
64,192,7416,1,0,0:0:0:0:
320,192,7416,1,0,0:0:0:0:
320,192,7497,1,0,0:0:0:0:
192,192,7578,1,0,0:0:0:0:
192,192,7660,1,0,0:0:0:0:
320,192,7741,1,0,0:0:0:0:
448,192,7741,1,0,0:0:0:0:
320,192,7822,1,0,0:0:0:0:
448,192,7822,1,0,0:0:0:0:
192,192,7903,1,0,0:0:0:0:
64,192,7903,1,0,0:0:0:0:
192,192,7984,1,0,0:0:0:0:
64,192,7984,1,0,0:0:0:0:
448,192,8065,128,0,8308:0:0:0:0:
320,192,8146,128,0,8308:0:0:0:0:
192,192,8227,128,0,8308:0:0:0:0:
64,192,8308,128,0,8389:0:0:0:0:
192,192,8389,1,0,0:0:0:0:
320,192,8389,1,0,0:0:0:0:
448,192,8389,1,0,0:0:0:0:
192,192,8551,1,0,0:0:0:0:
320,192,8551,1,0,0:0:0:0:
448,192,8551,1,0,0:0:0:0:
64,192,8714,1,0,0:0:0:0:
192,192,8714,1,0,0:0:0:0:
320,192,8714,1,0,0:0:0:0:
320,192,8876,1,0,0:0:0:0:
192,192,8876,1,0,0:0:0:0:
64,192,8876,1,0,0:0:0:0:
192,192,9038,1,0,0:0:0:0:
320,192,9038,1,0,0:0:0:0:
448,192,9038,1,0,0:0:0:0:
448,192,9200,1,0,0:0:0:0:
320,192,9200,1,0,0:0:0:0:
192,192,9200,1,0,0:0:0:0:
192,192,9362,1,0,0:0:0:0:
320,192,9362,1,0,0:0:0:0:
64,192,9362,1,0,0:0:0:0:
64,192,9524,1,0,0:0:0:0:
192,192,9524,1,0,0:0:0:0:
320,192,9524,1,0,0:0:0:0:
448,192,10011,1,0,0:0:0:0:
64,192,10011,128,0,10984:0:0:0:0:
192,192,10011,1,0,0:0:0:0:
320,192,10092,1,0,0:0:0:0:
448,192,10173,1,0,0:0:0:0:
320,192,10254,1,0,0:0:0:0:
448,192,10335,1,0,0:0:0:0:
320,192,10416,1,0,0:0:0:0:
448,192,10497,1,0,0:0:0:0:
320,192,10578,1,0,0:0:0:0:
448,192,10660,128,0,10903:0:0:0:0:
320,192,10741,128,0,10903:0:0:0:0:
192,192,10984,1,0,0:0:0:0:
320,192,10984,1,0,0:0:0:0:
448,192,10984,1,0,0:0:0:0:
64,192,11146,1,0,0:0:0:0:
64,192,11227,1,0,0:0:0:0:
192,192,11308,1,0,0:0:0:0:
448,192,11308,1,0,0:0:0:0:
320,192,11470,1,0,0:0:0:0:
320,192,11551,1,0,0:0:0:0:
192,192,11633,1,0,0:0:0:0:
64,192,11633,1,0,0:0:0:0:
448,192,11795,1,0,0:0:0:0:
320,192,11876,1,0,0:0:0:0:
192,192,11957,1,0,0:0:0:0:
64,192,11957,1,0,0:0:0:0:
448,192,12119,1,0,0:0:0:0:
448,192,12200,1,0,0:0:0:0:
320,192,12281,1,0,0:0:0:0:
64,192,12281,1,0,0:0:0:0:
192,192,12443,1,0,0:0:0:0:
192,192,12524,1,0,0:0:0:0:
320,192,12605,1,0,0:0:0:0:
448,192,12605,1,0,0:0:0:0:
64,192,12768,1,0,0:0:0:0:
64,192,12849,1,0,0:0:0:0:
192,192,12930,1,0,0:0:0:0:
320,192,12930,1,0,0:0:0:0:
448,192,13092,1,0,0:0:0:0:
192,192,13173,1,0,0:0:0:0:
320,192,13254,1,0,0:0:0:0:
64,192,13254,1,0,0:0:0:0:
320,192,13335,1,0,0:0:0:0:
192,192,13416,1,0,0:0:0:0:
192,192,13497,1,0,0:0:0:0:
64,192,13578,1,0,0:0:0:0:
448,192,13578,1,0,0:0:0:0:
320,192,13741,1,0,0:0:0:0:
320,192,13822,1,0,0:0:0:0:
192,192,13903,1,0,0:0:0:0:
64,192,13903,1,0,0:0:0:0:
448,192,14065,1,0,0:0:0:0:
448,192,14146,1,0,0:0:0:0:
64,192,14227,1,0,0:0:0:0:
320,192,14227,1,0,0:0:0:0:
320,192,14335,1,0,0:0:0:0:
320,192,14443,1,0,0:0:0:0:
192,192,14551,1,0,0:0:0:0:
448,192,14551,1,0,0:0:0:0:
64,192,14714,1,0,0:0:0:0:
64,192,14795,1,0,0:0:0:0:
192,192,14876,1,0,0:0:0:0:
320,192,14876,1,0,0:0:0:0:
448,192,15038,1,0,0:0:0:0:
320,192,15119,1,0,0:0:0:0:
192,192,15200,1,0,0:0:0:0:
64,192,15200,1,0,0:0:0:0:
448,192,15281,1,0,0:0:0:0:
192,192,15362,1,0,0:0:0:0:
192,192,15443,1,0,0:0:0:0:
320,192,15524,128,0,15687:0:0:0:0:
448,192,15524,128,0,15768:0:0:0:0:
64,192,15605,128,0,15768:0:0:0:0:
192,192,15687,128,0,15768:0:0:0:0:
320,192,15768,1,0,0:0:0:0:
64,192,15849,128,0,16092:0:0:0:0:
192,192,15849,128,0,16011:0:0:0:0:
448,192,15930,128,0,16092:0:0:0:0:
320,192,16011,128,0,16092:0:0:0:0:
192,192,16092,1,0,0:0:0:0:
448,192,16173,128,0,16443:0:0:0:0:
320,192,16227,128,0,16389:0:0:0:0:
192,192,16281,128,0,16335:0:0:0:0:
64,192,16335,1,0,0:0:0:0:
192,192,16389,1,0,0:0:0:0:
320,192,16443,1,0,0:0:0:0:
448,192,16497,1,0,0:0:0:0:
64,192,16497,1,0,0:0:0:0:
192,192,16497,1,0,0:0:0:0:
320,192,16660,1,0,0:0:0:0:
320,192,16741,1,0,0:0:0:0:
64,192,16822,1,0,0:0:0:0:
192,192,16876,1,0,0:0:0:0:
320,192,16930,1,0,0:0:0:0:
448,192,16984,1,0,0:0:0:0:
448,192,17065,1,0,0:0:0:0:
320,192,17146,1,0,0:0:0:0:
64,192,17146,1,0,0:0:0:0:
192,192,17308,1,0,0:0:0:0:
64,192,17389,1,0,0:0:0:0:
448,192,17470,128,0,17714:0:0:0:0:
64,192,17633,1,0,0:0:0:0:
64,192,17714,1,0,0:0:0:0:
192,192,17795,1,0,0:0:0:0:
448,192,17795,1,0,0:0:0:0:
320,192,17957,1,0,0:0:0:0:
320,192,18038,1,0,0:0:0:0:
192,192,18119,1,0,0:0:0:0:
64,192,18119,1,0,0:0:0:0:
64,192,18200,1,0,0:0:0:0:
192,192,18200,1,0,0:0:0:0:
320,192,18281,1,0,0:0:0:0:
448,192,18281,1,0,0:0:0:0:
320,192,18362,1,0,0:0:0:0:
448,192,18362,1,0,0:0:0:0:
64,192,18443,128,0,18687:0:0:0:0:
192,192,18524,128,0,18687:0:0:0:0:
448,192,18605,128,0,18768:0:0:0:0:
320,192,18687,128,0,18768:0:0:0:0:
192,192,18768,1,0,0:0:0:0:
64,192,18768,1,0,0:0:0:0:
448,192,18930,1,0,0:0:0:0:
448,192,19011,1,0,0:0:0:0:
320,192,19092,1,0,0:0:0:0:
64,192,19092,1,0,0:0:0:0:
64,192,19173,1,0,0:0:0:0:
320,192,19173,1,0,0:0:0:0:
192,192,19254,1,0,0:0:0:0:
448,192,19335,1,0,0:0:0:0:
320,192,19416,1,0,0:0:0:0:
64,192,19416,1,0,0:0:0:0:
192,192,19578,1,0,0:0:0:0:
192,192,19660,1,0,0:0:0:0:
320,192,19741,1,0,0:0:0:0:
448,192,19741,1,0,0:0:0:0:
320,192,19822,1,0,0:0:0:0:
448,192,19822,1,0,0:0:0:0:
64,192,19903,1,0,0:0:0:0:
192,192,19984,1,0,0:0:0:0:
320,192,20065,1,0,0:0:0:0:
448,192,20065,1,0,0:0:0:0:
320,192,20173,1,0,0:0:0:0:
448,192,20173,1,0,0:0:0:0:
320,192,20281,1,0,0:0:0:0:
448,192,20281,1,0,0:0:0:0:
192,192,20389,1,0,0:0:0:0:
64,192,20389,1,0,0:0:0:0:
64,192,20497,1,0,0:0:0:0:
192,192,20497,1,0,0:0:0:0:
192,192,20605,1,0,0:0:0:0:
64,192,20605,1,0,0:0:0:0:
448,192,20714,128,0,20822:0:0:0:0:
192,192,20822,128,0,20930:0:0:0:0:
64,192,20930,128,0,21038:0:0:0:0:
448,192,21038,128,0,21308:0:0:0:0:
320,192,21092,128,0,21254:0:0:0:0:
192,192,21146,128,0,21200:0:0:0:0:
64,192,21200,1,0,0:0:0:0:
192,192,21254,1,0,0:0:0:0:
320,192,21308,1,0,0:0:0:0:
64,192,21362,128,0,21930:0:0:0:0:
192,192,21362,128,0,21930:0:0:0:0:
448,192,21362,128,0,21524:0:0:0:0:
320,192,21524,128,0,21687:0:0:0:0:
448,192,21687,128,0,21930:0:0:0:0:
64,192,22011,128,0,22173:0:0:0:0:
320,192,22011,128,0,22578:0:0:0:0:
448,192,22011,128,0,22578:0:0:0:0:
192,192,22173,128,0,22335:0:0:0:0:
64,192,22335,128,0,22578:0:0:0:0:
320,192,22660,128,0,22822:0:0:0:0:
64,192,22660,128,0,23227:0:0:0:0:
448,192,22660,128,0,23227:0:0:0:0:
192,192,22822,128,0,22984:0:0:0:0:
320,192,22984,128,0,23227:0:0:0:0:
64,192,23308,1,0,0:0:0:0:
192,192,23349,1,0,0:0:0:0:
320,192,23389,1,0,0:0:0:0:
448,192,23430,1,0,0:0:0:0:
64,192,23470,1,0,0:0:0:0:
192,192,23511,1,0,0:0:0:0:
320,192,23551,1,0,0:0:0:0:
448,192,23592,1,0,0:0:0:0:
192,192,23633,128,0,23957:0:0:0:0:
448,192,23957,128,0,24524:0:0:0:0:
320,192,23957,128,0,24524:0:0:0:0:
64,192,23957,128,0,24119:0:0:0:0:
192,192,24119,128,0,24281:0:0:0:0:
64,192,24281,128,0,24524:0:0:0:0:
448,192,24605,128,0,24768:0:0:0:0:
192,192,24605,128,0,25173:0:0:0:0:
64,192,24605,128,0,25173:0:0:0:0:
320,192,24768,128,0,24930:0:0:0:0:
448,192,24930,128,0,25173:0:0:0:0:
192,192,25254,128,0,25416:0:0:0:0:
448,192,25254,128,0,25578:0:0:0:0:
64,192,25254,128,0,25416:0:0:0:0:
320,192,25416,128,0,25578:0:0:0:0:
192,192,25578,1,0,0:0:0:0:
64,192,25578,1,0,0:0:0:0:
192,192,25687,1,0,0:0:0:0:
320,192,25687,1,0,0:0:0:0:
448,192,25795,1,0,0:0:0:0:
320,192,25795,1,0,0:0:0:0:
64,192,25903,1,0,0:0:0:0:
448,192,25903,1,0,0:0:0:0:
320,192,26011,1,0,0:0:0:0:
192,192,26011,1,0,0:0:0:0:
64,192,26119,1,0,0:0:0:0:
448,192,26119,1,0,0:0:0:0:
448,192,26227,1,0,0:0:0:0:
320,192,26227,1,0,0:0:0:0:
320,192,26335,1,0,0:0:0:0:
192,192,26335,1,0,0:0:0:0:
192,192,26443,1,0,0:0:0:0:
64,192,26443,1,0,0:0:0:0:
448,192,26551,128,0,26876:0:0:0:0:
320,192,26592,128,0,26876:0:0:0:0:
192,192,26633,128,0,26876:0:0:0:0:
64,192,26876,128,0,27200:0:0:0:0:
448,192,27200,1,0,0:0:0:0:
320,192,27241,1,0,0:0:0:0:
192,192,27281,1,0,0:0:0:0:
64,192,27322,1,0,0:0:0:0:
448,192,27362,1,0,0:0:0:0:
320,192,27403,1,0,0:0:0:0:
192,192,27443,1,0,0:0:0:0:
64,192,27484,1,0,0:0:0:0:
448,192,27524,1,0,0:0:0:0:
320,192,27524,1,0,0:0:0:0:
192,192,27687,1,0,0:0:0:0:
448,192,27849,1,0,0:0:0:0:
320,192,27849,1,0,0:0:0:0:
64,192,27849,1,0,0:0:0:0:
192,192,28011,1,0,0:0:0:0:
192,192,28173,1,0,0:0:0:0:
64,192,28173,1,0,0:0:0:0:
448,192,28173,1,0,0:0:0:0:
320,192,28335,1,0,0:0:0:0:
320,192,28497,1,0,0:0:0:0:
192,192,28497,1,0,0:0:0:0:
64,192,28497,1,0,0:0:0:0:
448,192,28660,1,0,0:0:0:0:
448,192,28822,1,0,0:0:0:0:
320,192,28822,1,0,0:0:0:0:
192,192,28822,1,0,0:0:0:0:
64,192,28984,1,0,0:0:0:0:
64,192,29146,1,0,0:0:0:0:
192,192,29146,1,0,0:0:0:0:
448,192,29146,1,0,0:0:0:0:
320,192,29308,1,0,0:0:0:0:
320,192,29470,1,0,0:0:0:0:
448,192,29470,1,0,0:0:0:0:
64,192,29470,1,0,0:0:0:0:
192,192,29633,1,0,0:0:0:0:
192,192,29795,1,0,0:0:0:0:
320,192,29795,1,0,0:0:0:0:
64,192,29795,1,0,0:0:0:0:
448,192,29957,1,0,0:0:0:0:
448,192,30119,1,0,0:0:0:0:
320,192,30119,1,0,0:0:0:0:
64,192,30119,1,0,0:0:0:0:
192,192,30281,1,0,0:0:0:0:
64,192,30443,128,0,30605:0:0:0:0:
448,192,30443,128,0,31011:0:0:0:0:
192,192,30524,128,0,30687:0:0:0:0:
320,192,30605,128,0,30768:0:0:0:0:
64,192,30687,128,0,30768:0:0:0:0:
192,192,30768,128,0,30849:0:0:0:0:
320,192,30849,128,0,30930:0:0:0:0:
64,192,30849,128,0,31254:0:0:0:0:
192,192,30930,128,0,31173:0:0:0:0:
320,192,31011,128,0,31092:0:0:0:0:
448,192,31092,128,0,31497:0:0:0:0:
320,192,31173,128,0,31416:0:0:0:0:
192,192,31254,128,0,31335:0:0:0:0:
64,192,31335,128,0,31660:0:0:0:0:
192,192,31416,128,0,31660:0:0:0:0:
320,192,31497,128,0,31578:0:0:0:0:
448,192,31578,128,0,31741:0:0:0:0:
320,192,31660,128,0,31741:0:0:0:0:
192,192,31741,1,0,0:0:0:0:
64,192,31741,1,0,0:0:0:0:
320,192,32065,1,0,0:0:0:0:
448,192,32389,128,0,33524:0:0:0:0:
320,192,32551,128,0,33362:0:0:0:0:
192,192,32714,128,0,33200:0:0:0:0:
64,192,32876,128,0,32957:0:0:0:0:
64,192,33038,128,0,33687:0:0:0:0:
192,192,33362,128,0,33849:0:0:0:0:
320,192,33524,128,0,34011:0:0:0:0:
448,192,33687,128,0,34173:0:0:0:0:
64,192,34011,128,0,34335:0:0:0:0:
192,192,34011,128,0,34335:0:0:0:0:
448,192,34335,1,0,0:0:0:0:
320,192,34376,1,0,0:0:0:0:
192,192,34416,1,0,0:0:0:0:
320,192,34660,1,0,0:0:0:0:
64,192,34984,128,0,36281:0:0:0:0:
192,192,35146,128,0,36119:0:0:0:0:
320,192,35308,128,0,35795:0:0:0:0:
448,192,35470,128,0,35551:0:0:0:0:
448,192,35633,128,0,36281:0:0:0:0:
320,192,35957,128,0,36281:0:0:0:0:
192,192,36281,1,0,0:0:0:0:
320,192,36362,1,0,0:0:0:0:
192,192,36443,1,0,0:0:0:0:
320,192,36524,1,0,0:0:0:0:
192,192,36605,128,0,36930:0:0:0:0:
320,192,36768,128,0,36930:0:0:0:0:
64,192,36930,128,0,38227:0:0:0:0:
448,192,36930,128,0,37416:0:0:0:0:
320,192,37092,128,0,37254:0:0:0:0:
192,192,37254,128,0,37578:0:0:0:0:
320,192,37416,128,0,37741:0:0:0:0:
448,192,37578,128,0,37903:0:0:0:0:
192,192,37741,128,0,38065:0:0:0:0:
320,192,37903,128,0,38065:0:0:0:0:
448,192,38065,128,0,38227:0:0:0:0:
320,192,38227,128,0,39524:0:0:0:0:
192,192,38227,128,0,38389:0:0:0:0:
64,192,38389,128,0,38714:0:0:0:0:
192,192,38551,128,0,38876:0:0:0:0:
448,192,38714,128,0,39038:0:0:0:0:
64,192,38876,128,0,39362:0:0:0:0:
192,192,39038,128,0,39200:0:0:0:0:
448,192,39200,128,0,39362:0:0:0:0:
192,192,39362,128,0,39524:0:0:0:0:
448,192,39524,128,0,40822:0:0:0:0:
64,192,39524,128,0,39849:0:0:0:0:
320,192,39687,128,0,40173:0:0:0:0:
192,192,39849,128,0,40011:0:0:0:0:
64,192,40011,128,0,40173:0:0:0:0:
192,192,40173,128,0,40335:0:0:0:0:
320,192,40335,128,0,40497:0:0:0:0:
64,192,40497,128,0,40660:0:0:0:0:
320,192,40660,128,0,40822:0:0:0:0:
192,192,40822,128,0,42119:0:0:0:0:
64,192,40822,128,0,40984:0:0:0:0:
448,192,40984,128,0,41470:0:0:0:0:
320,192,41146,128,0,41308:0:0:0:0:
64,192,41308,128,0,41633:0:0:0:0:
320,192,41470,128,0,41795:0:0:0:0:
448,192,41633,128,0,41957:0:0:0:0:
64,192,41795,128,0,41957:0:0:0:0:
320,192,41957,128,0,42119:0:0:0:0:
448,192,42119,1,0,0:0:0:0:
64,192,42119,1,0,0:0:0:0:
320,192,42281,1,0,0:0:0:0:
192,192,42362,1,0,0:0:0:0:
448,192,42443,1,0,0:0:0:0:
320,192,42443,1,0,0:0:0:0:
64,192,42524,1,0,0:0:0:0:
192,192,42605,1,0,0:0:0:0:
320,192,42687,1,0,0:0:0:0:
64,192,42768,1,0,0:0:0:0:
448,192,42849,1,0,0:0:0:0:
64,192,42930,1,0,0:0:0:0:
320,192,43011,1,0,0:0:0:0:
192,192,43092,1,0,0:0:0:0:
64,192,43173,1,0,0:0:0:0:
320,192,43254,1,0,0:0:0:0:
192,192,43335,1,0,0:0:0:0:
448,192,43416,1,0,0:0:0:0:
320,192,43497,1,0,0:0:0:0:
192,192,43578,1,0,0:0:0:0:
448,192,43660,1,0,0:0:0:0:
320,192,43741,1,0,0:0:0:0:
64,192,43741,1,0,0:0:0:0:
192,192,43822,1,0,0:0:0:0:
448,192,43903,1,0,0:0:0:0:
320,192,43984,1,0,0:0:0:0:
64,192,44065,1,0,0:0:0:0:
192,192,44146,1,0,0:0:0:0:
448,192,44227,1,0,0:0:0:0:
320,192,44308,1,0,0:0:0:0:
192,192,44389,1,0,0:0:0:0:
320,192,44470,1,0,0:0:0:0:
192,192,44551,1,0,0:0:0:0:
64,192,44633,1,0,0:0:0:0:
448,192,44714,1,0,0:0:0:0:
192,192,44795,1,0,0:0:0:0:
320,192,44876,1,0,0:0:0:0:
448,192,44957,1,0,0:0:0:0:
192,192,45038,1,0,0:0:0:0:
320,192,45119,1,0,0:0:0:0:
64,192,45200,1,0,0:0:0:0:
192,192,45281,1,0,0:0:0:0:
448,192,45362,1,0,0:0:0:0:
64,192,45443,1,0,0:0:0:0:
448,192,45524,1,0,0:0:0:0:
192,192,45605,1,0,0:0:0:0:
320,192,45687,1,0,0:0:0:0:
448,192,45768,1,0,0:0:0:0:
192,192,45849,1,0,0:0:0:0:
320,192,45930,1,0,0:0:0:0:
64,192,46011,1,0,0:0:0:0:
192,192,46092,1,0,0:0:0:0:
448,192,46173,1,0,0:0:0:0:
192,192,46254,1,0,0:0:0:0:
320,192,46335,1,0,0:0:0:0:
64,192,46335,1,0,0:0:0:0:
448,192,46416,1,0,0:0:0:0:
192,192,46497,1,0,0:0:0:0:
448,192,46578,1,0,0:0:0:0:
64,192,46660,1,0,0:0:0:0:
320,192,46741,1,0,0:0:0:0:
64,192,46822,1,0,0:0:0:0:
192,192,46903,1,0,0:0:0:0:
448,192,46984,1,0,0:0:0:0:
320,192,46984,1,0,0:0:0:0:
64,192,47065,1,0,0:0:0:0:
192,192,47146,1,0,0:0:0:0:
64,192,47227,1,0,0:0:0:0:
448,192,47308,1,0,0:0:0:0:
320,192,47308,1,0,0:0:0:0:
320,192,47389,1,0,0:0:0:0:
192,192,47470,1,0,0:0:0:0:
192,192,47551,1,0,0:0:0:0:
64,192,47633,1,0,0:0:0:0:
448,192,47633,1,0,0:0:0:0:
320,192,47714,1,0,0:0:0:0:
192,192,47795,1,0,0:0:0:0:
320,192,47876,1,0,0:0:0:0:
64,192,47957,1,0,0:0:0:0:
64,192,48038,1,0,0:0:0:0:
448,192,48119,1,0,0:0:0:0:
448,192,48200,1,0,0:0:0:0:
192,192,48281,1,0,0:0:0:0:
320,192,48362,1,0,0:0:0:0:
64,192,48443,1,0,0:0:0:0:
192,192,48524,1,0,0:0:0:0:
320,192,48605,1,0,0:0:0:0:
448,192,48605,1,0,0:0:0:0:
192,192,48687,1,0,0:0:0:0:
448,192,48768,1,0,0:0:0:0:
320,192,48849,1,0,0:0:0:0:
192,192,48930,1,0,0:0:0:0:
448,192,49011,1,0,0:0:0:0:
64,192,49092,1,0,0:0:0:0:
320,192,49173,1,0,0:0:0:0:
192,192,49254,1,0,0:0:0:0:
64,192,49254,1,0,0:0:0:0:
448,192,49335,1,0,0:0:0:0:
320,192,49416,1,0,0:0:0:0:
192,192,49497,1,0,0:0:0:0:
320,192,49578,1,0,0:0:0:0:
192,192,49660,1,0,0:0:0:0:
64,192,49741,1,0,0:0:0:0:
320,192,49822,1,0,0:0:0:0:
192,192,49903,1,0,0:0:0:0:
448,192,49984,1,0,0:0:0:0:
192,192,50065,1,0,0:0:0:0:
320,192,50146,1,0,0:0:0:0:
448,192,50227,1,0,0:0:0:0:
64,192,50227,1,0,0:0:0:0:
192,192,50308,1,0,0:0:0:0:
320,192,50389,1,0,0:0:0:0:
64,192,50470,1,0,0:0:0:0:
192,192,50551,1,0,0:0:0:0:
448,192,50633,1,0,0:0:0:0:
192,192,50714,1,0,0:0:0:0:
320,192,50795,1,0,0:0:0:0:
64,192,50876,1,0,0:0:0:0:
192,192,50957,1,0,0:0:0:0:
448,192,51038,1,0,0:0:0:0:
320,192,51119,1,0,0:0:0:0:
192,192,51200,128,0,51362:0:0:0:0:
64,192,51200,128,0,51281:0:0:0:0:
64,192,51362,128,0,51524:0:0:0:0:
192,192,51443,128,0,51524:0:0:0:0:
320,192,51524,1,0,0:0:0:0:
448,192,51524,1,0,0:0:0:0:
448,192,51687,1,0,0:0:0:0:
320,192,51727,1,0,0:0:0:0:
192,192,51768,1,0,0:0:0:0:
448,192,51808,1,0,0:0:0:0:
320,192,51849,1,0,0:0:0:0:
64,192,51849,1,0,0:0:0:0:
64,192,52011,1,0,0:0:0:0:
192,192,52051,1,0,0:0:0:0:
320,192,52092,1,0,0:0:0:0:
64,192,52133,1,0,0:0:0:0:
448,192,52173,1,0,0:0:0:0:
192,192,52173,1,0,0:0:0:0:
320,192,52254,128,0,52335:0:0:0:0:
64,192,52295,128,0,52376:0:0:0:0:
192,192,52335,128,0,52416:0:0:0:0:
448,192,52376,128,0,52457:0:0:0:0:
320,192,52416,128,0,52497:0:0:0:0:
192,192,52497,1,0,0:0:0:0:
64,192,52497,128,0,52660:0:0:0:0:
320,192,52660,1,0,0:0:0:0:
320,192,52741,1,0,0:0:0:0:
448,192,52741,1,0,0:0:0:0:
192,192,52822,1,0,0:0:0:0:
64,192,52822,1,0,0:0:0:0:
448,192,52984,1,0,0:0:0:0:
448,192,53065,1,0,0:0:0:0:
320,192,53065,1,0,0:0:0:0:
192,192,53146,1,0,0:0:0:0:
64,192,53146,1,0,0:0:0:0:
192,192,53308,1,0,0:0:0:0:
320,192,53308,1,0,0:0:0:0:
64,192,53389,1,0,0:0:0:0:
320,192,53470,1,0,0:0:0:0:
448,192,53470,1,0,0:0:0:0:
192,192,53633,1,0,0:0:0:0:
448,192,53633,1,0,0:0:0:0:
320,192,53714,1,0,0:0:0:0:
192,192,53795,1,0,0:0:0:0:
64,192,53795,1,0,0:0:0:0:
448,192,53795,1,0,0:0:0:0:
64,192,53957,1,0,0:0:0:0:
192,192,54038,1,0,0:0:0:0:
448,192,54119,1,0,0:0:0:0:
320,192,54119,1,0,0:0:0:0:
64,192,54119,1,0,0:0:0:0:
192,192,54281,1,0,0:0:0:0:
320,192,54362,1,0,0:0:0:0:
192,192,54443,1,0,0:0:0:0:
64,192,54443,1,0,0:0:0:0:
448,192,54443,1,0,0:0:0:0:
64,192,54605,1,0,0:0:0:0:
320,192,54605,1,0,0:0:0:0:
448,192,54605,1,0,0:0:0:0:
192,192,54768,1,0,0:0:0:0:
64,192,54768,1,0,0:0:0:0:
448,192,54768,1,0,0:0:0:0:
320,192,54849,1,0,0:0:0:0:
192,192,54930,1,0,0:0:0:0:
64,192,55011,1,0,0:0:0:0:
192,192,55092,1,0,0:0:0:0:
320,192,55092,1,0,0:0:0:0:
448,192,55092,1,0,0:0:0:0:
64,192,55254,1,0,0:0:0:0:
64,192,55335,1,0,0:0:0:0:
192,192,55335,1,0,0:0:0:0:
320,192,55416,1,0,0:0:0:0:
448,192,55416,1,0,0:0:0:0:
192,192,55578,1,0,0:0:0:0:
192,192,55660,1,0,0:0:0:0:
64,192,55660,1,0,0:0:0:0:
320,192,55741,1,0,0:0:0:0:
448,192,55741,1,0,0:0:0:0:
192,192,55903,1,0,0:0:0:0:
320,192,55903,1,0,0:0:0:0:
64,192,56065,1,0,0:0:0:0:
192,192,56065,1,0,0:0:0:0:
64,192,56227,1,0,0:0:0:0:
320,192,56227,1,0,0:0:0:0:
192,192,56308,1,0,0:0:0:0:
64,192,56389,1,0,0:0:0:0:
320,192,56389,128,0,56633:0:0:0:0:
448,192,56389,128,0,56957:0:0:0:0:
192,192,56714,128,0,56957:0:0:0:0:
64,192,56714,128,0,57254:0:0:0:0:
320,192,56714,128,0,56957:0:0:0:0:
320,192,57038,1,0,0:0:0:0:
448,192,57038,1,0,0:0:0:0:
320,192,57146,1,0,0:0:0:0:
448,192,57146,1,0,0:0:0:0:
320,192,57254,1,0,0:0:0:0:
192,192,57254,1,0,0:0:0:0:
192,192,57362,128,0,57605:0:0:0:0:
64,192,57362,128,0,57605:0:0:0:0:
448,192,57362,128,0,57687:0:0:0:0:
320,192,57687,1,0,0:0:0:0:
192,192,57687,1,0,0:0:0:0:
64,192,57687,1,0,0:0:0:0:
448,192,57849,1,0,0:0:0:0:
448,192,57930,1,0,0:0:0:0:
192,192,57930,1,0,0:0:0:0:
320,192,58011,1,0,0:0:0:0:
64,192,58011,1,0,0:0:0:0:
192,192,58173,1,0,0:0:0:0:
192,192,58254,1,0,0:0:0:0:
448,192,58254,1,0,0:0:0:0:
320,192,58335,1,0,0:0:0:0:
64,192,58335,1,0,0:0:0:0:
64,192,58497,1,0,0:0:0:0:
448,192,58497,1,0,0:0:0:0:
320,192,58578,1,0,0:0:0:0:
192,192,58660,1,0,0:0:0:0:
448,192,58660,1,0,0:0:0:0:
64,192,58822,1,0,0:0:0:0:
320,192,58822,1,0,0:0:0:0:
192,192,58903,1,0,0:0:0:0:
320,192,58984,1,0,0:0:0:0:
448,192,58984,1,0,0:0:0:0:
64,192,58984,1,0,0:0:0:0:
192,192,59146,1,0,0:0:0:0:
320,192,59227,1,0,0:0:0:0:
192,192,59308,1,0,0:0:0:0:
64,192,59308,1,0,0:0:0:0:
448,192,59308,1,0,0:0:0:0:
320,192,59470,1,0,0:0:0:0:
448,192,59551,1,0,0:0:0:0:
64,192,59633,1,0,0:0:0:0:
320,192,59633,1,0,0:0:0:0:
192,192,59633,1,0,0:0:0:0:
448,192,59795,1,0,0:0:0:0:
320,192,59876,1,0,0:0:0:0:
192,192,59957,1,0,0:0:0:0:
64,192,59957,1,0,0:0:0:0:
448,192,59957,1,0,0:0:0:0:
320,192,60038,1,0,0:0:0:0:
448,192,60119,1,0,0:0:0:0:
64,192,60200,1,0,0:0:0:0:
320,192,60281,1,0,0:0:0:0:
192,192,60281,1,0,0:0:0:0:
448,192,60281,1,0,0:0:0:0:
64,192,60443,1,0,0:0:0:0:
64,192,60524,1,0,0:0:0:0:
320,192,60524,1,0,0:0:0:0:
192,192,60605,1,0,0:0:0:0:
448,192,60605,1,0,0:0:0:0:
320,192,60768,1,0,0:0:0:0:
320,192,60849,1,0,0:0:0:0:
64,192,60849,1,0,0:0:0:0:
192,192,60930,1,0,0:0:0:0:
448,192,60930,1,0,0:0:0:0:
320,192,61092,1,0,0:0:0:0:
64,192,61092,1,0,0:0:0:0:
192,192,61173,1,0,0:0:0:0:
320,192,61254,1,0,0:0:0:0:
448,192,61254,1,0,0:0:0:0:
192,192,61416,1,0,0:0:0:0:
320,192,61416,1,0,0:0:0:0:
448,192,61497,1,0,0:0:0:0:
64,192,61578,128,0,61822:0:0:0:0:
192,192,61578,128,0,61741:0:0:0:0:
448,192,61660,128,0,61822:0:0:0:0:
320,192,61741,128,0,61903:0:0:0:0:
192,192,61822,128,0,61903:0:0:0:0:
64,192,61903,128,0,62146:0:0:0:0:
448,192,61903,128,0,62065:0:0:0:0:
320,192,61984,128,0,62065:0:0:0:0:
192,192,62065,128,0,62227:0:0:0:0:
320,192,62146,128,0,62227:0:0:0:0:
448,192,62227,128,0,62470:0:0:0:0:
64,192,62227,128,0,62389:0:0:0:0:
192,192,62308,128,0,62389:0:0:0:0:
320,192,62389,128,0,62551:0:0:0:0:
192,192,62470,128,0,62551:0:0:0:0:
448,192,62551,128,0,62795:0:0:0:0:
64,192,62551,128,0,62795:0:0:0:0:
192,192,62714,128,0,62795:0:0:0:0:
320,192,62795,128,0,62876:0:0:0:0:
64,192,62876,1,0,0:0:0:0:
448,192,62876,1,0,0:0:0:0:
192,192,62876,1,0,0:0:0:0:
320,192,63038,1,0,0:0:0:0:
320,192,63119,1,0,0:0:0:0:
448,192,63119,1,0,0:0:0:0:
192,192,63200,1,0,0:0:0:0:
64,192,63200,1,0,0:0:0:0:
448,192,63362,1,0,0:0:0:0:
448,192,63443,1,0,0:0:0:0:
320,192,63443,1,0,0:0:0:0:
192,192,63524,1,0,0:0:0:0:
64,192,63524,128,0,63768:0:0:0:0:
192,192,63687,128,0,63930:0:0:0:0:
320,192,63687,1,0,0:0:0:0:
448,192,63768,1,0,0:0:0:0:
64,192,63849,128,0,64173:0:0:0:0:
448,192,63849,1,0,0:0:0:0:
192,192,64011,128,0,64173:0:0:0:0:
320,192,64011,1,0,0:0:0:0:
448,192,64092,1,0,0:0:0:0:
448,192,64173,1,0,0:0:0:0:
320,192,64173,128,0,64741:0:0:0:0:
192,192,64335,1,0,0:0:0:0:
64,192,64416,1,0,0:0:0:0:
448,192,64497,128,0,65065:0:0:0:0:
64,192,64497,1,0,0:0:0:0:
192,192,64660,1,0,0:0:0:0:
64,192,64741,1,0,0:0:0:0:
320,192,64822,128,0,65389:0:0:0:0:
64,192,64822,1,0,0:0:0:0:
192,192,64984,1,0,0:0:0:0:
64,192,65065,1,0,0:0:0:0:
448,192,65146,128,0,65389:0:0:0:0:
64,192,65146,1,0,0:0:0:0:
192,192,65308,1,0,0:0:0:0:
192,192,65389,1,0,0:0:0:0:
64,192,65470,1,0,0:0:0:0:
192,192,65511,1,0,0:0:0:0:
448,192,65551,1,0,0:0:0:0:
320,192,65592,1,0,0:0:0:0:
64,192,65633,1,0,0:0:0:0:
192,192,65673,1,0,0:0:0:0:
448,192,65714,1,0,0:0:0:0:
320,192,65754,1,0,0:0:0:0:
192,192,65795,1,0,0:0:0:0:
64,192,65795,1,0,0:0:0:0:
64,192,65957,1,0,0:0:0:0:
320,192,65957,1,0,0:0:0:0:
448,192,65957,1,0,0:0:0:0:
320,192,66119,1,0,0:0:0:0:
448,192,66119,1,0,0:0:0:0:
192,192,66281,1,0,0:0:0:0:
64,192,66281,1,0,0:0:0:0:
448,192,66443,1,0,0:0:0:0:
192,192,66524,1,0,0:0:0:0:
448,192,66605,1,0,0:0:0:0:
192,192,66687,1,0,0:0:0:0:
64,192,66768,1,0,0:0:0:0:
448,192,66768,1,0,0:0:0:0:
192,192,66768,1,0,0:0:0:0:
192,192,67011,1,0,0:0:0:0:
320,192,67011,1,0,0:0:0:0:
448,192,67011,1,0,0:0:0:0:
320,192,67254,1,0,0:0:0:0:
448,192,67254,1,0,0:0:0:0:
64,192,67254,1,0,0:0:0:0:
64,192,67497,1,0,0:0:0:0:
192,192,67497,1,0,0:0:0:0:
320,192,67497,1,0,0:0:0:0:
448,192,67660,1,0,0:0:0:0:
64,192,67741,1,0,0:0:0:0:
320,192,67741,1,0,0:0:0:0:
192,192,67741,1,0,0:0:0:0:
64,192,67822,1,0,0:0:0:0:
320,192,67903,1,0,0:0:0:0:
448,192,67903,1,0,0:0:0:0:
448,192,67984,1,0,0:0:0:0:
320,192,68065,1,0,0:0:0:0:
192,192,68065,1,0,0:0:0:0:
64,192,68065,1,0,0:0:0:0:
448,192,68227,1,0,0:0:0:0:
448,192,68308,1,0,0:0:0:0:
192,192,68308,1,0,0:0:0:0:
320,192,68389,1,0,0:0:0:0:
64,192,68470,1,0,0:0:0:0:
192,192,68551,1,0,0:0:0:0:
448,192,68551,1,0,0:0:0:0:
320,192,68633,1,0,0:0:0:0:
320,192,68714,1,0,0:0:0:0:
64,192,68714,1,0,0:0:0:0:
448,192,68714,1,0,0:0:0:0:
64,192,68876,1,0,0:0:0:0:
64,192,68957,1,0,0:0:0:0:
448,192,68957,1,0,0:0:0:0:
192,192,69038,1,0,0:0:0:0:
320,192,69119,1,0,0:0:0:0:
64,192,69200,1,0,0:0:0:0:
448,192,69200,1,0,0:0:0:0:
64,192,69281,1,0,0:0:0:0:
192,192,69362,1,0,0:0:0:0:
320,192,69362,1,0,0:0:0:0:
448,192,69362,1,0,0:0:0:0:
320,192,69524,1,0,0:0:0:0:
320,192,69605,1,0,0:0:0:0:
64,192,69605,1,0,0:0:0:0:
192,192,69687,1,0,0:0:0:0:
448,192,69768,1,0,0:0:0:0:
320,192,69849,1,0,0:0:0:0:
64,192,69849,1,0,0:0:0:0:
192,192,69930,1,0,0:0:0:0:
192,192,70011,1,0,0:0:0:0:
448,192,70011,1,0,0:0:0:0:
64,192,70011,1,0,0:0:0:0:
320,192,70173,1,0,0:0:0:0:
320,192,70254,1,0,0:0:0:0:
448,192,70254,1,0,0:0:0:0:
192,192,70335,1,0,0:0:0:0:
64,192,70416,1,0,0:0:0:0:
320,192,70497,1,0,0:0:0:0:
448,192,70497,1,0,0:0:0:0:
192,192,70578,1,0,0:0:0:0:
192,192,70660,1,0,0:0:0:0:
64,192,70660,1,0,0:0:0:0:
448,192,70700,1,0,0:0:0:0:
320,192,70741,1,0,0:0:0:0:
192,192,70781,1,0,0:0:0:0:
64,192,70822,1,0,0:0:0:0:
448,192,70862,1,0,0:0:0:0:
320,192,70903,1,0,0:0:0:0:
192,192,70943,1,0,0:0:0:0:
448,192,70984,1,0,0:0:0:0:
64,192,70984,1,0,0:0:0:0:
320,192,71146,1,0,0:0:0:0:
192,192,71227,1,0,0:0:0:0:
320,192,71308,1,0,0:0:0:0:
448,192,71308,1,0,0:0:0:0:
448,192,71470,1,0,0:0:0:0:
320,192,71511,1,0,0:0:0:0:
192,192,71551,1,0,0:0:0:0:
64,192,71592,1,0,0:0:0:0:
448,192,71633,1,0,0:0:0:0:
320,192,71714,1,0,0:0:0:0:
192,192,71795,1,0,0:0:0:0:
448,192,71876,1,0,0:0:0:0:
192,192,71957,1,0,0:0:0:0:
320,192,71957,128,0,72119:0:0:0:0:
64,192,72038,1,0,0:0:0:0:
448,192,72119,1,0,0:0:0:0:
320,192,72200,1,0,0:0:0:0:
192,192,72281,128,0,72443:0:0:0:0:
64,192,72281,128,0,72524:0:0:0:0:
448,192,72443,1,0,0:0:0:0:
320,192,72524,1,0,0:0:0:0:
192,192,72605,1,0,0:0:0:0:
448,192,72687,1,0,0:0:0:0:
192,192,72768,1,0,0:0:0:0:
320,192,72849,1,0,0:0:0:0:
64,192,72930,1,0,0:0:0:0:
320,192,73011,1,0,0:0:0:0:
64,192,73092,1,0,0:0:0:0:
192,192,73173,1,0,0:0:0:0:
320,192,73254,1,0,0:0:0:0:
448,192,73254,128,0,74389:0:0:0:0:
64,192,73416,1,0,0:0:0:0:
320,192,73578,1,0,0:0:0:0:
192,192,73741,1,0,0:0:0:0:
320,192,73903,1,0,0:0:0:0:
192,192,74065,1,0,0:0:0:0:
64,192,74227,1,0,0:0:0:0:
192,192,74389,1,0,0:0:0:0:
320,192,74551,1,0,0:0:0:0:
448,192,74551,128,0,75687:0:0:0:0:
64,192,74714,1,0,0:0:0:0:
320,192,74876,1,0,0:0:0:0:
192,192,75038,1,0,0:0:0:0:
64,192,75200,1,0,0:0:0:0:
192,192,75362,1,0,0:0:0:0:
320,192,75524,1,0,0:0:0:0:
192,192,75687,1,0,0:0:0:0:
320,192,75849,1,0,0:0:0:0:
448,192,75849,128,0,76984:0:0:0:0:
64,192,76011,1,0,0:0:0:0:
320,192,76173,1,0,0:0:0:0:
192,192,76335,1,0,0:0:0:0:
320,192,76497,1,0,0:0:0:0:
64,192,76660,1,0,0:0:0:0:
192,192,76822,1,0,0:0:0:0:
320,192,76984,1,0,0:0:0:0:
64,192,77146,128,0,78281:0:0:0:0:
192,192,77146,1,0,0:0:0:0:
448,192,77308,1,0,0:0:0:0:
192,192,77470,1,0,0:0:0:0:
320,192,77633,1,0,0:0:0:0:
192,192,77795,1,0,0:0:0:0:
320,192,77957,1,0,0:0:0:0:
448,192,78119,1,0,0:0:0:0:
320,192,78281,1,0,0:0:0:0:
192,192,78443,1,0,0:0:0:0:
64,192,78443,128,0,79578:0:0:0:0:
448,192,78605,1,0,0:0:0:0:
192,192,78768,1,0,0:0:0:0:
320,192,78930,1,0,0:0:0:0:
448,192,79092,1,0,0:0:0:0:
320,192,79254,1,0,0:0:0:0:
192,192,79416,1,0,0:0:0:0:
320,192,79578,1,0,0:0:0:0:
448,192,79741,128,0,79903:0:0:0:0:
64,192,79741,128,0,79903:0:0:0:0:
192,192,79903,1,0,0:0:0:0:
448,192,80065,128,0,80227:0:0:0:0:
64,192,80065,128,0,80227:0:0:0:0:
320,192,80227,1,0,0:0:0:0:
64,192,80389,128,0,80551:0:0:0:0:
448,192,80389,128,0,80551:0:0:0:0:
192,192,80551,1,0,0:0:0:0:
448,192,80714,128,0,80876:0:0:0:0:
64,192,80714,128,0,80876:0:0:0:0:
320,192,80876,1,0,0:0:0:0:
192,192,81038,1,0,0:0:0:0:
64,192,81038,1,0,0:0:0:0:
192,192,81200,1,0,0:0:0:0:
64,192,81200,1,0,0:0:0:0:
320,192,81362,1,0,0:0:0:0:
448,192,81362,1,0,0:0:0:0:
320,192,81524,1,0,0:0:0:0:
448,192,81524,1,0,0:0:0:0:
192,192,81687,1,0,0:0:0:0:
64,192,81687,1,0,0:0:0:0:
64,192,81849,1,0,0:0:0:0:
192,192,81849,1,0,0:0:0:0:
320,192,82011,1,0,0:0:0:0:
448,192,82011,1,0,0:0:0:0:
320,192,82173,1,0,0:0:0:0:
448,192,82173,1,0,0:0:0:0:
64,192,82335,1,0,0:0:0:0:
192,192,82335,1,0,0:0:0:0:
448,192,82416,1,0,0:0:0:0:
320,192,82497,1,0,0:0:0:0:
320,192,82578,1,0,0:0:0:0:
192,192,82660,1,0,0:0:0:0:
64,192,82660,1,0,0:0:0:0:
448,192,82741,1,0,0:0:0:0:
320,192,82822,1,0,0:0:0:0:
320,192,82903,1,0,0:0:0:0:
64,192,82984,1,0,0:0:0:0:
448,192,82984,1,0,0:0:0:0:
192,192,83065,1,0,0:0:0:0:
320,192,83146,1,0,0:0:0:0:
320,192,83227,1,0,0:0:0:0:
64,192,83308,1,0,0:0:0:0:
448,192,83308,1,0,0:0:0:0:
192,192,83389,1,0,0:0:0:0:
320,192,83470,1,0,0:0:0:0:
320,192,83551,1,0,0:0:0:0:
192,192,83633,1,0,0:0:0:0:
64,192,83633,1,0,0:0:0:0:
448,192,83633,1,0,0:0:0:0:
320,192,83795,1,0,0:0:0:0:
192,192,83876,1,0,0:0:0:0:
64,192,83957,128,0,84281:0:0:0:0:
192,192,84281,1,0,0:0:0:0:
448,192,84281,1,0,0:0:0:0:
320,192,84281,1,0,0:0:0:0:
64,192,84443,1,0,0:0:0:0:
192,192,84524,1,0,0:0:0:0:
320,192,84605,128,0,84930:0:0:0:0:
64,192,84930,128,0,85497:0:0:0:0:
192,192,84930,1,0,0:0:0:0:
448,192,84930,1,0,0:0:0:0:
320,192,85254,128,0,85497:0:0:0:0:
192,192,85254,128,0,85497:0:0:0:0:
448,192,85254,128,0,85822:0:0:0:0:
192,192,85578,128,0,85822:0:0:0:0:
320,192,85578,128,0,85822:0:0:0:0:
64,192,85578,128,0,86146:0:0:0:0:
192,192,85903,128,0,86146:0:0:0:0:
320,192,85903,128,0,86146:0:0:0:0:
448,192,85903,128,0,86146:0:0:0:0:
64,192,86227,1,0,0:0:0:0:
192,192,86227,1,0,0:0:0:0:
320,192,86227,1,0,0:0:0:0:
448,192,86389,1,0,0:0:0:0:
320,192,86470,1,0,0:0:0:0:
192,192,86551,1,0,0:0:0:0:
64,192,86551,128,0,86795:0:0:0:0:
448,192,86633,1,0,0:0:0:0:
320,192,86714,1,0,0:0:0:0:
192,192,86795,1,0,0:0:0:0:
448,192,86876,1,0,0:0:0:0:
64,192,86876,1,0,0:0:0:0:
192,192,87038,1,0,0:0:0:0:
320,192,87119,1,0,0:0:0:0:
64,192,87200,1,0,0:0:0:0:
192,192,87200,1,0,0:0:0:0:
448,192,87281,1,0,0:0:0:0:
320,192,87362,1,0,0:0:0:0:
64,192,87443,1,0,0:0:0:0:
192,192,87524,1,0,0:0:0:0:
448,192,87524,1,0,0:0:0:0:
320,192,87524,1,0,0:0:0:0:
64,192,87605,1,0,0:0:0:0:
192,192,87687,1,0,0:0:0:0:
320,192,87768,1,0,0:0:0:0:
192,192,87849,1,0,0:0:0:0:
64,192,87849,1,0,0:0:0:0:
448,192,87849,1,0,0:0:0:0:
320,192,87930,1,0,0:0:0:0:
192,192,88011,1,0,0:0:0:0:
448,192,88092,1,0,0:0:0:0:
320,192,88173,1,0,0:0:0:0:
64,192,88173,1,0,0:0:0:0:
192,192,88173,1,0,0:0:0:0:
64,192,88281,1,0,0:0:0:0:
448,192,88281,1,0,0:0:0:0:
448,192,88389,1,0,0:0:0:0:
64,192,88389,1,0,0:0:0:0:
192,192,88497,1,0,0:0:0:0:
320,192,88497,1,0,0:0:0:0:
448,192,88497,1,0,0:0:0:0:
192,192,88605,1,0,0:0:0:0:
320,192,88605,1,0,0:0:0:0:
192,192,88714,1,0,0:0:0:0:
320,192,88714,1,0,0:0:0:0:
448,192,88822,128,0,89146:0:0:0:0:
64,192,88822,128,0,89065:0:0:0:0:
64,192,89146,1,0,0:0:0:0:
192,192,89146,1,0,0:0:0:0:
320,192,89146,1,0,0:0:0:0:
448,192,89308,1,0,0:0:0:0:
448,192,89389,1,0,0:0:0:0:
320,192,89470,1,0,0:0:0:0:
64,192,89470,1,0,0:0:0:0:
192,192,89633,1,0,0:0:0:0:
192,192,89714,1,0,0:0:0:0:
320,192,89795,1,0,0:0:0:0:
448,192,89795,1,0,0:0:0:0:
64,192,89957,1,0,0:0:0:0:
64,192,90038,1,0,0:0:0:0:
192,192,90119,1,0,0:0:0:0:
448,192,90119,1,0,0:0:0:0:
320,192,90281,1,0,0:0:0:0:
320,192,90362,1,0,0:0:0:0:
192,192,90443,1,0,0:0:0:0:
64,192,90443,1,0,0:0:0:0:
448,192,90524,1,0,0:0:0:0:
320,192,90605,1,0,0:0:0:0:
192,192,90605,1,0,0:0:0:0:
64,192,90687,1,0,0:0:0:0:
320,192,90768,1,0,0:0:0:0:
448,192,90768,1,0,0:0:0:0:
64,192,90930,1,0,0:0:0:0:
320,192,91011,1,0,0:0:0:0:
64,192,91092,1,0,0:0:0:0:
192,192,91092,1,0,0:0:0:0:
448,192,91173,1,0,0:0:0:0:
320,192,91254,1,0,0:0:0:0:
192,192,91335,1,0,0:0:0:0:
320,192,91416,1,0,0:0:0:0:
448,192,91416,1,0,0:0:0:0:
64,192,91497,1,0,0:0:0:0:
64,192,91578,1,0,0:0:0:0:
192,192,91660,1,0,0:0:0:0:
192,192,91741,1,0,0:0:0:0:
448,192,91741,1,0,0:0:0:0:
320,192,91822,1,0,0:0:0:0:
64,192,91903,1,0,0:0:0:0:
192,192,91984,1,0,0:0:0:0:
320,192,92065,1,0,0:0:0:0:
448,192,92065,1,0,0:0:0:0:
192,192,92146,1,0,0:0:0:0:
320,192,92227,1,0,0:0:0:0:
320,192,92308,1,0,0:0:0:0:
448,192,92389,1,0,0:0:0:0:
64,192,92389,1,0,0:0:0:0:
192,192,92470,1,0,0:0:0:0:
64,192,92551,1,0,0:0:0:0:
192,192,92633,1,0,0:0:0:0:
320,192,92714,1,0,0:0:0:0:
448,192,92714,1,0,0:0:0:0:
448,192,92876,1,0,0:0:0:0:
320,192,92876,1,0,0:0:0:0:
192,192,93038,1,0,0:0:0:0:
64,192,93038,1,0,0:0:0:0:
64,192,93200,1,0,0:0:0:0:
192,192,93200,1,0,0:0:0:0:
320,192,93362,1,0,0:0:0:0:
448,192,93362,1,0,0:0:0:0:
192,192,93443,1,0,0:0:0:0:
64,192,93443,1,0,0:0:0:0:
320,192,93524,1,0,0:0:0:0:
448,192,93524,1,0,0:0:0:0:
192,192,93605,1,0,0:0:0:0:
64,192,93605,1,0,0:0:0:0:
320,192,93687,1,0,0:0:0:0:
448,192,93687,1,0,0:0:0:0:
64,192,93768,1,0,0:0:0:0:
192,192,93849,1,0,0:0:0:0:
320,192,93930,1,0,0:0:0:0:
448,192,94011,128,0,94281:0:0:0:0:
320,192,94119,128,0,94281:0:0:0:0:
192,192,94227,128,0,94281:0:0:0:0:
320,192,94335,1,0,0:0:0:0:
448,192,94335,1,0,0:0:0:0:
192,192,94335,1,0,0:0:0:0:
64,192,94335,1,0,0:0:0:0:
64,192,94497,1,0,0:0:0:0:
192,192,94578,1,0,0:0:0:0:
320,192,94660,1,0,0:0:0:0:
448,192,94660,128,0,94822:0:0:0:0:
192,192,94822,1,0,0:0:0:0:
320,192,94903,128,0,95065:0:0:0:0:
64,192,94903,1,0,0:0:0:0:
448,192,94984,1,0,0:0:0:0:
64,192,95065,1,0,0:0:0:0:
192,192,95146,128,0,95227:0:0:0:0:
448,192,95227,1,0,0:0:0:0:
320,192,95227,1,0,0:0:0:0:
192,192,95308,1,0,0:0:0:0:
64,192,95308,128,0,95470:0:0:0:0:
320,192,95470,1,0,0:0:0:0:
448,192,95470,1,0,0:0:0:0:
192,192,95551,1,0,0:0:0:0:
64,192,95633,1,0,0:0:0:0:
448,192,95633,1,0,0:0:0:0:
192,192,95714,128,0,95876:0:0:0:0:
320,192,95795,1,0,0:0:0:0:
64,192,95876,1,0,0:0:0:0:
320,192,95957,128,0,96119:0:0:0:0:
448,192,95957,1,0,0:0:0:0:
64,192,96119,1,0,0:0:0:0:
320,192,96200,128,0,96362:0:0:0:0:
192,192,96200,1,0,0:0:0:0:
448,192,96281,1,0,0:0:0:0:
64,192,96443,1,0,0:0:0:0:
192,192,96484,1,0,0:0:0:0:
320,192,96524,1,0,0:0:0:0:
448,192,96565,1,0,0:0:0:0:
192,192,96605,1,0,0:0:0:0:
64,192,96605,1,0,0:0:0:0:
320,192,96687,1,0,0:0:0:0:
448,192,96768,1,0,0:0:0:0:
192,192,96849,1,0,0:0:0:0:
64,192,96849,1,0,0:0:0:0:
320,192,96930,1,0,0:0:0:0:
448,192,96930,1,0,0:0:0:0:
192,192,97011,1,0,0:0:0:0:
64,192,97092,1,0,0:0:0:0:
448,192,97092,1,0,0:0:0:0:
320,192,97173,1,0,0:0:0:0:
192,192,97173,1,0,0:0:0:0:
448,192,97254,1,0,0:0:0:0:
64,192,97254,1,0,0:0:0:0:
320,192,97335,1,0,0:0:0:0:
192,192,97416,1,0,0:0:0:0:
64,192,97416,1,0,0:0:0:0:
320,192,97497,1,0,0:0:0:0:
448,192,97497,1,0,0:0:0:0:
64,192,97578,1,0,0:0:0:0:
192,192,97578,1,0,0:0:0:0:
320,192,97660,1,0,0:0:0:0:
448,192,97741,1,0,0:0:0:0:
64,192,97741,1,0,0:0:0:0:
192,192,97822,1,0,0:0:0:0:
320,192,97822,1,0,0:0:0:0:
64,192,97903,1,0,0:0:0:0:
448,192,97903,1,0,0:0:0:0:
64,192,98011,1,0,0:0:0:0:
320,192,98011,1,0,0:0:0:0:
192,192,98119,1,0,0:0:0:0:
448,192,98119,1,0,0:0:0:0:
448,192,98227,1,0,0:0:0:0:
64,192,98227,1,0,0:0:0:0:
320,192,98335,1,0,0:0:0:0:
192,192,98335,1,0,0:0:0:0:
64,192,98443,1,0,0:0:0:0:
448,192,98443,1,0,0:0:0:0:
192,192,98551,1,0,0:0:0:0:
320,192,98551,1,0,0:0:0:0:
320,192,98660,1,0,0:0:0:0:
448,192,98660,1,0,0:0:0:0:
64,192,98768,1,0,0:0:0:0:
448,192,98768,1,0,0:0:0:0:
64,192,98876,1,0,0:0:0:0:
192,192,98876,1,0,0:0:0:0:
320,192,98984,1,0,0:0:0:0:
448,192,98984,1,0,0:0:0:0:
192,192,99038,1,0,0:0:0:0:
64,192,99038,1,0,0:0:0:0:
320,192,99119,1,0,0:0:0:0:
448,192,99119,1,0,0:0:0:0:
192,192,99200,128,0,99443:0:0:0:0:
64,192,99200,128,0,99443:0:0:0:0:
320,192,99524,1,0,0:0:0:0:
448,192,99524,1,0,0:0:0:0:
64,192,99524,1,0,0:0:0:0:
448,192,99687,1,0,0:0:0:0:
64,192,99687,1,0,0:0:0:0:
192,192,99768,1,0,0:0:0:0:
320,192,99849,1,0,0:0:0:0:
448,192,99849,1,0,0:0:0:0:
320,192,100011,1,0,0:0:0:0:
192,192,100092,1,0,0:0:0:0:
64,192,100173,1,0,0:0:0:0:
448,192,100173,1,0,0:0:0:0:
448,192,100254,1,0,0:0:0:0:
192,192,100335,1,0,0:0:0:0:
192,192,100416,1,0,0:0:0:0:
64,192,100497,1,0,0:0:0:0:
448,192,100497,1,0,0:0:0:0:
320,192,100578,1,0,0:0:0:0:
64,192,100660,1,0,0:0:0:0:
320,192,100741,1,0,0:0:0:0:
64,192,100741,1,0,0:0:0:0:
192,192,100822,1,0,0:0:0:0:
448,192,100822,1,0,0:0:0:0:
320,192,100903,1,0,0:0:0:0:
64,192,100984,1,0,0:0:0:0:
192,192,101065,1,0,0:0:0:0:
320,192,101146,1,0,0:0:0:0:
448,192,101146,1,0,0:0:0:0:
64,192,101227,1,0,0:0:0:0:
320,192,101308,1,0,0:0:0:0:
448,192,101308,1,0,0:0:0:0:
192,192,101389,1,0,0:0:0:0:
64,192,101389,1,0,0:0:0:0:
448,192,101470,1,0,0:0:0:0:
64,192,101470,1,0,0:0:0:0:
320,192,101551,1,0,0:0:0:0:
192,192,101633,1,0,0:0:0:0:
64,192,101633,1,0,0:0:0:0:
320,192,101714,1,0,0:0:0:0:
448,192,101714,1,0,0:0:0:0:
64,192,101795,1,0,0:0:0:0:
448,192,101795,128,0,102038:0:0:0:0:
64,192,102038,1,0,0:0:0:0:
192,192,102038,1,0,0:0:0:0:
320,192,102119,128,0,102200:0:0:0:0:
448,192,102119,128,0,102200:0:0:0:0:
192,192,102200,1,0,0:0:0:0:
64,192,102200,1,0,0:0:0:0:
320,192,102281,1,0,0:0:0:0:
448,192,102281,1,0,0:0:0:0:
192,192,102362,1,0,0:0:0:0:
64,192,102443,128,0,102605:0:0:0:0:
448,192,102443,1,0,0:0:0:0:
320,192,102524,1,0,0:0:0:0:
192,192,102605,1,0,0:0:0:0:
320,192,102687,1,0,0:0:0:0:
448,192,102687,1,0,0:0:0:0:
192,192,102768,128,0,102849:0:0:0:0:
64,192,102768,128,0,102849:0:0:0:0:
320,192,102849,1,0,0:0:0:0:
448,192,102849,1,0,0:0:0:0:
64,192,102930,128,0,103011:0:0:0:0:
320,192,103011,1,0,0:0:0:0:
448,192,103011,1,0,0:0:0:0:
192,192,103092,128,0,103173:0:0:0:0:
320,192,103173,1,0,0:0:0:0:
448,192,103173,1,0,0:0:0:0:
192,192,103254,128,0,103335:0:0:0:0:
64,192,103254,128,0,103335:0:0:0:0:
320,192,103335,1,0,0:0:0:0:
448,192,103335,1,0,0:0:0:0:
64,192,103416,128,0,103497:0:0:0:0:
320,192,103497,1,0,0:0:0:0:
448,192,103497,1,0,0:0:0:0:
192,192,103578,128,0,103741:0:0:0:0:
64,192,103660,128,0,103741:0:0:0:0:
320,192,103741,1,0,0:0:0:0:
320,192,103822,1,0,0:0:0:0:
192,192,103903,1,0,0:0:0:0:
192,192,103984,1,0,0:0:0:0:
448,192,104065,1,0,0:0:0:0:
192,192,104146,1,0,0:0:0:0:
64,192,104146,1,0,0:0:0:0:
320,192,104227,1,0,0:0:0:0:
448,192,104227,1,0,0:0:0:0:
192,192,104308,1,0,0:0:0:0:
64,192,104308,1,0,0:0:0:0:
320,192,104389,128,0,104551:0:0:0:0:
64,192,104551,1,0,0:0:0:0:
192,192,104551,1,0,0:0:0:0:
448,192,104633,1,0,0:0:0:0:
448,192,104714,1,0,0:0:0:0:
64,192,104714,128,0,104876:0:0:0:0:
320,192,104876,1,0,0:0:0:0:
192,192,104957,1,0,0:0:0:0:
64,192,105038,128,0,105119:0:0:0:0:
448,192,105038,1,0,0:0:0:0:
448,192,105200,128,0,105281:0:0:0:0:
320,192,105200,1,0,0:0:0:0:
192,192,105281,1,0,0:0:0:0:
192,192,105362,1,0,0:0:0:0:
64,192,105362,128,0,105605:0:0:0:0:
320,192,105524,128,0,105605:0:0:0:0:
448,192,105524,128,0,105605:0:0:0:0:
192,192,105605,1,0,0:0:0:0:
448,192,105687,128,0,105849:0:0:0:0:
64,192,105687,128,0,105849:0:0:0:0:
320,192,105849,1,0,0:0:0:0:
192,192,105930,1,0,0:0:0:0:
64,192,106011,128,0,106173:0:0:0:0:
192,192,106011,128,0,106173:0:0:0:0:
448,192,106173,1,0,0:0:0:0:
320,192,106254,1,0,0:0:0:0:
448,192,106335,1,0,0:0:0:0:
320,192,106335,128,0,106416:0:0:0:0:
192,192,106497,128,0,106578:0:0:0:0:
64,192,106578,1,0,0:0:0:0:
64,192,106660,1,0,0:0:0:0:
448,192,106660,128,0,106741:0:0:0:0:
320,192,106822,128,0,106984:0:0:0:0:
192,192,106822,128,0,106984:0:0:0:0:
64,192,106984,1,0,0:0:0:0:
448,192,106984,1,0,0:0:0:0:
192,192,107065,1,0,0:0:0:0:
320,192,107065,1,0,0:0:0:0:
64,192,107146,1,0,0:0:0:0:
448,192,107146,1,0,0:0:0:0:
192,192,107227,1,0,0:0:0:0:
320,192,107308,1,0,0:0:0:0:
448,192,107308,1,0,0:0:0:0:
64,192,107308,1,0,0:0:0:0:
192,192,107389,1,0,0:0:0:0:
64,192,107470,1,0,0:0:0:0:
448,192,107470,1,0,0:0:0:0:
320,192,107551,1,0,0:0:0:0:
192,192,107633,1,0,0:0:0:0:
64,192,107633,1,0,0:0:0:0:
448,192,107633,1,0,0:0:0:0:
320,192,107714,1,0,0:0:0:0:
448,192,107795,1,0,0:0:0:0:
64,192,107795,1,0,0:0:0:0:
192,192,107876,1,0,0:0:0:0:
320,192,107957,1,0,0:0:0:0:
448,192,107957,1,0,0:0:0:0:
64,192,107957,1,0,0:0:0:0:
192,192,108038,1,0,0:0:0:0:
64,192,108119,1,0,0:0:0:0:
448,192,108119,1,0,0:0:0:0:
320,192,108200,1,0,0:0:0:0:
192,192,108281,1,0,0:0:0:0:
64,192,108281,1,0,0:0:0:0:
448,192,108281,1,0,0:0:0:0:
192,192,108443,1,0,0:0:0:0:
320,192,108443,1,0,0:0:0:0:
320,192,108605,1,0,0:0:0:0:
448,192,108605,1,0,0:0:0:0:
64,192,108605,1,0,0:0:0:0:
64,192,108768,1,0,0:0:0:0:
192,192,108768,1,0,0:0:0:0:
192,192,108930,1,0,0:0:0:0:
320,192,108930,1,0,0:0:0:0:
448,192,109092,128,0,109416:0:0:0:0:
64,192,109254,128,0,109578:0:0:0:0:
448,192,109578,1,0,0:0:0:0:
320,192,109619,1,0,0:0:0:0:
64,192,109660,1,0,0:0:0:0:
192,192,109700,1,0,0:0:0:0:
448,192,109741,1,0,0:0:0:0:
320,192,109781,1,0,0:0:0:0:
64,192,109822,1,0,0:0:0:0:
192,192,109862,1,0,0:0:0:0:
448,192,109903,1,0,0:0:0:0:
320,192,109903,1,0,0:0:0:0:
320,192,109984,1,0,0:0:0:0:
448,192,109984,1,0,0:0:0:0:
192,192,110065,1,0,0:0:0:0:
64,192,110065,1,0,0:0:0:0:
192,192,110146,1,0,0:0:0:0:
64,192,110146,1,0,0:0:0:0:
320,192,110227,1,0,0:0:0:0:
448,192,110227,1,0,0:0:0:0:
320,192,110389,1,0,0:0:0:0:
448,192,110389,1,0,0:0:0:0:
192,192,110551,1,0,0:0:0:0:
64,192,110551,1,0,0:0:0:0:
64,192,110633,1,0,0:0:0:0:
192,192,110633,1,0,0:0:0:0:
320,192,110714,1,0,0:0:0:0:
448,192,110714,1,0,0:0:0:0:
448,192,110795,1,0,0:0:0:0:
320,192,110795,1,0,0:0:0:0:
192,192,110876,1,0,0:0:0:0:
64,192,110876,1,0,0:0:0:0:
320,192,111038,1,0,0:0:0:0:
448,192,111038,1,0,0:0:0:0:
64,192,111078,1,0,0:0:0:0:
192,192,111119,1,0,0:0:0:0:
320,192,111160,1,0,0:0:0:0:
448,192,111200,1,0,0:0:0:0:
64,192,111200,1,0,0:0:0:0:
192,192,111362,1,0,0:0:0:0:
64,192,111362,1,0,0:0:0:0:
448,192,111403,1,0,0:0:0:0:
320,192,111443,1,0,0:0:0:0:
192,192,111484,1,0,0:0:0:0:
64,192,111524,1,0,0:0:0:0:
448,192,111524,1,0,0:0:0:0:
320,192,111687,128,0,111849:0:0:0:0:
448,192,111687,128,0,111849:0:0:0:0:
192,192,111849,1,0,0:0:0:0:
64,192,111849,1,0,0:0:0:0:
192,192,112011,128,0,112173:0:0:0:0:
64,192,112011,128,0,112173:0:0:0:0:
320,192,112173,1,0,0:0:0:0:
448,192,112173,1,0,0:0:0:0:
192,192,112254,1,0,0:0:0:0:
64,192,112254,1,0,0:0:0:0:
320,192,112335,1,0,0:0:0:0:
448,192,112335,1,0,0:0:0:0:
192,192,112416,1,0,0:0:0:0:
64,192,112497,1,0,0:0:0:0:
448,192,112497,1,0,0:0:0:0:
320,192,112578,1,0,0:0:0:0:
192,192,112660,1,0,0:0:0:0:
64,192,112660,1,0,0:0:0:0:
448,192,112700,1,0,0:0:0:0:
320,192,112741,1,0,0:0:0:0:
192,192,112781,1,0,0:0:0:0:
64,192,112822,1,0,0:0:0:0:
448,192,112822,1,0,0:0:0:0:
320,192,112903,1,0,0:0:0:0:
192,192,112984,1,0,0:0:0:0:
64,192,112984,1,0,0:0:0:0:
320,192,113065,1,0,0:0:0:0:
448,192,113065,1,0,0:0:0:0:
64,192,113146,1,0,0:0:0:0:
192,192,113146,1,0,0:0:0:0:
320,192,113227,1,0,0:0:0:0:
448,192,113308,1,0,0:0:0:0:
64,192,113308,1,0,0:0:0:0:
192,192,113349,1,0,0:0:0:0:
320,192,113389,1,0,0:0:0:0:
448,192,113430,1,0,0:0:0:0:
192,192,113470,1,0,0:0:0:0:
64,192,113470,1,0,0:0:0:0:
320,192,113551,1,0,0:0:0:0:
192,192,113633,1,0,0:0:0:0:
64,192,113633,1,0,0:0:0:0:
320,192,113714,1,0,0:0:0:0:
192,192,113795,1,0,0:0:0:0:
64,192,113795,1,0,0:0:0:0:
448,192,113876,1,0,0:0:0:0:
192,192,113957,1,0,0:0:0:0:
64,192,113957,1,0,0:0:0:0:
448,192,114038,1,0,0:0:0:0:
64,192,114119,1,0,0:0:0:0:
192,192,114119,1,0,0:0:0:0:
192,192,114227,1,0,0:0:0:0:
320,192,114227,1,0,0:0:0:0:
320,192,114335,1,0,0:0:0:0:
448,192,114335,1,0,0:0:0:0:
192,192,114443,1,0,0:0:0:0:
64,192,114443,1,0,0:0:0:0:
64,192,114551,1,0,0:0:0:0:
192,192,114551,1,0,0:0:0:0:
320,192,114660,1,0,0:0:0:0:
448,192,114660,1,0,0:0:0:0:
192,192,115092,128,0,118578:0:0:0:0:
448,192,115092,128,0,119957:0:0:0:0:
320,192,115092,128,0,119957:0:0:0:0:
64,192,117849,128,0,119957:0:0:0:0:
192,192,118660,128,0,119957:0:0:0:0:
