osu file format v14

[General]
AudioFilename: Maika - Goldrop.mp3
AudioLeadIn: 0
PreviewTime: 53244
Countdown: 0
SampleSet: Normal
StackLeniency: 0.7
Mode: 3
LetterboxInBreaks: 0
SpecialStyle: 0
WidescreenStoryboard: 1

[Editor]
Bookmarks: 153723,163586
DistanceSpacing: 0.8
BeatDivisor: 4
GridSize: 4
TimelineZoom: 2.5

[Metadata]
Title:Envory's 4K Practice pack Vol 2
TitleUnicode:Envory's 4K Practice pack Vol 2
Artist:Various Artist
ArtistUnicode:Various Artist
Creator:Envory
Version:Maika - Goldrop [LN]
Source:
Tags:
BeatmapID:1826492
BeatmapSetID:865382

[Difficulty]
HPDrainRate:8
CircleSize:4
OverallDifficulty:7
ApproachRate:5
SliderMultiplier:1.4
SliderTickRate:1

[Events]
//Background and Video events
0,0,"bg.jpg",0,0
//Break Periods
2,153923,162386
//Storyboard Layer 0 (Background)
//Storyboard Layer 1 (Fail)
//Storyboard Layer 2 (Pass)
//Storyboard Layer 3 (Foreground)
//Storyboard Sound Samples

[TimingPoints]
847,410.958904109589,4,1,0,40,1,0

[HitObjects]
64,192,847,5,0,0:0:0:0:
448,192,847,1,0,0:0:0:0:
320,192,1052,1,0,0:0:0:0:
192,192,1155,1,0,0:0:0:0:
64,192,1257,1,0,0:0:0:0:
448,192,1257,1,0,0:0:0:0:
320,192,1360,1,0,0:0:0:0:
192,192,1463,1,0,0:0:0:0:
64,192,1463,1,0,0:0:0:0:
320,192,1668,1,0,0:0:0:0:
448,192,1668,1,0,0:0:0:0:
192,192,1874,128,0,2079:0:0:0:0:
64,192,2079,1,0,0:0:0:0:
192,192,2285,1,0,0:0:0:0:
320,192,2490,1,0,0:0:0:0:
448,192,2490,1,0,0:0:0:0:
64,192,2696,1,0,0:0:0:0:
192,192,2799,1,0,0:0:0:0:
320,192,2901,1,0,0:0:0:0:
448,192,2901,1,0,0:0:0:0:
192,192,3004,1,0,0:0:0:0:
64,192,3107,1,0,0:0:0:0:
320,192,3312,1,0,0:0:0:0:
192,192,3518,1,0,0:0:0:0:
448,192,3723,1,0,0:0:0:0:
320,192,3929,1,0,0:0:0:0:
64,192,4134,1,0,0:0:0:0:
192,192,4134,1,0,0:0:0:0:
320,192,4545,1,0,0:0:0:0:
192,192,4751,128,0,4956:0:0:0:0:
448,192,4956,1,0,0:0:0:0:
320,192,5162,1,0,0:0:0:0:
192,192,5367,1,0,0:0:0:0:
448,192,5573,1,0,0:0:0:0:
64,192,5573,1,0,0:0:0:0:
320,192,5675,1,0,0:0:0:0:
64,192,5778,1,0,0:0:0:0:
192,192,5778,1,0,0:0:0:0:
448,192,6086,1,0,0:0:0:0:
320,192,6189,1,0,0:0:0:0:
448,192,6394,1,0,0:0:0:0:
64,192,6394,1,0,0:0:0:0:
192,192,6600,1,0,0:0:0:0:
192,192,6703,1,0,0:0:0:0:
320,192,6805,1,0,0:0:0:0:
448,192,6805,1,0,0:0:0:0:
64,192,6805,128,0,7216:0:0:0:0:
192,192,7011,128,0,7422:0:0:0:0:
320,192,7011,1,0,0:0:0:0:
448,192,7011,1,0,0:0:0:0:
320,192,7422,1,0,0:0:0:0:
64,192,7422,1,0,0:0:0:0:
448,192,7422,1,0,0:0:0:0:
320,192,7627,1,0,0:0:0:0:
192,192,7627,1,0,0:0:0:0:
64,192,7833,1,0,0:0:0:0:
448,192,7833,1,0,0:0:0:0:
192,192,7833,1,0,0:0:0:0:
320,192,8038,1,0,0:0:0:0:
64,192,8038,1,0,0:0:0:0:
320,192,8244,1,0,0:0:0:0:
192,192,8244,1,0,0:0:0:0:
192,192,8449,1,0,0:0:0:0:
448,192,8449,1,0,0:0:0:0:
64,192,8655,1,0,0:0:0:0:
448,192,8655,1,0,0:0:0:0:
320,192,8860,1,0,0:0:0:0:
192,192,8860,1,0,0:0:0:0:
448,192,9066,1,0,0:0:0:0:
64,192,9066,1,0,0:0:0:0:
320,192,9066,1,0,0:0:0:0:
192,192,9271,1,0,0:0:0:0:
320,192,9271,1,0,0:0:0:0:
192,192,9477,1,0,0:0:0:0:
64,192,9477,1,0,0:0:0:0:
448,192,9477,1,0,0:0:0:0:
320,192,9682,1,0,0:0:0:0:
448,192,9682,1,0,0:0:0:0:
64,192,9682,1,0,0:0:0:0:
64,192,9888,1,0,0:0:0:0:
192,192,9888,1,0,0:0:0:0:
448,192,9888,1,0,0:0:0:0:
192,192,10093,1,0,0:0:0:0:
64,192,10093,1,0,0:0:0:0:
320,192,10093,1,0,0:0:0:0:
448,192,10299,1,0,0:0:0:0:
320,192,10299,1,0,0:0:0:0:
192,192,10299,1,0,0:0:0:0:
320,192,10504,1,0,0:0:0:0:
448,192,10504,1,0,0:0:0:0:
64,192,10504,1,0,0:0:0:0:
64,192,10710,1,0,0:0:0:0:
320,192,10710,1,0,0:0:0:0:
448,192,10710,128,0,11531:0:0:0:0:
192,192,10710,1,0,0:0:0:0:
64,192,10915,1,0,0:0:0:0:
192,192,10915,1,0,0:0:0:0:
64,192,11120,1,0,0:0:0:0:
192,192,11120,1,0,0:0:0:0:
64,192,11326,1,0,0:0:0:0:
320,192,11326,1,0,0:0:0:0:
192,192,11326,1,0,0:0:0:0:
192,192,11531,1,0,0:0:0:0:
320,192,11531,1,0,0:0:0:0:
64,192,11531,128,0,11942:0:0:0:0:
192,192,11737,1,0,0:0:0:0:
448,192,11737,1,0,0:0:0:0:
192,192,11942,1,0,0:0:0:0:
448,192,11942,128,0,12353:0:0:0:0:
320,192,11942,1,0,0:0:0:0:
320,192,12148,128,0,12559:0:0:0:0:
192,192,12148,1,0,0:0:0:0:
64,192,12148,1,0,0:0:0:0:
192,192,12353,128,0,12764:0:0:0:0:
448,192,12559,1,0,0:0:0:0:
64,192,12559,128,0,12970:0:0:0:0:
320,192,12764,128,0,12970:0:0:0:0:
192,192,12970,1,0,0:0:0:0:
448,192,12970,1,0,0:0:0:0:
320,192,13175,1,0,0:0:0:0:
448,192,13278,1,0,0:0:0:0:
192,192,13381,1,0,0:0:0:0:
320,192,13483,1,0,0:0:0:0:
64,192,13586,1,0,0:0:0:0:
192,192,13689,1,0,0:0:0:0:
448,192,13792,1,0,0:0:0:0:
320,192,13894,1,0,0:0:0:0:
192,192,13997,1,0,0:0:0:0:
64,192,13997,1,0,0:0:0:0:
448,192,14203,1,0,0:0:0:0:
192,192,14408,1,0,0:0:0:0:
64,192,14408,1,0,0:0:0:0:
320,192,14614,1,0,0:0:0:0:
192,192,14819,1,0,0:0:0:0:
64,192,14819,1,0,0:0:0:0:
64,192,15025,1,0,0:0:0:0:
448,192,15230,1,0,0:0:0:0:
320,192,15230,1,0,0:0:0:0:
192,192,15436,1,0,0:0:0:0:
320,192,15538,1,0,0:0:0:0:
64,192,15641,1,0,0:0:0:0:
448,192,15641,1,0,0:0:0:0:
192,192,15744,1,0,0:0:0:0:
320,192,15846,1,0,0:0:0:0:
448,192,15846,1,0,0:0:0:0:
448,192,16052,1,0,0:0:0:0:
64,192,16052,1,0,0:0:0:0:
320,192,16257,1,0,0:0:0:0:
192,192,16463,1,0,0:0:0:0:
64,192,16463,1,0,0:0:0:0:
448,192,16668,1,0,0:0:0:0:
320,192,16771,1,0,0:0:0:0:
192,192,16874,1,0,0:0:0:0:
64,192,16874,1,0,0:0:0:0:
320,192,16977,1,0,0:0:0:0:
192,192,17079,1,0,0:0:0:0:
320,192,17182,1,0,0:0:0:0:
64,192,17285,1,0,0:0:0:0:
448,192,17285,1,0,0:0:0:0:
192,192,17490,1,0,0:0:0:0:
320,192,17696,1,0,0:0:0:0:
448,192,17696,1,0,0:0:0:0:
64,192,17901,1,0,0:0:0:0:
320,192,18107,1,0,0:0:0:0:
448,192,18107,1,0,0:0:0:0:
320,192,18312,1,0,0:0:0:0:
192,192,18518,1,0,0:0:0:0:
64,192,18518,1,0,0:0:0:0:
64,192,18723,1,0,0:0:0:0:
448,192,18723,1,0,0:0:0:0:
320,192,18826,1,0,0:0:0:0:
192,192,18929,1,0,0:0:0:0:
64,192,18929,1,0,0:0:0:0:
320,192,19031,1,0,0:0:0:0:
448,192,19134,1,0,0:0:0:0:
320,192,19237,1,0,0:0:0:0:
192,192,19340,1,0,0:0:0:0:
64,192,19340,1,0,0:0:0:0:
320,192,19545,1,0,0:0:0:0:
320,192,19751,1,0,0:0:0:0:
448,192,19751,1,0,0:0:0:0:
64,192,19956,1,0,0:0:0:0:
192,192,19956,1,0,0:0:0:0:
320,192,20162,1,0,0:0:0:0:
448,192,20162,1,0,0:0:0:0:
192,192,20367,1,0,0:0:0:0:
64,192,20367,1,0,0:0:0:0:
64,192,20573,1,0,0:0:0:0:
320,192,20573,1,0,0:0:0:0:
448,192,20573,1,0,0:0:0:0:
448,192,20778,1,0,0:0:0:0:
192,192,20983,1,0,0:0:0:0:
64,192,20983,1,0,0:0:0:0:
320,192,21189,1,0,0:0:0:0:
192,192,21394,1,0,0:0:0:0:
64,192,21394,1,0,0:0:0:0:
448,192,21600,1,0,0:0:0:0:
64,192,21805,1,0,0:0:0:0:
192,192,21805,1,0,0:0:0:0:
192,192,22011,1,0,0:0:0:0:
320,192,22216,1,0,0:0:0:0:
448,192,22216,1,0,0:0:0:0:
192,192,22422,1,0,0:0:0:0:
320,192,22627,1,0,0:0:0:0:
448,192,22627,1,0,0:0:0:0:
64,192,22833,1,0,0:0:0:0:
320,192,23038,1,0,0:0:0:0:
448,192,23038,1,0,0:0:0:0:
192,192,23244,1,0,0:0:0:0:
64,192,23449,1,0,0:0:0:0:
320,192,23449,1,0,0:0:0:0:
320,192,23655,1,0,0:0:0:0:
64,192,23860,1,0,0:0:0:0:
448,192,23860,1,0,0:0:0:0:
192,192,24066,1,0,0:0:0:0:
64,192,24271,1,0,0:0:0:0:
448,192,24271,1,0,0:0:0:0:
192,192,24477,1,0,0:0:0:0:
320,192,24682,1,0,0:0:0:0:
448,192,24682,1,0,0:0:0:0:
192,192,24888,1,0,0:0:0:0:
64,192,25093,1,0,0:0:0:0:
448,192,25093,1,0,0:0:0:0:
192,192,25299,1,0,0:0:0:0:
320,192,25299,1,0,0:0:0:0:
64,192,25504,1,0,0:0:0:0:
448,192,25504,1,0,0:0:0:0:
320,192,25607,1,0,0:0:0:0:
192,192,25710,1,0,0:0:0:0:
320,192,25812,1,0,0:0:0:0:
64,192,25915,1,0,0:0:0:0:
192,192,26018,1,0,0:0:0:0:
448,192,26120,1,0,0:0:0:0:
320,192,26223,1,0,0:0:0:0:
64,192,26326,1,0,0:0:0:0:
192,192,26429,1,0,0:0:0:0:
320,192,26531,1,0,0:0:0:0:
192,192,26634,1,0,0:0:0:0:
448,192,26737,1,0,0:0:0:0:
64,192,26737,1,0,0:0:0:0:
320,192,26737,1,0,0:0:0:0:
64,192,27148,128,0,28792:0:0:0:0:
320,192,27148,1,0,0:0:0:0:
448,192,27148,128,0,27353:0:0:0:0:
320,192,27353,128,0,27559:0:0:0:0:
192,192,27559,128,0,27764:0:0:0:0:
448,192,27559,1,0,0:0:0:0:
448,192,27764,128,0,27970:0:0:0:0:
320,192,27970,128,0,28381:0:0:0:0:
192,192,27970,1,0,0:0:0:0:
448,192,28381,128,0,28586:0:0:0:0:
192,192,28381,1,0,0:0:0:0:
192,192,28586,128,0,28792:0:0:0:0:
320,192,28586,1,0,0:0:0:0:
448,192,28792,1,0,0:0:0:0:
320,192,28792,128,0,28997:0:0:0:0:
192,192,28997,128,0,29203:0:0:0:0:
64,192,29203,1,0,0:0:0:0:
448,192,29203,128,0,29408:0:0:0:0:
192,192,29408,1,0,0:0:0:0:
320,192,29408,1,0,0:0:0:0:
192,192,29614,1,0,0:0:0:0:
64,192,29614,1,0,0:0:0:0:
320,192,29716,1,0,0:0:0:0:
192,192,29819,1,0,0:0:0:0:
64,192,29819,1,0,0:0:0:0:
320,192,29922,1,0,0:0:0:0:
192,192,30025,1,0,0:0:0:0:
64,192,30025,1,0,0:0:0:0:
448,192,30025,128,0,30230:0:0:0:0:
320,192,30230,128,0,30436:0:0:0:0:
448,192,30436,1,0,0:0:0:0:
192,192,30436,128,0,30641:0:0:0:0:
64,192,30436,128,0,32079:0:0:0:0:
320,192,30641,128,0,30847:0:0:0:0:
448,192,30641,1,0,0:0:0:0:
192,192,30847,1,0,0:0:0:0:
448,192,30847,1,0,0:0:0:0:
448,192,31052,128,0,31257:0:0:0:0:
320,192,31257,128,0,31463:0:0:0:0:
192,192,31257,1,0,0:0:0:0:
320,192,31668,1,0,0:0:0:0:
192,192,31668,128,0,31874:0:0:0:0:
448,192,31668,1,0,0:0:0:0:
448,192,31874,128,0,32079:0:0:0:0:
320,192,31874,1,0,0:0:0:0:
320,192,32079,128,0,32285:0:0:0:0:
192,192,32079,1,0,0:0:0:0:
64,192,32285,128,0,32490:0:0:0:0:
192,192,32285,1,0,0:0:0:0:
448,192,32490,1,0,0:0:0:0:
320,192,32490,1,0,0:0:0:0:
192,192,32696,1,0,0:0:0:0:
64,192,32799,1,0,0:0:0:0:
320,192,32901,1,0,0:0:0:0:
448,192,32901,1,0,0:0:0:0:
192,192,33004,1,0,0:0:0:0:
64,192,33004,1,0,0:0:0:0:
320,192,33107,1,0,0:0:0:0:
448,192,33107,1,0,0:0:0:0:
192,192,33210,1,0,0:0:0:0:
64,192,33210,1,0,0:0:0:0:
320,192,33312,128,0,33518:0:0:0:0:
448,192,33312,1,0,0:0:0:0:
64,192,33518,128,0,33723:0:0:0:0:
320,192,33723,128,0,33929:0:0:0:0:
448,192,33723,1,0,0:0:0:0:
192,192,33723,1,0,0:0:0:0:
448,192,33929,128,0,34134:0:0:0:0:
192,192,33929,128,0,34134:0:0:0:0:
320,192,34134,1,0,0:0:0:0:
64,192,34134,128,0,34545:0:0:0:0:
192,192,34340,128,0,34545:0:0:0:0:
320,192,34340,1,0,0:0:0:0:
320,192,34545,1,0,0:0:0:0:
448,192,34545,128,0,34956:0:0:0:0:
320,192,34751,128,0,34956:0:0:0:0:
192,192,34751,1,0,0:0:0:0:
192,192,34956,1,0,0:0:0:0:
64,192,34956,1,0,0:0:0:0:
320,192,35162,1,0,0:0:0:0:
448,192,35162,1,0,0:0:0:0:
320,192,35367,128,0,35573:0:0:0:0:
64,192,35367,128,0,35778:0:0:0:0:
192,192,35367,1,0,0:0:0:0:
448,192,35573,128,0,35983:0:0:0:0:
192,192,35778,128,0,35983:0:0:0:0:
320,192,35778,1,0,0:0:0:0:
64,192,35983,1,0,0:0:0:0:
320,192,35983,1,0,0:0:0:0:
192,192,36086,1,0,0:0:0:0:
320,192,36189,1,0,0:0:0:0:
448,192,36189,1,0,0:0:0:0:
192,192,36292,1,0,0:0:0:0:
64,192,36292,1,0,0:0:0:0:
320,192,36394,1,0,0:0:0:0:
448,192,36394,1,0,0:0:0:0:
192,192,36497,1,0,0:0:0:0:
64,192,36497,1,0,0:0:0:0:
320,192,36600,1,0,0:0:0:0:
448,192,36600,128,0,36805:0:0:0:0:
320,192,36805,128,0,37011:0:0:0:0:
192,192,37011,128,0,37216:0:0:0:0:
64,192,37011,128,0,37422:0:0:0:0:
448,192,37011,1,0,0:0:0:0:
320,192,37216,128,0,37422:0:0:0:0:
192,192,37422,128,0,37627:0:0:0:0:
448,192,37422,128,0,37730:0:0:0:0:
320,192,37627,128,0,38038:0:0:0:0:
64,192,37627,1,0,0:0:0:0:
64,192,37833,128,0,38038:0:0:0:0:
192,192,37833,1,0,0:0:0:0:
192,192,38038,128,0,38244:0:0:0:0:
448,192,38038,1,0,0:0:0:0:
320,192,38244,128,0,38449:0:0:0:0:
64,192,38244,1,0,0:0:0:0:
192,192,38449,1,0,0:0:0:0:
64,192,38449,1,0,0:0:0:0:
448,192,38449,1,0,0:0:0:0:
64,192,38655,128,0,38860:0:0:0:0:
320,192,38655,1,0,0:0:0:0:
192,192,38860,1,0,0:0:0:0:
448,192,38860,1,0,0:0:0:0:
320,192,39066,128,0,39271:0:0:0:0:
448,192,39066,1,0,0:0:0:0:
192,192,39271,1,0,0:0:0:0:
64,192,39271,1,0,0:0:0:0:
320,192,39477,1,0,0:0:0:0:
448,192,39477,1,0,0:0:0:0:
192,192,39579,1,0,0:0:0:0:
64,192,39579,1,0,0:0:0:0:
448,192,39682,1,0,0:0:0:0:
320,192,39682,1,0,0:0:0:0:
192,192,39785,1,0,0:0:0:0:
64,192,39785,1,0,0:0:0:0:
320,192,39888,1,0,0:0:0:0:
448,192,39888,1,0,0:0:0:0:
64,192,39888,1,0,0:0:0:0:
320,192,40093,128,0,40299:0:0:0:0:
448,192,40299,1,0,0:0:0:0:
64,192,40299,128,0,40350:0:0:0:0:
192,192,40367,128,0,40436:0:0:0:0:
320,192,40436,128,0,40504:0:0:0:0:
448,192,40504,128,0,40573:0:0:0:0:
64,192,40504,128,0,40573:0:0:0:0:
192,192,40573,128,0,40641:0:0:0:0:
320,192,40641,128,0,40710:0:0:0:0:
448,192,40710,128,0,40778:0:0:0:0:
64,192,40710,128,0,40778:0:0:0:0:
192,192,40778,128,0,40847:0:0:0:0:
320,192,40847,128,0,40915:0:0:0:0:
64,192,40915,128,0,40983:0:0:0:0:
192,192,40915,128,0,40983:0:0:0:0:
448,192,40983,128,0,41052:0:0:0:0:
320,192,41052,128,0,41120:0:0:0:0:
192,192,41120,128,0,41189:0:0:0:0:
64,192,41189,128,0,41257:0:0:0:0:
320,192,41257,128,0,41326:0:0:0:0:
192,192,41326,128,0,41394:0:0:0:0:
448,192,41326,128,0,41394:0:0:0:0:
64,192,41394,128,0,41463:0:0:0:0:
320,192,41531,128,0,41600:0:0:0:0:
448,192,41600,128,0,41668:0:0:0:0:
192,192,41668,128,0,41737:0:0:0:0:
64,192,41737,128,0,41805:0:0:0:0:
320,192,41737,128,0,41805:0:0:0:0:
448,192,41805,128,0,41874:0:0:0:0:
192,192,41874,128,0,41942:0:0:0:0:
320,192,41942,128,0,42011:0:0:0:0:
448,192,41942,128,0,42011:0:0:0:0:
64,192,42011,128,0,42079:0:0:0:0:
192,192,42079,128,0,42148:0:0:0:0:
64,192,42148,128,0,42353:0:0:0:0:
448,192,42148,128,0,42353:0:0:0:0:
320,192,42148,1,0,0:0:0:0:
320,192,42353,128,0,42559:0:0:0:0:
192,192,42353,1,0,0:0:0:0:
192,192,42559,128,0,42662:0:0:0:0:
64,192,42559,1,0,0:0:0:0:
448,192,42559,128,0,42764:0:0:0:0:
192,192,42764,128,0,43175:0:0:0:0:
320,192,42764,1,0,0:0:0:0:
64,192,42764,1,0,0:0:0:0:
448,192,42970,128,0,43175:0:0:0:0:
64,192,42970,128,0,43278:0:0:0:0:
320,192,42970,1,0,0:0:0:0:
320,192,43175,128,0,43381:0:0:0:0:
192,192,43381,128,0,43586:0:0:0:0:
448,192,43381,1,0,0:0:0:0:
64,192,43381,128,0,43483:0:0:0:0:
320,192,43586,128,0,43655:0:0:0:0:
448,192,43586,128,0,43655:0:0:0:0:
192,192,43655,128,0,43723:0:0:0:0:
64,192,43723,128,0,43792:0:0:0:0:
448,192,43792,128,0,43860:0:0:0:0:
320,192,43860,128,0,43929:0:0:0:0:
192,192,43929,128,0,43997:0:0:0:0:
64,192,43997,128,0,44066:0:0:0:0:
448,192,43997,128,0,44066:0:0:0:0:
192,192,44066,128,0,44134:0:0:0:0:
320,192,44134,128,0,44203:0:0:0:0:
448,192,44203,128,0,44271:0:0:0:0:
64,192,44203,128,0,44271:0:0:0:0:
192,192,44271,128,0,44340:0:0:0:0:
448,192,44340,128,0,44408:0:0:0:0:
320,192,44408,128,0,44477:0:0:0:0:
64,192,44477,128,0,44545:0:0:0:0:
192,192,44545,128,0,44614:0:0:0:0:
448,192,44614,128,0,44682:0:0:0:0:
320,192,44614,128,0,44682:0:0:0:0:
64,192,44682,128,0,44751:0:0:0:0:
192,192,44751,128,0,44819:0:0:0:0:
320,192,44819,128,0,44888:0:0:0:0:
448,192,44888,128,0,44956:0:0:0:0:
192,192,44956,128,0,45025:0:0:0:0:
64,192,45025,128,0,45436:0:0:0:0:
320,192,45025,1,0,0:0:0:0:
448,192,45436,128,0,45504:0:0:0:0:
192,192,45504,128,0,45573:0:0:0:0:
320,192,45573,128,0,45641:0:0:0:0:
64,192,45641,128,0,45710:0:0:0:0:
448,192,45710,128,0,45778:0:0:0:0:
192,192,45778,128,0,45847:0:0:0:0:
320,192,45847,1,0,0:0:0:0:
448,192,45847,1,0,0:0:0:0:
448,192,46052,128,0,46463:0:0:0:0:
64,192,46052,1,0,0:0:0:0:
320,192,46257,1,0,0:0:0:0:
192,192,46257,1,0,0:0:0:0:
320,192,46463,1,0,0:0:0:0:
192,192,46463,128,0,46668:0:0:0:0:
64,192,46463,1,0,0:0:0:0:
320,192,46668,128,0,46874:0:0:0:0:
448,192,46668,1,0,0:0:0:0:
64,192,46874,1,0,0:0:0:0:
448,192,46874,1,0,0:0:0:0:
320,192,47079,1,0,0:0:0:0:
192,192,47285,1,0,0:0:0:0:
64,192,47285,1,0,0:0:0:0:
448,192,47285,1,0,0:0:0:0:
192,192,47490,1,0,0:0:0:0:
64,192,47696,1,0,0:0:0:0:
320,192,47696,1,0,0:0:0:0:
448,192,47696,1,0,0:0:0:0:
320,192,47901,1,0,0:0:0:0:
192,192,48107,1,0,0:0:0:0:
64,192,48107,1,0,0:0:0:0:
448,192,48107,1,0,0:0:0:0:
192,192,48312,128,0,48518:0:0:0:0:
320,192,48312,1,0,0:0:0:0:
448,192,48312,128,0,49340:0:0:0:0:
320,192,48518,1,0,0:0:0:0:
64,192,48518,1,0,0:0:0:0:
192,192,48723,1,0,0:0:0:0:
64,192,48929,1,0,0:0:0:0:
192,192,48929,1,0,0:0:0:0:
64,192,49134,1,0,0:0:0:0:
320,192,49134,128,0,49340:0:0:0:0:
192,192,49340,1,0,0:0:0:0:
64,192,49545,128,0,49751:0:0:0:0:
192,192,49545,128,0,49751:0:0:0:0:
320,192,49751,128,0,50162:0:0:0:0:
448,192,49751,1,0,0:0:0:0:
192,192,49956,1,0,0:0:0:0:
64,192,49956,1,0,0:0:0:0:
192,192,50162,128,0,50573:0:0:0:0:
448,192,50162,128,0,50264:0:0:0:0:
64,192,50162,1,0,0:0:0:0:
320,192,50367,1,0,0:0:0:0:
448,192,50573,128,0,50778:0:0:0:0:
320,192,50778,128,0,50881:0:0:0:0:
64,192,50778,128,0,51292:0:0:0:0:
192,192,50778,1,0,0:0:0:0:
192,192,50983,128,0,51292:0:0:0:0:
320,192,51189,128,0,51394:0:0:0:0:
448,192,51189,128,0,51394:0:0:0:0:
64,192,51394,128,0,51497:0:0:0:0:
192,192,51394,128,0,51600:0:0:0:0:
320,192,51600,128,0,51805:0:0:0:0:
448,192,51600,128,0,52011:0:0:0:0:
64,192,51600,1,0,0:0:0:0:
192,192,52011,1,0,0:0:0:0:
64,192,52011,1,0,0:0:0:0:
320,192,52011,1,0,0:0:0:0:
192,192,52216,1,0,0:0:0:0:
320,192,52216,1,0,0:0:0:0:
448,192,52216,1,0,0:0:0:0:
64,192,52422,1,0,0:0:0:0:
320,192,52422,1,0,0:0:0:0:
448,192,52422,1,0,0:0:0:0:
320,192,52627,128,0,52833:0:0:0:0:
192,192,52833,1,0,0:0:0:0:
64,192,52833,1,0,0:0:0:0:
320,192,52936,1,0,0:0:0:0:
448,192,52936,1,0,0:0:0:0:
64,192,53038,1,0,0:0:0:0:
320,192,53038,1,0,0:0:0:0:
448,192,53038,1,0,0:0:0:0:
192,192,53038,128,0,53449:0:0:0:0:
320,192,53244,128,0,53449:0:0:0:0:
64,192,53449,128,0,53655:0:0:0:0:
448,192,53449,1,0,0:0:0:0:
448,192,53655,128,0,53860:0:0:0:0:
320,192,53655,128,0,53757:0:0:0:0:
64,192,53860,128,0,54014:0:0:0:0:
192,192,53860,128,0,54014:0:0:0:0:
320,192,53963,128,0,54117:0:0:0:0:
448,192,53963,128,0,54117:0:0:0:0:
192,192,54066,128,0,54220:0:0:0:0:
64,192,54066,128,0,54220:0:0:0:0:
320,192,54168,128,0,54271:0:0:0:0:
448,192,54168,128,0,54271:0:0:0:0:
192,192,54271,128,0,54477:0:0:0:0:
64,192,54271,128,0,54374:0:0:0:0:
320,192,54374,1,0,0:0:0:0:
64,192,54477,1,0,0:0:0:0:
448,192,54477,1,0,0:0:0:0:
320,192,54579,1,0,0:0:0:0:
64,192,54682,128,0,54785:0:0:0:0:
192,192,54682,128,0,54785:0:0:0:0:
448,192,54682,128,0,54888:0:0:0:0:
320,192,54785,128,0,54888:0:0:0:0:
192,192,54888,128,0,55093:0:0:0:0:
64,192,54888,128,0,54990:0:0:0:0:
320,192,54990,128,0,55093:0:0:0:0:
64,192,55093,1,0,0:0:0:0:
448,192,55093,128,0,55299:0:0:0:0:
64,192,55299,128,0,55401:0:0:0:0:
192,192,55299,128,0,55504:0:0:0:0:
320,192,55401,128,0,55607:0:0:0:0:
448,192,55504,128,0,55607:0:0:0:0:
64,192,55504,1,0,0:0:0:0:
192,192,55607,128,0,55710:0:0:0:0:
320,192,55710,128,0,55812:0:0:0:0:
448,192,55710,128,0,55812:0:0:0:0:
192,192,55812,128,0,55915:0:0:0:0:
64,192,55812,128,0,55915:0:0:0:0:
448,192,55915,128,0,56069:0:0:0:0:
320,192,55915,128,0,56018:0:0:0:0:
192,192,56018,128,0,56120:0:0:0:0:
64,192,56018,128,0,56120:0:0:0:0:
320,192,56120,128,0,56223:0:0:0:0:
192,192,56223,128,0,56326:0:0:0:0:
64,192,56326,128,0,56429:0:0:0:0:
448,192,56326,128,0,56531:0:0:0:0:
320,192,56326,128,0,56429:0:0:0:0:
320,192,56531,128,0,56737:0:0:0:0:
192,192,56531,128,0,56634:0:0:0:0:
64,192,56531,128,0,56634:0:0:0:0:
64,192,56737,1,0,0:0:0:0:
448,192,56737,128,0,56840:0:0:0:0:
192,192,56737,128,0,56942:0:0:0:0:
320,192,56840,128,0,56942:0:0:0:0:
64,192,56942,128,0,57045:0:0:0:0:
448,192,56942,128,0,57045:0:0:0:0:
192,192,57045,128,0,57148:0:0:0:0:
448,192,57148,128,0,57251:0:0:0:0:
320,192,57148,128,0,57353:0:0:0:0:
64,192,57148,128,0,57662:0:0:0:0:
192,192,57353,128,0,57559:0:0:0:0:
448,192,57456,128,0,57559:0:0:0:0:
320,192,57559,128,0,57662:0:0:0:0:
192,192,57662,128,0,57764:0:0:0:0:
64,192,57764,128,0,58175:0:0:0:0:
320,192,57764,128,0,57970:0:0:0:0:
448,192,57764,128,0,57867:0:0:0:0:
448,192,57970,128,0,58073:0:0:0:0:
192,192,57970,128,0,58175:0:0:0:0:
320,192,58175,128,0,58381:0:0:0:0:
448,192,58175,128,0,58381:0:0:0:0:
64,192,58381,1,0,0:0:0:0:
192,192,58381,1,0,0:0:0:0:
320,192,58483,1,0,0:0:0:0:
192,192,58586,1,0,0:0:0:0:
64,192,58586,1,0,0:0:0:0:
320,192,58792,128,0,58997:0:0:0:0:
64,192,58792,1,0,0:0:0:0:
192,192,58792,1,0,0:0:0:0:
448,192,58792,1,0,0:0:0:0:
192,192,58997,128,0,59203:0:0:0:0:
448,192,58997,1,0,0:0:0:0:
448,192,59203,1,0,0:0:0:0:
64,192,59203,1,0,0:0:0:0:
320,192,59305,1,0,0:0:0:0:
448,192,59408,1,0,0:0:0:0:
192,192,59408,1,0,0:0:0:0:
64,192,59408,1,0,0:0:0:0:
320,192,59511,1,0,0:0:0:0:
64,192,59614,1,0,0:0:0:0:
448,192,59614,1,0,0:0:0:0:
320,192,59819,128,0,60025:0:0:0:0:
192,192,59819,128,0,59922:0:0:0:0:
448,192,60025,128,0,60230:0:0:0:0:
64,192,60025,128,0,60436:0:0:0:0:
192,192,60025,128,0,60127:0:0:0:0:
192,192,60230,1,0,0:0:0:0:
320,192,60230,1,0,0:0:0:0:
448,192,60333,1,0,0:0:0:0:
192,192,60436,1,0,0:0:0:0:
320,192,60436,128,0,60641:0:0:0:0:
64,192,60641,128,0,60846:0:0:0:0:
192,192,60641,1,0,0:0:0:0:
448,192,60641,1,0,0:0:0:0:
448,192,60846,1,0,0:0:0:0:
192,192,60846,128,0,61052:0:0:0:0:
320,192,60949,128,0,61052:0:0:0:0:
448,192,61052,128,0,61360:0:0:0:0:
64,192,61052,128,0,61257:0:0:0:0:
192,192,61257,1,0,0:0:0:0:
320,192,61257,128,0,61463:0:0:0:0:
192,192,61463,128,0,61668:0:0:0:0:
64,192,61463,128,0,61874:0:0:0:0:
448,192,61463,1,0,0:0:0:0:
192,192,61874,1,0,0:0:0:0:
320,192,61874,1,0,0:0:0:0:
448,192,61874,1,0,0:0:0:0:
192,192,62079,1,0,0:0:0:0:
64,192,62079,1,0,0:0:0:0:
320,192,62079,1,0,0:0:0:0:
320,192,62285,1,0,0:0:0:0:
448,192,62285,1,0,0:0:0:0:
192,192,62388,1,0,0:0:0:0:
64,192,62388,1,0,0:0:0:0:
320,192,62490,128,0,62696:0:0:0:0:
448,192,62490,1,0,0:0:0:0:
64,192,62696,1,0,0:0:0:0:
192,192,62696,128,0,62799:0:0:0:0:
320,192,62799,128,0,62901:0:0:0:0:
64,192,62901,128,0,63107:0:0:0:0:
448,192,62901,1,0,0:0:0:0:
320,192,63107,128,0,63312:0:0:0:0:
192,192,63107,1,0,0:0:0:0:
192,192,63312,1,0,0:0:0:0:
448,192,63312,1,0,0:0:0:0:
64,192,63312,1,0,0:0:0:0:
320,192,63518,1,0,0:0:0:0:
64,192,63518,1,0,0:0:0:0:
192,192,63620,1,0,0:0:0:0:
64,192,63723,1,0,0:0:0:0:
320,192,63723,1,0,0:0:0:0:
448,192,63723,128,0,64134:0:0:0:0:
192,192,63929,128,0,64031:0:0:0:0:
64,192,63929,1,0,0:0:0:0:
320,192,64031,128,0,64134:0:0:0:0:
192,192,64134,128,0,64237:0:0:0:0:
64,192,64134,1,0,0:0:0:0:
320,192,64237,1,0,0:0:0:0:
448,192,64237,1,0,0:0:0:0:
192,192,64340,1,0,0:0:0:0:
64,192,64340,1,0,0:0:0:0:
320,192,64442,1,0,0:0:0:0:
192,192,64545,128,0,64751:0:0:0:0:
448,192,64545,128,0,64648:0:0:0:0:
320,192,64751,1,0,0:0:0:0:
448,192,64751,1,0,0:0:0:0:
192,192,64853,1,0,0:0:0:0:
64,192,64853,1,0,0:0:0:0:
320,192,64956,1,0,0:0:0:0:
448,192,64956,1,0,0:0:0:0:
192,192,65059,1,0,0:0:0:0:
64,192,65059,1,0,0:0:0:0:
320,192,65162,128,0,65573:0:0:0:0:
448,192,65162,128,0,65264:0:0:0:0:
192,192,65367,128,0,65573:0:0:0:0:
64,192,65367,128,0,65470:0:0:0:0:
64,192,65573,128,0,65778:0:0:0:0:
448,192,65573,128,0,65675:0:0:0:0:
192,192,65778,1,0,0:0:0:0:
320,192,65778,128,0,65881:0:0:0:0:
64,192,65881,1,0,0:0:0:0:
448,192,65881,128,0,65983:0:0:0:0:
192,192,65983,1,0,0:0:0:0:
320,192,65983,128,0,66086:0:0:0:0:
64,192,66086,1,0,0:0:0:0:
448,192,66086,1,0,0:0:0:0:
320,192,66189,1,0,0:0:0:0:
192,192,66292,1,0,0:0:0:0:
64,192,66292,1,0,0:0:0:0:
320,192,66394,1,0,0:0:0:0:
448,192,66394,1,0,0:0:0:0:
192,192,66497,1,0,0:0:0:0:
64,192,66600,1,0,0:0:0:0:
320,192,66600,1,0,0:0:0:0:
448,192,66600,128,0,66805:0:0:0:0:
64,192,66805,128,0,67011:0:0:0:0:
192,192,66805,1,0,0:0:0:0:
448,192,67011,128,0,67165:0:0:0:0:
320,192,67011,128,0,67165:0:0:0:0:
64,192,67114,128,0,67268:0:0:0:0:
192,192,67114,128,0,67268:0:0:0:0:
448,192,67216,128,0,67370:0:0:0:0:
320,192,67216,128,0,67370:0:0:0:0:
64,192,67319,128,0,67473:0:0:0:0:
192,192,67319,128,0,67473:0:0:0:0:
320,192,67422,128,0,67525:0:0:0:0:
448,192,67422,128,0,67627:0:0:0:0:
192,192,67525,128,0,67627:0:0:0:0:
64,192,67525,128,0,67627:0:0:0:0:
320,192,67627,128,0,67730:0:0:0:0:
192,192,67730,128,0,67833:0:0:0:0:
64,192,67833,128,0,68038:0:0:0:0:
320,192,67833,128,0,67936:0:0:0:0:
448,192,67833,128,0,68141:0:0:0:0:
192,192,68038,128,0,68141:0:0:0:0:
320,192,68038,128,0,68141:0:0:0:0:
64,192,68244,128,0,68449:0:0:0:0:
320,192,68244,128,0,68347:0:0:0:0:
192,192,68244,1,0,0:0:0:0:
448,192,68347,128,0,68449:0:0:0:0:
320,192,68449,128,0,68655:0:0:0:0:
192,192,68449,128,0,68552:0:0:0:0:
64,192,68552,128,0,68655:0:0:0:0:
448,192,68655,128,0,68757:0:0:0:0:
192,192,68655,128,0,68757:0:0:0:0:
64,192,68757,128,0,68860:0:0:0:0:
320,192,68757,128,0,68860:0:0:0:0:
448,192,68860,128,0,68963:0:0:0:0:
192,192,68860,128,0,68963:0:0:0:0:
64,192,68963,128,0,69066:0:0:0:0:
320,192,68963,128,0,69066:0:0:0:0:
448,192,69066,128,0,69168:0:0:0:0:
192,192,69066,128,0,69168:0:0:0:0:
320,192,69168,128,0,69271:0:0:0:0:
64,192,69168,128,0,69271:0:0:0:0:
448,192,69271,1,0,0:0:0:0:
192,192,69271,128,0,69374:0:0:0:0:
320,192,69374,128,0,69477:0:0:0:0:
448,192,69477,1,0,0:0:0:0:
64,192,69477,128,0,69682:0:0:0:0:
192,192,69477,128,0,69579:0:0:0:0:
320,192,69682,128,0,69888:0:0:0:0:
192,192,69682,1,0,0:0:0:0:
448,192,69682,128,0,69785:0:0:0:0:
192,192,69888,128,0,70196:0:0:0:0:
448,192,69888,128,0,70093:0:0:0:0:
64,192,69888,128,0,70196:0:0:0:0:
320,192,70196,1,0,0:0:0:0:
448,192,70196,1,0,0:0:0:0:
192,192,70299,128,0,70401:0:0:0:0:
64,192,70299,128,0,70401:0:0:0:0:
320,192,70401,128,0,70504:0:0:0:0:
448,192,70401,128,0,70504:0:0:0:0:
192,192,70504,128,0,70607:0:0:0:0:
64,192,70504,128,0,70607:0:0:0:0:
320,192,70607,128,0,70710:0:0:0:0:
448,192,70607,128,0,70710:0:0:0:0:
64,192,70710,1,0,0:0:0:0:
192,192,70710,128,0,70915:0:0:0:0:
320,192,70812,128,0,70915:0:0:0:0:
64,192,70915,1,0,0:0:0:0:
448,192,70915,1,0,0:0:0:0:
320,192,71018,1,0,0:0:0:0:
192,192,71018,1,0,0:0:0:0:
64,192,71120,1,0,0:0:0:0:
448,192,71120,128,0,71326:0:0:0:0:
320,192,71326,128,0,71531:0:0:0:0:
192,192,71326,128,0,71531:0:0:0:0:
64,192,71531,128,0,71634:0:0:0:0:
448,192,71531,128,0,71634:0:0:0:0:
320,192,71634,128,0,71737:0:0:0:0:
192,192,71737,1,0,0:0:0:0:
64,192,71737,128,0,71840:0:0:0:0:
320,192,71840,128,0,71942:0:0:0:0:
192,192,71942,1,0,0:0:0:0:
448,192,71942,1,0,0:0:0:0:
64,192,71942,1,0,0:0:0:0:
320,192,72045,1,0,0:0:0:0:
64,192,72148,128,0,72251:0:0:0:0:
448,192,72148,1,0,0:0:0:0:
192,192,72251,1,0,0:0:0:0:
448,192,72353,128,0,72456:0:0:0:0:
320,192,72353,1,0,0:0:0:0:
64,192,72456,128,0,72662:0:0:0:0:
192,192,72456,128,0,72559:0:0:0:0:
320,192,72559,128,0,72662:0:0:0:0:
448,192,72559,128,0,72662:0:0:0:0:
448,192,72764,128,0,72970:0:0:0:0:
64,192,72764,128,0,73175:0:0:0:0:
192,192,72764,1,0,0:0:0:0:
320,192,72764,1,0,0:0:0:0:
320,192,72970,1,0,0:0:0:0:
192,192,73175,128,0,73278:0:0:0:0:
320,192,73175,128,0,73278:0:0:0:0:
448,192,73175,128,0,73278:0:0:0:0:
64,192,73278,128,0,73381:0:0:0:0:
320,192,73381,128,0,73483:0:0:0:0:
64,192,73483,1,0,0:0:0:0:
192,192,73483,128,0,73586:0:0:0:0:
448,192,73586,128,0,73689:0:0:0:0:
320,192,73586,128,0,73689:0:0:0:0:
192,192,73689,128,0,73792:0:0:0:0:
448,192,73792,1,0,0:0:0:0:
64,192,73792,128,0,73894:0:0:0:0:
320,192,73894,128,0,73997:0:0:0:0:
192,192,73894,128,0,73997:0:0:0:0:
448,192,73997,128,0,74100:0:0:0:0:
64,192,73997,128,0,74100:0:0:0:0:
320,192,74100,128,0,74203:0:0:0:0:
448,192,74203,1,0,0:0:0:0:
64,192,74203,128,0,74305:0:0:0:0:
192,192,74305,128,0,74408:0:0:0:0:
320,192,74408,1,0,0:0:0:0:
448,192,74408,1,0,0:0:0:0:
64,192,74408,128,0,74819:0:0:0:0:
192,192,74614,1,0,0:0:0:0:
448,192,74614,128,0,74716:0:0:0:0:
320,192,74716,128,0,74819:0:0:0:0:
192,192,74819,1,0,0:0:0:0:
448,192,74819,128,0,75025:0:0:0:0:
320,192,74922,128,0,75025:0:0:0:0:
192,192,75025,128,0,75127:0:0:0:0:
64,192,75025,128,0,75127:0:0:0:0:
320,192,75127,128,0,75230:0:0:0:0:
448,192,75127,128,0,75230:0:0:0:0:
192,192,75230,128,0,75333:0:0:0:0:
64,192,75230,128,0,75436:0:0:0:0:
448,192,75436,1,0,0:0:0:0:
192,192,75436,1,0,0:0:0:0:
64,192,75538,1,0,0:0:0:0:
320,192,75538,1,0,0:0:0:0:
448,192,75641,128,0,75744:0:0:0:0:
192,192,75641,128,0,75744:0:0:0:0:
320,192,75744,128,0,75847:0:0:0:0:
192,192,75847,128,0,75949:0:0:0:0:
64,192,75847,128,0,75949:0:0:0:0:
320,192,75949,128,0,76052:0:0:0:0:
448,192,75949,128,0,76155:0:0:0:0:
192,192,76052,128,0,76155:0:0:0:0:
64,192,76052,128,0,76155:0:0:0:0:
320,192,76155,128,0,76257:0:0:0:0:
448,192,76257,128,0,76360:0:0:0:0:
64,192,76257,128,0,76360:0:0:0:0:
320,192,76360,128,0,76463:0:0:0:0:
192,192,76360,128,0,76463:0:0:0:0:
64,192,76463,1,0,0:0:0:0:
448,192,76463,128,0,76668:0:0:0:0:
192,192,76668,1,0,0:0:0:0:
320,192,76668,128,0,76771:0:0:0:0:
448,192,76771,128,0,76874:0:0:0:0:
320,192,76874,1,0,0:0:0:0:
64,192,76874,128,0,77285:0:0:0:0:
192,192,76874,128,0,77079:0:0:0:0:
320,192,77079,128,0,77182:0:0:0:0:
448,192,77079,128,0,77388:0:0:0:0:
192,192,77285,128,0,77388:0:0:0:0:
320,192,77285,128,0,77490:0:0:0:0:
64,192,77490,1,0,0:0:0:0:
448,192,77490,1,0,0:0:0:0:
192,192,77490,128,0,77696:0:0:0:0:
320,192,77696,1,0,0:0:0:0:
448,192,77696,128,0,77901:0:0:0:0:
192,192,77901,1,0,0:0:0:0:
320,192,77901,1,0,0:0:0:0:
64,192,77901,128,0,78107:0:0:0:0:
448,192,78004,1,0,0:0:0:0:
192,192,78107,128,0,78210:0:0:0:0:
320,192,78107,128,0,78210:0:0:0:0:
64,192,78210,1,0,0:0:0:0:
320,192,78312,128,0,78518:0:0:0:0:
192,192,78312,1,0,0:0:0:0:
448,192,78312,128,0,78415:0:0:0:0:
192,192,78518,128,0,78723:0:0:0:0:
64,192,78518,128,0,78929:0:0:0:0:
448,192,78518,128,0,78620:0:0:0:0:
320,192,78723,1,0,0:0:0:0:
448,192,78723,128,0,78929:0:0:0:0:
320,192,78929,128,0,79031:0:0:0:0:
64,192,79031,1,0,0:0:0:0:
192,192,79031,128,0,79134:0:0:0:0:
448,192,79134,1,0,0:0:0:0:
320,192,79134,128,0,79340:0:0:0:0:
192,192,79237,1,0,0:0:0:0:
448,192,79340,128,0,79442:0:0:0:0:
64,192,79340,128,0,79442:0:0:0:0:
320,192,79442,128,0,79545:0:0:0:0:
192,192,79442,128,0,79545:0:0:0:0:
448,192,79545,128,0,79648:0:0:0:0:
64,192,79545,128,0,79648:0:0:0:0:
320,192,79648,128,0,79751:0:0:0:0:
192,192,79751,1,0,0:0:0:0:
64,192,79751,1,0,0:0:0:0:
448,192,79751,1,0,0:0:0:0:
64,192,80162,1,0,0:0:0:0:
192,192,80162,1,0,0:0:0:0:
448,192,80162,1,0,0:0:0:0:
320,192,80367,1,0,0:0:0:0:
448,192,80367,1,0,0:0:0:0:
192,192,80367,1,0,0:0:0:0:
64,192,80367,1,0,0:0:0:0:
320,192,80778,1,0,0:0:0:0:
448,192,80778,1,0,0:0:0:0:
64,192,80778,1,0,0:0:0:0:
192,192,80983,1,0,0:0:0:0:
320,192,80983,1,0,0:0:0:0:
448,192,80983,1,0,0:0:0:0:
192,192,81189,1,0,0:0:0:0:
64,192,81189,1,0,0:0:0:0:
448,192,81189,1,0,0:0:0:0:
320,192,81189,1,0,0:0:0:0:
192,192,81600,1,0,0:0:0:0:
64,192,81600,1,0,0:0:0:0:
448,192,81600,1,0,0:0:0:0:
192,192,81805,1,0,0:0:0:0:
320,192,81805,1,0,0:0:0:0:
448,192,81805,1,0,0:0:0:0:
448,192,82011,1,0,0:0:0:0:
64,192,82011,1,0,0:0:0:0:
192,192,82011,1,0,0:0:0:0:
320,192,82011,1,0,0:0:0:0:
320,192,82216,1,0,0:0:0:0:
448,192,82422,1,0,0:0:0:0:
192,192,82422,1,0,0:0:0:0:
64,192,82422,1,0,0:0:0:0:
192,192,82627,1,0,0:0:0:0:
320,192,82627,1,0,0:0:0:0:
448,192,82627,1,0,0:0:0:0:
192,192,82833,1,0,0:0:0:0:
320,192,82833,1,0,0:0:0:0:
64,192,82833,1,0,0:0:0:0:
64,192,83038,1,0,0:0:0:0:
320,192,83038,1,0,0:0:0:0:
448,192,83038,1,0,0:0:0:0:
192,192,83038,1,0,0:0:0:0:
320,192,83244,1,0,0:0:0:0:
64,192,83449,1,0,0:0:0:0:
448,192,83449,1,0,0:0:0:0:
192,192,83449,1,0,0:0:0:0:
192,192,83655,1,0,0:0:0:0:
320,192,83655,1,0,0:0:0:0:
448,192,83655,1,0,0:0:0:0:
64,192,83655,1,0,0:0:0:0:
192,192,84066,1,0,0:0:0:0:
64,192,84066,1,0,0:0:0:0:
448,192,84066,1,0,0:0:0:0:
320,192,84271,1,0,0:0:0:0:
192,192,84271,1,0,0:0:0:0:
64,192,84477,1,0,0:0:0:0:
448,192,84477,1,0,0:0:0:0:
320,192,84477,1,0,0:0:0:0:
192,192,84682,1,0,0:0:0:0:
320,192,84888,1,0,0:0:0:0:
448,192,85093,1,0,0:0:0:0:
192,192,85299,1,0,0:0:0:0:
320,192,85401,1,0,0:0:0:0:
192,192,85504,1,0,0:0:0:0:
448,192,85710,1,0,0:0:0:0:
320,192,85812,1,0,0:0:0:0:
64,192,85915,1,0,0:0:0:0:
192,192,85915,1,0,0:0:0:0:
192,192,86326,1,0,0:0:0:0:
64,192,86326,1,0,0:0:0:0:
320,192,86326,128,0,86429:0:0:0:0:
448,192,86326,1,0,0:0:0:0:
448,192,86531,128,0,86634:0:0:0:0:
192,192,86531,1,0,0:0:0:0:
64,192,86737,1,0,0:0:0:0:
448,192,86737,1,0,0:0:0:0:
320,192,86942,1,0,0:0:0:0:
448,192,86942,1,0,0:0:0:0:
192,192,86942,1,0,0:0:0:0:
64,192,86942,1,0,0:0:0:0:
192,192,87148,1,0,0:0:0:0:
448,192,87148,1,0,0:0:0:0:
320,192,87353,1,0,0:0:0:0:
192,192,87559,1,0,0:0:0:0:
448,192,87559,1,0,0:0:0:0:
64,192,87559,1,0,0:0:0:0:
192,192,87764,128,0,87867:0:0:0:0:
448,192,87764,1,0,0:0:0:0:
64,192,87764,1,0,0:0:0:0:
320,192,87764,1,0,0:0:0:0:
320,192,87970,1,0,0:0:0:0:
448,192,87970,1,0,0:0:0:0:
64,192,87970,1,0,0:0:0:0:
320,192,88175,128,0,88278:0:0:0:0:
64,192,88175,1,0,0:0:0:0:
64,192,88381,1,0,0:0:0:0:
448,192,88381,1,0,0:0:0:0:
192,192,88381,1,0,0:0:0:0:
64,192,88586,1,0,0:0:0:0:
320,192,88586,1,0,0:0:0:0:
192,192,88792,1,0,0:0:0:0:
448,192,88792,1,0,0:0:0:0:
64,192,88792,1,0,0:0:0:0:
320,192,88997,1,0,0:0:0:0:
448,192,88997,1,0,0:0:0:0:
192,192,89100,1,0,0:0:0:0:
320,192,89203,1,0,0:0:0:0:
448,192,89203,1,0,0:0:0:0:
64,192,89203,1,0,0:0:0:0:
192,192,89408,1,0,0:0:0:0:
320,192,89408,1,0,0:0:0:0:
192,192,89614,1,0,0:0:0:0:
64,192,89614,128,0,89716:0:0:0:0:
448,192,89614,1,0,0:0:0:0:
320,192,89614,1,0,0:0:0:0:
192,192,89819,128,0,89922:0:0:0:0:
448,192,89819,1,0,0:0:0:0:
320,192,90025,1,0,0:0:0:0:
64,192,90025,1,0,0:0:0:0:
448,192,90025,1,0,0:0:0:0:
192,192,90230,1,0,0:0:0:0:
448,192,90230,1,0,0:0:0:0:
320,192,90230,1,0,0:0:0:0:
64,192,90230,1,0,0:0:0:0:
64,192,90436,1,0,0:0:0:0:
192,192,90436,1,0,0:0:0:0:
320,192,90436,1,0,0:0:0:0:
320,192,90641,1,0,0:0:0:0:
448,192,90641,1,0,0:0:0:0:
192,192,90846,1,0,0:0:0:0:
64,192,90846,1,0,0:0:0:0:
448,192,90846,1,0,0:0:0:0:
448,192,91052,128,0,91155:0:0:0:0:
192,192,91052,1,0,0:0:0:0:
64,192,91052,1,0,0:0:0:0:
320,192,91257,1,0,0:0:0:0:
192,192,91257,1,0,0:0:0:0:
64,192,91257,1,0,0:0:0:0:
192,192,91463,1,0,0:0:0:0:
448,192,91463,128,0,91566:0:0:0:0:
64,192,91668,1,0,0:0:0:0:
448,192,91668,1,0,0:0:0:0:
320,192,91668,1,0,0:0:0:0:
192,192,91874,1,0,0:0:0:0:
448,192,91874,1,0,0:0:0:0:
192,192,92079,1,0,0:0:0:0:
64,192,92079,1,0,0:0:0:0:
320,192,92182,1,0,0:0:0:0:
448,192,92182,1,0,0:0:0:0:
192,192,92285,1,0,0:0:0:0:
64,192,92285,1,0,0:0:0:0:
320,192,92388,1,0,0:0:0:0:
448,192,92388,1,0,0:0:0:0:
192,192,92490,1,0,0:0:0:0:
64,192,92490,1,0,0:0:0:0:
320,192,92490,1,0,0:0:0:0:
448,192,92490,1,0,0:0:0:0:
448,192,92696,1,0,0:0:0:0:
320,192,92799,1,0,0:0:0:0:
192,192,92901,1,0,0:0:0:0:
64,192,92901,128,0,93004:0:0:0:0:
448,192,92901,1,0,0:0:0:0:
320,192,93107,128,0,93210:0:0:0:0:
448,192,93107,1,0,0:0:0:0:
320,192,93312,1,0,0:0:0:0:
64,192,93312,1,0,0:0:0:0:
192,192,93518,1,0,0:0:0:0:
448,192,93518,1,0,0:0:0:0:
64,192,93518,1,0,0:0:0:0:
320,192,93518,1,0,0:0:0:0:
64,192,93723,1,0,0:0:0:0:
320,192,93723,1,0,0:0:0:0:
192,192,93826,1,0,0:0:0:0:
320,192,93929,1,0,0:0:0:0:
448,192,93929,1,0,0:0:0:0:
192,192,94031,1,0,0:0:0:0:
64,192,94134,1,0,0:0:0:0:
320,192,94134,1,0,0:0:0:0:
448,192,94134,1,0,0:0:0:0:
192,192,94340,128,0,94442:0:0:0:0:
64,192,94340,1,0,0:0:0:0:
448,192,94340,1,0,0:0:0:0:
320,192,94340,1,0,0:0:0:0:
320,192,94545,1,0,0:0:0:0:
448,192,94545,1,0,0:0:0:0:
64,192,94545,1,0,0:0:0:0:
448,192,94751,128,0,94853:0:0:0:0:
192,192,94751,1,0,0:0:0:0:
64,192,94956,1,0,0:0:0:0:
320,192,94956,1,0,0:0:0:0:
192,192,94956,1,0,0:0:0:0:
320,192,95162,1,0,0:0:0:0:
448,192,95162,1,0,0:0:0:0:
192,192,95367,1,0,0:0:0:0:
64,192,95367,1,0,0:0:0:0:
448,192,95573,1,0,0:0:0:0:
320,192,95573,1,0,0:0:0:0:
64,192,95778,1,0,0:0:0:0:
192,192,95778,1,0,0:0:0:0:
448,192,95778,1,0,0:0:0:0:
192,192,95983,1,0,0:0:0:0:
448,192,95983,1,0,0:0:0:0:
320,192,95983,1,0,0:0:0:0:
320,192,96189,1,0,0:0:0:0:
448,192,96189,1,0,0:0:0:0:
64,192,96189,128,0,96292:0:0:0:0:
192,192,96189,1,0,0:0:0:0:
448,192,96394,128,0,96497:0:0:0:0:
64,192,96394,1,0,0:0:0:0:
320,192,96600,1,0,0:0:0:0:
448,192,96600,1,0,0:0:0:0:
192,192,96805,1,0,0:0:0:0:
320,192,96805,1,0,0:0:0:0:
64,192,96805,1,0,0:0:0:0:
448,192,96805,1,0,0:0:0:0:
192,192,97011,1,0,0:0:0:0:
320,192,97011,1,0,0:0:0:0:
64,192,97216,1,0,0:0:0:0:
448,192,97216,1,0,0:0:0:0:
320,192,97422,1,0,0:0:0:0:
448,192,97422,1,0,0:0:0:0:
192,192,97422,1,0,0:0:0:0:
192,192,97627,128,0,97730:0:0:0:0:
320,192,97627,1,0,0:0:0:0:
448,192,97627,1,0,0:0:0:0:
64,192,97627,1,0,0:0:0:0:
320,192,97833,1,0,0:0:0:0:
448,192,97833,1,0,0:0:0:0:
64,192,97833,1,0,0:0:0:0:
64,192,98038,128,0,98141:0:0:0:0:
320,192,98038,1,0,0:0:0:0:
448,192,98141,1,0,0:0:0:0:
192,192,98244,128,0,98346:0:0:0:0:
320,192,98244,1,0,0:0:0:0:
448,192,98346,1,0,0:0:0:0:
64,192,98449,1,0,0:0:0:0:
320,192,98655,1,0,0:0:0:0:
448,192,98655,1,0,0:0:0:0:
192,192,98757,1,0,0:0:0:0:
64,192,98757,1,0,0:0:0:0:
320,192,98860,1,0,0:0:0:0:
448,192,98860,1,0,0:0:0:0:
192,192,98963,1,0,0:0:0:0:
64,192,98963,1,0,0:0:0:0:
320,192,99066,1,0,0:0:0:0:
448,192,99066,1,0,0:0:0:0:
64,192,99066,1,0,0:0:0:0:
192,192,99066,1,0,0:0:0:0:
64,192,99477,128,0,99528:0:0:0:0:
448,192,99477,128,0,99528:0:0:0:0:
320,192,99579,128,0,99631:0:0:0:0:
192,192,99682,128,0,99733:0:0:0:0:
64,192,99682,128,0,99733:0:0:0:0:
448,192,99888,128,0,99939:0:0:0:0:
320,192,99888,128,0,99939:0:0:0:0:
192,192,100299,128,0,100350:0:0:0:0:
64,192,100299,128,0,100350:0:0:0:0:
448,192,101120,128,0,101172:0:0:0:0:
64,192,101120,128,0,101172:0:0:0:0:
192,192,101326,128,0,101377:0:0:0:0:
320,192,101429,128,0,101480:0:0:0:0:
448,192,101531,128,0,101583:0:0:0:0:
64,192,101531,128,0,101583:0:0:0:0:
192,192,101942,128,0,101994:0:0:0:0:
64,192,101942,128,0,101994:0:0:0:0:
320,192,102045,128,0,102096:0:0:0:0:
64,192,102302,128,0,102353:0:0:0:0:
192,192,102353,128,0,102405:0:0:0:0:
448,192,102353,128,0,102405:0:0:0:0:
64,192,102559,128,0,102610:0:0:0:0:
192,192,102610,128,0,102662:0:0:0:0:
320,192,102662,128,0,102713:0:0:0:0:
448,192,102713,128,0,102764:0:0:0:0:
64,192,102764,128,0,102816:0:0:0:0:
192,192,102764,128,0,102816:0:0:0:0:
64,192,102970,128,0,103021:0:0:0:0:
192,192,102970,128,0,103021:0:0:0:0:
320,192,103175,128,0,103244:0:0:0:0:
448,192,103175,128,0,103244:0:0:0:0:
448,192,104408,128,0,104460:0:0:0:0:
320,192,104408,128,0,104460:0:0:0:0:
192,192,104408,128,0,104460:0:0:0:0:
320,192,104819,128,0,104888:0:0:0:0:
64,192,104819,128,0,104888:0:0:0:0:
192,192,105230,128,0,106052:0:0:0:0:
64,192,106052,128,0,107696:0:0:0:0:
448,192,106052,128,0,106103:0:0:0:0:
320,192,106052,128,0,106103:0:0:0:0:
192,192,106257,128,0,106309:0:0:0:0:
320,192,106463,128,0,106514:0:0:0:0:
448,192,106463,128,0,106514:0:0:0:0:
192,192,107696,128,0,109340:0:0:0:0:
320,192,107696,128,0,107747:0:0:0:0:
448,192,107696,128,0,107747:0:0:0:0:
64,192,107953,128,0,108004:0:0:0:0:
320,192,108004,128,0,108055:0:0:0:0:
64,192,108107,128,0,108158:0:0:0:0:
448,192,108107,128,0,108158:0:0:0:0:
320,192,108312,128,0,108364:0:0:0:0:
64,192,108620,128,0,108672:0:0:0:0:
448,192,108620,128,0,108672:0:0:0:0:
320,192,108929,128,0,108997:0:0:0:0:
448,192,109031,128,0,109100:0:0:0:0:
64,192,109186,128,0,109237:0:0:0:0:
448,192,109340,128,0,110983:0:0:0:0:
320,192,109340,128,0,109391:0:0:0:0:
64,192,109545,128,0,109596:0:0:0:0:
320,192,109648,128,0,109699:0:0:0:0:
192,192,109751,128,0,109802:0:0:0:0:
64,192,109751,128,0,109802:0:0:0:0:
64,192,110983,128,0,112627:0:0:0:0:
192,192,110983,128,0,111035:0:0:0:0:
320,192,110983,128,0,111035:0:0:0:0:
448,192,112627,128,0,112764:0:0:0:0:
192,192,112679,128,0,112781:0:0:0:0:
320,192,112764,128,0,112901:0:0:0:0:
448,192,112833,128,0,112970:0:0:0:0:
64,192,112901,128,0,113038:0:0:0:0:
192,192,112970,128,0,113107:0:0:0:0:
320,192,113038,128,0,113175:0:0:0:0:
448,192,113038,128,0,113175:0:0:0:0:
64,192,113107,128,0,113244:0:0:0:0:
192,192,113175,128,0,113312:0:0:0:0:
320,192,113244,128,0,113381:0:0:0:0:
448,192,113244,128,0,113381:0:0:0:0:
64,192,113312,128,0,113449:0:0:0:0:
192,192,113381,128,0,113518:0:0:0:0:
448,192,113449,128,0,113586:0:0:0:0:
320,192,113518,128,0,113655:0:0:0:0:
192,192,113586,128,0,113723:0:0:0:0:
64,192,113655,128,0,113792:0:0:0:0:
448,192,113655,128,0,113792:0:0:0:0:
320,192,113723,128,0,113860:0:0:0:0:
192,192,113792,128,0,113929:0:0:0:0:
64,192,113860,128,0,113997:0:0:0:0:
448,192,113929,128,0,114066:0:0:0:0:
320,192,113997,128,0,114134:0:0:0:0:
192,192,114066,128,0,114203:0:0:0:0:
64,192,114066,128,0,114203:0:0:0:0:
448,192,114134,128,0,114271:0:0:0:0:
320,192,114203,128,0,114340:0:0:0:0:
192,192,114271,128,0,114408:0:0:0:0:
64,192,114340,128,0,114477:0:0:0:0:
448,192,114408,128,0,114545:0:0:0:0:
320,192,114477,128,0,114614:0:0:0:0:
192,192,114477,128,0,114614:0:0:0:0:
64,192,114545,128,0,114682:0:0:0:0:
448,192,114614,128,0,114682:0:0:0:0:
320,192,114682,128,0,114785:0:0:0:0:
192,192,114751,128,0,114888:0:0:0:0:
64,192,114819,128,0,114888:0:0:0:0:
448,192,114888,1,0,0:0:0:0:
320,192,114888,128,0,115093:0:0:0:0:
192,192,114990,128,0,115093:0:0:0:0:
64,192,115093,128,0,115196:0:0:0:0:
448,192,115093,128,0,115504:0:0:0:0:
192,192,115299,128,0,115504:0:0:0:0:
320,192,115299,1,0,0:0:0:0:
320,192,115504,128,0,115812:0:0:0:0:
64,192,115504,1,0,0:0:0:0:
192,192,115710,128,0,115915:0:0:0:0:
448,192,115710,1,0,0:0:0:0:
64,192,115812,1,0,0:0:0:0:
448,192,115915,128,0,116052:0:0:0:0:
320,192,115915,128,0,116052:0:0:0:0:
192,192,115983,128,0,116120:0:0:0:0:
64,192,116052,128,0,116189:0:0:0:0:
448,192,116120,128,0,116257:0:0:0:0:
320,192,116189,128,0,116326:0:0:0:0:
192,192,116257,128,0,116394:0:0:0:0:
64,192,116326,128,0,116463:0:0:0:0:
448,192,116326,128,0,116463:0:0:0:0:
320,192,116394,128,0,116531:0:0:0:0:
192,192,116463,128,0,116600:0:0:0:0:
64,192,116531,128,0,116668:0:0:0:0:
448,192,116531,128,0,116668:0:0:0:0:
320,192,116600,128,0,116737:0:0:0:0:
192,192,116668,128,0,116805:0:0:0:0:
64,192,116737,128,0,116874:0:0:0:0:
320,192,116805,128,0,116942:0:0:0:0:
448,192,116874,128,0,117011:0:0:0:0:
192,192,116942,128,0,117079:0:0:0:0:
64,192,116942,128,0,117079:0:0:0:0:
320,192,117011,128,0,117148:0:0:0:0:
448,192,117079,128,0,117216:0:0:0:0:
64,192,117148,128,0,117285:0:0:0:0:
192,192,117216,128,0,117353:0:0:0:0:
320,192,117285,128,0,117422:0:0:0:0:
448,192,117353,128,0,117490:0:0:0:0:
64,192,117353,128,0,117490:0:0:0:0:
192,192,117422,128,0,117559:0:0:0:0:
320,192,117490,128,0,117627:0:0:0:0:
448,192,117559,128,0,117696:0:0:0:0:
64,192,117627,128,0,117764:0:0:0:0:
192,192,117696,128,0,117764:0:0:0:0:
320,192,117764,128,0,117867:0:0:0:0:
448,192,117764,1,0,0:0:0:0:
192,192,117970,1,0,0:0:0:0:
64,192,117970,1,0,0:0:0:0:
320,192,117970,128,0,118381:0:0:0:0:
192,192,118175,1,0,0:0:0:0:
64,192,118175,1,0,0:0:0:0:
448,192,118175,128,0,118586:0:0:0:0:
192,192,118381,1,0,0:0:0:0:
64,192,118381,128,0,118792:0:0:0:0:
192,192,118586,128,0,118792:0:0:0:0:
320,192,118586,1,0,0:0:0:0:
320,192,118792,1,0,0:0:0:0:
448,192,118792,1,0,0:0:0:0:
192,192,118894,1,0,0:0:0:0:
64,192,118997,1,0,0:0:0:0:
448,192,118997,1,0,0:0:0:0:
320,192,119100,1,0,0:0:0:0:
192,192,119203,1,0,0:0:0:0:
64,192,119203,1,0,0:0:0:0:
448,192,119203,1,0,0:0:0:0:
192,192,119408,1,0,0:0:0:0:
320,192,119408,1,0,0:0:0:0:
64,192,119614,1,0,0:0:0:0:
320,192,119614,1,0,0:0:0:0:
448,192,119614,1,0,0:0:0:0:
192,192,119819,1,0,0:0:0:0:
320,192,119819,1,0,0:0:0:0:
192,192,120025,1,0,0:0:0:0:
64,192,120025,1,0,0:0:0:0:
448,192,120025,1,0,0:0:0:0:
64,192,120230,1,0,0:0:0:0:
320,192,120230,1,0,0:0:0:0:
192,192,120436,1,0,0:0:0:0:
320,192,120436,1,0,0:0:0:0:
448,192,120436,1,0,0:0:0:0:
64,192,120641,1,0,0:0:0:0:
192,192,120641,1,0,0:0:0:0:
320,192,120641,1,0,0:0:0:0:
448,192,120641,1,0,0:0:0:0:
192,192,120846,1,0,0:0:0:0:
64,192,120846,1,0,0:0:0:0:
448,192,120846,1,0,0:0:0:0:
320,192,121052,1,0,0:0:0:0:
448,192,121052,1,0,0:0:0:0:
192,192,121257,1,0,0:0:0:0:
448,192,121257,1,0,0:0:0:0:
320,192,121463,1,0,0:0:0:0:
192,192,121463,1,0,0:0:0:0:
64,192,121463,1,0,0:0:0:0:
320,192,121668,1,0,0:0:0:0:
64,192,121668,1,0,0:0:0:0:
448,192,121668,1,0,0:0:0:0:
192,192,121771,1,0,0:0:0:0:
64,192,121874,1,0,0:0:0:0:
320,192,121874,1,0,0:0:0:0:
448,192,122079,1,0,0:0:0:0:
64,192,122079,1,0,0:0:0:0:
192,192,122079,1,0,0:0:0:0:
192,192,122285,1,0,0:0:0:0:
320,192,122285,1,0,0:0:0:0:
448,192,122490,1,0,0:0:0:0:
320,192,122490,1,0,0:0:0:0:
64,192,122490,128,0,122799:0:0:0:0:
192,192,122593,1,0,0:0:0:0:
320,192,122696,1,0,0:0:0:0:
448,192,122696,1,0,0:0:0:0:
192,192,122799,1,0,0:0:0:0:
320,192,122901,1,0,0:0:0:0:
448,192,122901,1,0,0:0:0:0:
64,192,122901,128,0,123312:0:0:0:0:
192,192,123107,128,0,123518:0:0:0:0:
320,192,123107,1,0,0:0:0:0:
448,192,123107,1,0,0:0:0:0:
64,192,123518,1,0,0:0:0:0:
448,192,123518,128,0,123723:0:0:0:0:
320,192,123518,1,0,0:0:0:0:
320,192,123723,1,0,0:0:0:0:
192,192,123723,1,0,0:0:0:0:
64,192,123723,128,0,123929:0:0:0:0:
192,192,123929,128,0,124340:0:0:0:0:
320,192,123929,1,0,0:0:0:0:
448,192,123929,1,0,0:0:0:0:
64,192,124340,1,0,0:0:0:0:
320,192,124340,1,0,0:0:0:0:
448,192,124340,1,0,0:0:0:0:
320,192,124545,1,0,0:0:0:0:
192,192,124545,1,0,0:0:0:0:
64,192,124545,1,0,0:0:0:0:
192,192,124751,1,0,0:0:0:0:
320,192,124751,1,0,0:0:0:0:
448,192,124751,1,0,0:0:0:0:
64,192,124956,1,0,0:0:0:0:
320,192,124956,1,0,0:0:0:0:
448,192,124956,1,0,0:0:0:0:
192,192,125162,1,0,0:0:0:0:
64,192,125162,1,0,0:0:0:0:
448,192,125162,1,0,0:0:0:0:
64,192,125264,1,0,0:0:0:0:
192,192,125264,1,0,0:0:0:0:
320,192,125367,1,0,0:0:0:0:
448,192,125367,1,0,0:0:0:0:
320,192,125573,1,0,0:0:0:0:
448,192,125573,1,0,0:0:0:0:
192,192,125675,1,0,0:0:0:0:
64,192,125778,1,0,0:0:0:0:
320,192,125778,1,0,0:0:0:0:
448,192,125778,1,0,0:0:0:0:
320,192,125983,128,0,126292:0:0:0:0:
448,192,126189,128,0,126394:0:0:0:0:
64,192,126189,128,0,126497:0:0:0:0:
192,192,126394,128,0,126600:0:0:0:0:
320,192,126394,128,0,126703:0:0:0:0:
448,192,126600,128,0,126703:0:0:0:0:
64,192,126600,128,0,126908:0:0:0:0:
192,192,126703,128,0,126805:0:0:0:0:
320,192,126805,128,0,126908:0:0:0:0:
448,192,126805,128,0,127216:0:0:0:0:
64,192,127011,128,0,127216:0:0:0:0:
192,192,127011,128,0,127319:0:0:0:0:
320,192,127011,128,0,127422:0:0:0:0:
192,192,127422,1,0,0:0:0:0:
64,192,127422,1,0,0:0:0:0:
448,192,127422,128,0,127730:0:0:0:0:
320,192,127627,128,0,127884:0:0:0:0:
64,192,127627,1,0,0:0:0:0:
192,192,127730,128,0,127884:0:0:0:0:
448,192,127833,128,0,127987:0:0:0:0:
64,192,127833,128,0,127987:0:0:0:0:
192,192,127936,128,0,128090:0:0:0:0:
320,192,127936,128,0,128090:0:0:0:0:
64,192,128038,128,0,128192:0:0:0:0:
448,192,128038,128,0,128192:0:0:0:0:
192,192,128141,128,0,128295:0:0:0:0:
320,192,128141,128,0,128295:0:0:0:0:
448,192,128244,128,0,128398:0:0:0:0:
64,192,128244,128,0,128398:0:0:0:0:
192,192,128346,128,0,128449:0:0:0:0:
320,192,128346,128,0,128501:0:0:0:0:
448,192,128449,128,0,128552:0:0:0:0:
320,192,128552,128,0,128655:0:0:0:0:
192,192,128655,128,0,128860:0:0:0:0:
64,192,128655,128,0,128963:0:0:0:0:
320,192,128860,128,0,129066:0:0:0:0:
448,192,128860,128,0,128963:0:0:0:0:
64,192,129066,128,0,129168:0:0:0:0:
192,192,129066,1,0,0:0:0:0:
448,192,129066,128,0,129271:0:0:0:0:
192,192,129271,128,0,129374:0:0:0:0:
64,192,129271,128,0,129374:0:0:0:0:
320,192,129374,128,0,129477:0:0:0:0:
448,192,129374,128,0,129477:0:0:0:0:
192,192,129477,128,0,129579:0:0:0:0:
64,192,129477,128,0,129579:0:0:0:0:
320,192,129579,128,0,129682:0:0:0:0:
448,192,129579,128,0,129682:0:0:0:0:
64,192,129682,128,0,129785:0:0:0:0:
192,192,129682,128,0,129785:0:0:0:0:
320,192,129785,128,0,129888:0:0:0:0:
64,192,129888,128,0,130299:0:0:0:0:
448,192,129888,128,0,129990:0:0:0:0:
192,192,129990,128,0,130093:0:0:0:0:
448,192,130093,128,0,130196:0:0:0:0:
320,192,130093,1,0,0:0:0:0:
192,192,130196,128,0,130299:0:0:0:0:
320,192,130299,128,0,130401:0:0:0:0:
448,192,130299,128,0,130607:0:0:0:0:
64,192,130504,128,0,130607:0:0:0:0:
320,192,130504,128,0,130710:0:0:0:0:
192,192,130607,128,0,130710:0:0:0:0:
64,192,130710,128,0,130915:0:0:0:0:
448,192,130710,1,0,0:0:0:0:
192,192,130915,128,0,131120:0:0:0:0:
320,192,130915,1,0,0:0:0:0:
448,192,131120,1,0,0:0:0:0:
64,192,131120,1,0,0:0:0:0:
320,192,131120,1,0,0:0:0:0:
192,192,131326,1,0,0:0:0:0:
320,192,131326,1,0,0:0:0:0:
64,192,131531,1,0,0:0:0:0:
448,192,131531,128,0,131737:0:0:0:0:
192,192,131634,128,0,131737:0:0:0:0:
320,192,131737,128,0,131840:0:0:0:0:
64,192,131737,128,0,131840:0:0:0:0:
192,192,131840,128,0,131942:0:0:0:0:
448,192,131942,1,0,0:0:0:0:
320,192,131942,128,0,132148:0:0:0:0:
64,192,131942,128,0,132251:0:0:0:0:
192,192,132148,128,0,132251:0:0:0:0:
448,192,132148,128,0,132353:0:0:0:0:
320,192,132251,128,0,132353:0:0:0:0:
64,192,132353,1,0,0:0:0:0:
192,192,132353,128,0,132456:0:0:0:0:
320,192,132456,128,0,132559:0:0:0:0:
192,192,132559,128,0,132662:0:0:0:0:
64,192,132559,128,0,132662:0:0:0:0:
320,192,132662,1,0,0:0:0:0:
64,192,132764,1,0,0:0:0:0:
448,192,132764,128,0,132970:0:0:0:0:
192,192,132764,128,0,132918:0:0:0:0:
64,192,132970,1,0,0:0:0:0:
320,192,132970,128,0,133073:0:0:0:0:
448,192,133073,1,0,0:0:0:0:
192,192,133073,128,0,133175:0:0:0:0:
64,192,133175,1,0,0:0:0:0:
320,192,133175,1,0,0:0:0:0:
192,192,133278,1,0,0:0:0:0:
320,192,133381,1,0,0:0:0:0:
448,192,133381,1,0,0:0:0:0:
192,192,133483,1,0,0:0:0:0:
64,192,133586,128,0,133894:0:0:0:0:
320,192,133586,128,0,133689:0:0:0:0:
448,192,133586,128,0,133689:0:0:0:0:
192,192,133689,128,0,133792:0:0:0:0:
320,192,133792,128,0,133894:0:0:0:0:
448,192,133792,128,0,133894:0:0:0:0:
192,192,133894,128,0,133997:0:0:0:0:
320,192,133997,128,0,134100:0:0:0:0:
448,192,133997,1,0,0:0:0:0:
64,192,133997,128,0,134100:0:0:0:0:
192,192,134100,128,0,134203:0:0:0:0:
448,192,134203,128,0,134305:0:0:0:0:
320,192,134203,1,0,0:0:0:0:
64,192,134305,1,0,0:0:0:0:
192,192,134305,128,0,134408:0:0:0:0:
320,192,134408,128,0,134511:0:0:0:0:
448,192,134408,128,0,134511:0:0:0:0:
192,192,134511,128,0,134614:0:0:0:0:
448,192,134614,1,0,0:0:0:0:
64,192,134614,128,0,134716:0:0:0:0:
320,192,134716,1,0,0:0:0:0:
192,192,134716,128,0,134819:0:0:0:0:
448,192,134819,128,0,134922:0:0:0:0:
64,192,134819,128,0,134922:0:0:0:0:
320,192,134922,128,0,135025:0:0:0:0:
192,192,135025,1,0,0:0:0:0:
64,192,135025,128,0,135127:0:0:0:0:
448,192,135127,1,0,0:0:0:0:
320,192,135127,128,0,135230:0:0:0:0:
192,192,135230,128,0,135333:0:0:0:0:
64,192,135230,128,0,135333:0:0:0:0:
320,192,135333,128,0,135436:0:0:0:0:
64,192,135436,1,0,0:0:0:0:
448,192,135436,128,0,135744:0:0:0:0:
192,192,135436,128,0,135641:0:0:0:0:
320,192,135641,128,0,135847:0:0:0:0:
448,192,135847,1,0,0:0:0:0:
192,192,135847,128,0,135949:0:0:0:0:
64,192,135847,128,0,135949:0:0:0:0:
64,192,136052,1,0,0:0:0:0:
192,192,136052,1,0,0:0:0:0:
448,192,136052,1,0,0:0:0:0:
320,192,136052,1,0,0:0:0:0:
448,192,136257,1,0,0:0:0:0:
320,192,136257,128,0,136463:0:0:0:0:
64,192,136257,128,0,136360:0:0:0:0:
192,192,136360,128,0,136463:0:0:0:0:
448,192,136463,1,0,0:0:0:0:
64,192,136463,128,0,136566:0:0:0:0:
320,192,136566,128,0,136668:0:0:0:0:
64,192,136668,1,0,0:0:0:0:
192,192,136668,128,0,136771:0:0:0:0:
448,192,136771,1,0,0:0:0:0:
320,192,136771,128,0,136874:0:0:0:0:
192,192,136874,1,0,0:0:0:0:
64,192,136874,128,0,137079:0:0:0:0:
448,192,136874,1,0,0:0:0:0:
320,192,137079,1,0,0:0:0:0:
192,192,137079,128,0,137285:0:0:0:0:
448,192,137182,1,0,0:0:0:0:
64,192,137285,1,0,0:0:0:0:
320,192,137285,128,0,137388:0:0:0:0:
192,192,137388,128,0,137490:0:0:0:0:
64,192,137490,1,0,0:0:0:0:
448,192,137490,128,0,137593:0:0:0:0:
320,192,137593,128,0,137696:0:0:0:0:
448,192,137696,128,0,137901:0:0:0:0:
64,192,137696,128,0,137799:0:0:0:0:
192,192,137696,1,0,0:0:0:0:
64,192,137901,1,0,0:0:0:0:
192,192,137901,128,0,138004:0:0:0:0:
448,192,138004,1,0,0:0:0:0:
320,192,138004,128,0,138107:0:0:0:0:
192,192,138107,1,0,0:0:0:0:
64,192,138107,128,0,138210:0:0:0:0:
448,192,138210,1,0,0:0:0:0:
320,192,138210,128,0,138312:0:0:0:0:
64,192,138312,1,0,0:0:0:0:
192,192,138312,128,0,138415:0:0:0:0:
320,192,138415,128,0,138518:0:0:0:0:
64,192,138518,1,0,0:0:0:0:
448,192,138518,128,0,138620:0:0:0:0:
192,192,138518,1,0,0:0:0:0:
320,192,138620,128,0,138723:0:0:0:0:
64,192,138723,128,0,138826:0:0:0:0:
448,192,138723,128,0,138775:0:0:0:0:
192,192,138826,128,0,138929:0:0:0:0:
448,192,138929,1,0,0:0:0:0:
320,192,138929,128,0,139031:0:0:0:0:
192,192,139031,1,0,0:0:0:0:
64,192,139031,128,0,139134:0:0:0:0:
320,192,139134,128,0,139237:0:0:0:0:
448,192,139134,1,0,0:0:0:0:
192,192,139237,128,0,139340:0:0:0:0:
448,192,139340,128,0,139545:0:0:0:0:
64,192,139340,1,0,0:0:0:0:
320,192,139340,128,0,139442:0:0:0:0:
64,192,139545,128,0,139956:0:0:0:0:
320,192,139545,1,0,0:0:0:0:
192,192,139545,1,0,0:0:0:0:
192,192,139751,1,0,0:0:0:0:
320,192,139751,128,0,139853:0:0:0:0:
448,192,139853,128,0,139956:0:0:0:0:
320,192,139956,128,0,140059:0:0:0:0:
192,192,139956,128,0,140059:0:0:0:0:
64,192,140059,128,0,140162:0:0:0:0:
448,192,140059,128,0,140162:0:0:0:0:
320,192,140162,128,0,140264:0:0:0:0:
192,192,140162,128,0,140264:0:0:0:0:
64,192,140264,128,0,140367:0:0:0:0:
448,192,140264,128,0,140367:0:0:0:0:
192,192,140367,128,0,140470:0:0:0:0:
320,192,140367,128,0,140470:0:0:0:0:
64,192,140470,128,0,140573:0:0:0:0:
320,192,140573,128,0,140675:0:0:0:0:
448,192,140573,128,0,140778:0:0:0:0:
192,192,140573,128,0,140675:0:0:0:0:
64,192,140675,128,0,140881:0:0:0:0:
192,192,140778,128,0,140881:0:0:0:0:
320,192,140881,128,0,140983:0:0:0:0:
448,192,140881,128,0,140983:0:0:0:0:
192,192,140983,128,0,141138:0:0:0:0:
64,192,140983,128,0,141138:0:0:0:0:
320,192,141086,128,0,141240:0:0:0:0:
448,192,141086,128,0,141240:0:0:0:0:
192,192,141189,128,0,141343:0:0:0:0:
64,192,141189,128,0,141343:0:0:0:0:
320,192,141292,128,0,141394:0:0:0:0:
448,192,141292,128,0,141394:0:0:0:0:
192,192,141394,128,0,141549:0:0:0:0:
64,192,141394,128,0,141549:0:0:0:0:
448,192,141497,128,0,141703:0:0:0:0:
320,192,141497,128,0,141600:0:0:0:0:
192,192,141600,128,0,141703:0:0:0:0:
320,192,141703,128,0,141805:0:0:0:0:
64,192,141703,128,0,141805:0:0:0:0:
192,192,141805,128,0,142216:0:0:0:0:
448,192,141805,128,0,142011:0:0:0:0:
320,192,141908,128,0,142011:0:0:0:0:
64,192,142011,128,0,142216:0:0:0:0:
320,192,142216,128,0,142319:0:0:0:0:
448,192,142216,128,0,142422:0:0:0:0:
64,192,142319,128,0,142422:0:0:0:0:
192,192,142422,128,0,142525:0:0:0:0:
320,192,142422,128,0,142525:0:0:0:0:
448,192,142525,128,0,142627:0:0:0:0:
192,192,142627,128,0,142730:0:0:0:0:
64,192,142627,128,0,142730:0:0:0:0:
320,192,142627,1,0,0:0:0:0:
320,192,142730,128,0,142833:0:0:0:0:
448,192,142730,128,0,142833:0:0:0:0:
192,192,142833,128,0,142987:0:0:0:0:
64,192,142833,128,0,142987:0:0:0:0:
320,192,142936,128,0,143090:0:0:0:0:
448,192,142936,128,0,143090:0:0:0:0:
192,192,143038,128,0,143192:0:0:0:0:
64,192,143038,128,0,143192:0:0:0:0:
448,192,143141,128,0,143244:0:0:0:0:
320,192,143141,128,0,143244:0:0:0:0:
192,192,143244,128,0,143347:0:0:0:0:
64,192,143244,128,0,143347:0:0:0:0:
448,192,143347,128,0,143449:0:0:0:0:
320,192,143449,128,0,143655:0:0:0:0:
192,192,143449,128,0,143552:0:0:0:0:
64,192,143449,128,0,143552:0:0:0:0:
448,192,143655,128,0,143757:0:0:0:0:
64,192,143655,128,0,143757:0:0:0:0:
320,192,143757,128,0,143860:0:0:0:0:
192,192,143860,128,0,144066:0:0:0:0:
64,192,143860,128,0,143963:0:0:0:0:
448,192,143860,128,0,144066:0:0:0:0:
320,192,144066,128,0,144271:0:0:0:0:
64,192,144066,128,0,144168:0:0:0:0:
448,192,144271,128,0,144374:0:0:0:0:
64,192,144271,128,0,144374:0:0:0:0:
192,192,144271,1,0,0:0:0:0:
320,192,144374,1,0,0:0:0:0:
448,192,144477,128,0,144579:0:0:0:0:
64,192,144477,128,0,144579:0:0:0:0:
320,192,144579,128,0,144682:0:0:0:0:
64,192,144682,1,0,0:0:0:0:
448,192,144682,128,0,144888:0:0:0:0:
192,192,144682,128,0,144785:0:0:0:0:
320,192,144785,128,0,144888:0:0:0:0:
64,192,144888,128,0,145093:0:0:0:0:
192,192,144888,1,0,0:0:0:0:
320,192,144990,128,0,145093:0:0:0:0:
192,192,145093,128,0,145196:0:0:0:0:
448,192,145093,128,0,145196:0:0:0:0:
320,192,145196,128,0,145299:0:0:0:0:
64,192,145299,128,0,145504:0:0:0:0:
192,192,145299,1,0,0:0:0:0:
448,192,145299,128,0,145401:0:0:0:0:
320,192,145401,128,0,145504:0:0:0:0:
192,192,145504,128,0,145812:0:0:0:0:
448,192,145504,128,0,145607:0:0:0:0:
320,192,145607,128,0,145710:0:0:0:0:
64,192,145710,128,0,145812:0:0:0:0:
448,192,145710,128,0,145915:0:0:0:0:
320,192,145812,128,0,145915:0:0:0:0:
192,192,145915,128,0,146018:0:0:0:0:
64,192,145915,128,0,146223:0:0:0:0:
448,192,146018,128,0,146120:0:0:0:0:
192,192,146120,128,0,146326:0:0:0:0:
320,192,146120,128,0,146223:0:0:0:0:
448,192,146223,128,0,146326:0:0:0:0:
320,192,146326,128,0,146429:0:0:0:0:
64,192,146326,1,0,0:0:0:0:
192,192,146429,128,0,146531:0:0:0:0:
64,192,146531,1,0,0:0:0:0:
448,192,146531,128,0,146634:0:0:0:0:
320,192,146531,128,0,146634:0:0:0:0:
192,192,146634,128,0,146737:0:0:0:0:
448,192,146737,1,0,0:0:0:0:
64,192,146737,128,0,146942:0:0:0:0:
320,192,146737,128,0,146942:0:0:0:0:
192,192,146942,128,0,147148:0:0:0:0:
448,192,146942,1,0,0:0:0:0:
64,192,147148,1,0,0:0:0:0:
320,192,147148,128,0,147251:0:0:0:0:
448,192,147148,128,0,147251:0:0:0:0:
192,192,147251,128,0,147353:0:0:0:0:
448,192,147353,1,0,0:0:0:0:
64,192,147353,128,0,147456:0:0:0:0:
192,192,147456,1,0,0:0:0:0:
320,192,147456,128,0,147559:0:0:0:0:
64,192,147559,128,0,147662:0:0:0:0:
448,192,147559,128,0,147662:0:0:0:0:
320,192,147662,128,0,147764:0:0:0:0:
64,192,147764,1,0,0:0:0:0:
192,192,147764,128,0,147867:0:0:0:0:
448,192,147867,1,0,0:0:0:0:
320,192,147867,128,0,147970:0:0:0:0:
64,192,147970,128,0,148073:0:0:0:0:
192,192,147970,128,0,148073:0:0:0:0:
448,192,148073,1,0,0:0:0:0:
320,192,148073,128,0,148175:0:0:0:0:
64,192,148175,1,0,0:0:0:0:
192,192,148175,128,0,148278:0:0:0:0:
320,192,148278,128,0,148381:0:0:0:0:
192,192,148381,1,0,0:0:0:0:
448,192,148381,128,0,148483:0:0:0:0:
64,192,148381,128,0,148483:0:0:0:0:
64,192,148586,1,0,0:0:0:0:
192,192,148586,128,0,148997:0:0:0:0:
320,192,148586,128,0,148894:0:0:0:0:
448,192,148689,128,0,148894:0:0:0:0:
320,192,148997,1,0,0:0:0:0:
64,192,148997,1,0,0:0:0:0:
448,192,148997,1,0,0:0:0:0:
64,192,149203,1,0,0:0:0:0:
192,192,149203,1,0,0:0:0:0:
448,192,149203,1,0,0:0:0:0:
320,192,149203,128,0,149511:0:0:0:0:
64,192,149511,128,0,149614:0:0:0:0:
192,192,149511,128,0,149614:0:0:0:0:
448,192,149614,1,0,0:0:0:0:
320,192,149614,128,0,149716:0:0:0:0:
192,192,149716,128,0,149819:0:0:0:0:
64,192,149819,128,0,149922:0:0:0:0:
320,192,149819,128,0,149922:0:0:0:0:
192,192,149922,128,0,150025:0:0:0:0:
320,192,150025,1,0,0:0:0:0:
64,192,150025,128,0,150127:0:0:0:0:
448,192,150025,128,0,150127:0:0:0:0:
192,192,150230,1,0,0:0:0:0:
64,192,150230,1,0,0:0:0:0:
448,192,150230,1,0,0:0:0:0:
448,192,150436,128,0,150538:0:0:0:0:
192,192,150436,1,0,0:0:0:0:
320,192,150436,128,0,150641:0:0:0:0:
192,192,150641,1,0,0:0:0:0:
64,192,150641,128,0,150744:0:0:0:0:
448,192,150641,1,0,0:0:0:0:
320,192,150744,128,0,150847:0:0:0:0:
192,192,150847,1,0,0:0:0:0:
64,192,150847,1,0,0:0:0:0:
448,192,150847,128,0,151155:0:0:0:0:
320,192,151052,128,0,151257:0:0:0:0:
192,192,151052,1,0,0:0:0:0:
64,192,151052,1,0,0:0:0:0:
192,192,151257,1,0,0:0:0:0:
64,192,151257,1,0,0:0:0:0:
448,192,151257,1,0,0:0:0:0:
192,192,151463,1,0,0:0:0:0:
320,192,151463,1,0,0:0:0:0:
448,192,151463,1,0,0:0:0:0:
320,192,151668,1,0,0:0:0:0:
448,192,151668,1,0,0:0:0:0:
64,192,151668,1,0,0:0:0:0:
192,192,151874,128,0,152079:0:0:0:0:
64,192,151874,128,0,152079:0:0:0:0:
320,192,151874,128,0,151977:0:0:0:0:
448,192,151874,128,0,151977:0:0:0:0:
64,192,152285,1,0,0:0:0:0:
192,192,152285,1,0,0:0:0:0:
448,192,152285,128,0,152490:0:0:0:0:
320,192,152285,128,0,152388:0:0:0:0:
192,192,152490,128,0,152799:0:0:0:0:
320,192,152490,1,0,0:0:0:0:
64,192,152490,1,0,0:0:0:0:
320,192,152696,128,0,152901:0:0:0:0:
448,192,152696,128,0,152901:0:0:0:0:
64,192,152696,128,0,152799:0:0:0:0:
192,192,152901,1,0,0:0:0:0:
64,192,152901,1,0,0:0:0:0:
320,192,153004,1,0,0:0:0:0:
448,192,153004,1,0,0:0:0:0:
192,192,153107,1,0,0:0:0:0:
64,192,153107,1,0,0:0:0:0:
320,192,153210,1,0,0:0:0:0:
64,192,153312,1,0,0:0:0:0:
448,192,153312,1,0,0:0:0:0:
320,192,153415,1,0,0:0:0:0:
192,192,153415,1,0,0:0:0:0:
64,192,153518,1,0,0:0:0:0:
448,192,153518,1,0,0:0:0:0:
192,192,153620,1,0,0:0:0:0:
320,192,153723,1,0,0:0:0:0:
64,192,153723,1,0,0:0:0:0:
448,192,153723,1,0,0:0:0:0:
320,192,163586,5,0,0:0:0:0:
448,192,163586,1,0,0:0:0:0:
192,192,163689,1,0,0:0:0:0:
320,192,163792,1,0,0:0:0:0:
192,192,163894,1,0,0:0:0:0:
448,192,163997,1,0,0:0:0:0:
64,192,163997,1,0,0:0:0:0:
320,192,163997,1,0,0:0:0:0:
192,192,164203,1,0,0:0:0:0:
64,192,164203,1,0,0:0:0:0:
192,192,164305,1,0,0:0:0:0:
64,192,164305,1,0,0:0:0:0:
320,192,164408,1,0,0:0:0:0:
448,192,164408,1,0,0:0:0:0:
64,192,164408,1,0,0:0:0:0:
192,192,164614,1,0,0:0:0:0:
64,192,164614,1,0,0:0:0:0:
320,192,164819,1,0,0:0:0:0:
448,192,164819,1,0,0:0:0:0:
448,192,165025,1,0,0:0:0:0:
64,192,165025,1,0,0:0:0:0:
192,192,165025,1,0,0:0:0:0:
320,192,165025,1,0,0:0:0:0:
448,192,165436,128,0,165487:0:0:0:0:
192,192,165436,128,0,165487:0:0:0:0:
64,192,165436,128,0,165487:0:0:0:0:
320,192,165641,128,0,165692:0:0:0:0:
64,192,165641,128,0,165692:0:0:0:0:
448,192,165641,128,0,165692:0:0:0:0:
192,192,165847,128,0,165898:0:0:0:0:
448,192,165847,128,0,165898:0:0:0:0:
320,192,165847,128,0,165898:0:0:0:0:
64,192,165847,128,0,165898:0:0:0:0:
64,192,166052,128,0,166103:0:0:0:0:
320,192,166052,128,0,166103:0:0:0:0:
192,192,166052,128,0,166103:0:0:0:0:
448,192,166257,1,0,0:0:0:0:
64,192,166257,1,0,0:0:0:0:
320,192,166309,1,0,0:0:0:0:
192,192,166360,1,0,0:0:0:0:
64,192,166412,1,0,0:0:0:0:
320,192,166463,1,0,0:0:0:0:
448,192,166463,1,0,0:0:0:0:
192,192,166531,1,0,0:0:0:0:
64,192,166600,1,0,0:0:0:0:
320,192,166668,1,0,0:0:0:0:
448,192,166668,1,0,0:0:0:0:
192,192,166737,1,0,0:0:0:0:
320,192,166805,1,0,0:0:0:0:
64,192,166874,1,0,0:0:0:0:
192,192,166874,128,0,167182:0:0:0:0:
448,192,166874,128,0,167388:0:0:0:0:
192,192,167285,1,0,0:0:0:0:
320,192,167285,128,0,167799:0:0:0:0:
64,192,167285,1,0,0:0:0:0:
64,192,167490,128,0,167696:0:0:0:0:
192,192,167490,1,0,0:0:0:0:
448,192,167490,1,0,0:0:0:0:
192,192,167696,128,0,168210:0:0:0:0:
448,192,167696,128,0,167901:0:0:0:0:
320,192,167901,1,0,0:0:0:0:
64,192,167901,1,0,0:0:0:0:
64,192,168107,128,0,168518:0:0:0:0:
320,192,168107,1,0,0:0:0:0:
448,192,168107,1,0,0:0:0:0:
192,192,168312,1,0,0:0:0:0:
320,192,168312,1,0,0:0:0:0:
448,192,168312,128,0,168518:0:0:0:0:
320,192,168518,128,0,168723:0:0:0:0:
192,192,168518,1,0,0:0:0:0:
192,192,168723,128,0,169134:0:0:0:0:
64,192,168723,1,0,0:0:0:0:
448,192,168723,1,0,0:0:0:0:
64,192,168929,128,0,169237:0:0:0:0:
320,192,168929,1,0,0:0:0:0:
448,192,168929,1,0,0:0:0:0:
320,192,169134,128,0,169545:0:0:0:0:
448,192,169134,128,0,169340:0:0:0:0:
192,192,169340,1,0,0:0:0:0:
64,192,169340,1,0,0:0:0:0:
192,192,169545,128,0,170059:0:0:0:0:
448,192,169545,1,0,0:0:0:0:
64,192,169545,1,0,0:0:0:0:
64,192,169751,128,0,169956:0:0:0:0:
320,192,169751,128,0,169853:0:0:0:0:
320,192,169956,128,0,170059:0:0:0:0:
448,192,169956,128,0,170162:0:0:0:0:
64,192,170162,1,0,0:0:0:0:
192,192,170162,1,0,0:0:0:0:
320,192,170162,128,0,170470:0:0:0:0:
192,192,170367,128,0,170573:0:0:0:0:
64,192,170367,1,0,0:0:0:0:
448,192,170367,1,0,0:0:0:0:
64,192,170573,128,0,170675:0:0:0:0:
320,192,170573,128,0,170778:0:0:0:0:
448,192,170573,1,0,0:0:0:0:
64,192,170778,1,0,0:0:0:0:
448,192,170778,1,0,0:0:0:0:
192,192,170778,128,0,171086:0:0:0:0:
320,192,170983,128,0,171394:0:0:0:0:
448,192,170983,128,0,171086:0:0:0:0:
64,192,171189,128,0,171394:0:0:0:0:
192,192,171189,1,0,0:0:0:0:
448,192,171189,1,0,0:0:0:0:
192,192,171394,128,0,171497:0:0:0:0:
448,192,171394,128,0,171805:0:0:0:0:
320,192,171600,128,0,171805:0:0:0:0:
192,192,171600,1,0,0:0:0:0:
64,192,171600,1,0,0:0:0:0:
64,192,171805,128,0,171908:0:0:0:0:
192,192,171805,128,0,172216:0:0:0:0:
320,192,172011,128,0,172216:0:0:0:0:
448,192,172011,1,0,0:0:0:0:
64,192,172011,128,0,172319:0:0:0:0:
448,192,172216,128,0,172319:0:0:0:0:
192,192,172319,128,0,172422:0:0:0:0:
320,192,172422,1,0,0:0:0:0:
448,192,172422,1,0,0:0:0:0:
64,192,172422,128,0,172833:0:0:0:0:
192,192,172627,1,0,0:0:0:0:
320,192,172627,1,0,0:0:0:0:
192,192,172764,1,0,0:0:0:0:
448,192,172764,1,0,0:0:0:0:
320,192,172901,1,0,0:0:0:0:
448,192,172901,1,0,0:0:0:0:
64,192,173038,1,0,0:0:0:0:
448,192,173038,1,0,0:0:0:0:
64,192,173175,1,0,0:0:0:0:
192,192,173175,1,0,0:0:0:0:
192,192,173312,1,0,0:0:0:0:
320,192,173312,1,0,0:0:0:0:
320,192,173449,1,0,0:0:0:0:
448,192,173449,1,0,0:0:0:0:
64,192,173449,128,0,173757:0:0:0:0:
192,192,173655,128,0,173860:0:0:0:0:
320,192,173655,1,0,0:0:0:0:
64,192,173860,1,0,0:0:0:0:
320,192,173860,1,0,0:0:0:0:
448,192,173860,128,0,174374:0:0:0:0:
320,192,174066,128,0,174374:0:0:0:0:
192,192,174066,1,0,0:0:0:0:
64,192,174066,1,0,0:0:0:0:
192,192,174271,128,0,174477:0:0:0:0:
64,192,174477,128,0,174785:0:0:0:0:
320,192,174477,128,0,174579:0:0:0:0:
448,192,174477,1,0,0:0:0:0:
448,192,174682,128,0,175093:0:0:0:0:
192,192,174682,128,0,174785:0:0:0:0:
320,192,174682,1,0,0:0:0:0:
192,192,174888,128,0,175093:0:0:0:0:
320,192,174888,1,0,0:0:0:0:
64,192,174888,1,0,0:0:0:0:
320,192,175093,128,0,175401:0:0:0:0:
192,192,175299,128,0,175504:0:0:0:0:
448,192,175299,128,0,175401:0:0:0:0:
64,192,175299,128,0,175607:0:0:0:0:
448,192,175504,128,0,175812:0:0:0:0:
320,192,175504,128,0,175607:0:0:0:0:
320,192,175710,128,0,175915:0:0:0:0:
192,192,175710,1,0,0:0:0:0:
64,192,175710,128,0,176018:0:0:0:0:
192,192,175915,128,0,176634:0:0:0:0:
448,192,175915,128,0,176018:0:0:0:0:
448,192,176120,1,0,0:0:0:0:
320,192,176120,128,0,176326:0:0:0:0:
64,192,176326,128,0,176531:0:0:0:0:
448,192,176326,128,0,176429:0:0:0:0:
320,192,176531,128,0,176634:0:0:0:0:
448,192,176531,128,0,176737:0:0:0:0:
320,192,176737,128,0,177045:0:0:0:0:
192,192,176737,1,0,0:0:0:0:
64,192,176737,1,0,0:0:0:0:
192,192,176942,128,0,177148:0:0:0:0:
64,192,177148,128,0,177251:0:0:0:0:
448,192,177148,128,0,177251:0:0:0:0:
320,192,177148,128,0,177353:0:0:0:0:
192,192,177353,128,0,177559:0:0:0:0:
64,192,177353,1,0,0:0:0:0:
448,192,177353,128,0,177662:0:0:0:0:
320,192,177559,128,0,177867:0:0:0:0:
64,192,177559,128,0,177662:0:0:0:0:
64,192,177764,1,0,0:0:0:0:
192,192,177764,128,0,178073:0:0:0:0:
448,192,177764,128,0,177867:0:0:0:0:
320,192,177970,128,0,178381:0:0:0:0:
448,192,177970,1,0,0:0:0:0:
64,192,178175,1,0,0:0:0:0:
192,192,178175,1,0,0:0:0:0:
448,192,178175,1,0,0:0:0:0:
192,192,178381,128,0,178792:0:0:0:0:
64,192,178586,128,0,178792:0:0:0:0:
320,192,178689,128,0,178792:0:0:0:0:
448,192,178792,1,0,0:0:0:0:
192,192,178997,1,0,0:0:0:0:
64,192,178997,1,0,0:0:0:0:
448,192,178997,1,0,0:0:0:0:
320,192,178997,1,0,0:0:0:0:
448,192,179203,1,0,0:0:0:0:
64,192,179203,1,0,0:0:0:0:
320,192,179408,1,0,0:0:0:0:
192,192,179408,1,0,0:0:0:0:
64,192,179614,1,0,0:0:0:0:
448,192,179614,128,0,180025:0:0:0:0:
320,192,179819,128,0,180025:0:0:0:0:
192,192,179922,128,0,180025:0:0:0:0:
64,192,180025,128,0,183312:0:0:0:0:
320,192,183312,1,0,0:0:0:0:
192,192,183620,1,0,0:0:0:0:
320,192,183826,1,0,0:0:0:0:
448,192,183929,1,0,0:0:0:0:
64,192,184134,1,0,0:0:0:0:
448,192,184134,1,0,0:0:0:0:
320,192,184340,1,0,0:0:0:0:
192,192,184545,1,0,0:0:0:0:
64,192,184545,1,0,0:0:0:0:
320,192,184751,1,0,0:0:0:0:
448,192,184751,1,0,0:0:0:0:
192,192,184956,1,0,0:0:0:0:
64,192,184956,1,0,0:0:0:0:
192,192,185162,1,0,0:0:0:0:
320,192,185264,1,0,0:0:0:0:
448,192,185367,1,0,0:0:0:0:
320,192,185573,1,0,0:0:0:0:
448,192,185778,1,0,0:0:0:0:
64,192,185778,1,0,0:0:0:0:
192,192,185983,1,0,0:0:0:0:
320,192,186189,1,0,0:0:0:0:
448,192,186189,1,0,0:0:0:0:
64,192,186394,1,0,0:0:0:0:
448,192,186394,1,0,0:0:0:0:
320,192,186600,1,0,0:0:0:0:
192,192,186805,1,0,0:0:0:0:
64,192,187011,1,0,0:0:0:0:
448,192,187011,1,0,0:0:0:0:
192,192,187216,1,0,0:0:0:0:
320,192,187319,1,0,0:0:0:0:
64,192,187422,1,0,0:0:0:0:
448,192,187422,1,0,0:0:0:0:
320,192,187627,1,0,0:0:0:0:
192,192,187833,1,0,0:0:0:0:
320,192,188038,1,0,0:0:0:0:
448,192,188038,1,0,0:0:0:0:
192,192,188141,1,0,0:0:0:0:
64,192,188244,1,0,0:0:0:0:
448,192,188244,1,0,0:0:0:0:
320,192,188449,1,0,0:0:0:0:
448,192,188655,1,0,0:0:0:0:
64,192,188655,1,0,0:0:0:0:
64,192,189066,1,0,0:0:0:0:
320,192,189066,1,0,0:0:0:0:
192,192,189477,1,0,0:0:0:0:
320,192,189682,1,0,0:0:0:0:
192,192,189785,1,0,0:0:0:0:
64,192,189888,128,0,190093:0:0:0:0:
320,192,189888,128,0,189956:0:0:0:0:
448,192,189888,128,0,189990:0:0:0:0:
192,192,190299,128,0,190376:0:0:0:0:
320,192,190299,128,0,190350:0:0:0:0:
64,192,190299,128,0,190401:0:0:0:0:
448,192,190299,128,0,190324:0:0:0:0:
192,192,190504,128,0,190555:0:0:0:0:
320,192,190504,128,0,190573:0:0:0:0:
448,192,190504,128,0,190607:0:0:0:0:
64,192,190504,128,0,190530:0:0:0:0:
192,192,190710,128,0,190787:0:0:0:0:
64,192,190710,128,0,190812:0:0:0:0:
448,192,190710,128,0,190735:0:0:0:0:
320,192,190710,128,0,190761:0:0:0:0:
192,192,190915,128,0,190966:0:0:0:0:
320,192,190915,128,0,190983:0:0:0:0:
448,192,190915,128,0,191018:0:0:0:0:
64,192,190915,128,0,190941:0:0:0:0:
192,192,191120,128,0,191198:0:0:0:0:
64,192,191120,128,0,191223:0:0:0:0:
448,192,191120,128,0,191146:0:0:0:0:
320,192,191120,128,0,191172:0:0:0:0:
192,192,191326,128,0,191377:0:0:0:0:
320,192,191326,128,0,191394:0:0:0:0:
448,192,191326,128,0,191429:0:0:0:0:
64,192,191326,128,0,191352:0:0:0:0:
320,192,191531,128,0,191634:0:0:0:0:
192,192,191531,128,0,191686:0:0:0:0:
448,192,191531,128,0,191583:0:0:0:0:
64,192,191531,128,0,191686:0:0:0:0:
320,192,191737,128,0,191891:0:0:0:0:
448,192,191737,128,0,191891:0:0:0:0:
64,192,191737,128,0,191788:0:0:0:0:
192,192,191737,128,0,191840:0:0:0:0:
192,192,191942,128,0,192097:0:0:0:0:
448,192,191942,128,0,191994:0:0:0:0:
64,192,191942,128,0,192097:0:0:0:0:
320,192,191942,128,0,192045:0:0:0:0:
320,192,192148,128,0,192302:0:0:0:0:
64,192,192148,128,0,192199:0:0:0:0:
192,192,192148,128,0,192251:0:0:0:0:
448,192,192148,128,0,192302:0:0:0:0:
448,192,192353,128,0,192405:0:0:0:0:
192,192,192353,128,0,192507:0:0:0:0:
320,192,192353,128,0,192456:0:0:0:0:
64,192,192353,128,0,192507:0:0:0:0:
320,192,192559,128,0,192713:0:0:0:0:
64,192,192559,128,0,192610:0:0:0:0:
448,192,192559,128,0,192713:0:0:0:0:
192,192,192559,128,0,192662:0:0:0:0:
192,192,192764,128,0,192918:0:0:0:0:
320,192,192764,128,0,192867:0:0:0:0:
448,192,192764,128,0,192816:0:0:0:0:
64,192,192764,128,0,192918:0:0:0:0:
320,192,192970,128,0,193124:0:0:0:0:
448,192,192970,128,0,193124:0:0:0:0:
192,192,192970,128,0,193073:0:0:0:0:
64,192,192970,128,0,193021:0:0:0:0:
448,192,193175,128,0,193227:0:0:0:0:
320,192,193175,128,0,193227:0:0:0:0:
192,192,193175,128,0,193227:0:0:0:0:
64,192,193175,128,0,193227:0:0:0:0:
192,192,193381,1,0,0:0:0:0:
320,192,193381,1,0,0:0:0:0:
192,192,193586,1,0,0:0:0:0:
64,192,193586,1,0,0:0:0:0:
64,192,193792,1,0,0:0:0:0:
192,192,193792,1,0,0:0:0:0:
320,192,193792,1,0,0:0:0:0:
448,192,193792,1,0,0:0:0:0:
448,192,193997,1,0,0:0:0:0:
192,192,193997,1,0,0:0:0:0:
64,192,194203,1,0,0:0:0:0:
320,192,194203,1,0,0:0:0:0:
64,192,194408,1,0,0:0:0:0:
192,192,194408,1,0,0:0:0:0:
448,192,194408,1,0,0:0:0:0:
320,192,194614,128,0,194716:0:0:0:0:
448,192,194614,128,0,194819:0:0:0:0:
64,192,194614,128,0,194819:0:0:0:0:
192,192,194614,128,0,194922:0:0:0:0:
320,192,194922,128,0,195230:0:0:0:0:
192,192,195025,128,0,195127:0:0:0:0:
64,192,195025,128,0,195230:0:0:0:0:
448,192,195025,128,0,195127:0:0:0:0:
192,192,195230,128,0,195333:0:0:0:0:
448,192,195230,128,0,195641:0:0:0:0:
320,192,195436,128,0,195641:0:0:0:0:
192,192,195436,1,0,0:0:0:0:
64,192,195436,1,0,0:0:0:0:
192,192,195641,1,0,0:0:0:0:
320,192,195744,1,0,0:0:0:0:
448,192,195847,1,0,0:0:0:0:
192,192,195949,1,0,0:0:0:0:
320,192,196052,1,0,0:0:0:0:
64,192,196052,1,0,0:0:0:0:
448,192,196052,1,0,0:0:0:0:
192,192,196155,1,0,0:0:0:0:
64,192,196257,1,0,0:0:0:0:
320,192,196360,1,0,0:0:0:0:
192,192,196463,128,0,196566:0:0:0:0:
64,192,196463,128,0,196668:0:0:0:0:
448,192,196463,1,0,0:0:0:0:
320,192,196668,128,0,196823:0:0:0:0:
448,192,196668,128,0,196823:0:0:0:0:
192,192,196771,128,0,196925:0:0:0:0:
64,192,196771,128,0,196925:0:0:0:0:
320,192,196874,128,0,197028:0:0:0:0:
448,192,196874,128,0,197028:0:0:0:0:
192,192,196977,128,0,197131:0:0:0:0:
64,192,196977,128,0,197131:0:0:0:0:
320,192,197079,128,0,197233:0:0:0:0:
448,192,197079,128,0,197233:0:0:0:0:
192,192,197182,128,0,197336:0:0:0:0:
64,192,197182,128,0,197388:0:0:0:0:
448,192,197285,128,0,197388:0:0:0:0:
320,192,197285,128,0,197490:0:0:0:0:
192,192,197388,128,0,197593:0:0:0:0:
448,192,197490,128,0,197799:0:0:0:0:
64,192,197490,128,0,197593:0:0:0:0:
320,192,197593,128,0,197696:0:0:0:0:
192,192,197696,128,0,197799:0:0:0:0:
64,192,197696,128,0,197799:0:0:0:0:
320,192,197799,128,0,198004:0:0:0:0:
64,192,197901,1,0,0:0:0:0:
448,192,197901,1,0,0:0:0:0:
192,192,198004,1,0,0:0:0:0:
320,192,198107,128,0,198210:0:0:0:0:
448,192,198107,128,0,198312:0:0:0:0:
64,192,198107,1,0,0:0:0:0:
192,192,198312,128,0,198466:0:0:0:0:
64,192,198312,128,0,198466:0:0:0:0:
320,192,198415,128,0,198569:0:0:0:0:
448,192,198415,128,0,198569:0:0:0:0:
192,192,198518,128,0,198672:0:0:0:0:
64,192,198518,128,0,198672:0:0:0:0:
320,192,198620,128,0,198775:0:0:0:0:
448,192,198620,128,0,198775:0:0:0:0:
192,192,198723,128,0,198877:0:0:0:0:
64,192,198723,128,0,198877:0:0:0:0:
320,192,198826,128,0,198980:0:0:0:0:
448,192,198826,128,0,199031:0:0:0:0:
64,192,198929,128,0,199031:0:0:0:0:
192,192,198929,128,0,199134:0:0:0:0:
320,192,199031,128,0,199237:0:0:0:0:
64,192,199134,128,0,199442:0:0:0:0:
448,192,199134,128,0,199237:0:0:0:0:
192,192,199237,128,0,199340:0:0:0:0:
320,192,199340,128,0,199442:0:0:0:0:
448,192,199340,128,0,199648:0:0:0:0:
64,192,199545,128,0,199648:0:0:0:0:
192,192,199545,128,0,199751:0:0:0:0:
320,192,199648,128,0,199751:0:0:0:0:
448,192,199751,128,0,200162:0:0:0:0:
64,192,199751,128,0,199853:0:0:0:0:
192,192,199853,128,0,199956:0:0:0:0:
320,192,199956,128,0,200059:0:0:0:0:
64,192,199956,128,0,200059:0:0:0:0:
192,192,200059,128,0,200162:0:0:0:0:
320,192,200162,128,0,200573:0:0:0:0:
64,192,200162,128,0,200316:0:0:0:0:
448,192,200264,128,0,200367:0:0:0:0:
192,192,200367,128,0,200470:0:0:0:0:
64,192,200367,128,0,200521:0:0:0:0:
448,192,200470,128,0,200573:0:0:0:0:
192,192,200573,128,0,200983:0:0:0:0:
64,192,200573,128,0,200675:0:0:0:0:
320,192,200675,128,0,200778:0:0:0:0:
64,192,200778,128,0,200881:0:0:0:0:
448,192,200778,128,0,200881:0:0:0:0:
320,192,200881,128,0,200983:0:0:0:0:
64,192,200983,128,0,201086:0:0:0:0:
448,192,200983,128,0,201394:0:0:0:0:
192,192,201086,128,0,201189:0:0:0:0:
320,192,201189,128,0,201292:0:0:0:0:
64,192,201189,128,0,201292:0:0:0:0:
192,192,201292,128,0,201394:0:0:0:0:
64,192,201394,128,0,201600:0:0:0:0:
320,192,201394,128,0,201497:0:0:0:0:
192,192,201497,128,0,201600:0:0:0:0:
320,192,201600,128,0,201703:0:0:0:0:
448,192,201600,128,0,201703:0:0:0:0:
192,192,201703,128,0,201805:0:0:0:0:
64,192,201703,128,0,201805:0:0:0:0:
320,192,201805,128,0,201908:0:0:0:0:
448,192,201805,128,0,201908:0:0:0:0:
192,192,201908,128,0,202011:0:0:0:0:
64,192,201908,128,0,202011:0:0:0:0:
320,192,202011,128,0,202114:0:0:0:0:
448,192,202011,128,0,202114:0:0:0:0:
192,192,202114,128,0,202216:0:0:0:0:
64,192,202114,128,0,202216:0:0:0:0:
320,192,202216,128,0,202319:0:0:0:0:
448,192,202216,128,0,202319:0:0:0:0:
192,192,202319,128,0,202422:0:0:0:0:
64,192,202422,1,0,0:0:0:0:
320,192,202422,128,0,202627:0:0:0:0:
448,192,202422,1,0,0:0:0:0:
192,192,202525,1,0,0:0:0:0:
64,192,202627,128,0,202730:0:0:0:0:
448,192,202627,128,0,202730:0:0:0:0:
192,192,202730,128,0,202833:0:0:0:0:
448,192,202833,1,0,0:0:0:0:
320,192,202833,128,0,202936:0:0:0:0:
64,192,202833,128,0,202936:0:0:0:0:
448,192,203038,128,0,203244:0:0:0:0:
192,192,203038,1,0,0:0:0:0:
320,192,203141,128,0,203347:0:0:0:0:
64,192,203141,1,0,0:0:0:0:
192,192,203244,128,0,203449:0:0:0:0:
64,192,203347,128,0,203552:0:0:0:0:
448,192,203449,128,0,203655:0:0:0:0:
320,192,203552,128,0,203757:0:0:0:0:
192,192,203655,128,0,203860:0:0:0:0:
64,192,203757,128,0,203963:0:0:0:0:
320,192,203860,128,0,204066:0:0:0:0:
448,192,203860,1,0,0:0:0:0:
192,192,203963,128,0,204168:0:0:0:0:
64,192,204066,128,0,204271:0:0:0:0:
448,192,204066,128,0,204271:0:0:0:0:
320,192,204168,128,0,204374:0:0:0:0:
192,192,204271,128,0,204477:0:0:0:0:
448,192,204374,128,0,204579:0:0:0:0:
64,192,204477,128,0,204682:0:0:0:0:
320,192,204477,1,0,0:0:0:0:
192,192,204579,128,0,204785:0:0:0:0:
320,192,204682,128,0,204888:0:0:0:0:
448,192,204785,128,0,204990:0:0:0:0:
64,192,204888,1,0,0:0:0:0:
192,192,204990,128,0,205196:0:0:0:0:
448,192,205093,128,0,205299:0:0:0:0:
64,192,205093,1,0,0:0:0:0:
320,192,205196,128,0,205401:0:0:0:0:
192,192,205299,128,0,205504:0:0:0:0:
64,192,205401,128,0,205607:0:0:0:0:
448,192,205504,1,0,0:0:0:0:
320,192,205607,1,0,0:0:0:0:
192,192,205710,1,0,0:0:0:0:
64,192,205710,1,0,0:0:0:0:
320,192,205812,1,0,0:0:0:0:
192,192,205915,128,0,206120:0:0:0:0:
448,192,205915,1,0,0:0:0:0:
64,192,205915,1,0,0:0:0:0:
320,192,206018,128,0,206223:0:0:0:0:
448,192,206120,128,0,206326:0:0:0:0:
192,192,206326,128,0,206634:0:0:0:0:
64,192,206326,1,0,0:0:0:0:
320,192,206429,128,0,206634:0:0:0:0:
448,192,206531,128,0,206634:0:0:0:0:
64,192,206634,1,0,0:0:0:0:
448,192,206737,128,0,207045:0:0:0:0:
320,192,206737,128,0,206942:0:0:0:0:
192,192,206737,128,0,206840:0:0:0:0:
64,192,206942,128,0,207148:0:0:0:0:
192,192,207148,1,0,0:0:0:0:
320,192,207148,1,0,0:0:0:0:
448,192,207148,1,0,0:0:0:0:
64,192,207353,1,0,0:0:0:0:
192,192,207353,1,0,0:0:0:0:
192,192,207559,1,0,0:0:0:0:
320,192,207559,1,0,0:0:0:0:
320,192,207764,1,0,0:0:0:0:
192,192,207764,1,0,0:0:0:0:
64,192,207764,1,0,0:0:0:0:
448,192,207764,1,0,0:0:0:0:
64,192,207970,1,0,0:0:0:0:
448,192,207970,1,0,0:0:0:0:
320,192,208073,1,0,0:0:0:0:
192,192,208175,1,0,0:0:0:0:
64,192,208175,1,0,0:0:0:0:
448,192,208175,1,0,0:0:0:0:
320,192,208381,1,0,0:0:0:0:
448,192,208381,1,0,0:0:0:0:
64,192,208586,128,0,208689:0:0:0:0:
192,192,208586,128,0,208792:0:0:0:0:
320,192,208586,128,0,208997:0:0:0:0:
448,192,208586,128,0,209408:0:0:0:0:
64,192,208792,128,0,208997:0:0:0:0:
192,192,208894,128,0,209100:0:0:0:0:
320,192,209100,128,0,209305:0:0:0:0:
64,192,209203,128,0,209408:0:0:0:0:
192,192,209305,128,0,209408:0:0:0:0:
320,192,209408,128,0,209614:0:0:0:0:
64,192,209614,1,0,0:0:0:0:
192,192,209614,128,0,209819:0:0:0:0:
448,192,209614,128,0,209716:0:0:0:0:
448,192,209819,128,0,209973:0:0:0:0:
64,192,209819,128,0,209973:0:0:0:0:
192,192,209922,128,0,210076:0:0:0:0:
320,192,209922,128,0,210076:0:0:0:0:
448,192,210025,128,0,210179:0:0:0:0:
64,192,210025,128,0,210179:0:0:0:0:
192,192,210127,128,0,210281:0:0:0:0:
320,192,210127,128,0,210281:0:0:0:0:
64,192,210230,128,0,210384:0:0:0:0:
448,192,210230,128,0,210384:0:0:0:0:
192,192,210333,128,0,210436:0:0:0:0:
320,192,210333,128,0,210436:0:0:0:0:
64,192,210436,128,0,210590:0:0:0:0:
448,192,210436,128,0,210641:0:0:0:0:
320,192,210538,128,0,210641:0:0:0:0:
192,192,210641,128,0,210744:0:0:0:0:
320,192,210744,128,0,210847:0:0:0:0:
192,192,210847,1,0,0:0:0:0:
64,192,210847,1,0,0:0:0:0:
448,192,210847,128,0,211155:0:0:0:0:
320,192,211052,128,0,211257:0:0:0:0:
192,192,211052,1,0,0:0:0:0:
448,192,211257,128,0,211463:0:0:0:0:
64,192,211257,128,0,211360:0:0:0:0:
320,192,211360,1,0,0:0:0:0:
192,192,211360,128,0,211463:0:0:0:0:
64,192,211463,128,0,211566:0:0:0:0:
320,192,211566,128,0,211720:0:0:0:0:
448,192,211566,128,0,211720:0:0:0:0:
192,192,211668,128,0,211823:0:0:0:0:
64,192,211668,128,0,211823:0:0:0:0:
320,192,211771,128,0,211925:0:0:0:0:
448,192,211771,128,0,211925:0:0:0:0:
64,192,211874,128,0,212028:0:0:0:0:
192,192,211874,128,0,212028:0:0:0:0:
448,192,211977,128,0,212079:0:0:0:0:
320,192,211977,128,0,212079:0:0:0:0:
192,192,212079,128,0,212285:0:0:0:0:
64,192,212079,128,0,212285:0:0:0:0:
320,192,212182,128,0,212285:0:0:0:0:
448,192,212285,128,0,212388:0:0:0:0:
320,192,212388,128,0,212490:0:0:0:0:
448,192,212490,1,0,0:0:0:0:
64,192,212490,128,0,212799:0:0:0:0:
192,192,212490,128,0,212593:0:0:0:0:
320,192,212696,128,0,212901:0:0:0:0:
448,192,212696,128,0,212799:0:0:0:0:
192,192,212901,128,0,213004:0:0:0:0:
448,192,212901,128,0,213004:0:0:0:0:
64,192,212901,1,0,0:0:0:0:
64,192,213107,128,0,213210:0:0:0:0:
320,192,213107,128,0,213210:0:0:0:0:
192,192,213107,1,0,0:0:0:0:
64,192,213312,128,0,213518:0:0:0:0:
448,192,213312,128,0,213415:0:0:0:0:
320,192,213312,1,0,0:0:0:0:
192,192,213312,1,0,0:0:0:0:
320,192,213518,128,0,213620:0:0:0:0:
448,192,213518,128,0,213620:0:0:0:0:
192,192,213620,128,0,213723:0:0:0:0:
64,192,213620,128,0,213723:0:0:0:0:
320,192,213723,128,0,213826:0:0:0:0:
448,192,213723,128,0,213826:0:0:0:0:
192,192,213826,128,0,213929:0:0:0:0:
64,192,213826,128,0,213929:0:0:0:0:
448,192,213929,1,0,0:0:0:0:
320,192,213929,128,0,214031:0:0:0:0:
192,192,214031,128,0,214134:0:0:0:0:
448,192,214134,1,0,0:0:0:0:
64,192,214134,128,0,214237:0:0:0:0:
320,192,214237,128,0,214340:0:0:0:0:
64,192,214340,1,0,0:0:0:0:
448,192,214340,128,0,214442:0:0:0:0:
192,192,214340,128,0,214442:0:0:0:0:
320,192,214442,128,0,214545:0:0:0:0:
448,192,214545,128,0,214699:0:0:0:0:
64,192,214545,128,0,214648:0:0:0:0:
192,192,214648,128,0,214751:0:0:0:0:
320,192,214648,128,0,214751:0:0:0:0:
448,192,214751,128,0,214853:0:0:0:0:
64,192,214751,128,0,214853:0:0:0:0:
192,192,214853,128,0,214956:0:0:0:0:
320,192,214853,128,0,214956:0:0:0:0:
64,192,214956,128,0,215059:0:0:0:0:
448,192,214956,128,0,215059:0:0:0:0:
192,192,215059,128,0,215162:0:0:0:0:
448,192,215162,128,0,215264:0:0:0:0:
320,192,215162,128,0,215264:0:0:0:0:
192,192,215264,128,0,215367:0:0:0:0:
64,192,215264,128,0,215367:0:0:0:0:
448,192,215367,128,0,215470:0:0:0:0:
320,192,215367,128,0,215470:0:0:0:0:
192,192,215470,128,0,215573:0:0:0:0:
448,192,215573,1,0,0:0:0:0:
64,192,215573,128,0,215675:0:0:0:0:
320,192,215573,128,0,215675:0:0:0:0:
192,192,215675,128,0,215778:0:0:0:0:
64,192,215778,1,0,0:0:0:0:
448,192,215778,128,0,215881:0:0:0:0:
320,192,215778,1,0,0:0:0:0:
320,192,215881,128,0,215983:0:0:0:0:
64,192,215983,1,0,0:0:0:0:
448,192,215983,1,0,0:0:0:0:
192,192,215983,128,0,216086:0:0:0:0:
320,192,216086,128,0,216189:0:0:0:0:
192,192,216189,1,0,0:0:0:0:
64,192,216189,1,0,0:0:0:0:
448,192,216189,128,0,217011:0:0:0:0:
320,192,216394,1,0,0:0:0:0:
64,192,216394,1,0,0:0:0:0:
192,192,216600,1,0,0:0:0:0:
320,192,216600,1,0,0:0:0:0:
64,192,216600,1,0,0:0:0:0:
64,192,216805,128,0,216908:0:0:0:0:
192,192,216908,128,0,217011:0:0:0:0:
64,192,217011,1,0,0:0:0:0:
320,192,217011,128,0,217114:0:0:0:0:
192,192,217114,128,0,217216:0:0:0:0:
320,192,217216,1,0,0:0:0:0:
448,192,217216,1,0,0:0:0:0:
64,192,217216,128,0,217319:0:0:0:0:
192,192,217319,128,0,217422:0:0:0:0:
64,192,217422,128,0,217525:0:0:0:0:
448,192,217422,128,0,217525:0:0:0:0:
320,192,217422,1,0,0:0:0:0:
192,192,217627,128,0,217833:0:0:0:0:
448,192,217627,128,0,217730:0:0:0:0:
64,192,217627,1,0,0:0:0:0:
320,192,217730,128,0,217833:0:0:0:0:
64,192,217833,1,0,0:0:0:0:
448,192,217833,128,0,217936:0:0:0:0:
320,192,217936,128,0,218038:0:0:0:0:
192,192,218038,128,0,218244:0:0:0:0:
448,192,218038,1,0,0:0:0:0:
64,192,218038,128,0,218141:0:0:0:0:
320,192,218141,128,0,218244:0:0:0:0:
64,192,218244,128,0,218347:0:0:0:0:
448,192,218244,1,0,0:0:0:0:
320,192,218347,128,0,218449:0:0:0:0:
448,192,218449,128,0,218552:0:0:0:0:
192,192,218449,128,0,218552:0:0:0:0:
64,192,218449,1,0,0:0:0:0:
320,192,218552,128,0,218655:0:0:0:0:
64,192,218655,128,0,218757:0:0:0:0:
192,192,218655,128,0,218757:0:0:0:0:
448,192,218757,128,0,218860:0:0:0:0:
192,192,218860,128,0,219066:0:0:0:0:
320,192,218860,128,0,218963:0:0:0:0:
64,192,218860,1,0,0:0:0:0:
448,192,218963,128,0,219066:0:0:0:0:
320,192,219066,128,0,219168:0:0:0:0:
64,192,219066,1,0,0:0:0:0:
192,192,219168,128,0,219271:0:0:0:0:
64,192,219271,1,0,0:0:0:0:
320,192,219271,128,0,219374:0:0:0:0:
448,192,219271,1,0,0:0:0:0:
192,192,219374,128,0,219477:0:0:0:0:
64,192,219477,1,0,0:0:0:0:
320,192,219477,1,0,0:0:0:0:
448,192,219477,1,0,0:0:0:0:
192,192,219682,1,0,0:0:0:0:
448,192,219682,128,0,219785:0:0:0:0:
320,192,219785,128,0,219888:0:0:0:0:
448,192,219888,1,0,0:0:0:0:
192,192,219888,1,0,0:0:0:0:
64,192,219888,1,0,0:0:0:0:
448,192,220093,128,0,220299:0:0:0:0:
64,192,220093,1,0,0:0:0:0:
320,192,220093,1,0,0:0:0:0:
320,192,220299,1,0,0:0:0:0:
192,192,220299,1,0,0:0:0:0:
64,192,220299,1,0,0:0:0:0:
64,192,220504,128,0,220710:0:0:0:0:
192,192,220504,128,0,220607:0:0:0:0:
448,192,220504,1,0,0:0:0:0:
192,192,220710,1,0,0:0:0:0:
320,192,220710,1,0,0:0:0:0:
448,192,220710,1,0,0:0:0:0:
320,192,220915,1,0,0:0:0:0:
192,192,220915,1,0,0:0:0:0:
64,192,220915,1,0,0:0:0:0:
448,192,221018,1,0,0:0:0:0:
320,192,221120,1,0,0:0:0:0:
64,192,221120,1,0,0:0:0:0:
192,192,221223,1,0,0:0:0:0:
320,192,221326,1,0,0:0:0:0:
64,192,221326,1,0,0:0:0:0:
448,192,221531,1,0,0:0:0:0:
192,192,221531,1,0,0:0:0:0:
192,192,221737,1,0,0:0:0:0:
64,192,221737,1,0,0:0:0:0:
320,192,221737,1,0,0:0:0:0:
448,192,221737,1,0,0:0:0:0:
320,192,221942,1,0,0:0:0:0:
448,192,221942,1,0,0:0:0:0:
192,192,222045,1,0,0:0:0:0:
64,192,222045,1,0,0:0:0:0:
320,192,222148,1,0,0:0:0:0:
448,192,222148,1,0,0:0:0:0:
192,192,222251,1,0,0:0:0:0:
64,192,222251,1,0,0:0:0:0:
64,192,222353,1,0,0:0:0:0:
448,192,222353,1,0,0:0:0:0:
320,192,222405,1,0,0:0:0:0:
192,192,222456,1,0,0:0:0:0:
64,192,222507,1,0,0:0:0:0:
448,192,222559,1,0,0:0:0:0:
320,192,222610,1,0,0:0:0:0:
192,192,222662,1,0,0:0:0:0:
64,192,222713,1,0,0:0:0:0:
448,192,222764,1,0,0:0:0:0:
320,192,222764,1,0,0:0:0:0:
192,192,223175,1,0,0:0:0:0:
448,192,223175,128,0,223244:0:0:0:0:
192,192,223586,128,0,223655:0:0:0:0:
64,192,223586,1,0,0:0:0:0:
192,192,223997,1,0,0:0:0:0:
320,192,223997,128,0,224066:0:0:0:0:
448,192,224203,128,0,224271:0:0:0:0:
64,192,224203,1,0,0:0:0:0:
320,192,224408,128,0,224477:0:0:0:0:
192,192,224408,1,0,0:0:0:0:
64,192,224614,128,0,224682:0:0:0:0:
192,192,224614,1,0,0:0:0:0:
192,192,225025,1,0,0:0:0:0:
448,192,225025,128,0,225093:0:0:0:0:
64,192,225230,1,0,0:0:0:0:
320,192,225230,128,0,225299:0:0:0:0:
448,192,225333,1,0,0:0:0:0:
64,192,225436,1,0,0:0:0:0:
192,192,225436,128,0,225504:0:0:0:0:
448,192,225641,128,0,225710:0:0:0:0:
320,192,225641,1,0,0:0:0:0:
320,192,225847,128,0,225915:0:0:0:0:
192,192,225847,1,0,0:0:0:0:
64,192,226052,1,0,0:0:0:0:
448,192,226052,128,0,226120:0:0:0:0:
192,192,226052,1,0,0:0:0:0:
320,192,226463,128,0,226531:0:0:0:0:
192,192,226463,1,0,0:0:0:0:
64,192,226874,128,0,226942:0:0:0:0:
192,192,226874,1,0,0:0:0:0:
64,192,227285,1,0,0:0:0:0:
320,192,227285,128,0,227353:0:0:0:0:
192,192,227490,1,0,0:0:0:0:
448,192,227490,128,0,227559:0:0:0:0:
192,192,227696,1,0,0:0:0:0:
320,192,227901,128,0,227970:0:0:0:0:
64,192,227901,1,0,0:0:0:0:
320,192,228312,128,0,228381:0:0:0:0:
64,192,228312,1,0,0:0:0:0:
448,192,228518,128,0,228586:0:0:0:0:
192,192,228518,1,0,0:0:0:0:
192,192,228723,128,0,228792:0:0:0:0:
64,192,228723,1,0,0:0:0:0:
320,192,228929,128,0,228997:0:0:0:0:
448,192,228929,1,0,0:0:0:0:
448,192,229134,128,0,229203:0:0:0:0:
192,192,229134,1,0,0:0:0:0:
320,192,229340,128,0,229408:0:0:0:0:
448,192,229340,1,0,0:0:0:0:
64,192,229340,1,0,0:0:0:0:
192,192,229545,1,0,0:0:0:0:
192,192,229751,1,0,0:0:0:0:
448,192,229751,128,0,229819:0:0:0:0:
64,192,230162,128,0,230230:0:0:0:0:
320,192,230162,1,0,0:0:0:0:
192,192,230573,1,0,0:0:0:0:
320,192,230573,128,0,230641:0:0:0:0:
320,192,230778,1,0,0:0:0:0:
448,192,230778,128,0,230847:0:0:0:0:
64,192,230983,1,0,0:0:0:0:
192,192,230983,1,0,0:0:0:0:
320,192,231189,1,0,0:0:0:0:
64,192,231189,128,0,231257:0:0:0:0:
448,192,231292,1,0,0:0:0:0:
320,192,231394,1,0,0:0:0:0:
192,192,231600,128,0,231668:0:0:0:0:
64,192,231600,1,0,0:0:0:0:
448,192,231805,128,0,231874:0:0:0:0:
192,192,231805,1,0,0:0:0:0:
64,192,232011,128,0,232079:0:0:0:0:
320,192,232011,1,0,0:0:0:0:
192,192,232216,128,0,232285:0:0:0:0:
448,192,232216,1,0,0:0:0:0:
320,192,232422,128,0,232490:0:0:0:0:
64,192,232422,1,0,0:0:0:0:
448,192,232627,128,0,232696:0:0:0:0:
64,192,232627,1,0,0:0:0:0:
192,192,233038,128,0,233107:0:0:0:0:
320,192,233038,1,0,0:0:0:0:
320,192,233449,1,0,0:0:0:0:
64,192,233449,128,0,233518:0:0:0:0:
192,192,233655,1,0,0:0:0:0:
64,192,233860,1,0,0:0:0:0:
448,192,233860,128,0,233929:0:0:0:0:
320,192,234066,128,0,234134:0:0:0:0:
192,192,234066,1,0,0:0:0:0:
64,192,234271,1,0,0:0:0:0:
320,192,234271,1,0,0:0:0:0:
448,192,234477,1,0,0:0:0:0:
192,192,234477,128,0,234545:0:0:0:0:
320,192,234682,1,0,0:0:0:0:
192,192,234888,128,0,234956:0:0:0:0:
64,192,234888,1,0,0:0:0:0:
320,192,235093,1,0,0:0:0:0:
448,192,235093,128,0,235162:0:0:0:0:
64,192,235299,128,0,235367:0:0:0:0:
192,192,235299,1,0,0:0:0:0:
320,192,235504,128,0,235573:0:0:0:0:
448,192,235504,1,0,0:0:0:0:
448,192,235812,128,0,235864:0:0:0:0:
64,192,235812,128,0,235864:0:0:0:0:
