osu file format v14

[General]
AudioFilename: rocket ride.mp3
AudioLeadIn: 0
PreviewTime: 49374
Countdown: 0
SampleSet: None
StackLeniency: 0.7
Mode: 3
LetterboxInBreaks: 0
SpecialStyle: 0
WidescreenStoryboard: 1

[Editor]
Bookmarks: 75044
DistanceSpacing: 0.8
BeatDivisor: 4
GridSize: 4
TimelineZoom: 1.9

[Metadata]
Title:Envory's 4K Practice pack Vol 2
TitleUnicode:Envory's 4K Practice pack Vol 2
Artist:Various Artist
ArtistUnicode:Various Artist
Creator:Envory
Version:Duca - Rocket Ride [Quadstream,LN]
Source:
Tags:
BeatmapID:1826490
BeatmapSetID:865382

[Difficulty]
HPDrainRate:8
CircleSize:4
OverallDifficulty:7
ApproachRate:5
SliderMultiplier:1.4
SliderTickRate:1

[Events]
//Background and Video events
0,0,"reimei kano.jpg",0,0
//Break Periods
//Storyboard Layer 0 (Background)
//Storyboard Layer 1 (Fail)
//Storyboard Layer 2 (Pass)
//Storyboard Layer 3 (Foreground)
//Storyboard Sound Samples

[TimingPoints]
869,309.278350515464,4,3,0,19,1,0
30559,307.692307692308,4,3,0,19,1,0
40405,309.278350515464,4,3,0,19,1,0

[HitObjects]
448,192,869,128,0,1023:0:0:0:0:
320,192,1023,1,0,0:0:0:0:
192,192,1178,128,0,1487:0:0:0:0:
320,192,1332,128,0,1487:0:0:0:0:
64,192,1487,1,0,0:0:0:0:
192,192,1642,1,0,0:0:0:0:
320,192,1796,1,0,0:0:0:0:
448,192,1951,128,0,2415:0:0:0:0:
320,192,2260,128,0,2415:0:0:0:0:
192,192,2415,128,0,2724:0:0:0:0:
64,192,2570,128,0,2724:0:0:0:0:
320,192,2724,1,0,0:0:0:0:
192,192,2879,1,0,0:0:0:0:
64,192,3033,1,0,0:0:0:0:
320,192,3188,128,0,3652:0:0:0:0:
192,192,3497,128,0,3652:0:0:0:0:
448,192,3652,128,0,3961:0:0:0:0:
320,192,3807,128,0,3961:0:0:0:0:
192,192,3961,128,0,4271:0:0:0:0:
64,192,4116,128,0,4271:0:0:0:0:
320,192,4271,1,0,0:0:0:0:
192,192,4425,1,0,0:0:0:0:
64,192,4580,1,0,0:0:0:0:
448,192,4734,128,0,5044:0:0:0:0:
320,192,4889,128,0,5044:0:0:0:0:
192,192,5044,128,0,5508:0:0:0:0:
64,192,5353,128,0,5508:0:0:0:0:
320,192,5508,1,0,0:0:0:0:
192,192,5662,1,0,0:0:0:0:
320,192,5817,128,0,5972:0:0:0:0:
64,192,5972,128,0,6126:0:0:0:0:
448,192,5972,1,0,0:0:0:0:
192,192,6126,1,0,0:0:0:0:
320,192,6281,128,0,6436:0:0:0:0:
448,192,6436,1,0,0:0:0:0:
320,192,6590,1,0,0:0:0:0:
192,192,6745,1,0,0:0:0:0:
64,192,6899,128,0,7054:0:0:0:0:
192,192,7054,1,0,0:0:0:0:
448,192,7209,128,0,7363:0:0:0:0:
320,192,7363,1,0,0:0:0:0:
192,192,7518,128,0,7673:0:0:0:0:
64,192,7673,1,0,0:0:0:0:
192,192,7827,1,0,0:0:0:0:
320,192,7982,1,0,0:0:0:0:
448,192,8137,128,0,8291:0:0:0:0:
64,192,8291,1,0,0:0:0:0:
192,192,8446,1,0,0:0:0:0:
320,192,8446,1,0,0:0:0:0:
320,192,8600,1,0,0:0:0:0:
448,192,8600,1,0,0:0:0:0:
192,192,8755,1,0,0:0:0:0:
64,192,8755,1,0,0:0:0:0:
192,192,8910,1,0,0:0:0:0:
448,192,8910,1,0,0:0:0:0:
320,192,9064,1,0,0:0:0:0:
64,192,9064,1,0,0:0:0:0:
320,192,9219,1,0,0:0:0:0:
448,192,9219,1,0,0:0:0:0:
192,192,9374,1,0,0:0:0:0:
64,192,9374,1,0,0:0:0:0:
192,192,9528,128,0,10301:0:0:0:0:
448,192,9528,1,0,0:0:0:0:
320,192,9683,1,0,0:0:0:0:
64,192,9838,1,0,0:0:0:0:
448,192,9992,1,0,0:0:0:0:
64,192,10147,1,0,0:0:0:0:
64,192,10301,1,0,0:0:0:0:
448,192,10301,1,0,0:0:0:0:
320,192,10301,1,0,0:0:0:0:
64,192,10456,1,0,0:0:0:0:
320,192,10456,1,0,0:0:0:0:
448,192,10456,1,0,0:0:0:0:
320,192,10611,1,0,0:0:0:0:
448,192,10611,1,0,0:0:0:0:
64,192,10611,1,0,0:0:0:0:
64,192,10765,1,0,0:0:0:0:
192,192,10765,1,0,0:0:0:0:
320,192,10765,1,0,0:0:0:0:
448,192,10765,1,0,0:0:0:0:
192,192,10920,1,0,0:0:0:0:
320,192,11075,1,0,0:0:0:0:
448,192,11075,1,0,0:0:0:0:
64,192,11075,1,0,0:0:0:0:
192,192,11075,1,0,0:0:0:0:
320,192,11229,1,0,0:0:0:0:
448,192,11384,1,0,0:0:0:0:
320,192,11384,1,0,0:0:0:0:
192,192,11384,1,0,0:0:0:0:
64,192,11384,1,0,0:0:0:0:
448,192,11539,1,0,0:0:0:0:
448,192,11693,1,0,0:0:0:0:
320,192,11693,1,0,0:0:0:0:
192,192,11693,1,0,0:0:0:0:
64,192,11693,1,0,0:0:0:0:
64,192,11848,1,0,0:0:0:0:
64,192,12003,1,0,0:0:0:0:
192,192,12003,1,0,0:0:0:0:
320,192,12003,1,0,0:0:0:0:
448,192,12003,1,0,0:0:0:0:
320,192,12157,1,0,0:0:0:0:
192,192,12312,1,0,0:0:0:0:
64,192,12312,1,0,0:0:0:0:
448,192,12312,1,0,0:0:0:0:
320,192,12312,1,0,0:0:0:0:
192,192,12466,1,0,0:0:0:0:
64,192,12621,1,0,0:0:0:0:
192,192,12621,1,0,0:0:0:0:
320,192,12621,1,0,0:0:0:0:
448,192,12621,1,0,0:0:0:0:
64,192,12776,1,0,0:0:0:0:
192,192,12930,1,0,0:0:0:0:
64,192,12930,1,0,0:0:0:0:
320,192,12930,1,0,0:0:0:0:
448,192,12930,1,0,0:0:0:0:
320,192,13085,1,0,0:0:0:0:
448,192,13240,1,0,0:0:0:0:
192,192,13240,1,0,0:0:0:0:
64,192,13240,1,0,0:0:0:0:
320,192,13240,1,0,0:0:0:0:
192,192,13394,1,0,0:0:0:0:
192,192,13549,1,0,0:0:0:0:
64,192,13549,1,0,0:0:0:0:
320,192,13549,1,0,0:0:0:0:
448,192,13549,1,0,0:0:0:0:
448,192,13704,1,0,0:0:0:0:
448,192,13858,1,0,0:0:0:0:
320,192,13858,1,0,0:0:0:0:
192,192,13858,1,0,0:0:0:0:
64,192,13858,1,0,0:0:0:0:
320,192,14013,1,0,0:0:0:0:
64,192,14167,1,0,0:0:0:0:
192,192,14167,1,0,0:0:0:0:
320,192,14167,1,0,0:0:0:0:
448,192,14167,1,0,0:0:0:0:
192,192,14322,1,0,0:0:0:0:
64,192,14477,1,0,0:0:0:0:
192,192,14477,1,0,0:0:0:0:
320,192,14477,1,0,0:0:0:0:
448,192,14477,1,0,0:0:0:0:
64,192,14631,1,0,0:0:0:0:
64,192,14786,1,0,0:0:0:0:
192,192,14786,1,0,0:0:0:0:
320,192,14786,1,0,0:0:0:0:
448,192,14786,1,0,0:0:0:0:
320,192,14941,1,0,0:0:0:0:
192,192,15095,1,0,0:0:0:0:
64,192,15095,1,0,0:0:0:0:
320,192,15095,1,0,0:0:0:0:
448,192,15095,1,0,0:0:0:0:
448,192,15250,128,0,15405:0:0:0:0:
192,192,15405,1,0,0:0:0:0:
64,192,15405,1,0,0:0:0:0:
320,192,15405,128,0,15559:0:0:0:0:
192,192,15559,128,0,15714:0:0:0:0:
64,192,15714,1,0,0:0:0:0:
320,192,15714,1,0,0:0:0:0:
448,192,15714,1,0,0:0:0:0:
320,192,15869,1,0,0:0:0:0:
448,192,16023,1,0,0:0:0:0:
320,192,16023,1,0,0:0:0:0:
192,192,16023,1,0,0:0:0:0:
64,192,16023,1,0,0:0:0:0:
448,192,16178,1,0,0:0:0:0:
448,192,16332,1,0,0:0:0:0:
320,192,16332,1,0,0:0:0:0:
192,192,16332,1,0,0:0:0:0:
64,192,16332,1,0,0:0:0:0:
320,192,16487,1,0,0:0:0:0:
448,192,16642,1,0,0:0:0:0:
320,192,16642,1,0,0:0:0:0:
64,192,16642,1,0,0:0:0:0:
192,192,16642,1,0,0:0:0:0:
192,192,16796,1,0,0:0:0:0:
64,192,16951,1,0,0:0:0:0:
192,192,16951,1,0,0:0:0:0:
320,192,16951,1,0,0:0:0:0:
448,192,16951,1,0,0:0:0:0:
64,192,17106,1,0,0:0:0:0:
64,192,17260,1,0,0:0:0:0:
192,192,17260,1,0,0:0:0:0:
320,192,17260,1,0,0:0:0:0:
448,192,17260,1,0,0:0:0:0:
320,192,17415,1,0,0:0:0:0:
192,192,17492,1,0,0:0:0:0:
64,192,17570,1,0,0:0:0:0:
448,192,17570,1,0,0:0:0:0:
192,192,17647,1,0,0:0:0:0:
320,192,17724,1,0,0:0:0:0:
448,192,17724,1,0,0:0:0:0:
192,192,17801,1,0,0:0:0:0:
64,192,17801,1,0,0:0:0:0:
320,192,17879,1,0,0:0:0:0:
448,192,17879,1,0,0:0:0:0:
192,192,17956,1,0,0:0:0:0:
320,192,18033,1,0,0:0:0:0:
448,192,18111,1,0,0:0:0:0:
320,192,18188,1,0,0:0:0:0:
64,192,18188,128,0,18497:0:0:0:0:
192,192,18188,128,0,18343:0:0:0:0:
320,192,18343,128,0,18497:0:0:0:0:
448,192,18497,128,0,18807:0:0:0:0:
192,192,18497,128,0,18652:0:0:0:0:
320,192,18652,128,0,18807:0:0:0:0:
64,192,18807,128,0,18961:0:0:0:0:
192,192,18807,128,0,19116:0:0:0:0:
320,192,18961,128,0,19116:0:0:0:0:
64,192,19116,128,0,19425:0:0:0:0:
448,192,19116,128,0,19271:0:0:0:0:
192,192,19271,128,0,19425:0:0:0:0:
320,192,19425,128,0,19734:0:0:0:0:
448,192,19425,128,0,19580:0:0:0:0:
192,192,19580,128,0,19734:0:0:0:0:
448,192,19734,128,0,20044:0:0:0:0:
64,192,19734,128,0,19889:0:0:0:0:
320,192,19889,128,0,20044:0:0:0:0:
192,192,20044,1,0,0:0:0:0:
64,192,20044,1,0,0:0:0:0:
64,192,20121,1,0,0:0:0:0:
192,192,20121,1,0,0:0:0:0:
320,192,20353,1,0,0:0:0:0:
448,192,20353,1,0,0:0:0:0:
320,192,20508,1,0,0:0:0:0:
448,192,20508,1,0,0:0:0:0:
320,192,20585,1,0,0:0:0:0:
448,192,20585,1,0,0:0:0:0:
192,192,20662,1,0,0:0:0:0:
64,192,20662,1,0,0:0:0:0:
320,192,20817,1,0,0:0:0:0:
192,192,20817,1,0,0:0:0:0:
320,192,20972,1,0,0:0:0:0:
448,192,20972,1,0,0:0:0:0:
64,192,20972,1,0,0:0:0:0:
192,192,20972,1,0,0:0:0:0:
192,192,21126,1,0,0:0:0:0:
320,192,21126,1,0,0:0:0:0:
192,192,21281,1,0,0:0:0:0:
64,192,21281,1,0,0:0:0:0:
448,192,21281,1,0,0:0:0:0:
320,192,21436,1,0,0:0:0:0:
448,192,21436,1,0,0:0:0:0:
448,192,21590,1,0,0:0:0:0:
320,192,21590,1,0,0:0:0:0:
192,192,21590,1,0,0:0:0:0:
64,192,21590,1,0,0:0:0:0:
192,192,21745,1,0,0:0:0:0:
320,192,21745,1,0,0:0:0:0:
192,192,21899,1,0,0:0:0:0:
64,192,21899,1,0,0:0:0:0:
448,192,21899,1,0,0:0:0:0:
320,192,22054,1,0,0:0:0:0:
64,192,22054,1,0,0:0:0:0:
64,192,22209,1,0,0:0:0:0:
192,192,22209,1,0,0:0:0:0:
320,192,22209,1,0,0:0:0:0:
448,192,22209,1,0,0:0:0:0:
192,192,22363,1,0,0:0:0:0:
448,192,22363,1,0,0:0:0:0:
320,192,22363,1,0,0:0:0:0:
64,192,22363,1,0,0:0:0:0:
320,192,22518,1,0,0:0:0:0:
64,192,22518,1,0,0:0:0:0:
192,192,22518,1,0,0:0:0:0:
320,192,22673,1,0,0:0:0:0:
448,192,22673,128,0,22827:0:0:0:0:
64,192,22827,1,0,0:0:0:0:
320,192,22827,128,0,22982:0:0:0:0:
192,192,22827,1,0,0:0:0:0:
192,192,22982,128,0,23137:0:0:0:0:
64,192,22982,1,0,0:0:0:0:
64,192,23137,1,0,0:0:0:0:
320,192,23137,1,0,0:0:0:0:
448,192,23137,1,0,0:0:0:0:
192,192,23291,1,0,0:0:0:0:
448,192,23291,1,0,0:0:0:0:
320,192,23446,1,0,0:0:0:0:
448,192,23446,1,0,0:0:0:0:
64,192,23446,1,0,0:0:0:0:
192,192,23446,1,0,0:0:0:0:
192,192,23600,1,0,0:0:0:0:
320,192,23600,1,0,0:0:0:0:
320,192,23755,1,0,0:0:0:0:
448,192,23755,1,0,0:0:0:0:
64,192,23755,1,0,0:0:0:0:
192,192,23910,1,0,0:0:0:0:
64,192,23910,1,0,0:0:0:0:
192,192,24064,1,0,0:0:0:0:
320,192,24064,1,0,0:0:0:0:
448,192,24064,1,0,0:0:0:0:
64,192,24064,1,0,0:0:0:0:
192,192,24219,1,0,0:0:0:0:
320,192,24219,1,0,0:0:0:0:
320,192,24374,1,0,0:0:0:0:
448,192,24374,1,0,0:0:0:0:
64,192,24374,1,0,0:0:0:0:
192,192,24528,1,0,0:0:0:0:
448,192,24528,1,0,0:0:0:0:
320,192,24683,1,0,0:0:0:0:
448,192,24683,1,0,0:0:0:0:
192,192,24683,1,0,0:0:0:0:
64,192,24683,1,0,0:0:0:0:
64,192,24838,1,0,0:0:0:0:
192,192,24838,1,0,0:0:0:0:
320,192,24838,1,0,0:0:0:0:
448,192,24838,1,0,0:0:0:0:
320,192,24992,1,0,0:0:0:0:
192,192,24992,1,0,0:0:0:0:
448,192,25147,1,0,0:0:0:0:
64,192,25147,1,0,0:0:0:0:
320,192,25147,128,0,25301:0:0:0:0:
192,192,25301,128,0,25456:0:0:0:0:
64,192,25301,1,0,0:0:0:0:
448,192,25301,1,0,0:0:0:0:
320,192,25456,128,0,25611:0:0:0:0:
448,192,25456,1,0,0:0:0:0:
448,192,25611,1,0,0:0:0:0:
192,192,25611,1,0,0:0:0:0:
64,192,25611,1,0,0:0:0:0:
320,192,25765,1,0,0:0:0:0:
64,192,25765,1,0,0:0:0:0:
192,192,25920,1,0,0:0:0:0:
320,192,25920,1,0,0:0:0:0:
448,192,25920,1,0,0:0:0:0:
64,192,25920,1,0,0:0:0:0:
192,192,26075,1,0,0:0:0:0:
448,192,26075,1,0,0:0:0:0:
320,192,26229,1,0,0:0:0:0:
448,192,26229,1,0,0:0:0:0:
64,192,26229,1,0,0:0:0:0:
320,192,26384,1,0,0:0:0:0:
192,192,26384,1,0,0:0:0:0:
192,192,26539,1,0,0:0:0:0:
64,192,26539,1,0,0:0:0:0:
320,192,26539,1,0,0:0:0:0:
448,192,26539,1,0,0:0:0:0:
192,192,26693,1,0,0:0:0:0:
64,192,26693,1,0,0:0:0:0:
64,192,26848,1,0,0:0:0:0:
320,192,26848,1,0,0:0:0:0:
448,192,26848,1,0,0:0:0:0:
448,192,27003,1,0,0:0:0:0:
192,192,27003,1,0,0:0:0:0:
192,192,27157,1,0,0:0:0:0:
64,192,27157,1,0,0:0:0:0:
320,192,27157,1,0,0:0:0:0:
448,192,27157,1,0,0:0:0:0:
64,192,27312,1,0,0:0:0:0:
192,192,27312,1,0,0:0:0:0:
320,192,27312,1,0,0:0:0:0:
448,192,27312,1,0,0:0:0:0:
320,192,27466,1,0,0:0:0:0:
448,192,27466,1,0,0:0:0:0:
64,192,27621,128,0,27776:0:0:0:0:
192,192,27621,1,0,0:0:0:0:
192,192,27776,128,0,27930:0:0:0:0:
448,192,27776,1,0,0:0:0:0:
320,192,27776,1,0,0:0:0:0:
320,192,27930,128,0,28085:0:0:0:0:
448,192,27930,1,0,0:0:0:0:
192,192,28085,1,0,0:0:0:0:
64,192,28085,1,0,0:0:0:0:
448,192,28085,1,0,0:0:0:0:
320,192,28240,1,0,0:0:0:0:
448,192,28240,1,0,0:0:0:0:
192,192,28394,1,0,0:0:0:0:
320,192,28394,1,0,0:0:0:0:
448,192,28394,1,0,0:0:0:0:
64,192,28394,1,0,0:0:0:0:
64,192,28549,1,0,0:0:0:0:
192,192,28549,1,0,0:0:0:0:
448,192,28549,1,0,0:0:0:0:
320,192,28549,1,0,0:0:0:0:
320,192,28704,1,0,0:0:0:0:
192,192,28704,1,0,0:0:0:0:
64,192,28858,1,0,0:0:0:0:
192,192,28858,1,0,0:0:0:0:
64,192,29013,1,0,0:0:0:0:
192,192,29013,1,0,0:0:0:0:
320,192,29013,1,0,0:0:0:0:
448,192,29013,1,0,0:0:0:0:
320,192,29167,1,0,0:0:0:0:
448,192,29167,1,0,0:0:0:0:
448,192,29322,1,0,0:0:0:0:
64,192,29322,1,0,0:0:0:0:
320,192,29322,128,0,29477:0:0:0:0:
192,192,29477,128,0,29631:0:0:0:0:
64,192,29631,128,0,29786:0:0:0:0:
320,192,29631,1,0,0:0:0:0:
448,192,29631,1,0,0:0:0:0:
448,192,29786,128,0,30095:0:0:0:0:
192,192,29786,1,0,0:0:0:0:
320,192,29786,128,0,30095:0:0:0:0:
192,192,30095,128,0,30250:0:0:0:0:
64,192,30095,1,0,0:0:0:0:
320,192,30250,128,0,30405:0:0:0:0:
448,192,30250,1,0,0:0:0:0:
64,192,30250,1,0,0:0:0:0:
64,192,30405,128,0,30559:0:0:0:0:
192,192,30559,1,0,0:0:0:0:
320,192,30559,1,0,0:0:0:0:
448,192,30559,1,0,0:0:0:0:
192,192,30712,1,0,0:0:0:0:
320,192,30712,1,0,0:0:0:0:
320,192,30866,1,0,0:0:0:0:
192,192,30866,1,0,0:0:0:0:
64,192,30866,1,0,0:0:0:0:
448,192,30866,1,0,0:0:0:0:
192,192,31020,1,0,0:0:0:0:
64,192,31020,1,0,0:0:0:0:
64,192,31174,1,0,0:0:0:0:
320,192,31174,1,0,0:0:0:0:
448,192,31174,1,0,0:0:0:0:
192,192,31328,1,0,0:0:0:0:
448,192,31328,1,0,0:0:0:0:
320,192,31482,1,0,0:0:0:0:
448,192,31482,1,0,0:0:0:0:
64,192,31482,1,0,0:0:0:0:
192,192,31482,1,0,0:0:0:0:
320,192,31635,1,0,0:0:0:0:
64,192,31635,1,0,0:0:0:0:
448,192,31635,1,0,0:0:0:0:
192,192,31789,1,0,0:0:0:0:
320,192,31789,1,0,0:0:0:0:
448,192,31789,1,0,0:0:0:0:
192,192,31943,1,0,0:0:0:0:
64,192,31943,1,0,0:0:0:0:
64,192,32097,1,0,0:0:0:0:
320,192,32097,1,0,0:0:0:0:
448,192,32097,1,0,0:0:0:0:
192,192,32097,1,0,0:0:0:0:
64,192,32251,1,0,0:0:0:0:
192,192,32251,1,0,0:0:0:0:
448,192,32251,1,0,0:0:0:0:
320,192,32405,1,0,0:0:0:0:
448,192,32405,1,0,0:0:0:0:
192,192,32559,128,0,32712:0:0:0:0:
64,192,32559,1,0,0:0:0:0:
64,192,32712,128,0,32866:0:0:0:0:
320,192,32712,1,0,0:0:0:0:
448,192,32712,1,0,0:0:0:0:
448,192,32866,128,0,33020:0:0:0:0:
320,192,32866,1,0,0:0:0:0:
320,192,33020,1,0,0:0:0:0:
192,192,33020,1,0,0:0:0:0:
64,192,33020,1,0,0:0:0:0:
448,192,33174,1,0,0:0:0:0:
192,192,33174,1,0,0:0:0:0:
64,192,33328,1,0,0:0:0:0:
192,192,33328,1,0,0:0:0:0:
320,192,33328,1,0,0:0:0:0:
448,192,33328,1,0,0:0:0:0:
320,192,33482,1,0,0:0:0:0:
448,192,33482,1,0,0:0:0:0:
320,192,33635,1,0,0:0:0:0:
192,192,33635,1,0,0:0:0:0:
64,192,33635,1,0,0:0:0:0:
448,192,33789,1,0,0:0:0:0:
64,192,33789,1,0,0:0:0:0:
64,192,33943,1,0,0:0:0:0:
448,192,33943,1,0,0:0:0:0:
192,192,33943,1,0,0:0:0:0:
320,192,33943,1,0,0:0:0:0:
320,192,34097,1,0,0:0:0:0:
192,192,34097,1,0,0:0:0:0:
320,192,34251,1,0,0:0:0:0:
192,192,34251,1,0,0:0:0:0:
448,192,34251,1,0,0:0:0:0:
448,192,34405,1,0,0:0:0:0:
320,192,34405,1,0,0:0:0:0:
192,192,34559,1,0,0:0:0:0:
64,192,34559,1,0,0:0:0:0:
448,192,34559,1,0,0:0:0:0:
320,192,34559,1,0,0:0:0:0:
192,192,34712,1,0,0:0:0:0:
320,192,34712,1,0,0:0:0:0:
448,192,34712,1,0,0:0:0:0:
64,192,34712,1,0,0:0:0:0:
64,192,34866,1,0,0:0:0:0:
192,192,34866,1,0,0:0:0:0:
448,192,35020,1,0,0:0:0:0:
320,192,35020,128,0,35174:0:0:0:0:
192,192,35174,128,0,35328:0:0:0:0:
64,192,35174,1,0,0:0:0:0:
448,192,35174,1,0,0:0:0:0:
64,192,35328,128,0,35482:0:0:0:0:
320,192,35328,1,0,0:0:0:0:
192,192,35482,1,0,0:0:0:0:
320,192,35482,1,0,0:0:0:0:
448,192,35482,1,0,0:0:0:0:
64,192,35635,1,0,0:0:0:0:
192,192,35635,1,0,0:0:0:0:
64,192,35789,1,0,0:0:0:0:
192,192,35789,1,0,0:0:0:0:
320,192,35789,1,0,0:0:0:0:
448,192,35789,1,0,0:0:0:0:
448,192,35943,1,0,0:0:0:0:
320,192,35943,1,0,0:0:0:0:
192,192,36097,1,0,0:0:0:0:
320,192,36097,1,0,0:0:0:0:
192,192,36251,1,0,0:0:0:0:
64,192,36251,1,0,0:0:0:0:
448,192,36251,1,0,0:0:0:0:
320,192,36405,1,0,0:0:0:0:
448,192,36405,1,0,0:0:0:0:
192,192,36405,1,0,0:0:0:0:
64,192,36405,1,0,0:0:0:0:
320,192,36559,1,0,0:0:0:0:
192,192,36559,1,0,0:0:0:0:
448,192,36712,1,0,0:0:0:0:
320,192,36712,1,0,0:0:0:0:
64,192,36712,1,0,0:0:0:0:
192,192,36866,1,0,0:0:0:0:
448,192,36866,1,0,0:0:0:0:
320,192,37020,1,0,0:0:0:0:
192,192,37020,1,0,0:0:0:0:
64,192,37020,1,0,0:0:0:0:
448,192,37020,1,0,0:0:0:0:
64,192,37174,1,0,0:0:0:0:
192,192,37174,1,0,0:0:0:0:
320,192,37174,1,0,0:0:0:0:
448,192,37174,1,0,0:0:0:0:
320,192,37328,1,0,0:0:0:0:
64,192,37328,1,0,0:0:0:0:
192,192,37482,1,0,0:0:0:0:
320,192,37482,1,0,0:0:0:0:
448,192,37635,1,0,0:0:0:0:
64,192,37635,1,0,0:0:0:0:
192,192,37635,128,0,37789:0:0:0:0:
320,192,37789,128,0,37943:0:0:0:0:
448,192,37789,1,0,0:0:0:0:
192,192,37943,1,0,0:0:0:0:
64,192,37943,1,0,0:0:0:0:
448,192,38097,1,0,0:0:0:0:
320,192,38097,1,0,0:0:0:0:
448,192,38251,1,0,0:0:0:0:
320,192,38251,1,0,0:0:0:0:
192,192,38251,1,0,0:0:0:0:
64,192,38251,1,0,0:0:0:0:
448,192,38405,1,0,0:0:0:0:
320,192,38405,1,0,0:0:0:0:
192,192,38405,1,0,0:0:0:0:
64,192,38405,1,0,0:0:0:0:
64,192,38559,1,0,0:0:0:0:
192,192,38559,1,0,0:0:0:0:
320,192,38712,1,0,0:0:0:0:
448,192,38712,1,0,0:0:0:0:
192,192,38712,1,0,0:0:0:0:
64,192,38866,1,0,0:0:0:0:
448,192,38866,1,0,0:0:0:0:
192,192,38866,1,0,0:0:0:0:
320,192,38866,1,0,0:0:0:0:
320,192,39020,1,0,0:0:0:0:
448,192,39020,1,0,0:0:0:0:
64,192,39174,128,0,39328:0:0:0:0:
192,192,39174,1,0,0:0:0:0:
448,192,39174,1,0,0:0:0:0:
320,192,39328,128,0,39482:0:0:0:0:
448,192,39328,1,0,0:0:0:0:
192,192,39482,128,0,39635:0:0:0:0:
64,192,39482,1,0,0:0:0:0:
448,192,39482,1,0,0:0:0:0:
320,192,39635,1,0,0:0:0:0:
448,192,39635,1,0,0:0:0:0:
64,192,39635,1,0,0:0:0:0:
192,192,39789,1,0,0:0:0:0:
320,192,39789,1,0,0:0:0:0:
64,192,39943,1,0,0:0:0:0:
192,192,39943,1,0,0:0:0:0:
320,192,40097,1,0,0:0:0:0:
448,192,40097,1,0,0:0:0:0:
192,192,40174,1,0,0:0:0:0:
64,192,40174,1,0,0:0:0:0:
320,192,40251,1,0,0:0:0:0:
448,192,40251,1,0,0:0:0:0:
192,192,40328,1,0,0:0:0:0:
64,192,40328,1,0,0:0:0:0:
64,192,40405,1,0,0:0:0:0:
320,192,40405,1,0,0:0:0:0:
448,192,40405,1,0,0:0:0:0:
192,192,40559,1,0,0:0:0:0:
320,192,40559,1,0,0:0:0:0:
64,192,40714,1,0,0:0:0:0:
192,192,40714,1,0,0:0:0:0:
320,192,40714,1,0,0:0:0:0:
448,192,40714,1,0,0:0:0:0:
448,192,40868,1,0,0:0:0:0:
320,192,40868,1,0,0:0:0:0:
448,192,41023,1,0,0:0:0:0:
192,192,41023,1,0,0:0:0:0:
64,192,41023,1,0,0:0:0:0:
320,192,41178,1,0,0:0:0:0:
192,192,41178,1,0,0:0:0:0:
64,192,41178,1,0,0:0:0:0:
64,192,41332,1,0,0:0:0:0:
192,192,41332,1,0,0:0:0:0:
320,192,41332,1,0,0:0:0:0:
448,192,41332,1,0,0:0:0:0:
448,192,41487,1,0,0:0:0:0:
320,192,41487,1,0,0:0:0:0:
192,192,41642,1,0,0:0:0:0:
64,192,41642,1,0,0:0:0:0:
320,192,41642,1,0,0:0:0:0:
320,192,41796,1,0,0:0:0:0:
192,192,41796,1,0,0:0:0:0:
192,192,41951,1,0,0:0:0:0:
64,192,41951,1,0,0:0:0:0:
320,192,41951,1,0,0:0:0:0:
448,192,41951,1,0,0:0:0:0:
64,192,42106,1,0,0:0:0:0:
448,192,42106,1,0,0:0:0:0:
64,192,42260,1,0,0:0:0:0:
448,192,42260,1,0,0:0:0:0:
320,192,42260,1,0,0:0:0:0:
192,192,42415,1,0,0:0:0:0:
320,192,42415,1,0,0:0:0:0:
192,192,42569,1,0,0:0:0:0:
64,192,42569,1,0,0:0:0:0:
320,192,42569,1,0,0:0:0:0:
448,192,42569,1,0,0:0:0:0:
64,192,42724,1,0,0:0:0:0:
192,192,42724,1,0,0:0:0:0:
64,192,42879,1,0,0:0:0:0:
320,192,42879,1,0,0:0:0:0:
448,192,42879,1,0,0:0:0:0:
192,192,43033,1,0,0:0:0:0:
320,192,43033,1,0,0:0:0:0:
320,192,43188,1,0,0:0:0:0:
192,192,43188,1,0,0:0:0:0:
448,192,43188,1,0,0:0:0:0:
64,192,43188,128,0,43497:0:0:0:0:
320,192,43343,1,0,0:0:0:0:
448,192,43343,1,0,0:0:0:0:
192,192,43497,128,0,43807:0:0:0:0:
320,192,43497,1,0,0:0:0:0:
448,192,43497,1,0,0:0:0:0:
64,192,43652,1,0,0:0:0:0:
448,192,43652,1,0,0:0:0:0:
320,192,43807,128,0,44116:0:0:0:0:
64,192,43807,1,0,0:0:0:0:
448,192,43807,1,0,0:0:0:0:
192,192,43961,1,0,0:0:0:0:
64,192,43961,1,0,0:0:0:0:
448,192,44116,128,0,44425:0:0:0:0:
64,192,44116,1,0,0:0:0:0:
192,192,44116,1,0,0:0:0:0:
320,192,44270,1,0,0:0:0:0:
192,192,44270,1,0,0:0:0:0:
64,192,44425,128,0,44734:0:0:0:0:
192,192,44425,1,0,0:0:0:0:
320,192,44425,1,0,0:0:0:0:
320,192,44580,1,0,0:0:0:0:
448,192,44580,1,0,0:0:0:0:
320,192,44734,1,0,0:0:0:0:
448,192,44734,1,0,0:0:0:0:
192,192,44812,1,0,0:0:0:0:
64,192,44812,1,0,0:0:0:0:
320,192,44889,1,0,0:0:0:0:
448,192,44889,1,0,0:0:0:0:
192,192,44966,1,0,0:0:0:0:
64,192,44966,1,0,0:0:0:0:
320,192,45044,1,0,0:0:0:0:
448,192,45044,1,0,0:0:0:0:
64,192,45044,1,0,0:0:0:0:
192,192,45198,1,0,0:0:0:0:
320,192,45198,1,0,0:0:0:0:
448,192,45353,1,0,0:0:0:0:
320,192,45353,1,0,0:0:0:0:
192,192,45353,1,0,0:0:0:0:
64,192,45353,1,0,0:0:0:0:
192,192,45508,1,0,0:0:0:0:
64,192,45508,1,0,0:0:0:0:
64,192,45662,1,0,0:0:0:0:
192,192,45662,1,0,0:0:0:0:
320,192,45662,1,0,0:0:0:0:
448,192,45662,1,0,0:0:0:0:
320,192,45817,1,0,0:0:0:0:
448,192,45817,1,0,0:0:0:0:
320,192,45972,1,0,0:0:0:0:
192,192,45972,1,0,0:0:0:0:
64,192,45972,1,0,0:0:0:0:
192,192,46126,1,0,0:0:0:0:
64,192,46126,1,0,0:0:0:0:
64,192,46281,1,0,0:0:0:0:
192,192,46281,1,0,0:0:0:0:
320,192,46281,1,0,0:0:0:0:
448,192,46281,1,0,0:0:0:0:
320,192,46435,1,0,0:0:0:0:
448,192,46435,1,0,0:0:0:0:
320,192,46590,1,0,0:0:0:0:
192,192,46590,1,0,0:0:0:0:
64,192,46590,1,0,0:0:0:0:
448,192,46745,1,0,0:0:0:0:
64,192,46745,1,0,0:0:0:0:
64,192,46899,1,0,0:0:0:0:
192,192,46899,1,0,0:0:0:0:
448,192,46899,1,0,0:0:0:0:
320,192,46899,1,0,0:0:0:0:
320,192,47054,1,0,0:0:0:0:
192,192,47054,1,0,0:0:0:0:
320,192,47209,1,0,0:0:0:0:
448,192,47209,1,0,0:0:0:0:
64,192,47209,1,0,0:0:0:0:
192,192,47363,1,0,0:0:0:0:
64,192,47363,1,0,0:0:0:0:
64,192,47518,1,0,0:0:0:0:
192,192,47518,1,0,0:0:0:0:
320,192,47518,1,0,0:0:0:0:
448,192,47518,1,0,0:0:0:0:
448,192,47673,1,0,0:0:0:0:
320,192,47673,1,0,0:0:0:0:
192,192,47827,1,0,0:0:0:0:
64,192,47827,1,0,0:0:0:0:
320,192,47827,1,0,0:0:0:0:
448,192,47827,1,0,0:0:0:0:
192,192,47982,1,0,0:0:0:0:
64,192,48136,1,0,0:0:0:0:
320,192,48291,1,0,0:0:0:0:
448,192,48446,1,0,0:0:0:0:
64,192,48446,1,0,0:0:0:0:
192,192,48446,1,0,0:0:0:0:
320,192,48446,1,0,0:0:0:0:
448,192,48600,1,0,0:0:0:0:
320,192,48600,1,0,0:0:0:0:
64,192,48600,1,0,0:0:0:0:
192,192,48600,1,0,0:0:0:0:
192,192,48755,1,0,0:0:0:0:
64,192,48910,1,0,0:0:0:0:
320,192,48910,1,0,0:0:0:0:
448,192,48910,1,0,0:0:0:0:
64,192,49064,1,0,0:0:0:0:
192,192,49064,1,0,0:0:0:0:
448,192,49064,1,0,0:0:0:0:
320,192,49064,1,0,0:0:0:0:
448,192,49219,5,0,0:0:0:0:
320,192,49219,1,0,0:0:0:0:
192,192,49219,1,0,0:0:0:0:
64,192,49219,1,0,0:0:0:0:
64,192,49528,1,0,0:0:0:0:
192,192,49528,1,0,0:0:0:0:
320,192,49528,1,0,0:0:0:0:
448,192,49528,1,0,0:0:0:0:
64,192,50301,128,0,50688:0:0:0:0:
448,192,50301,128,0,50456:0:0:0:0:
192,192,50379,128,0,50611:0:0:0:0:
320,192,50456,128,0,50533:0:0:0:0:
448,192,50611,128,0,50765:0:0:0:0:
320,192,50611,128,0,50843:0:0:0:0:
192,192,50688,128,0,50765:0:0:0:0:
64,192,50765,128,0,50920:0:0:0:0:
448,192,50843,128,0,50920:0:0:0:0:
320,192,50920,128,0,50997:0:0:0:0:
192,192,50920,128,0,51152:0:0:0:0:
448,192,51075,128,0,51229:0:0:0:0:
64,192,51075,128,0,51152:0:0:0:0:
64,192,51229,128,0,51307:0:0:0:0:
320,192,51229,128,0,51384:0:0:0:0:
448,192,51307,128,0,51461:0:0:0:0:
192,192,51307,128,0,51384:0:0:0:0:
64,192,51384,128,0,51848:0:0:0:0:
192,192,51461,128,0,51693:0:0:0:0:
320,192,51539,128,0,51616:0:0:0:0:
448,192,51693,128,0,51848:0:0:0:0:
320,192,51770,128,0,51848:0:0:0:0:
192,192,51848,128,0,52002:0:0:0:0:
320,192,52002,128,0,52157:0:0:0:0:
448,192,52002,128,0,52080:0:0:0:0:
192,192,52080,128,0,52157:0:0:0:0:
64,192,52080,128,0,52157:0:0:0:0:
448,192,52157,128,0,52312:0:0:0:0:
320,192,52234,128,0,52389:0:0:0:0:
192,192,52312,128,0,52466:0:0:0:0:
64,192,52389,128,0,52466:0:0:0:0:
448,192,52466,128,0,52621:0:0:0:0:
320,192,52466,128,0,52544:0:0:0:0:
64,192,52621,128,0,52776:0:0:0:0:
192,192,52621,128,0,52698:0:0:0:0:
320,192,52698,128,0,52776:0:0:0:0:
192,192,52776,128,0,53008:0:0:0:0:
448,192,52776,128,0,52930:0:0:0:0:
320,192,52853,128,0,52930:0:0:0:0:
64,192,52930,128,0,53008:0:0:0:0:
192,192,53085,128,0,53162:0:0:0:0:
448,192,53085,128,0,53317:0:0:0:0:
64,192,53085,128,0,53240:0:0:0:0:
320,192,53162,128,0,53317:0:0:0:0:
192,192,53240,128,0,53317:0:0:0:0:
64,192,53317,128,0,53472:0:0:0:0:
192,192,53394,128,0,53549:0:0:0:0:
448,192,53394,128,0,53472:0:0:0:0:
320,192,53472,128,0,53626:0:0:0:0:
448,192,53549,128,0,53703:0:0:0:0:
64,192,53703,128,0,53935:0:0:0:0:
192,192,53703,128,0,53858:0:0:0:0:
320,192,53703,128,0,53781:0:0:0:0:
448,192,53781,128,0,53935:0:0:0:0:
320,192,53858,128,0,53935:0:0:0:0:
448,192,54013,128,0,54322:0:0:0:0:
64,192,54013,128,0,54090:0:0:0:0:
192,192,54013,128,0,54167:0:0:0:0:
320,192,54013,128,0,54245:0:0:0:0:
64,192,54167,128,0,54322:0:0:0:0:
192,192,54245,128,0,54322:0:0:0:0:
320,192,54322,128,0,54477:0:0:0:0:
192,192,54399,128,0,54554:0:0:0:0:
64,192,54477,128,0,54631:0:0:0:0:
448,192,54631,128,0,54863:0:0:0:0:
320,192,54631,128,0,54786:0:0:0:0:
192,192,54709,128,0,54863:0:0:0:0:
64,192,54786,128,0,54941:0:0:0:0:
320,192,54863,128,0,54941:0:0:0:0:
192,192,54941,128,0,55095:0:0:0:0:
448,192,54941,128,0,55173:0:0:0:0:
320,192,55018,128,0,55095:0:0:0:0:
64,192,55095,128,0,55250:0:0:0:0:
192,192,55250,128,0,55327:0:0:0:0:
448,192,55250,128,0,55405:0:0:0:0:
320,192,55250,128,0,56487:0:0:0:0:
64,192,55327,128,0,55482:0:0:0:0:
192,192,55405,128,0,55559:0:0:0:0:
448,192,55482,128,0,55559:0:0:0:0:
64,192,55559,128,0,55714:0:0:0:0:
192,192,55636,128,0,55791:0:0:0:0:
448,192,55636,128,0,55791:0:0:0:0:
64,192,55791,128,0,55946:0:0:0:0:
192,192,55868,128,0,56023:0:0:0:0:
448,192,55868,128,0,55946:0:0:0:0:
64,192,56023,128,0,56255:0:0:0:0:
448,192,56023,128,0,56100:0:0:0:0:
192,192,56100,128,0,56255:0:0:0:0:
448,192,56178,128,0,56410:0:0:0:0:
192,192,56332,128,0,56487:0:0:0:0:
64,192,56332,128,0,56410:0:0:0:0:
64,192,56487,128,0,57724:0:0:0:0:
448,192,56487,128,0,56719:0:0:0:0:
320,192,56564,128,0,56642:0:0:0:0:
192,192,56564,128,0,56796:0:0:0:0:
320,192,56719,128,0,56874:0:0:0:0:
448,192,56796,128,0,56951:0:0:0:0:
192,192,56874,128,0,56951:0:0:0:0:
320,192,56951,128,0,57028:0:0:0:0:
448,192,57028,128,0,57106:0:0:0:0:
192,192,57028,128,0,57260:0:0:0:0:
320,192,57106,128,0,57183:0:0:0:0:
448,192,57183,128,0,57337:0:0:0:0:
320,192,57260,128,0,57415:0:0:0:0:
192,192,57337,128,0,57415:0:0:0:0:
448,192,57415,128,0,57569:0:0:0:0:
320,192,57492,128,0,57647:0:0:0:0:
192,192,57492,128,0,57647:0:0:0:0:
448,192,57647,128,0,57724:0:0:0:0:
192,192,57724,128,0,58961:0:0:0:0:
320,192,57724,128,0,57879:0:0:0:0:
64,192,57801,128,0,57879:0:0:0:0:
448,192,57801,128,0,57956:0:0:0:0:
320,192,57956,128,0,58033:0:0:0:0:
64,192,57956,128,0,58188:0:0:0:0:
448,192,58033,128,0,58265:0:0:0:0:
320,192,58111,128,0,58265:0:0:0:0:
64,192,58265,128,0,58420:0:0:0:0:
320,192,58343,128,0,58420:0:0:0:0:
448,192,58343,128,0,58497:0:0:0:0:
64,192,58497,128,0,58652:0:0:0:0:
320,192,58497,128,0,58729:0:0:0:0:
448,192,58575,128,0,58652:0:0:0:0:
448,192,58729,128,0,58807:0:0:0:0:
64,192,58729,128,0,58884:0:0:0:0:
320,192,58807,128,0,58884:0:0:0:0:
448,192,58961,128,0,59889:0:0:0:0:
64,192,58961,128,0,59116:0:0:0:0:
320,192,58961,128,0,59193:0:0:0:0:
192,192,59039,128,0,59193:0:0:0:0:
64,192,59193,128,0,59348:0:0:0:0:
320,192,59270,128,0,59348:0:0:0:0:
192,192,59270,128,0,59348:0:0:0:0:
192,192,59425,1,0,0:0:0:0:
64,192,59425,1,0,0:0:0:0:
320,192,59502,1,0,0:0:0:0:
64,192,59580,1,0,0:0:0:0:
192,192,59580,1,0,0:0:0:0:
320,192,59657,1,0,0:0:0:0:
64,192,59734,1,0,0:0:0:0:
192,192,59734,1,0,0:0:0:0:
320,192,59812,1,0,0:0:0:0:
192,192,59889,1,0,0:0:0:0:
64,192,59889,1,0,0:0:0:0:
448,192,60198,128,0,60430:0:0:0:0:
192,192,60198,128,0,60353:0:0:0:0:
64,192,60198,128,0,60276:0:0:0:0:
320,192,60198,1,0,0:0:0:0:
320,192,60353,128,0,60662:0:0:0:0:
64,192,60353,128,0,60508:0:0:0:0:
192,192,60430,128,0,60585:0:0:0:0:
448,192,60508,128,0,60817:0:0:0:0:
64,192,60662,128,0,60894:0:0:0:0:
192,192,60740,128,0,60972:0:0:0:0:
320,192,60740,128,0,60817:0:0:0:0:
320,192,60894,128,0,61049:0:0:0:0:
448,192,60972,128,0,61281:0:0:0:0:
192,192,61049,128,0,61126:0:0:0:0:
64,192,61126,128,0,61281:0:0:0:0:
320,192,61203,128,0,61281:0:0:0:0:
192,192,61281,128,0,61435:0:0:0:0:
320,192,61358,128,0,61513:0:0:0:0:
64,192,61435,128,0,61745:0:0:0:0:
448,192,61435,128,0,61590:0:0:0:0:
192,192,61513,128,0,61590:0:0:0:0:
320,192,61590,128,0,61745:0:0:0:0:
192,192,61667,128,0,61745:0:0:0:0:
448,192,61745,128,0,61899:0:0:0:0:
64,192,61822,128,0,61977:0:0:0:0:
320,192,61899,128,0,62054:0:0:0:0:
192,192,61899,128,0,61977:0:0:0:0:
64,192,62054,128,0,62209:0:0:0:0:
448,192,62054,128,0,62131:0:0:0:0:
192,192,62131,128,0,62209:0:0:0:0:
320,192,62209,128,0,62363:0:0:0:0:
448,192,62209,1,0,0:0:0:0:
192,192,62286,128,0,62441:0:0:0:0:
64,192,62363,128,0,62518:0:0:0:0:
448,192,62363,128,0,62673:0:0:0:0:
320,192,62518,128,0,62673:0:0:0:0:
192,192,62595,128,0,62673:0:0:0:0:
64,192,62673,128,0,62827:0:0:0:0:
192,192,62827,128,0,62982:0:0:0:0:
448,192,62827,1,0,0:0:0:0:
320,192,62905,128,0,62982:0:0:0:0:
64,192,62905,128,0,62982:0:0:0:0:
448,192,62982,128,0,63136:0:0:0:0:
64,192,63059,128,0,63214:0:0:0:0:
192,192,63136,128,0,63291:0:0:0:0:
448,192,63214,128,0,63291:0:0:0:0:
320,192,63214,128,0,63291:0:0:0:0:
64,192,63291,128,0,63446:0:0:0:0:
192,192,63446,1,0,0:0:0:0:
320,192,63446,1,0,0:0:0:0:
192,192,63600,128,0,63832:0:0:0:0:
320,192,63600,128,0,63755:0:0:0:0:
448,192,63600,128,0,63678:0:0:0:0:
64,192,63600,128,0,63871:0:0:0:0:
448,192,63910,128,0,64219:0:0:0:0:
320,192,63910,128,0,64142:0:0:0:0:
192,192,63910,128,0,64064:0:0:0:0:
64,192,63910,128,0,63987:0:0:0:0:
320,192,64219,1,0,0:0:0:0:
192,192,64219,1,0,0:0:0:0:
64,192,64219,128,0,64374:0:0:0:0:
320,192,64374,128,0,64451:0:0:0:0:
448,192,64374,128,0,64451:0:0:0:0:
192,192,64451,128,0,64528:0:0:0:0:
448,192,64528,128,0,64837:0:0:0:0:
320,192,64528,128,0,64683:0:0:0:0:
192,192,64606,128,0,64683:0:0:0:0:
64,192,64683,128,0,64837:0:0:0:0:
320,192,64760,128,0,64837:0:0:0:0:
192,192,64837,1,0,0:0:0:0:
64,192,65147,128,0,66384:0:0:0:0:
192,192,65147,128,0,65379:0:0:0:0:
448,192,65147,128,0,65301:0:0:0:0:
320,192,65147,128,0,65224:0:0:0:0:
320,192,65301,128,0,65533:0:0:0:0:
448,192,65379,128,0,65611:0:0:0:0:
192,192,65456,128,0,65688:0:0:0:0:
320,192,65611,128,0,65843:0:0:0:0:
448,192,65688,128,0,65765:0:0:0:0:
192,192,65765,128,0,65920:0:0:0:0:
448,192,65843,128,0,66075:0:0:0:0:
320,192,65920,128,0,65997:0:0:0:0:
192,192,65997,128,0,66152:0:0:0:0:
320,192,66075,128,0,66152:0:0:0:0:
448,192,66152,128,0,66307:0:0:0:0:
320,192,66229,128,0,66307:0:0:0:0:
192,192,66229,128,0,66384:0:0:0:0:
448,192,66384,128,0,67621:0:0:0:0:
320,192,66384,128,0,66461:0:0:0:0:
192,192,66461,128,0,66616:0:0:0:0:
64,192,66461,128,0,66539:0:0:0:0:
320,192,66539,128,0,66693:0:0:0:0:
192,192,66693,128,0,66770:0:0:0:0:
64,192,66693,128,0,66848:0:0:0:0:
320,192,66770,128,0,66848:0:0:0:0:
192,192,66848,128,0,66925:0:0:0:0:
64,192,66925,128,0,67080:0:0:0:0:
192,192,67002,128,0,67234:0:0:0:0:
320,192,67002,128,0,67080:0:0:0:0:
320,192,67157,128,0,67234:0:0:0:0:
64,192,67157,128,0,67389:0:0:0:0:
320,192,67312,128,0,67466:0:0:0:0:
192,192,67312,128,0,67389:0:0:0:0:
192,192,67466,128,0,67544:0:0:0:0:
64,192,67466,128,0,67544:0:0:0:0:
320,192,67544,128,0,67698:0:0:0:0:
192,192,67621,128,0,68858:0:0:0:0:
64,192,67621,128,0,67853:0:0:0:0:
448,192,67698,128,0,67853:0:0:0:0:
320,192,67776,128,0,67930:0:0:0:0:
448,192,67930,128,0,68162:0:0:0:0:
64,192,67930,128,0,68008:0:0:0:0:
320,192,68008,128,0,68162:0:0:0:0:
64,192,68085,128,0,68317:0:0:0:0:
448,192,68240,128,0,68317:0:0:0:0:
320,192,68240,128,0,68472:0:0:0:0:
64,192,68394,128,0,68549:0:0:0:0:
448,192,68394,128,0,68472:0:0:0:0:
320,192,68549,128,0,68703:0:0:0:0:
448,192,68549,128,0,68626:0:0:0:0:
64,192,68626,128,0,68703:0:0:0:0:
448,192,68703,128,0,68781:0:0:0:0:
64,192,68781,128,0,68858:0:0:0:0:
320,192,68858,1,0,0:0:0:0:
448,192,68858,1,0,0:0:0:0:
192,192,68935,1,0,0:0:0:0:
64,192,68935,1,0,0:0:0:0:
320,192,69013,1,0,0:0:0:0:
448,192,69013,1,0,0:0:0:0:
320,192,69090,1,0,0:0:0:0:
448,192,69090,1,0,0:0:0:0:
192,192,69167,1,0,0:0:0:0:
64,192,69167,1,0,0:0:0:0:
320,192,69245,1,0,0:0:0:0:
448,192,69245,1,0,0:0:0:0:
192,192,69322,1,0,0:0:0:0:
64,192,69322,1,0,0:0:0:0:
320,192,69399,1,0,0:0:0:0:
448,192,69399,1,0,0:0:0:0:
192,192,69477,1,0,0:0:0:0:
64,192,69477,1,0,0:0:0:0:
320,192,69554,1,0,0:0:0:0:
192,192,69631,1,0,0:0:0:0:
320,192,69709,1,0,0:0:0:0:
192,192,69786,1,0,0:0:0:0:
64,192,69786,1,0,0:0:0:0:
448,192,69786,1,0,0:0:0:0:
64,192,70095,128,0,70173:0:0:0:0:
192,192,70095,1,0,0:0:0:0:
320,192,70095,128,0,70250:0:0:0:0:
448,192,70095,1,0,0:0:0:0:
448,192,70250,1,0,0:0:0:0:
192,192,70250,128,0,70405:0:0:0:0:
320,192,70405,1,0,0:0:0:0:
448,192,70405,1,0,0:0:0:0:
64,192,70405,128,0,70559:0:0:0:0:
192,192,70482,1,0,0:0:0:0:
320,192,70559,1,0,0:0:0:0:
448,192,70636,1,0,0:0:0:0:
320,192,70714,128,0,70868:0:0:0:0:
192,192,70714,1,0,0:0:0:0:
64,192,70791,128,0,70868:0:0:0:0:
192,192,70868,128,0,71023:0:0:0:0:
64,192,71023,1,0,0:0:0:0:
320,192,71023,128,0,71178:0:0:0:0:
448,192,71023,128,0,71100:0:0:0:0:
192,192,71100,128,0,71178:0:0:0:0:
64,192,71178,128,0,71332:0:0:0:0:
448,192,71332,128,0,71642:0:0:0:0:
320,192,71332,1,0,0:0:0:0:
192,192,71332,1,0,0:0:0:0:
320,192,71487,128,0,71642:0:0:0:0:
192,192,71487,1,0,0:0:0:0:
64,192,71642,128,0,71951:0:0:0:0:
192,192,71642,128,0,71796:0:0:0:0:
320,192,71796,1,0,0:0:0:0:
192,192,71951,128,0,72106:0:0:0:0:
320,192,71951,1,0,0:0:0:0:
448,192,71951,128,0,72183:0:0:0:0:
320,192,72106,128,0,72260:0:0:0:0:
448,192,72260,1,0,0:0:0:0:
192,192,72260,128,0,72337:0:0:0:0:
64,192,72260,128,0,72492:0:0:0:0:
320,192,72337,128,0,72415:0:0:0:0:
448,192,72415,128,0,72492:0:0:0:0:
192,192,72569,128,0,72647:0:0:0:0:
320,192,72569,128,0,72685:0:0:0:0:
448,192,72569,128,0,72724:0:0:0:0:
64,192,72569,128,0,72608:0:0:0:0:
64,192,72879,128,0,72995:0:0:0:0:
192,192,72879,128,0,72956:0:0:0:0:
320,192,72879,128,0,72917:0:0:0:0:
448,192,72879,1,0,0:0:0:0:
448,192,73033,128,0,73149:0:0:0:0:
320,192,73033,128,0,73111:0:0:0:0:
192,192,73033,128,0,73072:0:0:0:0:
64,192,73033,1,0,0:0:0:0:
64,192,73188,128,0,73304:0:0:0:0:
192,192,73188,128,0,73265:0:0:0:0:
320,192,73188,128,0,73227:0:0:0:0:
448,192,73188,1,0,0:0:0:0:
448,192,73343,128,0,73459:0:0:0:0:
320,192,73343,128,0,73420:0:0:0:0:
192,192,73343,128,0,73381:0:0:0:0:
64,192,73343,1,0,0:0:0:0:
64,192,73497,128,0,73613:0:0:0:0:
192,192,73497,128,0,73575:0:0:0:0:
320,192,73497,128,0,73536:0:0:0:0:
448,192,73497,1,0,0:0:0:0:
192,192,73652,128,0,73768:0:0:0:0:
64,192,73652,1,0,0:0:0:0:
320,192,73652,128,0,73729:0:0:0:0:
448,192,73652,128,0,73691:0:0:0:0:
320,192,73807,128,0,73923:0:0:0:0:
448,192,73807,1,0,0:0:0:0:
192,192,73807,128,0,73884:0:0:0:0:
64,192,73807,128,0,73845:0:0:0:0:
448,192,73961,128,0,74077:0:0:0:0:
320,192,73961,128,0,74039:0:0:0:0:
192,192,73961,128,0,74000:0:0:0:0:
64,192,73961,1,0,0:0:0:0:
64,192,74116,128,0,74232:0:0:0:0:
192,192,74116,128,0,74193:0:0:0:0:
320,192,74116,128,0,74155:0:0:0:0:
448,192,74116,1,0,0:0:0:0:
320,192,74270,1,0,0:0:0:0:
448,192,74270,1,0,0:0:0:0:
192,192,74348,1,0,0:0:0:0:
64,192,74425,1,0,0:0:0:0:
448,192,74425,1,0,0:0:0:0:
320,192,74502,1,0,0:0:0:0:
192,192,74580,1,0,0:0:0:0:
64,192,74580,1,0,0:0:0:0:
448,192,74657,1,0,0:0:0:0:
192,192,74734,1,0,0:0:0:0:
64,192,74734,1,0,0:0:0:0:
320,192,74812,1,0,0:0:0:0:
192,192,74889,1,0,0:0:0:0:
64,192,74889,1,0,0:0:0:0:
320,192,74966,1,0,0:0:0:0:
192,192,75044,1,0,0:0:0:0:
64,192,75044,1,0,0:0:0:0:
448,192,75044,128,0,76281:0:0:0:0:
320,192,75662,1,0,0:0:0:0:
192,192,75817,1,0,0:0:0:0:
64,192,76126,1,0,0:0:0:0:
320,192,76281,1,0,0:0:0:0:
192,192,76281,1,0,0:0:0:0:
64,192,76281,128,0,76899:0:0:0:0:
192,192,76590,1,0,0:0:0:0:
448,192,76745,1,0,0:0:0:0:
320,192,76899,1,0,0:0:0:0:
448,192,76899,1,0,0:0:0:0:
320,192,77054,1,0,0:0:0:0:
448,192,77054,1,0,0:0:0:0:
192,192,77209,1,0,0:0:0:0:
64,192,77209,1,0,0:0:0:0:
320,192,77286,1,0,0:0:0:0:
448,192,77286,1,0,0:0:0:0:
192,192,77363,1,0,0:0:0:0:
64,192,77363,1,0,0:0:0:0:
320,192,77441,1,0,0:0:0:0:
448,192,77441,1,0,0:0:0:0:
192,192,77518,1,0,0:0:0:0:
64,192,77518,1,0,0:0:0:0:
448,192,77518,1,0,0:0:0:0:
192,192,77827,1,0,0:0:0:0:
448,192,77827,1,0,0:0:0:0:
320,192,77827,1,0,0:0:0:0:
64,192,77827,1,0,0:0:0:0:
192,192,77982,1,0,0:0:0:0:
320,192,78136,1,0,0:0:0:0:
192,192,78136,1,0,0:0:0:0:
448,192,78136,1,0,0:0:0:0:
64,192,78136,1,0,0:0:0:0:
320,192,78291,1,0,0:0:0:0:
320,192,78446,1,0,0:0:0:0:
64,192,78446,1,0,0:0:0:0:
448,192,78446,1,0,0:0:0:0:
192,192,78446,1,0,0:0:0:0:
192,192,78600,1,0,0:0:0:0:
320,192,78755,1,0,0:0:0:0:
448,192,78755,1,0,0:0:0:0:
64,192,78755,1,0,0:0:0:0:
192,192,78755,1,0,0:0:0:0:
64,192,78910,1,0,0:0:0:0:
320,192,79064,1,0,0:0:0:0:
64,192,79064,1,0,0:0:0:0:
192,192,79064,1,0,0:0:0:0:
448,192,79064,1,0,0:0:0:0:
320,192,79219,1,0,0:0:0:0:
448,192,79374,1,0,0:0:0:0:
64,192,79374,1,0,0:0:0:0:
192,192,79374,1,0,0:0:0:0:
320,192,79374,1,0,0:0:0:0:
192,192,79528,1,0,0:0:0:0:
192,192,79683,1,0,0:0:0:0:
64,192,79683,1,0,0:0:0:0:
448,192,79683,1,0,0:0:0:0:
320,192,79683,1,0,0:0:0:0:
448,192,79837,1,0,0:0:0:0:
320,192,79992,1,0,0:0:0:0:
64,192,79992,1,0,0:0:0:0:
448,192,79992,1,0,0:0:0:0:
192,192,79992,1,0,0:0:0:0:
64,192,80147,1,0,0:0:0:0:
448,192,80301,1,0,0:0:0:0:
320,192,80301,1,0,0:0:0:0:
192,192,80301,1,0,0:0:0:0:
64,192,80301,1,0,0:0:0:0:
192,192,80456,1,0,0:0:0:0:
192,192,80611,1,0,0:0:0:0:
64,192,80611,1,0,0:0:0:0:
320,192,80611,1,0,0:0:0:0:
448,192,80611,1,0,0:0:0:0:
320,192,80765,1,0,0:0:0:0:
448,192,80920,1,0,0:0:0:0:
320,192,80920,1,0,0:0:0:0:
64,192,80920,1,0,0:0:0:0:
192,192,80920,1,0,0:0:0:0:
448,192,81075,1,0,0:0:0:0:
448,192,81229,1,0,0:0:0:0:
320,192,81229,1,0,0:0:0:0:
192,192,81229,1,0,0:0:0:0:
64,192,81229,1,0,0:0:0:0:
192,192,81384,1,0,0:0:0:0:
64,192,81539,1,0,0:0:0:0:
192,192,81539,1,0,0:0:0:0:
320,192,81539,1,0,0:0:0:0:
448,192,81539,1,0,0:0:0:0:
320,192,81693,1,0,0:0:0:0:
448,192,81848,1,0,0:0:0:0:
320,192,81848,1,0,0:0:0:0:
192,192,81848,1,0,0:0:0:0:
64,192,81848,1,0,0:0:0:0:
64,192,82002,128,0,82157:0:0:0:0:
320,192,82157,1,0,0:0:0:0:
448,192,82157,1,0,0:0:0:0:
192,192,82157,128,0,82312:0:0:0:0:
320,192,82312,128,0,82466:0:0:0:0:
448,192,82466,1,0,0:0:0:0:
192,192,82466,1,0,0:0:0:0:
64,192,82466,1,0,0:0:0:0:
320,192,82621,1,0,0:0:0:0:
448,192,82776,1,0,0:0:0:0:
320,192,82776,1,0,0:0:0:0:
192,192,82776,1,0,0:0:0:0:
64,192,82776,1,0,0:0:0:0:
192,192,82930,1,0,0:0:0:0:
64,192,83085,1,0,0:0:0:0:
192,192,83085,1,0,0:0:0:0:
320,192,83085,1,0,0:0:0:0:
448,192,83085,1,0,0:0:0:0:
320,192,83240,1,0,0:0:0:0:
448,192,83394,1,0,0:0:0:0:
320,192,83394,1,0,0:0:0:0:
192,192,83394,1,0,0:0:0:0:
64,192,83394,1,0,0:0:0:0:
448,192,83549,1,0,0:0:0:0:
448,192,83703,1,0,0:0:0:0:
320,192,83703,1,0,0:0:0:0:
64,192,83703,1,0,0:0:0:0:
192,192,83703,1,0,0:0:0:0:
64,192,83858,1,0,0:0:0:0:
64,192,84013,1,0,0:0:0:0:
192,192,84013,1,0,0:0:0:0:
320,192,84013,1,0,0:0:0:0:
448,192,84013,1,0,0:0:0:0:
192,192,84167,1,0,0:0:0:0:
320,192,84322,1,0,0:0:0:0:
448,192,84322,1,0,0:0:0:0:
64,192,84322,1,0,0:0:0:0:
192,192,84322,1,0,0:0:0:0:
448,192,84477,1,0,0:0:0:0:
320,192,84631,1,0,0:0:0:0:
192,192,84631,1,0,0:0:0:0:
64,192,84631,1,0,0:0:0:0:
448,192,84631,1,0,0:0:0:0:
320,192,84786,1,0,0:0:0:0:
448,192,84941,1,0,0:0:0:0:
320,192,84941,1,0,0:0:0:0:
192,192,84941,1,0,0:0:0:0:
64,192,84941,1,0,0:0:0:0:
192,192,85095,1,0,0:0:0:0:
64,192,85250,1,0,0:0:0:0:
192,192,85250,1,0,0:0:0:0:
320,192,85250,1,0,0:0:0:0:
448,192,85250,1,0,0:0:0:0:
64,192,85405,1,0,0:0:0:0:
448,192,85559,1,0,0:0:0:0:
320,192,85636,1,0,0:0:0:0:
192,192,85714,1,0,0:0:0:0:
64,192,85714,1,0,0:0:0:0:
64,192,85791,1,0,0:0:0:0:
192,192,85791,1,0,0:0:0:0:
320,192,85868,1,0,0:0:0:0:
448,192,85868,1,0,0:0:0:0:
192,192,86023,1,0,0:0:0:0:
64,192,86023,1,0,0:0:0:0:
64,192,86178,1,0,0:0:0:0:
192,192,86178,1,0,0:0:0:0:
320,192,86178,1,0,0:0:0:0:
448,192,86178,1,0,0:0:0:0:
64,192,86332,1,0,0:0:0:0:
192,192,86332,1,0,0:0:0:0:
448,192,86332,1,0,0:0:0:0:
320,192,86332,1,0,0:0:0:0:
448,192,86642,128,0,87260:0:0:0:0:
320,192,86642,128,0,87183:0:0:0:0:
192,192,86642,128,0,87106:0:0:0:0:
64,192,86642,128,0,87028:0:0:0:0:
