osu file format v14

[General]
AudioFilename: audio.mp3
AudioLeadIn: 0
PreviewTime: 51073
Countdown: 0
SampleSet: Normal
StackLeniency: 0.7
Mode: 3
LetterboxInBreaks: 0
SpecialStyle: 0
WidescreenStoryboard: 0

[Editor]
Bookmarks: 224473
DistanceSpacing: 0.8
BeatDivisor: 4
GridSize: 4
TimelineZoom: 2.5

[Metadata]
Title:Envory's 4K Practice Pack
TitleUnicode:Envory's 4K Practice Pack
Artist:Various Artist
ArtistUnicode:Various Artist
Creator:Envory
Version:yuikonnu - Kakushigoto [Jacking,Jumpstream,LN]
Source:
Tags:
BeatmapID:1786871
BeatmapSetID:855110

[Difficulty]
HPDrainRate:8
CircleSize:4
OverallDifficulty:8
ApproachRate:5
SliderMultiplier:1.4
SliderTickRate:1

[Events]
//Background and Video events
0,0,"maxresdefault.jpg",0,0
//Break Periods
//Storyboard Layer 0 (Background)
//Storyboard Layer 1 (Fail)
//Storyboard Layer 2 (Pass)
//Storyboard Layer 3 (Foreground)
//Storyboard Sound Samples

[TimingPoints]
1273,300,4,1,0,50,1,0
205273,-33.3333333333333,4,1,0,50,0,0
205310,-125,4,1,0,50,0,0
205423,-250,4,1,0,50,0,0
205498,-83.3333333333333,4,1,0,50,0,0
205573,-100,4,1,0,50,0,0

[HitObjects]
64,192,1273,5,0,0:0:0:0:
192,192,1273,1,0,0:0:0:0:
64,192,1573,1,0,0:0:0:0:
192,192,1573,1,0,0:0:0:0:
448,192,1798,1,0,0:0:0:0:
320,192,1798,1,0,0:0:0:0:
192,192,1873,1,0,0:0:0:0:
64,192,1873,1,0,0:0:0:0:
320,192,1948,1,0,0:0:0:0:
192,192,2023,1,0,0:0:0:0:
64,192,2098,1,0,0:0:0:0:
320,192,2173,1,0,0:0:0:0:
448,192,2173,1,0,0:0:0:0:
192,192,2248,1,0,0:0:0:0:
64,192,2248,1,0,0:0:0:0:
320,192,2323,1,0,0:0:0:0:
448,192,2323,1,0,0:0:0:0:
192,192,2398,1,0,0:0:0:0:
64,192,2398,1,0,0:0:0:0:
320,192,2473,1,0,0:0:0:0:
448,192,2473,1,0,0:0:0:0:
64,192,2473,1,0,0:0:0:0:
192,192,2623,1,0,0:0:0:0:
192,192,2773,1,0,0:0:0:0:
448,192,2773,1,0,0:0:0:0:
64,192,2773,1,0,0:0:0:0:
320,192,2923,1,0,0:0:0:0:
320,192,3073,1,0,0:0:0:0:
448,192,3073,1,0,0:0:0:0:
64,192,3223,1,0,0:0:0:0:
192,192,3373,1,0,0:0:0:0:
64,192,3373,1,0,0:0:0:0:
448,192,3373,1,0,0:0:0:0:
320,192,3523,128,0,3973:0:0:0:0:
448,192,3673,1,0,0:0:0:0:
64,192,3673,1,0,0:0:0:0:
192,192,3823,1,0,0:0:0:0:
448,192,3973,1,0,0:0:0:0:
192,192,3973,1,0,0:0:0:0:
64,192,3973,1,0,0:0:0:0:
320,192,4123,1,0,0:0:0:0:
192,192,4273,1,0,0:0:0:0:
64,192,4273,1,0,0:0:0:0:
448,192,4423,1,0,0:0:0:0:
320,192,4573,1,0,0:0:0:0:
448,192,4573,1,0,0:0:0:0:
64,192,4573,1,0,0:0:0:0:
192,192,4723,1,0,0:0:0:0:
320,192,4873,1,0,0:0:0:0:
448,192,4873,1,0,0:0:0:0:
64,192,5023,1,0,0:0:0:0:
192,192,5173,1,0,0:0:0:0:
320,192,5173,1,0,0:0:0:0:
448,192,5173,1,0,0:0:0:0:
64,192,5323,1,0,0:0:0:0:
192,192,5473,1,0,0:0:0:0:
448,192,5473,1,0,0:0:0:0:
320,192,5623,1,0,0:0:0:0:
320,192,5773,1,0,0:0:0:0:
192,192,5773,1,0,0:0:0:0:
64,192,5773,1,0,0:0:0:0:
448,192,5923,128,0,6373:0:0:0:0:
64,192,6073,1,0,0:0:0:0:
192,192,6073,1,0,0:0:0:0:
320,192,6223,1,0,0:0:0:0:
320,192,6373,1,0,0:0:0:0:
192,192,6373,1,0,0:0:0:0:
64,192,6373,1,0,0:0:0:0:
448,192,6523,1,0,0:0:0:0:
192,192,6673,1,0,0:0:0:0:
64,192,6673,1,0,0:0:0:0:
320,192,6823,1,0,0:0:0:0:
448,192,6973,1,0,0:0:0:0:
64,192,6973,1,0,0:0:0:0:
192,192,7048,1,0,0:0:0:0:
320,192,7048,1,0,0:0:0:0:
448,192,7123,1,0,0:0:0:0:
64,192,7123,1,0,0:0:0:0:
320,192,7198,1,0,0:0:0:0:
192,192,7198,1,0,0:0:0:0:
64,192,7273,1,0,0:0:0:0:
320,192,7273,1,0,0:0:0:0:
448,192,7273,1,0,0:0:0:0:
192,192,7423,1,0,0:0:0:0:
192,192,7573,1,0,0:0:0:0:
64,192,7573,1,0,0:0:0:0:
448,192,7573,1,0,0:0:0:0:
320,192,7723,1,0,0:0:0:0:
320,192,7873,1,0,0:0:0:0:
64,192,7873,1,0,0:0:0:0:
192,192,8023,1,0,0:0:0:0:
320,192,8173,1,0,0:0:0:0:
448,192,8173,1,0,0:0:0:0:
64,192,8173,1,0,0:0:0:0:
192,192,8323,128,0,8773:0:0:0:0:
64,192,8473,1,0,0:0:0:0:
320,192,8473,1,0,0:0:0:0:
448,192,8623,1,0,0:0:0:0:
320,192,8773,1,0,0:0:0:0:
448,192,8773,1,0,0:0:0:0:
64,192,8773,1,0,0:0:0:0:
192,192,8923,1,0,0:0:0:0:
320,192,9073,1,0,0:0:0:0:
448,192,9073,1,0,0:0:0:0:
64,192,9223,1,0,0:0:0:0:
192,192,9373,1,0,0:0:0:0:
320,192,9373,1,0,0:0:0:0:
448,192,9373,1,0,0:0:0:0:
64,192,9523,1,0,0:0:0:0:
192,192,9673,128,0,10873:0:0:0:0:
448,192,9673,1,0,0:0:0:0:
320,192,9823,1,0,0:0:0:0:
64,192,9973,1,0,0:0:0:0:
448,192,9973,1,0,0:0:0:0:
320,192,9973,1,0,0:0:0:0:
64,192,10123,1,0,0:0:0:0:
320,192,10273,1,0,0:0:0:0:
448,192,10273,1,0,0:0:0:0:
64,192,10423,1,0,0:0:0:0:
64,192,10573,1,0,0:0:0:0:
320,192,10573,1,0,0:0:0:0:
448,192,10573,1,0,0:0:0:0:
448,192,10723,1,0,0:0:0:0:
320,192,10873,128,0,12073:0:0:0:0:
64,192,10873,1,0,0:0:0:0:
192,192,11023,1,0,0:0:0:0:
192,192,11173,1,0,0:0:0:0:
64,192,11173,1,0,0:0:0:0:
448,192,11173,1,0,0:0:0:0:
448,192,11323,1,0,0:0:0:0:
192,192,11473,1,0,0:0:0:0:
64,192,11473,1,0,0:0:0:0:
448,192,11623,1,0,0:0:0:0:
64,192,11623,1,0,0:0:0:0:
192,192,11698,1,0,0:0:0:0:
448,192,11773,1,0,0:0:0:0:
64,192,11848,1,0,0:0:0:0:
192,192,11923,1,0,0:0:0:0:
448,192,11998,1,0,0:0:0:0:
192,192,12073,1,0,0:0:0:0:
64,192,12073,1,0,0:0:0:0:
64,192,13273,128,0,13573:0:0:0:0:
320,192,13423,1,0,0:0:0:0:
448,192,13573,128,0,13873:0:0:0:0:
320,192,13723,1,0,0:0:0:0:
192,192,13873,128,0,14173:0:0:0:0:
64,192,14023,1,0,0:0:0:0:
320,192,14173,128,0,14473:0:0:0:0:
192,192,14323,1,0,0:0:0:0:
64,192,14473,128,0,15073:0:0:0:0:
192,192,14773,128,0,15073:0:0:0:0:
448,192,15073,128,0,15673:0:0:0:0:
320,192,15373,1,0,0:0:0:0:
192,192,15673,128,0,15973:0:0:0:0:
64,192,15823,1,0,0:0:0:0:
320,192,15973,128,0,16273:0:0:0:0:
192,192,16123,1,0,0:0:0:0:
448,192,16273,128,0,16573:0:0:0:0:
320,192,16423,1,0,0:0:0:0:
64,192,16573,128,0,16873:0:0:0:0:
192,192,16873,128,0,18073:0:0:0:0:
448,192,17323,1,0,0:0:0:0:
64,192,17473,1,0,0:0:0:0:
320,192,17623,1,0,0:0:0:0:
448,192,17773,1,0,0:0:0:0:
320,192,17923,1,0,0:0:0:0:
64,192,18073,128,0,18298:0:0:0:0:
448,192,18223,1,0,0:0:0:0:
64,192,18373,128,0,18673:0:0:0:0:
192,192,18523,1,0,0:0:0:0:
320,192,18673,128,0,18973:0:0:0:0:
448,192,18823,1,0,0:0:0:0:
192,192,18973,128,0,19273:0:0:0:0:
320,192,19123,1,0,0:0:0:0:
448,192,19273,128,0,19573:0:0:0:0:
64,192,19423,1,0,0:0:0:0:
320,192,19573,128,0,19873:0:0:0:0:
448,192,19723,1,0,0:0:0:0:
192,192,19873,128,0,20173:0:0:0:0:
64,192,20023,1,0,0:0:0:0:
320,192,20173,1,0,0:0:0:0:
448,192,20323,1,0,0:0:0:0:
64,192,20473,128,0,20773:0:0:0:0:
320,192,20623,1,0,0:0:0:0:
192,192,20773,128,0,21073:0:0:0:0:
448,192,20923,1,0,0:0:0:0:
320,192,21073,128,0,21373:0:0:0:0:
192,192,21223,1,0,0:0:0:0:
448,192,21373,128,0,21673:0:0:0:0:
320,192,21523,1,0,0:0:0:0:
64,192,21673,1,0,0:0:0:0:
192,192,21823,1,0,0:0:0:0:
320,192,21823,1,0,0:0:0:0:
448,192,21823,1,0,0:0:0:0:
192,192,21973,1,0,0:0:0:0:
64,192,21973,1,0,0:0:0:0:
448,192,21973,1,0,0:0:0:0:
320,192,22123,1,0,0:0:0:0:
192,192,22123,1,0,0:0:0:0:
64,192,22123,1,0,0:0:0:0:
448,192,22273,1,0,0:0:0:0:
320,192,22273,1,0,0:0:0:0:
64,192,22273,1,0,0:0:0:0:
192,192,22273,1,0,0:0:0:0:
320,192,22423,1,0,0:0:0:0:
448,192,22423,1,0,0:0:0:0:
192,192,22498,1,0,0:0:0:0:
64,192,22498,1,0,0:0:0:0:
320,192,22573,1,0,0:0:0:0:
448,192,22573,1,0,0:0:0:0:
192,192,22723,1,0,0:0:0:0:
64,192,22723,1,0,0:0:0:0:
320,192,22798,1,0,0:0:0:0:
448,192,22798,1,0,0:0:0:0:
192,192,22873,1,0,0:0:0:0:
64,192,22873,1,0,0:0:0:0:
448,192,22873,1,0,0:0:0:0:
320,192,23023,1,0,0:0:0:0:
192,192,23023,1,0,0:0:0:0:
320,192,23173,1,0,0:0:0:0:
448,192,23173,1,0,0:0:0:0:
64,192,23173,1,0,0:0:0:0:
192,192,23323,1,0,0:0:0:0:
448,192,23323,1,0,0:0:0:0:
320,192,23473,1,0,0:0:0:0:
64,192,23473,1,0,0:0:0:0:
448,192,23623,1,0,0:0:0:0:
64,192,23623,1,0,0:0:0:0:
192,192,23773,1,0,0:0:0:0:
320,192,23773,1,0,0:0:0:0:
448,192,23773,1,0,0:0:0:0:
64,192,23923,1,0,0:0:0:0:
192,192,23923,1,0,0:0:0:0:
320,192,24073,1,0,0:0:0:0:
448,192,24073,1,0,0:0:0:0:
192,192,24148,1,0,0:0:0:0:
64,192,24223,1,0,0:0:0:0:
448,192,24223,1,0,0:0:0:0:
320,192,24298,1,0,0:0:0:0:
192,192,24373,1,0,0:0:0:0:
448,192,24373,1,0,0:0:0:0:
64,192,24373,1,0,0:0:0:0:
320,192,24448,1,0,0:0:0:0:
192,192,24523,1,0,0:0:0:0:
64,192,24523,1,0,0:0:0:0:
448,192,24598,1,0,0:0:0:0:
320,192,24673,1,0,0:0:0:0:
192,192,24673,1,0,0:0:0:0:
320,192,24823,1,0,0:0:0:0:
448,192,24823,1,0,0:0:0:0:
448,192,24973,1,0,0:0:0:0:
64,192,24973,1,0,0:0:0:0:
192,192,24973,1,0,0:0:0:0:
192,192,25123,1,0,0:0:0:0:
320,192,25123,1,0,0:0:0:0:
448,192,25273,1,0,0:0:0:0:
64,192,25273,1,0,0:0:0:0:
192,192,25348,1,0,0:0:0:0:
320,192,25423,1,0,0:0:0:0:
448,192,25423,1,0,0:0:0:0:
64,192,25498,1,0,0:0:0:0:
192,192,25573,1,0,0:0:0:0:
320,192,25573,1,0,0:0:0:0:
448,192,25573,1,0,0:0:0:0:
64,192,25723,1,0,0:0:0:0:
192,192,25723,1,0,0:0:0:0:
320,192,25798,1,0,0:0:0:0:
448,192,25873,1,0,0:0:0:0:
64,192,25873,1,0,0:0:0:0:
192,192,26023,1,0,0:0:0:0:
320,192,26023,1,0,0:0:0:0:
320,192,26173,1,0,0:0:0:0:
448,192,26173,1,0,0:0:0:0:
64,192,26173,1,0,0:0:0:0:
192,192,26323,1,0,0:0:0:0:
448,192,26323,1,0,0:0:0:0:
64,192,26473,1,0,0:0:0:0:
192,192,26473,1,0,0:0:0:0:
320,192,26548,1,0,0:0:0:0:
64,192,26623,1,0,0:0:0:0:
448,192,26623,1,0,0:0:0:0:
192,192,26698,1,0,0:0:0:0:
448,192,26773,1,0,0:0:0:0:
320,192,26773,1,0,0:0:0:0:
64,192,26773,1,0,0:0:0:0:
192,192,26848,1,0,0:0:0:0:
320,192,26923,1,0,0:0:0:0:
448,192,26923,1,0,0:0:0:0:
192,192,26998,1,0,0:0:0:0:
64,192,27073,1,0,0:0:0:0:
448,192,27073,1,0,0:0:0:0:
320,192,27148,1,0,0:0:0:0:
192,192,27223,1,0,0:0:0:0:
64,192,27223,1,0,0:0:0:0:
192,192,27373,1,0,0:0:0:0:
320,192,27373,1,0,0:0:0:0:
448,192,27373,1,0,0:0:0:0:
64,192,27523,1,0,0:0:0:0:
448,192,27523,1,0,0:0:0:0:
320,192,27673,1,0,0:0:0:0:
192,192,27673,1,0,0:0:0:0:
64,192,27823,1,0,0:0:0:0:
320,192,27823,1,0,0:0:0:0:
192,192,27973,1,0,0:0:0:0:
64,192,27973,1,0,0:0:0:0:
448,192,27973,1,0,0:0:0:0:
320,192,28123,1,0,0:0:0:0:
448,192,28123,1,0,0:0:0:0:
320,192,28273,1,0,0:0:0:0:
192,192,28273,1,0,0:0:0:0:
64,192,28423,1,0,0:0:0:0:
192,192,28423,1,0,0:0:0:0:
320,192,28573,1,0,0:0:0:0:
448,192,28573,1,0,0:0:0:0:
64,192,28573,1,0,0:0:0:0:
192,192,28723,1,0,0:0:0:0:
448,192,28723,1,0,0:0:0:0:
320,192,28873,1,0,0:0:0:0:
64,192,28873,1,0,0:0:0:0:
64,192,29023,1,0,0:0:0:0:
448,192,29023,1,0,0:0:0:0:
192,192,29173,1,0,0:0:0:0:
320,192,29173,1,0,0:0:0:0:
448,192,29173,1,0,0:0:0:0:
64,192,29323,1,0,0:0:0:0:
192,192,29323,1,0,0:0:0:0:
320,192,29473,1,0,0:0:0:0:
448,192,29473,1,0,0:0:0:0:
64,192,29623,1,0,0:0:0:0:
448,192,29623,1,0,0:0:0:0:
320,192,29773,1,0,0:0:0:0:
64,192,29773,1,0,0:0:0:0:
192,192,29773,1,0,0:0:0:0:
320,192,29923,1,0,0:0:0:0:
448,192,29923,1,0,0:0:0:0:
64,192,30073,1,0,0:0:0:0:
448,192,30073,1,0,0:0:0:0:
192,192,30148,1,0,0:0:0:0:
320,192,30223,1,0,0:0:0:0:
448,192,30223,1,0,0:0:0:0:
64,192,30298,1,0,0:0:0:0:
192,192,30373,1,0,0:0:0:0:
320,192,30373,1,0,0:0:0:0:
448,192,30373,1,0,0:0:0:0:
192,192,30523,1,0,0:0:0:0:
64,192,30523,1,0,0:0:0:0:
64,192,30673,1,0,0:0:0:0:
448,192,30673,1,0,0:0:0:0:
320,192,30823,1,0,0:0:0:0:
448,192,30823,1,0,0:0:0:0:
320,192,30973,1,0,0:0:0:0:
192,192,30973,1,0,0:0:0:0:
64,192,30973,1,0,0:0:0:0:
448,192,31123,1,0,0:0:0:0:
192,192,31123,1,0,0:0:0:0:
320,192,31273,1,0,0:0:0:0:
64,192,31273,1,0,0:0:0:0:
64,192,31423,1,0,0:0:0:0:
448,192,31423,1,0,0:0:0:0:
320,192,31498,1,0,0:0:0:0:
192,192,31573,1,0,0:0:0:0:
64,192,31573,1,0,0:0:0:0:
448,192,31573,1,0,0:0:0:0:
320,192,31648,1,0,0:0:0:0:
192,192,31723,1,0,0:0:0:0:
448,192,31723,1,0,0:0:0:0:
64,192,31798,1,0,0:0:0:0:
192,192,31873,1,0,0:0:0:0:
320,192,31873,1,0,0:0:0:0:
448,192,31948,1,0,0:0:0:0:
320,192,32023,1,0,0:0:0:0:
64,192,32023,1,0,0:0:0:0:
192,192,32098,1,0,0:0:0:0:
448,192,32098,1,0,0:0:0:0:
320,192,32173,1,0,0:0:0:0:
64,192,32173,1,0,0:0:0:0:
192,192,32248,1,0,0:0:0:0:
64,192,32323,1,0,0:0:0:0:
448,192,32323,1,0,0:0:0:0:
192,192,32398,1,0,0:0:0:0:
320,192,32398,1,0,0:0:0:0:
320,192,32473,1,0,0:0:0:0:
448,192,32473,1,0,0:0:0:0:
64,192,32473,1,0,0:0:0:0:
192,192,32773,1,0,0:0:0:0:
320,192,32773,1,0,0:0:0:0:
448,192,32773,1,0,0:0:0:0:
64,192,33073,1,0,0:0:0:0:
192,192,33073,1,0,0:0:0:0:
448,192,33073,1,0,0:0:0:0:
320,192,33373,1,0,0:0:0:0:
448,192,33373,1,0,0:0:0:0:
64,192,33373,1,0,0:0:0:0:
320,192,33673,1,0,0:0:0:0:
192,192,33673,1,0,0:0:0:0:
64,192,33673,1,0,0:0:0:0:
448,192,33973,1,0,0:0:0:0:
320,192,33973,1,0,0:0:0:0:
192,192,33973,1,0,0:0:0:0:
64,192,34273,1,0,0:0:0:0:
192,192,34273,1,0,0:0:0:0:
448,192,34273,1,0,0:0:0:0:
320,192,34573,1,0,0:0:0:0:
64,192,34573,1,0,0:0:0:0:
192,192,34573,1,0,0:0:0:0:
320,192,34873,1,0,0:0:0:0:
448,192,34873,1,0,0:0:0:0:
64,192,34873,1,0,0:0:0:0:
192,192,34873,1,0,0:0:0:0:
192,192,35173,1,0,0:0:0:0:
320,192,35173,1,0,0:0:0:0:
448,192,35173,1,0,0:0:0:0:
320,192,35473,1,0,0:0:0:0:
448,192,35473,1,0,0:0:0:0:
64,192,35473,1,0,0:0:0:0:
192,192,35773,1,0,0:0:0:0:
64,192,35773,1,0,0:0:0:0:
448,192,35773,1,0,0:0:0:0:
448,192,36073,1,0,0:0:0:0:
320,192,36073,1,0,0:0:0:0:
192,192,36073,1,0,0:0:0:0:
64,192,36073,1,0,0:0:0:0:
320,192,36373,1,0,0:0:0:0:
448,192,36373,1,0,0:0:0:0:
192,192,36373,1,0,0:0:0:0:
64,192,36673,1,0,0:0:0:0:
320,192,36673,1,0,0:0:0:0:
448,192,36673,1,0,0:0:0:0:
192,192,36973,1,0,0:0:0:0:
64,192,36973,1,0,0:0:0:0:
448,192,36973,1,0,0:0:0:0:
320,192,37273,1,0,0:0:0:0:
448,192,37273,1,0,0:0:0:0:
192,192,37273,1,0,0:0:0:0:
64,192,37273,1,0,0:0:0:0:
320,192,37573,1,0,0:0:0:0:
448,192,37573,1,0,0:0:0:0:
192,192,37573,1,0,0:0:0:0:
64,192,37873,1,0,0:0:0:0:
192,192,37873,1,0,0:0:0:0:
448,192,37873,1,0,0:0:0:0:
320,192,38173,1,0,0:0:0:0:
448,192,38173,1,0,0:0:0:0:
192,192,38173,1,0,0:0:0:0:
192,192,38473,1,0,0:0:0:0:
64,192,38473,1,0,0:0:0:0:
320,192,38473,1,0,0:0:0:0:
448,192,38473,1,0,0:0:0:0:
448,192,38773,1,0,0:0:0:0:
64,192,38773,1,0,0:0:0:0:
192,192,38773,1,0,0:0:0:0:
320,192,39073,1,0,0:0:0:0:
448,192,39073,1,0,0:0:0:0:
192,192,39073,1,0,0:0:0:0:
64,192,39373,1,0,0:0:0:0:
192,192,39373,1,0,0:0:0:0:
320,192,39373,1,0,0:0:0:0:
64,192,39673,1,0,0:0:0:0:
192,192,39673,1,0,0:0:0:0:
320,192,39673,1,0,0:0:0:0:
448,192,39673,1,0,0:0:0:0:
448,192,39973,1,0,0:0:0:0:
320,192,39973,1,0,0:0:0:0:
192,192,39973,1,0,0:0:0:0:
64,192,40273,1,0,0:0:0:0:
320,192,40273,1,0,0:0:0:0:
448,192,40273,1,0,0:0:0:0:
192,192,40573,1,0,0:0:0:0:
64,192,40573,1,0,0:0:0:0:
448,192,40573,1,0,0:0:0:0:
320,192,40723,1,0,0:0:0:0:
448,192,40723,1,0,0:0:0:0:
320,192,40873,1,0,0:0:0:0:
192,192,40873,1,0,0:0:0:0:
64,192,40873,1,0,0:0:0:0:
448,192,41023,1,0,0:0:0:0:
64,192,41023,1,0,0:0:0:0:
192,192,41173,1,0,0:0:0:0:
448,192,41173,1,0,0:0:0:0:
320,192,41173,1,0,0:0:0:0:
64,192,41323,1,0,0:0:0:0:
192,192,41323,1,0,0:0:0:0:
448,192,41473,128,0,41698:0:0:0:0:
320,192,41473,128,0,41698:0:0:0:0:
64,192,41473,128,0,41698:0:0:0:0:
192,192,41473,128,0,41698:0:0:0:0:
448,192,41773,128,0,41998:0:0:0:0:
320,192,41773,128,0,41998:0:0:0:0:
192,192,41773,128,0,41998:0:0:0:0:
64,192,41773,128,0,41998:0:0:0:0:
448,192,42073,1,0,0:0:0:0:
320,192,42073,1,0,0:0:0:0:
192,192,42073,1,0,0:0:0:0:
64,192,42073,1,0,0:0:0:0:
320,192,42223,1,0,0:0:0:0:
448,192,42223,1,0,0:0:0:0:
192,192,42373,1,0,0:0:0:0:
64,192,42373,1,0,0:0:0:0:
448,192,42373,1,0,0:0:0:0:
320,192,42523,1,0,0:0:0:0:
192,192,42523,1,0,0:0:0:0:
448,192,42673,1,0,0:0:0:0:
64,192,42673,1,0,0:0:0:0:
320,192,42823,1,0,0:0:0:0:
192,192,42823,1,0,0:0:0:0:
320,192,42973,1,0,0:0:0:0:
448,192,42973,1,0,0:0:0:0:
64,192,42973,1,0,0:0:0:0:
192,192,43123,1,0,0:0:0:0:
64,192,43123,1,0,0:0:0:0:
448,192,43198,1,0,0:0:0:0:
192,192,43273,1,0,0:0:0:0:
320,192,43273,1,0,0:0:0:0:
64,192,43423,1,0,0:0:0:0:
320,192,43423,1,0,0:0:0:0:
192,192,43573,1,0,0:0:0:0:
64,192,43573,1,0,0:0:0:0:
448,192,43573,1,0,0:0:0:0:
320,192,43723,1,0,0:0:0:0:
448,192,43723,1,0,0:0:0:0:
64,192,43798,1,0,0:0:0:0:
192,192,43873,1,0,0:0:0:0:
320,192,43873,1,0,0:0:0:0:
64,192,44023,1,0,0:0:0:0:
448,192,44023,1,0,0:0:0:0:
192,192,44173,1,0,0:0:0:0:
320,192,44173,1,0,0:0:0:0:
448,192,44173,1,0,0:0:0:0:
192,192,44323,1,0,0:0:0:0:
64,192,44323,1,0,0:0:0:0:
320,192,44473,1,0,0:0:0:0:
448,192,44473,1,0,0:0:0:0:
64,192,44623,1,0,0:0:0:0:
320,192,44623,1,0,0:0:0:0:
192,192,44773,1,0,0:0:0:0:
64,192,44773,1,0,0:0:0:0:
448,192,44773,1,0,0:0:0:0:
320,192,44923,1,0,0:0:0:0:
192,192,44923,1,0,0:0:0:0:
448,192,44998,1,0,0:0:0:0:
320,192,45073,1,0,0:0:0:0:
64,192,45073,1,0,0:0:0:0:
192,192,45223,1,0,0:0:0:0:
448,192,45223,1,0,0:0:0:0:
448,192,45373,1,0,0:0:0:0:
64,192,45373,1,0,0:0:0:0:
320,192,45523,1,0,0:0:0:0:
192,192,45523,1,0,0:0:0:0:
64,192,45598,1,0,0:0:0:0:
192,192,45673,1,0,0:0:0:0:
448,192,45673,1,0,0:0:0:0:
320,192,45823,1,0,0:0:0:0:
64,192,45823,1,0,0:0:0:0:
192,192,45973,1,0,0:0:0:0:
64,192,45973,1,0,0:0:0:0:
448,192,45973,1,0,0:0:0:0:
192,192,46123,1,0,0:0:0:0:
320,192,46123,1,0,0:0:0:0:
320,192,46273,1,0,0:0:0:0:
448,192,46273,1,0,0:0:0:0:
192,192,46423,1,0,0:0:0:0:
64,192,46423,1,0,0:0:0:0:
448,192,46423,1,0,0:0:0:0:
320,192,46573,1,0,0:0:0:0:
64,192,46573,1,0,0:0:0:0:
192,192,46723,1,0,0:0:0:0:
448,192,46723,1,0,0:0:0:0:
320,192,46798,1,0,0:0:0:0:
448,192,46873,1,0,0:0:0:0:
64,192,46873,1,0,0:0:0:0:
192,192,46873,1,0,0:0:0:0:
64,192,47173,1,0,0:0:0:0:
192,192,47173,1,0,0:0:0:0:
320,192,47173,1,0,0:0:0:0:
448,192,47473,1,0,0:0:0:0:
320,192,47473,1,0,0:0:0:0:
64,192,47473,1,0,0:0:0:0:
192,192,47773,1,0,0:0:0:0:
320,192,47773,1,0,0:0:0:0:
448,192,47773,1,0,0:0:0:0:
448,192,48073,1,0,0:0:0:0:
64,192,48073,1,0,0:0:0:0:
192,192,48073,1,0,0:0:0:0:
320,192,48148,1,0,0:0:0:0:
192,192,48223,1,0,0:0:0:0:
64,192,48223,1,0,0:0:0:0:
448,192,48298,1,0,0:0:0:0:
320,192,48373,1,0,0:0:0:0:
192,192,48373,1,0,0:0:0:0:
64,192,48448,1,0,0:0:0:0:
320,192,48523,1,0,0:0:0:0:
448,192,48523,1,0,0:0:0:0:
192,192,48673,1,0,0:0:0:0:
64,192,48673,1,0,0:0:0:0:
448,192,48673,1,0,0:0:0:0:
320,192,48748,1,0,0:0:0:0:
192,192,48823,1,0,0:0:0:0:
448,192,48823,1,0,0:0:0:0:
64,192,48898,1,0,0:0:0:0:
192,192,48973,1,0,0:0:0:0:
320,192,48973,1,0,0:0:0:0:
448,192,49048,1,0,0:0:0:0:
320,192,49123,1,0,0:0:0:0:
64,192,49123,1,0,0:0:0:0:
192,192,49198,1,0,0:0:0:0:
320,192,49273,1,0,0:0:0:0:
448,192,49273,1,0,0:0:0:0:
64,192,49273,1,0,0:0:0:0:
192,192,49723,1,0,0:0:0:0:
64,192,49723,1,0,0:0:0:0:
320,192,49798,1,0,0:0:0:0:
448,192,49798,1,0,0:0:0:0:
192,192,49873,1,0,0:0:0:0:
64,192,49873,1,0,0:0:0:0:
448,192,49948,1,0,0:0:0:0:
320,192,49948,1,0,0:0:0:0:
192,192,50023,1,0,0:0:0:0:
64,192,50023,1,0,0:0:0:0:
320,192,50098,1,0,0:0:0:0:
448,192,50173,1,0,0:0:0:0:
64,192,50173,1,0,0:0:0:0:
192,192,50248,1,0,0:0:0:0:
320,192,50248,1,0,0:0:0:0:
448,192,50323,1,0,0:0:0:0:
64,192,50323,1,0,0:0:0:0:
192,192,50398,1,0,0:0:0:0:
320,192,50398,1,0,0:0:0:0:
448,192,50473,1,0,0:0:0:0:
64,192,50473,1,0,0:0:0:0:
192,192,50623,1,0,0:0:0:0:
320,192,50623,1,0,0:0:0:0:
448,192,50623,1,0,0:0:0:0:
64,192,50623,1,0,0:0:0:0:
320,192,50923,1,0,0:0:0:0:
448,192,50923,1,0,0:0:0:0:
192,192,50923,1,0,0:0:0:0:
192,192,51073,1,0,0:0:0:0:
448,192,51073,1,0,0:0:0:0:
320,192,51073,1,0,0:0:0:0:
64,192,51673,1,0,0:0:0:0:
192,192,51673,1,0,0:0:0:0:
448,192,51673,1,0,0:0:0:0:
320,192,51748,1,0,0:0:0:0:
192,192,51823,1,0,0:0:0:0:
448,192,51898,1,0,0:0:0:0:
320,192,51973,1,0,0:0:0:0:
64,192,51973,1,0,0:0:0:0:
192,192,51973,1,0,0:0:0:0:
448,192,52048,1,0,0:0:0:0:
320,192,52123,1,0,0:0:0:0:
192,192,52198,1,0,0:0:0:0:
64,192,52273,1,0,0:0:0:0:
320,192,52273,1,0,0:0:0:0:
448,192,52348,1,0,0:0:0:0:
192,192,52423,1,0,0:0:0:0:
320,192,52498,1,0,0:0:0:0:
192,192,52573,1,0,0:0:0:0:
64,192,52573,1,0,0:0:0:0:
448,192,52573,1,0,0:0:0:0:
320,192,52648,1,0,0:0:0:0:
192,192,52723,1,0,0:0:0:0:
448,192,52798,1,0,0:0:0:0:
320,192,52873,1,0,0:0:0:0:
64,192,52873,1,0,0:0:0:0:
192,192,52948,1,0,0:0:0:0:
320,192,53023,1,0,0:0:0:0:
448,192,53098,1,0,0:0:0:0:
64,192,53173,1,0,0:0:0:0:
192,192,53173,1,0,0:0:0:0:
320,192,53173,1,0,0:0:0:0:
448,192,53248,1,0,0:0:0:0:
192,192,53323,1,0,0:0:0:0:
64,192,53323,1,0,0:0:0:0:
448,192,53398,1,0,0:0:0:0:
192,192,53473,1,0,0:0:0:0:
320,192,53473,1,0,0:0:0:0:
64,192,53548,1,0,0:0:0:0:
448,192,53623,1,0,0:0:0:0:
320,192,53698,1,0,0:0:0:0:
64,192,53773,1,0,0:0:0:0:
448,192,53773,1,0,0:0:0:0:
192,192,53773,1,0,0:0:0:0:
320,192,53848,1,0,0:0:0:0:
192,192,53923,1,0,0:0:0:0:
448,192,53998,1,0,0:0:0:0:
320,192,54073,1,0,0:0:0:0:
192,192,54073,128,0,54373:0:0:0:0:
320,192,54223,1,0,0:0:0:0:
448,192,54223,1,0,0:0:0:0:
448,192,54373,1,0,0:0:0:0:
64,192,54373,1,0,0:0:0:0:
320,192,54373,128,0,54673:0:0:0:0:
448,192,54523,1,0,0:0:0:0:
192,192,54523,1,0,0:0:0:0:
448,192,54673,128,0,54973:0:0:0:0:
64,192,54673,1,0,0:0:0:0:
192,192,54823,1,0,0:0:0:0:
320,192,54823,1,0,0:0:0:0:
320,192,54973,1,0,0:0:0:0:
192,192,54973,128,0,55273:0:0:0:0:
64,192,54973,1,0,0:0:0:0:
448,192,55123,1,0,0:0:0:0:
320,192,55123,1,0,0:0:0:0:
320,192,55273,128,0,55573:0:0:0:0:
64,192,55273,1,0,0:0:0:0:
192,192,55423,1,0,0:0:0:0:
448,192,55423,1,0,0:0:0:0:
192,192,55573,1,0,0:0:0:0:
64,192,55573,1,0,0:0:0:0:
448,192,55573,1,0,0:0:0:0:
320,192,55648,1,0,0:0:0:0:
192,192,55723,1,0,0:0:0:0:
320,192,55798,1,0,0:0:0:0:
448,192,55873,1,0,0:0:0:0:
64,192,55873,1,0,0:0:0:0:
192,192,55948,1,0,0:0:0:0:
320,192,56023,1,0,0:0:0:0:
192,192,56098,1,0,0:0:0:0:
320,192,56173,1,0,0:0:0:0:
64,192,56173,1,0,0:0:0:0:
448,192,56173,1,0,0:0:0:0:
192,192,56248,1,0,0:0:0:0:
320,192,56323,1,0,0:0:0:0:
448,192,56323,1,0,0:0:0:0:
64,192,56398,1,0,0:0:0:0:
192,192,56398,1,0,0:0:0:0:
320,192,56473,1,0,0:0:0:0:
64,192,56473,1,0,0:0:0:0:
448,192,56473,1,0,0:0:0:0:
192,192,56548,1,0,0:0:0:0:
320,192,56623,1,0,0:0:0:0:
448,192,56698,1,0,0:0:0:0:
320,192,56773,1,0,0:0:0:0:
192,192,56773,1,0,0:0:0:0:
64,192,56773,1,0,0:0:0:0:
448,192,56848,1,0,0:0:0:0:
192,192,56923,1,0,0:0:0:0:
64,192,56998,1,0,0:0:0:0:
192,192,57073,1,0,0:0:0:0:
320,192,57073,1,0,0:0:0:0:
448,192,57148,1,0,0:0:0:0:
64,192,57223,1,0,0:0:0:0:
192,192,57298,1,0,0:0:0:0:
320,192,57373,1,0,0:0:0:0:
448,192,57373,1,0,0:0:0:0:
64,192,57373,1,0,0:0:0:0:
192,192,57448,1,0,0:0:0:0:
320,192,57523,1,0,0:0:0:0:
448,192,57598,1,0,0:0:0:0:
320,192,57673,1,0,0:0:0:0:
64,192,57673,1,0,0:0:0:0:
192,192,57748,1,0,0:0:0:0:
64,192,57823,1,0,0:0:0:0:
448,192,57898,1,0,0:0:0:0:
320,192,57973,1,0,0:0:0:0:
192,192,57973,1,0,0:0:0:0:
64,192,57973,1,0,0:0:0:0:
448,192,58048,1,0,0:0:0:0:
192,192,58123,1,0,0:0:0:0:
320,192,58198,1,0,0:0:0:0:
192,192,58273,1,0,0:0:0:0:
64,192,58273,1,0,0:0:0:0:
320,192,58348,1,0,0:0:0:0:
192,192,58423,1,0,0:0:0:0:
64,192,58498,1,0,0:0:0:0:
192,192,58573,1,0,0:0:0:0:
320,192,58573,1,0,0:0:0:0:
448,192,58573,1,0,0:0:0:0:
64,192,58648,1,0,0:0:0:0:
192,192,58723,1,0,0:0:0:0:
320,192,58798,1,0,0:0:0:0:
448,192,58873,1,0,0:0:0:0:
64,192,58873,1,0,0:0:0:0:
192,192,58948,1,0,0:0:0:0:
320,192,58948,1,0,0:0:0:0:
448,192,59023,1,0,0:0:0:0:
64,192,59023,1,0,0:0:0:0:
192,192,59098,1,0,0:0:0:0:
320,192,59098,1,0,0:0:0:0:
192,192,59173,1,0,0:0:0:0:
64,192,59173,1,0,0:0:0:0:
448,192,59173,1,0,0:0:0:0:
320,192,59248,1,0,0:0:0:0:
192,192,59323,1,0,0:0:0:0:
320,192,59398,1,0,0:0:0:0:
192,192,59473,1,0,0:0:0:0:
64,192,59473,1,0,0:0:0:0:
320,192,59548,1,0,0:0:0:0:
448,192,59548,1,0,0:0:0:0:
192,192,59623,1,0,0:0:0:0:
64,192,59623,1,0,0:0:0:0:
320,192,59698,1,0,0:0:0:0:
448,192,59698,1,0,0:0:0:0:
192,192,59773,1,0,0:0:0:0:
64,192,59773,1,0,0:0:0:0:
448,192,59773,1,0,0:0:0:0:
320,192,59848,1,0,0:0:0:0:
192,192,59923,1,0,0:0:0:0:
64,192,59923,1,0,0:0:0:0:
448,192,59998,1,0,0:0:0:0:
192,192,60073,1,0,0:0:0:0:
64,192,60073,1,0,0:0:0:0:
320,192,60073,128,0,60373:0:0:0:0:
448,192,60148,1,0,0:0:0:0:
64,192,60223,1,0,0:0:0:0:
192,192,60298,1,0,0:0:0:0:
64,192,60373,1,0,0:0:0:0:
448,192,60373,128,0,60673:0:0:0:0:
192,192,60448,1,0,0:0:0:0:
320,192,60523,1,0,0:0:0:0:
64,192,60598,1,0,0:0:0:0:
320,192,60673,1,0,0:0:0:0:
192,192,60673,128,0,60973:0:0:0:0:
64,192,60748,1,0,0:0:0:0:
320,192,60823,1,0,0:0:0:0:
448,192,60898,1,0,0:0:0:0:
320,192,60973,1,0,0:0:0:0:
64,192,60973,128,0,61273:0:0:0:0:
448,192,61048,1,0,0:0:0:0:
192,192,61123,1,0,0:0:0:0:
320,192,61198,1,0,0:0:0:0:
448,192,61273,1,0,0:0:0:0:
192,192,61273,1,0,0:0:0:0:
320,192,61348,1,0,0:0:0:0:
192,192,61423,1,0,0:0:0:0:
64,192,61498,1,0,0:0:0:0:
192,192,61573,1,0,0:0:0:0:
320,192,61573,1,0,0:0:0:0:
448,192,61573,1,0,0:0:0:0:
64,192,61648,1,0,0:0:0:0:
320,192,61723,1,0,0:0:0:0:
192,192,61798,1,0,0:0:0:0:
448,192,61873,1,0,0:0:0:0:
64,192,61873,1,0,0:0:0:0:
320,192,61948,1,0,0:0:0:0:
192,192,62023,1,0,0:0:0:0:
320,192,62098,1,0,0:0:0:0:
192,192,62173,1,0,0:0:0:0:
64,192,62173,1,0,0:0:0:0:
448,192,62173,1,0,0:0:0:0:
320,192,62248,1,0,0:0:0:0:
192,192,62323,1,0,0:0:0:0:
64,192,62398,1,0,0:0:0:0:
448,192,62473,1,0,0:0:0:0:
192,192,62473,1,0,0:0:0:0:
320,192,62548,1,0,0:0:0:0:
64,192,62623,1,0,0:0:0:0:
192,192,62698,1,0,0:0:0:0:
320,192,62773,1,0,0:0:0:0:
448,192,62773,1,0,0:0:0:0:
64,192,62773,1,0,0:0:0:0:
192,192,62848,1,0,0:0:0:0:
64,192,62923,1,0,0:0:0:0:
448,192,62923,1,0,0:0:0:0:
320,192,62998,1,0,0:0:0:0:
192,192,63073,1,0,0:0:0:0:
64,192,63073,1,0,0:0:0:0:
320,192,63148,1,0,0:0:0:0:
448,192,63223,1,0,0:0:0:0:
320,192,63298,1,0,0:0:0:0:
448,192,63373,1,0,0:0:0:0:
192,192,63373,1,0,0:0:0:0:
64,192,63373,1,0,0:0:0:0:
320,192,63448,1,0,0:0:0:0:
192,192,63523,1,0,0:0:0:0:
64,192,63598,1,0,0:0:0:0:
448,192,63673,1,0,0:0:0:0:
192,192,63673,128,0,63973:0:0:0:0:
320,192,63823,1,0,0:0:0:0:
64,192,63823,1,0,0:0:0:0:
448,192,63973,1,0,0:0:0:0:
64,192,63973,1,0,0:0:0:0:
320,192,63973,128,0,64273:0:0:0:0:
192,192,64123,1,0,0:0:0:0:
64,192,64123,1,0,0:0:0:0:
192,192,64273,1,0,0:0:0:0:
448,192,64273,128,0,64573:0:0:0:0:
64,192,64423,1,0,0:0:0:0:
192,192,64423,1,0,0:0:0:0:
192,192,64573,1,0,0:0:0:0:
320,192,64573,1,0,0:0:0:0:
64,192,64573,128,0,64873:0:0:0:0:
448,192,64723,1,0,0:0:0:0:
320,192,64723,1,0,0:0:0:0:
320,192,64873,1,0,0:0:0:0:
448,192,64873,1,0,0:0:0:0:
192,192,64873,1,0,0:0:0:0:
64,192,64948,1,0,0:0:0:0:
192,192,65023,1,0,0:0:0:0:
320,192,65098,1,0,0:0:0:0:
192,192,65173,1,0,0:0:0:0:
64,192,65173,1,0,0:0:0:0:
448,192,65173,1,0,0:0:0:0:
320,192,65248,1,0,0:0:0:0:
64,192,65323,1,0,0:0:0:0:
192,192,65398,1,0,0:0:0:0:
320,192,65473,1,0,0:0:0:0:
448,192,65473,1,0,0:0:0:0:
192,192,65548,1,0,0:0:0:0:
64,192,65623,1,0,0:0:0:0:
320,192,65698,1,0,0:0:0:0:
448,192,65773,1,0,0:0:0:0:
192,192,65773,1,0,0:0:0:0:
64,192,65773,1,0,0:0:0:0:
320,192,65848,1,0,0:0:0:0:
192,192,65923,1,0,0:0:0:0:
64,192,65923,1,0,0:0:0:0:
448,192,65998,1,0,0:0:0:0:
320,192,65998,1,0,0:0:0:0:
448,192,66073,1,0,0:0:0:0:
64,192,66073,1,0,0:0:0:0:
192,192,66073,1,0,0:0:0:0:
320,192,66148,1,0,0:0:0:0:
192,192,66223,1,0,0:0:0:0:
64,192,66298,1,0,0:0:0:0:
192,192,66373,1,0,0:0:0:0:
320,192,66373,1,0,0:0:0:0:
448,192,66373,1,0,0:0:0:0:
64,192,66448,1,0,0:0:0:0:
448,192,66523,1,0,0:0:0:0:
320,192,66598,1,0,0:0:0:0:
192,192,66673,1,0,0:0:0:0:
448,192,66673,1,0,0:0:0:0:
64,192,66748,1,0,0:0:0:0:
320,192,66823,1,0,0:0:0:0:
192,192,66898,1,0,0:0:0:0:
320,192,66973,1,0,0:0:0:0:
448,192,66973,1,0,0:0:0:0:
64,192,66973,1,0,0:0:0:0:
192,192,67048,1,0,0:0:0:0:
320,192,67123,1,0,0:0:0:0:
448,192,67198,1,0,0:0:0:0:
320,192,67273,1,0,0:0:0:0:
192,192,67273,1,0,0:0:0:0:
64,192,67273,1,0,0:0:0:0:
448,192,67348,1,0,0:0:0:0:
64,192,67423,1,0,0:0:0:0:
192,192,67498,1,0,0:0:0:0:
320,192,67573,1,0,0:0:0:0:
448,192,67573,1,0,0:0:0:0:
64,192,67573,1,0,0:0:0:0:
192,192,67648,1,0,0:0:0:0:
320,192,67723,1,0,0:0:0:0:
448,192,67798,1,0,0:0:0:0:
320,192,67873,1,0,0:0:0:0:
192,192,67873,1,0,0:0:0:0:
64,192,67948,1,0,0:0:0:0:
192,192,68023,1,0,0:0:0:0:
320,192,68098,1,0,0:0:0:0:
448,192,68173,1,0,0:0:0:0:
192,192,68173,1,0,0:0:0:0:
64,192,68173,1,0,0:0:0:0:
320,192,68248,1,0,0:0:0:0:
64,192,68323,1,0,0:0:0:0:
192,192,68398,1,0,0:0:0:0:
320,192,68473,1,0,0:0:0:0:
448,192,68473,1,0,0:0:0:0:
64,192,68473,1,0,0:0:0:0:
192,192,68548,1,0,0:0:0:0:
448,192,68623,1,0,0:0:0:0:
64,192,68623,1,0,0:0:0:0:
320,192,68698,1,0,0:0:0:0:
192,192,68773,1,0,0:0:0:0:
64,192,68773,1,0,0:0:0:0:
448,192,68848,1,0,0:0:0:0:
320,192,68923,1,0,0:0:0:0:
192,192,68923,1,0,0:0:0:0:
64,192,68998,1,0,0:0:0:0:
192,192,69073,1,0,0:0:0:0:
320,192,69073,1,0,0:0:0:0:
448,192,69073,1,0,0:0:0:0:
64,192,69148,1,0,0:0:0:0:
448,192,69223,1,0,0:0:0:0:
192,192,69223,1,0,0:0:0:0:
320,192,69298,1,0,0:0:0:0:
448,192,69373,1,0,0:0:0:0:
64,192,69373,1,0,0:0:0:0:
192,192,69448,1,0,0:0:0:0:
320,192,69523,1,0,0:0:0:0:
64,192,69523,1,0,0:0:0:0:
448,192,69598,1,0,0:0:0:0:
320,192,69673,1,0,0:0:0:0:
192,192,69673,1,0,0:0:0:0:
64,192,69673,1,0,0:0:0:0:
448,192,69748,1,0,0:0:0:0:
320,192,69823,1,0,0:0:0:0:
192,192,69823,1,0,0:0:0:0:
64,192,69898,1,0,0:0:0:0:
192,192,69973,1,0,0:0:0:0:
448,192,69973,1,0,0:0:0:0:
320,192,70048,1,0,0:0:0:0:
192,192,70123,1,0,0:0:0:0:
64,192,70123,1,0,0:0:0:0:
320,192,70198,1,0,0:0:0:0:
448,192,70273,1,0,0:0:0:0:
192,192,70273,1,0,0:0:0:0:
64,192,70273,1,0,0:0:0:0:
320,192,70348,1,0,0:0:0:0:
448,192,70423,1,0,0:0:0:0:
64,192,70423,1,0,0:0:0:0:
192,192,70498,1,0,0:0:0:0:
320,192,70498,1,0,0:0:0:0:
448,192,70573,1,0,0:0:0:0:
64,192,70573,1,0,0:0:0:0:
192,192,70648,1,0,0:0:0:0:
320,192,70723,1,0,0:0:0:0:
448,192,70723,1,0,0:0:0:0:
192,192,70798,1,0,0:0:0:0:
64,192,70798,1,0,0:0:0:0:
320,192,70873,1,0,0:0:0:0:
448,192,70873,1,0,0:0:0:0:
64,192,70873,1,0,0:0:0:0:
192,192,71023,1,0,0:0:0:0:
448,192,71023,1,0,0:0:0:0:
320,192,71173,1,0,0:0:0:0:
64,192,71173,1,0,0:0:0:0:
192,192,71173,1,0,0:0:0:0:
448,192,71323,1,0,0:0:0:0:
64,192,71323,1,0,0:0:0:0:
192,192,71473,1,0,0:0:0:0:
320,192,71473,1,0,0:0:0:0:
320,192,71623,1,0,0:0:0:0:
448,192,71623,1,0,0:0:0:0:
192,192,71773,1,0,0:0:0:0:
64,192,71773,1,0,0:0:0:0:
448,192,71773,1,0,0:0:0:0:
320,192,71923,1,0,0:0:0:0:
192,192,71923,1,0,0:0:0:0:
448,192,72073,1,0,0:0:0:0:
64,192,72073,1,0,0:0:0:0:
320,192,72223,1,0,0:0:0:0:
192,192,72223,1,0,0:0:0:0:
320,192,72373,1,0,0:0:0:0:
448,192,72373,1,0,0:0:0:0:
64,192,72373,1,0,0:0:0:0:
192,192,72523,1,0,0:0:0:0:
448,192,72523,1,0,0:0:0:0:
320,192,72673,1,0,0:0:0:0:
64,192,72673,1,0,0:0:0:0:
64,192,72823,1,0,0:0:0:0:
448,192,72823,1,0,0:0:0:0:
192,192,72973,1,0,0:0:0:0:
320,192,72973,1,0,0:0:0:0:
448,192,72973,1,0,0:0:0:0:
64,192,73123,1,0,0:0:0:0:
192,192,73123,1,0,0:0:0:0:
320,192,73198,1,0,0:0:0:0:
448,192,73273,1,0,0:0:0:0:
64,192,73273,1,0,0:0:0:0:
192,192,73423,1,0,0:0:0:0:
320,192,73423,1,0,0:0:0:0:
192,192,73573,1,0,0:0:0:0:
64,192,73573,1,0,0:0:0:0:
448,192,73573,1,0,0:0:0:0:
320,192,73723,1,0,0:0:0:0:
448,192,73723,1,0,0:0:0:0:
64,192,73798,1,0,0:0:0:0:
192,192,73873,1,0,0:0:0:0:
320,192,73873,1,0,0:0:0:0:
448,192,74023,1,0,0:0:0:0:
64,192,74023,1,0,0:0:0:0:
320,192,74173,1,0,0:0:0:0:
192,192,74173,1,0,0:0:0:0:
64,192,74173,1,0,0:0:0:0:
448,192,74323,1,0,0:0:0:0:
320,192,74323,1,0,0:0:0:0:
192,192,74473,1,0,0:0:0:0:
64,192,74473,1,0,0:0:0:0:
192,192,74623,1,0,0:0:0:0:
320,192,74623,1,0,0:0:0:0:
320,192,74773,1,0,0:0:0:0:
448,192,74773,1,0,0:0:0:0:
64,192,74773,1,0,0:0:0:0:
192,192,74923,1,0,0:0:0:0:
448,192,74923,1,0,0:0:0:0:
320,192,75073,1,0,0:0:0:0:
64,192,75073,1,0,0:0:0:0:
448,192,75148,1,0,0:0:0:0:
320,192,75223,1,0,0:0:0:0:
192,192,75223,1,0,0:0:0:0:
64,192,75373,1,0,0:0:0:0:
448,192,75373,1,0,0:0:0:0:
320,192,75448,1,0,0:0:0:0:
192,192,75448,1,0,0:0:0:0:
64,192,75523,1,0,0:0:0:0:
448,192,75523,1,0,0:0:0:0:
320,192,75598,1,0,0:0:0:0:
192,192,75598,1,0,0:0:0:0:
320,192,75673,1,0,0:0:0:0:
448,192,75673,1,0,0:0:0:0:
64,192,75673,1,0,0:0:0:0:
192,192,75823,1,0,0:0:0:0:
320,192,75823,1,0,0:0:0:0:
64,192,75973,1,0,0:0:0:0:
192,192,75973,1,0,0:0:0:0:
448,192,75973,1,0,0:0:0:0:
320,192,76123,1,0,0:0:0:0:
64,192,76123,1,0,0:0:0:0:
192,192,76273,1,0,0:0:0:0:
448,192,76273,1,0,0:0:0:0:
448,192,76423,1,0,0:0:0:0:
64,192,76423,1,0,0:0:0:0:
192,192,76573,1,0,0:0:0:0:
320,192,76573,1,0,0:0:0:0:
448,192,76573,1,0,0:0:0:0:
192,192,76723,1,0,0:0:0:0:
64,192,76723,1,0,0:0:0:0:
320,192,76873,1,0,0:0:0:0:
448,192,76873,1,0,0:0:0:0:
64,192,77023,1,0,0:0:0:0:
448,192,77023,1,0,0:0:0:0:
320,192,77173,1,0,0:0:0:0:
64,192,77173,1,0,0:0:0:0:
192,192,77173,1,0,0:0:0:0:
192,192,77323,1,0,0:0:0:0:
448,192,77323,1,0,0:0:0:0:
320,192,77398,1,0,0:0:0:0:
448,192,77473,1,0,0:0:0:0:
64,192,77473,1,0,0:0:0:0:
192,192,77623,1,0,0:0:0:0:
320,192,77623,1,0,0:0:0:0:
192,192,77773,1,0,0:0:0:0:
64,192,77773,1,0,0:0:0:0:
320,192,77923,1,0,0:0:0:0:
448,192,77923,1,0,0:0:0:0:
64,192,78073,128,0,79273:0:0:0:0:
192,192,78073,1,0,0:0:0:0:
320,192,78223,1,0,0:0:0:0:
448,192,78223,1,0,0:0:0:0:
320,192,78373,1,0,0:0:0:0:
192,192,78373,1,0,0:0:0:0:
192,192,78523,1,0,0:0:0:0:
448,192,78523,1,0,0:0:0:0:
320,192,78673,1,0,0:0:0:0:
448,192,78673,1,0,0:0:0:0:
192,192,78823,1,0,0:0:0:0:
320,192,78823,1,0,0:0:0:0:
192,192,78973,1,0,0:0:0:0:
320,192,78973,1,0,0:0:0:0:
448,192,78973,1,0,0:0:0:0:
448,192,79123,1,0,0:0:0:0:
320,192,79123,1,0,0:0:0:0:
192,192,79273,128,0,80473:0:0:0:0:
448,192,79273,1,0,0:0:0:0:
320,192,79423,1,0,0:0:0:0:
64,192,79423,1,0,0:0:0:0:
448,192,79573,1,0,0:0:0:0:
320,192,79573,1,0,0:0:0:0:
64,192,79573,1,0,0:0:0:0:
448,192,79723,1,0,0:0:0:0:
320,192,79723,1,0,0:0:0:0:
64,192,79873,1,0,0:0:0:0:
448,192,79873,1,0,0:0:0:0:
320,192,80023,1,0,0:0:0:0:
448,192,80023,1,0,0:0:0:0:
64,192,80098,1,0,0:0:0:0:
448,192,80173,1,0,0:0:0:0:
320,192,80248,1,0,0:0:0:0:
64,192,80323,1,0,0:0:0:0:
448,192,80398,1,0,0:0:0:0:
320,192,80473,1,0,0:0:0:0:
64,192,80473,1,0,0:0:0:0:
448,192,81673,128,0,81973:0:0:0:0:
192,192,81823,1,0,0:0:0:0:
320,192,81973,128,0,82273:0:0:0:0:
64,192,82123,1,0,0:0:0:0:
192,192,82273,128,0,82573:0:0:0:0:
320,192,82423,1,0,0:0:0:0:
64,192,82573,128,0,82873:0:0:0:0:
192,192,82723,1,0,0:0:0:0:
448,192,82873,128,0,83173:0:0:0:0:
192,192,83473,128,0,83773:0:0:0:0:
320,192,83773,128,0,84073:0:0:0:0:
64,192,84073,128,0,84373:0:0:0:0:
448,192,84223,1,0,0:0:0:0:
192,192,84373,128,0,84673:0:0:0:0:
320,192,84523,1,0,0:0:0:0:
448,192,84673,128,0,84973:0:0:0:0:
192,192,84973,128,0,85273:0:0:0:0:
320,192,85273,128,0,85573:0:0:0:0:
448,192,85723,1,0,0:0:0:0:
320,192,85873,1,0,0:0:0:0:
192,192,86023,1,0,0:0:0:0:
64,192,86173,1,0,0:0:0:0:
320,192,86323,1,0,0:0:0:0:
192,192,86473,128,0,86773:0:0:0:0:
64,192,86773,128,0,87073:0:0:0:0:
448,192,86923,1,0,0:0:0:0:
192,192,87073,128,0,87373:0:0:0:0:
320,192,87223,1,0,0:0:0:0:
448,192,87373,128,0,87673:0:0:0:0:
64,192,87523,1,0,0:0:0:0:
320,192,87673,128,0,87973:0:0:0:0:
192,192,87823,1,0,0:0:0:0:
64,192,87973,128,0,88273:0:0:0:0:
448,192,88123,1,0,0:0:0:0:
320,192,88273,128,0,88573:0:0:0:0:
192,192,88423,1,0,0:0:0:0:
64,192,88573,1,0,0:0:0:0:
448,192,88723,1,0,0:0:0:0:
192,192,88873,128,0,89173:0:0:0:0:
320,192,89173,128,0,89473:0:0:0:0:
448,192,89473,128,0,89773:0:0:0:0:
192,192,89773,1,0,0:0:0:0:
64,192,89773,1,0,0:0:0:0:
192,192,89923,1,0,0:0:0:0:
320,192,89923,1,0,0:0:0:0:
320,192,90073,1,0,0:0:0:0:
448,192,90073,1,0,0:0:0:0:
64,192,90223,1,0,0:0:0:0:
448,192,90223,1,0,0:0:0:0:
320,192,90373,1,0,0:0:0:0:
64,192,90373,1,0,0:0:0:0:
192,192,90523,1,0,0:0:0:0:
448,192,90523,1,0,0:0:0:0:
64,192,91273,1,0,0:0:0:0:
320,192,91273,1,0,0:0:0:0:
448,192,91273,1,0,0:0:0:0:
192,192,91423,1,0,0:0:0:0:
320,192,91423,1,0,0:0:0:0:
192,192,91573,1,0,0:0:0:0:
64,192,91573,1,0,0:0:0:0:
448,192,91573,1,0,0:0:0:0:
320,192,91723,1,0,0:0:0:0:
64,192,91723,1,0,0:0:0:0:
192,192,91873,1,0,0:0:0:0:
320,192,91873,1,0,0:0:0:0:
192,192,92023,1,0,0:0:0:0:
448,192,92023,1,0,0:0:0:0:
320,192,92173,1,0,0:0:0:0:
448,192,92173,1,0,0:0:0:0:
64,192,92173,1,0,0:0:0:0:
192,192,92323,1,0,0:0:0:0:
64,192,92323,1,0,0:0:0:0:
320,192,92473,1,0,0:0:0:0:
448,192,92473,1,0,0:0:0:0:
320,192,92623,1,0,0:0:0:0:
192,192,92623,1,0,0:0:0:0:
192,192,92773,1,0,0:0:0:0:
64,192,92773,1,0,0:0:0:0:
448,192,92773,1,0,0:0:0:0:
192,192,92923,1,0,0:0:0:0:
320,192,92923,1,0,0:0:0:0:
320,192,93073,1,0,0:0:0:0:
448,192,93073,1,0,0:0:0:0:
192,192,93223,1,0,0:0:0:0:
64,192,93223,1,0,0:0:0:0:
192,192,93373,1,0,0:0:0:0:
320,192,93373,1,0,0:0:0:0:
448,192,93373,1,0,0:0:0:0:
64,192,93523,1,0,0:0:0:0:
448,192,93523,1,0,0:0:0:0:
192,192,93673,1,0,0:0:0:0:
448,192,93673,1,0,0:0:0:0:
320,192,93823,1,0,0:0:0:0:
192,192,93823,1,0,0:0:0:0:
320,192,93973,1,0,0:0:0:0:
64,192,93973,1,0,0:0:0:0:
448,192,93973,1,0,0:0:0:0:
64,192,94123,1,0,0:0:0:0:
192,192,94123,1,0,0:0:0:0:
192,192,94273,1,0,0:0:0:0:
448,192,94273,1,0,0:0:0:0:
320,192,94423,1,0,0:0:0:0:
448,192,94423,1,0,0:0:0:0:
192,192,94573,1,0,0:0:0:0:
64,192,94573,1,0,0:0:0:0:
320,192,94573,1,0,0:0:0:0:
448,192,94723,1,0,0:0:0:0:
64,192,94723,1,0,0:0:0:0:
320,192,94873,1,0,0:0:0:0:
192,192,94873,1,0,0:0:0:0:
192,192,95023,1,0,0:0:0:0:
448,192,95023,1,0,0:0:0:0:
448,192,95173,1,0,0:0:0:0:
64,192,95173,1,0,0:0:0:0:
320,192,95173,1,0,0:0:0:0:
192,192,95323,1,0,0:0:0:0:
64,192,95323,1,0,0:0:0:0:
320,192,95473,1,0,0:0:0:0:
448,192,95473,1,0,0:0:0:0:
192,192,95623,1,0,0:0:0:0:
320,192,95623,1,0,0:0:0:0:
64,192,95773,1,0,0:0:0:0:
448,192,95773,1,0,0:0:0:0:
192,192,95773,1,0,0:0:0:0:
320,192,95923,1,0,0:0:0:0:
64,192,95923,1,0,0:0:0:0:
320,192,96073,1,0,0:0:0:0:
448,192,96073,1,0,0:0:0:0:
64,192,96223,1,0,0:0:0:0:
192,192,96223,1,0,0:0:0:0:
320,192,96373,1,0,0:0:0:0:
448,192,96373,1,0,0:0:0:0:
192,192,96373,1,0,0:0:0:0:
64,192,96523,1,0,0:0:0:0:
448,192,96523,1,0,0:0:0:0:
320,192,96673,1,0,0:0:0:0:
64,192,96673,1,0,0:0:0:0:
320,192,96823,1,0,0:0:0:0:
192,192,96823,1,0,0:0:0:0:
192,192,96973,1,0,0:0:0:0:
64,192,96973,1,0,0:0:0:0:
448,192,96973,1,0,0:0:0:0:
320,192,97123,1,0,0:0:0:0:
64,192,97123,1,0,0:0:0:0:
192,192,97273,1,0,0:0:0:0:
320,192,97273,1,0,0:0:0:0:
448,192,97423,1,0,0:0:0:0:
192,192,97423,1,0,0:0:0:0:
320,192,97573,1,0,0:0:0:0:
448,192,97573,1,0,0:0:0:0:
64,192,97573,1,0,0:0:0:0:
192,192,97723,1,0,0:0:0:0:
320,192,97723,1,0,0:0:0:0:
192,192,97873,1,0,0:0:0:0:
64,192,97873,1,0,0:0:0:0:
64,192,98023,1,0,0:0:0:0:
448,192,98023,1,0,0:0:0:0:
448,192,98173,1,0,0:0:0:0:
320,192,98173,1,0,0:0:0:0:
192,192,98173,1,0,0:0:0:0:
64,192,98323,1,0,0:0:0:0:
320,192,98323,1,0,0:0:0:0:
192,192,98473,1,0,0:0:0:0:
64,192,98473,1,0,0:0:0:0:
192,192,98623,1,0,0:0:0:0:
448,192,98623,1,0,0:0:0:0:
448,192,98773,1,0,0:0:0:0:
320,192,98773,1,0,0:0:0:0:
64,192,98773,1,0,0:0:0:0:
192,192,98923,1,0,0:0:0:0:
320,192,98923,1,0,0:0:0:0:
64,192,99073,1,0,0:0:0:0:
192,192,99073,1,0,0:0:0:0:
64,192,99223,1,0,0:0:0:0:
448,192,99223,1,0,0:0:0:0:
320,192,99373,1,0,0:0:0:0:
448,192,99373,1,0,0:0:0:0:
192,192,99373,1,0,0:0:0:0:
64,192,99523,1,0,0:0:0:0:
320,192,99523,1,0,0:0:0:0:
448,192,99673,1,0,0:0:0:0:
64,192,99673,1,0,0:0:0:0:
320,192,99823,1,0,0:0:0:0:
192,192,99823,1,0,0:0:0:0:
448,192,99973,1,0,0:0:0:0:
192,192,99973,1,0,0:0:0:0:
64,192,99973,1,0,0:0:0:0:
320,192,100123,1,0,0:0:0:0:
64,192,100123,1,0,0:0:0:0:
320,192,100273,1,0,0:0:0:0:
448,192,100273,1,0,0:0:0:0:
192,192,100423,1,0,0:0:0:0:
64,192,100423,1,0,0:0:0:0:
320,192,100498,1,0,0:0:0:0:
448,192,100498,1,0,0:0:0:0:
192,192,100573,1,0,0:0:0:0:
64,192,100573,1,0,0:0:0:0:
320,192,100723,1,0,0:0:0:0:
448,192,100723,1,0,0:0:0:0:
192,192,100798,1,0,0:0:0:0:
64,192,100873,1,0,0:0:0:0:
320,192,100873,1,0,0:0:0:0:
448,192,100873,1,0,0:0:0:0:
192,192,101173,1,0,0:0:0:0:
64,192,101173,1,0,0:0:0:0:
448,192,101173,1,0,0:0:0:0:
320,192,101473,1,0,0:0:0:0:
448,192,101473,1,0,0:0:0:0:
192,192,101473,1,0,0:0:0:0:
64,192,101773,1,0,0:0:0:0:
320,192,101773,1,0,0:0:0:0:
448,192,101773,1,0,0:0:0:0:
320,192,102073,1,0,0:0:0:0:
192,192,102073,1,0,0:0:0:0:
64,192,102073,1,0,0:0:0:0:
448,192,102073,1,0,0:0:0:0:
192,192,102373,1,0,0:0:0:0:
64,192,102373,1,0,0:0:0:0:
448,192,102373,1,0,0:0:0:0:
320,192,102673,1,0,0:0:0:0:
192,192,102673,1,0,0:0:0:0:
64,192,102673,1,0,0:0:0:0:
320,192,102973,1,0,0:0:0:0:
448,192,102973,1,0,0:0:0:0:
64,192,102973,1,0,0:0:0:0:
192,192,103273,1,0,0:0:0:0:
320,192,103273,1,0,0:0:0:0:
448,192,103273,1,0,0:0:0:0:
64,192,103273,1,0,0:0:0:0:
192,192,103573,1,0,0:0:0:0:
64,192,103573,1,0,0:0:0:0:
448,192,103573,1,0,0:0:0:0:
320,192,103873,1,0,0:0:0:0:
192,192,103873,1,0,0:0:0:0:
64,192,103873,1,0,0:0:0:0:
320,192,104173,1,0,0:0:0:0:
448,192,104173,1,0,0:0:0:0:
64,192,104173,1,0,0:0:0:0:
64,192,104473,1,0,0:0:0:0:
192,192,104473,1,0,0:0:0:0:
320,192,104473,1,0,0:0:0:0:
448,192,104473,1,0,0:0:0:0:
192,192,104773,1,0,0:0:0:0:
64,192,104773,1,0,0:0:0:0:
320,192,104773,1,0,0:0:0:0:
448,192,105073,1,0,0:0:0:0:
320,192,105073,1,0,0:0:0:0:
64,192,105073,1,0,0:0:0:0:
320,192,105373,1,0,0:0:0:0:
192,192,105373,1,0,0:0:0:0:
448,192,105373,1,0,0:0:0:0:
64,192,105673,1,0,0:0:0:0:
192,192,105673,1,0,0:0:0:0:
320,192,105673,1,0,0:0:0:0:
448,192,105673,1,0,0:0:0:0:
192,192,105973,1,0,0:0:0:0:
64,192,105973,1,0,0:0:0:0:
448,192,105973,1,0,0:0:0:0:
320,192,106273,1,0,0:0:0:0:
192,192,106273,1,0,0:0:0:0:
64,192,106273,1,0,0:0:0:0:
320,192,106573,1,0,0:0:0:0:
448,192,106573,1,0,0:0:0:0:
64,192,106573,1,0,0:0:0:0:
64,192,106873,1,0,0:0:0:0:
192,192,106873,1,0,0:0:0:0:
320,192,106873,1,0,0:0:0:0:
448,192,106873,1,0,0:0:0:0:
192,192,107173,1,0,0:0:0:0:
64,192,107173,1,0,0:0:0:0:
320,192,107173,1,0,0:0:0:0:
448,192,107473,1,0,0:0:0:0:
320,192,107473,1,0,0:0:0:0:
64,192,107473,1,0,0:0:0:0:
192,192,107773,1,0,0:0:0:0:
320,192,107773,1,0,0:0:0:0:
448,192,107773,1,0,0:0:0:0:
64,192,108073,1,0,0:0:0:0:
192,192,108073,1,0,0:0:0:0:
320,192,108073,1,0,0:0:0:0:
448,192,108073,1,0,0:0:0:0:
192,192,108373,1,0,0:0:0:0:
64,192,108373,1,0,0:0:0:0:
448,192,108373,1,0,0:0:0:0:
320,192,108673,1,0,0:0:0:0:
192,192,108673,1,0,0:0:0:0:
64,192,108673,1,0,0:0:0:0:
320,192,108973,1,0,0:0:0:0:
448,192,108973,1,0,0:0:0:0:
64,192,108973,1,0,0:0:0:0:
64,192,109273,1,0,0:0:0:0:
192,192,109273,1,0,0:0:0:0:
320,192,109273,1,0,0:0:0:0:
448,192,109273,1,0,0:0:0:0:
192,192,109573,1,0,0:0:0:0:
320,192,109573,1,0,0:0:0:0:
448,192,109573,1,0,0:0:0:0:
448,192,109873,128,0,110098:0:0:0:0:
320,192,109873,128,0,110098:0:0:0:0:
192,192,109873,128,0,110098:0:0:0:0:
64,192,109873,128,0,110098:0:0:0:0:
448,192,110173,128,0,110398:0:0:0:0:
320,192,110173,128,0,110398:0:0:0:0:
192,192,110173,128,0,110398:0:0:0:0:
64,192,110173,128,0,110398:0:0:0:0:
64,192,110473,1,0,0:0:0:0:
192,192,110473,1,0,0:0:0:0:
320,192,110473,1,0,0:0:0:0:
448,192,110473,1,0,0:0:0:0:
192,192,110623,1,0,0:0:0:0:
320,192,110623,1,0,0:0:0:0:
448,192,110773,1,0,0:0:0:0:
320,192,110773,1,0,0:0:0:0:
64,192,110773,1,0,0:0:0:0:
192,192,110923,1,0,0:0:0:0:
64,192,110923,1,0,0:0:0:0:
448,192,111073,1,0,0:0:0:0:
192,192,111073,1,0,0:0:0:0:
320,192,111223,1,0,0:0:0:0:
448,192,111223,1,0,0:0:0:0:
64,192,111373,1,0,0:0:0:0:
320,192,111373,1,0,0:0:0:0:
192,192,111373,1,0,0:0:0:0:
192,192,111523,1,0,0:0:0:0:
448,192,111523,1,0,0:0:0:0:
320,192,111673,1,0,0:0:0:0:
448,192,111673,1,0,0:0:0:0:
64,192,111823,1,0,0:0:0:0:
192,192,111823,1,0,0:0:0:0:
192,192,111973,1,0,0:0:0:0:
448,192,111973,1,0,0:0:0:0:
320,192,111973,1,0,0:0:0:0:
64,192,112123,1,0,0:0:0:0:
320,192,112123,1,0,0:0:0:0:
448,192,112273,1,0,0:0:0:0:
192,192,112273,1,0,0:0:0:0:
320,192,112423,1,0,0:0:0:0:
192,192,112423,1,0,0:0:0:0:
320,192,112573,1,0,0:0:0:0:
448,192,112573,1,0,0:0:0:0:
64,192,112573,1,0,0:0:0:0:
192,192,112723,1,0,0:0:0:0:
64,192,112723,1,0,0:0:0:0:
192,192,112873,1,0,0:0:0:0:
448,192,112873,1,0,0:0:0:0:
320,192,113023,1,0,0:0:0:0:
64,192,113023,1,0,0:0:0:0:
192,192,113173,1,0,0:0:0:0:
64,192,113173,1,0,0:0:0:0:
448,192,113173,1,0,0:0:0:0:
320,192,113323,1,0,0:0:0:0:
448,192,113323,1,0,0:0:0:0:
320,192,113473,1,0,0:0:0:0:
64,192,113473,1,0,0:0:0:0:
192,192,113623,1,0,0:0:0:0:
64,192,113623,1,0,0:0:0:0:
192,192,113773,1,0,0:0:0:0:
320,192,113773,1,0,0:0:0:0:
448,192,113773,1,0,0:0:0:0:
64,192,113923,1,0,0:0:0:0:
448,192,113923,1,0,0:0:0:0:
320,192,114073,1,0,0:0:0:0:
192,192,114073,1,0,0:0:0:0:
320,192,114223,1,0,0:0:0:0:
64,192,114223,1,0,0:0:0:0:
192,192,114373,1,0,0:0:0:0:
64,192,114373,1,0,0:0:0:0:
448,192,114373,1,0,0:0:0:0:
320,192,114523,1,0,0:0:0:0:
448,192,114523,1,0,0:0:0:0:
192,192,114673,1,0,0:0:0:0:
320,192,114673,1,0,0:0:0:0:
192,192,114823,1,0,0:0:0:0:
64,192,114823,1,0,0:0:0:0:
320,192,114898,1,0,0:0:0:0:
448,192,114898,1,0,0:0:0:0:
448,192,114973,1,0,0:0:0:0:
64,192,114973,1,0,0:0:0:0:
192,192,114973,1,0,0:0:0:0:
320,192,115048,1,0,0:0:0:0:
448,192,115123,1,0,0:0:0:0:
64,192,115123,1,0,0:0:0:0:
192,192,115198,1,0,0:0:0:0:
320,192,115273,1,0,0:0:0:0:
448,192,115273,1,0,0:0:0:0:
64,192,115273,1,0,0:0:0:0:
192,192,115573,5,0,0:0:0:0:
320,192,115573,1,0,0:0:0:0:
448,192,115573,1,0,0:0:0:0:
192,192,115873,1,0,0:0:0:0:
64,192,115873,1,0,0:0:0:0:
448,192,115873,1,0,0:0:0:0:
320,192,116173,1,0,0:0:0:0:
448,192,116173,1,0,0:0:0:0:
192,192,116173,1,0,0:0:0:0:
64,192,116473,5,0,0:0:0:0:
448,192,116473,1,0,0:0:0:0:
320,192,116548,1,0,0:0:0:0:
64,192,116623,1,0,0:0:0:0:
448,192,116623,1,0,0:0:0:0:
192,192,116698,1,0,0:0:0:0:
320,192,116773,1,0,0:0:0:0:
448,192,116773,1,0,0:0:0:0:
192,192,116848,1,0,0:0:0:0:
64,192,116923,1,0,0:0:0:0:
320,192,116923,1,0,0:0:0:0:
448,192,116998,1,0,0:0:0:0:
192,192,117073,1,0,0:0:0:0:
320,192,117073,1,0,0:0:0:0:
64,192,117148,1,0,0:0:0:0:
192,192,117223,1,0,0:0:0:0:
448,192,117223,1,0,0:0:0:0:
320,192,117298,1,0,0:0:0:0:
448,192,117373,1,0,0:0:0:0:
64,192,117373,1,0,0:0:0:0:
192,192,117448,1,0,0:0:0:0:
320,192,117523,1,0,0:0:0:0:
64,192,117523,1,0,0:0:0:0:
448,192,117598,1,0,0:0:0:0:
320,192,117673,1,0,0:0:0:0:
64,192,117673,1,0,0:0:0:0:
192,192,117673,1,0,0:0:0:0:
448,192,117823,1,0,0:0:0:0:
192,192,117973,1,0,0:0:0:0:
320,192,117973,1,0,0:0:0:0:
448,192,118123,1,0,0:0:0:0:
64,192,118123,1,0,0:0:0:0:
192,192,118198,1,0,0:0:0:0:
320,192,118198,1,0,0:0:0:0:
448,192,118273,1,0,0:0:0:0:
64,192,118273,1,0,0:0:0:0:
320,192,118348,1,0,0:0:0:0:
192,192,118348,1,0,0:0:0:0:
64,192,118423,1,0,0:0:0:0:
448,192,118423,1,0,0:0:0:0:
320,192,118498,1,0,0:0:0:0:
192,192,118573,1,0,0:0:0:0:
64,192,118573,1,0,0:0:0:0:
320,192,118648,1,0,0:0:0:0:
448,192,118648,1,0,0:0:0:0:
192,192,118723,1,0,0:0:0:0:
64,192,118723,1,0,0:0:0:0:
320,192,118798,1,0,0:0:0:0:
448,192,118798,1,0,0:0:0:0:
192,192,118873,1,0,0:0:0:0:
64,192,118873,1,0,0:0:0:0:
64,192,119023,1,0,0:0:0:0:
192,192,119023,1,0,0:0:0:0:
320,192,119023,1,0,0:0:0:0:
448,192,119023,1,0,0:0:0:0:
64,192,119323,1,0,0:0:0:0:
320,192,119323,1,0,0:0:0:0:
448,192,119323,1,0,0:0:0:0:
448,192,119473,1,0,0:0:0:0:
320,192,119473,1,0,0:0:0:0:
64,192,119473,1,0,0:0:0:0:
192,192,119773,1,0,0:0:0:0:
320,192,119848,1,0,0:0:0:0:
192,192,119923,1,0,0:0:0:0:
64,192,119923,1,0,0:0:0:0:
320,192,119998,1,0,0:0:0:0:
448,192,119998,1,0,0:0:0:0:
192,192,120073,1,0,0:0:0:0:
64,192,120073,1,0,0:0:0:0:
448,192,120073,1,0,0:0:0:0:
320,192,120148,1,0,0:0:0:0:
192,192,120223,1,0,0:0:0:0:
64,192,120298,1,0,0:0:0:0:
192,192,120373,1,0,0:0:0:0:
320,192,120373,1,0,0:0:0:0:
448,192,120373,1,0,0:0:0:0:
64,192,120448,1,0,0:0:0:0:
320,192,120523,1,0,0:0:0:0:
192,192,120598,1,0,0:0:0:0:
64,192,120673,1,0,0:0:0:0:
320,192,120673,1,0,0:0:0:0:
448,192,120748,1,0,0:0:0:0:
192,192,120823,1,0,0:0:0:0:
64,192,120898,1,0,0:0:0:0:
192,192,120973,1,0,0:0:0:0:
320,192,120973,1,0,0:0:0:0:
448,192,120973,1,0,0:0:0:0:
64,192,121048,1,0,0:0:0:0:
320,192,121123,1,0,0:0:0:0:
192,192,121198,1,0,0:0:0:0:
448,192,121273,1,0,0:0:0:0:
64,192,121273,1,0,0:0:0:0:
192,192,121348,1,0,0:0:0:0:
320,192,121423,1,0,0:0:0:0:
448,192,121498,1,0,0:0:0:0:
192,192,121573,1,0,0:0:0:0:
64,192,121573,1,0,0:0:0:0:
320,192,121573,1,0,0:0:0:0:
448,192,121648,1,0,0:0:0:0:
320,192,121723,1,0,0:0:0:0:
64,192,121723,1,0,0:0:0:0:
192,192,121798,1,0,0:0:0:0:
320,192,121873,1,0,0:0:0:0:
448,192,121873,1,0,0:0:0:0:
192,192,121948,1,0,0:0:0:0:
320,192,122023,1,0,0:0:0:0:
448,192,122098,1,0,0:0:0:0:
320,192,122173,1,0,0:0:0:0:
64,192,122173,1,0,0:0:0:0:
192,192,122173,1,0,0:0:0:0:
448,192,122248,1,0,0:0:0:0:
192,192,122323,1,0,0:0:0:0:
64,192,122398,1,0,0:0:0:0:
192,192,122473,1,0,0:0:0:0:
320,192,122473,128,0,122773:0:0:0:0:
64,192,122623,1,0,0:0:0:0:
448,192,122623,1,0,0:0:0:0:
448,192,122773,128,0,123073:0:0:0:0:
192,192,122773,1,0,0:0:0:0:
64,192,122773,1,0,0:0:0:0:
192,192,122923,1,0,0:0:0:0:
320,192,122923,1,0,0:0:0:0:
320,192,123073,1,0,0:0:0:0:
64,192,123073,128,0,123373:0:0:0:0:
192,192,123223,1,0,0:0:0:0:
448,192,123223,1,0,0:0:0:0:
448,192,123373,1,0,0:0:0:0:
192,192,123373,128,0,123673:0:0:0:0:
320,192,123373,1,0,0:0:0:0:
64,192,123523,1,0,0:0:0:0:
320,192,123523,1,0,0:0:0:0:
320,192,123673,1,0,0:0:0:0:
448,192,123673,1,0,0:0:0:0:
192,192,123748,1,0,0:0:0:0:
320,192,123823,1,0,0:0:0:0:
448,192,123898,1,0,0:0:0:0:
192,192,123973,1,0,0:0:0:0:
320,192,123973,1,0,0:0:0:0:
64,192,123973,1,0,0:0:0:0:
448,192,124048,1,0,0:0:0:0:
192,192,124123,1,0,0:0:0:0:
320,192,124198,1,0,0:0:0:0:
448,192,124273,1,0,0:0:0:0:
64,192,124273,1,0,0:0:0:0:
320,192,124348,1,0,0:0:0:0:
64,192,124423,1,0,0:0:0:0:
192,192,124498,1,0,0:0:0:0:
320,192,124573,1,0,0:0:0:0:
448,192,124573,1,0,0:0:0:0:
192,192,124648,1,0,0:0:0:0:
64,192,124648,1,0,0:0:0:0:
320,192,124723,1,0,0:0:0:0:
448,192,124723,1,0,0:0:0:0:
192,192,124798,1,0,0:0:0:0:
64,192,124798,1,0,0:0:0:0:
320,192,124873,1,0,0:0:0:0:
448,192,124873,1,0,0:0:0:0:
64,192,124873,1,0,0:0:0:0:
192,192,124948,1,0,0:0:0:0:
320,192,125023,1,0,0:0:0:0:
448,192,125098,1,0,0:0:0:0:
192,192,125173,1,0,0:0:0:0:
320,192,125173,1,0,0:0:0:0:
64,192,125173,1,0,0:0:0:0:
448,192,125248,1,0,0:0:0:0:
192,192,125323,1,0,0:0:0:0:
320,192,125398,1,0,0:0:0:0:
448,192,125473,1,0,0:0:0:0:
192,192,125473,1,0,0:0:0:0:
64,192,125548,1,0,0:0:0:0:
320,192,125623,1,0,0:0:0:0:
192,192,125698,1,0,0:0:0:0:
320,192,125773,1,0,0:0:0:0:
64,192,125773,1,0,0:0:0:0:
448,192,125773,1,0,0:0:0:0:
192,192,125848,1,0,0:0:0:0:
64,192,125923,1,0,0:0:0:0:
320,192,125998,1,0,0:0:0:0:
192,192,126073,1,0,0:0:0:0:
448,192,126073,1,0,0:0:0:0:
64,192,126148,1,0,0:0:0:0:
320,192,126223,1,0,0:0:0:0:
192,192,126298,1,0,0:0:0:0:
320,192,126373,1,0,0:0:0:0:
448,192,126373,1,0,0:0:0:0:
64,192,126373,1,0,0:0:0:0:
192,192,126448,1,0,0:0:0:0:
64,192,126523,1,0,0:0:0:0:
320,192,126598,1,0,0:0:0:0:
192,192,126673,1,0,0:0:0:0:
448,192,126673,1,0,0:0:0:0:
320,192,126748,1,0,0:0:0:0:
448,192,126823,1,0,0:0:0:0:
64,192,126898,1,0,0:0:0:0:
192,192,126973,1,0,0:0:0:0:
320,192,126973,1,0,0:0:0:0:
448,192,126973,1,0,0:0:0:0:
64,192,127048,1,0,0:0:0:0:
192,192,127123,1,0,0:0:0:0:
320,192,127198,1,0,0:0:0:0:
192,192,127273,1,0,0:0:0:0:
448,192,127273,1,0,0:0:0:0:
320,192,127348,1,0,0:0:0:0:
64,192,127348,1,0,0:0:0:0:
192,192,127423,1,0,0:0:0:0:
448,192,127423,1,0,0:0:0:0:
320,192,127498,1,0,0:0:0:0:
64,192,127498,1,0,0:0:0:0:
448,192,127573,1,0,0:0:0:0:
192,192,127573,1,0,0:0:0:0:
320,192,127573,1,0,0:0:0:0:
64,192,127648,1,0,0:0:0:0:
192,192,127723,1,0,0:0:0:0:
320,192,127798,1,0,0:0:0:0:
192,192,127873,1,0,0:0:0:0:
448,192,127873,1,0,0:0:0:0:
320,192,127948,1,0,0:0:0:0:
64,192,127948,1,0,0:0:0:0:
192,192,128023,1,0,0:0:0:0:
448,192,128023,1,0,0:0:0:0:
320,192,128098,1,0,0:0:0:0:
64,192,128098,1,0,0:0:0:0:
192,192,128173,1,0,0:0:0:0:
64,192,128173,1,0,0:0:0:0:
448,192,128173,1,0,0:0:0:0:
320,192,128248,1,0,0:0:0:0:
192,192,128323,1,0,0:0:0:0:
64,192,128398,1,0,0:0:0:0:
192,192,128473,1,0,0:0:0:0:
320,192,128473,1,0,0:0:0:0:
448,192,128548,1,0,0:0:0:0:
320,192,128623,1,0,0:0:0:0:
64,192,128623,1,0,0:0:0:0:
192,192,128698,1,0,0:0:0:0:
320,192,128773,1,0,0:0:0:0:
448,192,128773,1,0,0:0:0:0:
192,192,128848,1,0,0:0:0:0:
64,192,128923,1,0,0:0:0:0:
448,192,128923,1,0,0:0:0:0:
320,192,128998,1,0,0:0:0:0:
192,192,129073,1,0,0:0:0:0:
64,192,129073,1,0,0:0:0:0:
448,192,129148,1,0,0:0:0:0:
320,192,129223,1,0,0:0:0:0:
192,192,129223,1,0,0:0:0:0:
64,192,129298,1,0,0:0:0:0:
320,192,129373,1,0,0:0:0:0:
448,192,129373,1,0,0:0:0:0:
192,192,129448,1,0,0:0:0:0:
64,192,129448,1,0,0:0:0:0:
320,192,129523,1,0,0:0:0:0:
448,192,129523,1,0,0:0:0:0:
192,192,129598,1,0,0:0:0:0:
64,192,129598,1,0,0:0:0:0:
320,192,129673,1,0,0:0:0:0:
448,192,129673,1,0,0:0:0:0:
192,192,129673,1,0,0:0:0:0:
64,192,129748,1,0,0:0:0:0:
448,192,129823,1,0,0:0:0:0:
320,192,129898,1,0,0:0:0:0:
192,192,129973,1,0,0:0:0:0:
64,192,129973,1,0,0:0:0:0:
448,192,129973,1,0,0:0:0:0:
320,192,130048,1,0,0:0:0:0:
448,192,130123,1,0,0:0:0:0:
192,192,130198,1,0,0:0:0:0:
320,192,130273,1,0,0:0:0:0:
64,192,130273,1,0,0:0:0:0:
448,192,130348,1,0,0:0:0:0:
192,192,130423,1,0,0:0:0:0:
320,192,130498,1,0,0:0:0:0:
192,192,130573,1,0,0:0:0:0:
64,192,130573,1,0,0:0:0:0:
448,192,130573,1,0,0:0:0:0:
320,192,130648,1,0,0:0:0:0:
192,192,130723,1,0,0:0:0:0:
64,192,130798,1,0,0:0:0:0:
448,192,130873,1,0,0:0:0:0:
192,192,130873,1,0,0:0:0:0:
320,192,130948,1,0,0:0:0:0:
448,192,131023,1,0,0:0:0:0:
64,192,131098,1,0,0:0:0:0:
192,192,131173,1,0,0:0:0:0:
320,192,131173,1,0,0:0:0:0:
448,192,131173,1,0,0:0:0:0:
64,192,131248,1,0,0:0:0:0:
192,192,131323,1,0,0:0:0:0:
320,192,131323,1,0,0:0:0:0:
448,192,131398,1,0,0:0:0:0:
320,192,131473,1,0,0:0:0:0:
64,192,131473,1,0,0:0:0:0:
192,192,131548,1,0,0:0:0:0:
320,192,131623,1,0,0:0:0:0:
448,192,131698,1,0,0:0:0:0:
192,192,131773,1,0,0:0:0:0:
320,192,131773,1,0,0:0:0:0:
64,192,131773,1,0,0:0:0:0:
448,192,131848,1,0,0:0:0:0:
64,192,131923,1,0,0:0:0:0:
192,192,131998,1,0,0:0:0:0:
448,192,132073,1,0,0:0:0:0:
320,192,132073,128,0,132373:0:0:0:0:
64,192,132223,1,0,0:0:0:0:
192,192,132223,1,0,0:0:0:0:
64,192,132373,1,0,0:0:0:0:
192,192,132373,128,0,132673:0:0:0:0:
320,192,132523,1,0,0:0:0:0:
64,192,132523,1,0,0:0:0:0:
448,192,132673,128,0,132973:0:0:0:0:
64,192,132823,1,0,0:0:0:0:
320,192,132823,1,0,0:0:0:0:
192,192,132973,1,0,0:0:0:0:
64,192,132973,1,0,0:0:0:0:
320,192,132973,128,0,133273:0:0:0:0:
448,192,133123,1,0,0:0:0:0:
192,192,133123,1,0,0:0:0:0:
192,192,133273,1,0,0:0:0:0:
64,192,133273,1,0,0:0:0:0:
320,192,133348,1,0,0:0:0:0:
192,192,133423,1,0,0:0:0:0:
64,192,133498,1,0,0:0:0:0:
192,192,133573,1,0,0:0:0:0:
320,192,133573,1,0,0:0:0:0:
448,192,133573,1,0,0:0:0:0:
64,192,133648,1,0,0:0:0:0:
192,192,133723,1,0,0:0:0:0:
320,192,133798,1,0,0:0:0:0:
64,192,133873,1,0,0:0:0:0:
448,192,133873,1,0,0:0:0:0:
192,192,133948,1,0,0:0:0:0:
320,192,134023,1,0,0:0:0:0:
192,192,134098,1,0,0:0:0:0:
448,192,134173,1,0,0:0:0:0:
64,192,134173,1,0,0:0:0:0:
320,192,134248,1,0,0:0:0:0:
192,192,134248,1,0,0:0:0:0:
64,192,134323,1,0,0:0:0:0:
448,192,134323,1,0,0:0:0:0:
320,192,134398,1,0,0:0:0:0:
192,192,134398,1,0,0:0:0:0:
320,192,134473,1,0,0:0:0:0:
64,192,134473,1,0,0:0:0:0:
448,192,134473,1,0,0:0:0:0:
192,192,134548,1,0,0:0:0:0:
320,192,134623,1,0,0:0:0:0:
448,192,134698,1,0,0:0:0:0:
320,192,134773,1,0,0:0:0:0:
192,192,134773,1,0,0:0:0:0:
64,192,134773,1,0,0:0:0:0:
448,192,134848,1,0,0:0:0:0:
192,192,134923,1,0,0:0:0:0:
320,192,134998,1,0,0:0:0:0:
192,192,135073,1,0,0:0:0:0:
448,192,135073,1,0,0:0:0:0:
64,192,135148,1,0,0:0:0:0:
320,192,135223,1,0,0:0:0:0:
192,192,135298,1,0,0:0:0:0:
320,192,135373,1,0,0:0:0:0:
448,192,135373,1,0,0:0:0:0:
64,192,135373,1,0,0:0:0:0:
192,192,135448,1,0,0:0:0:0:
320,192,135523,1,0,0:0:0:0:
448,192,135598,1,0,0:0:0:0:
320,192,135673,1,0,0:0:0:0:
192,192,135673,1,0,0:0:0:0:
64,192,135673,1,0,0:0:0:0:
448,192,135748,1,0,0:0:0:0:
64,192,135823,1,0,0:0:0:0:
192,192,135898,1,0,0:0:0:0:
320,192,135973,1,0,0:0:0:0:
448,192,135973,1,0,0:0:0:0:
64,192,135973,1,0,0:0:0:0:
192,192,136048,1,0,0:0:0:0:
64,192,136123,1,0,0:0:0:0:
320,192,136198,1,0,0:0:0:0:
448,192,136273,1,0,0:0:0:0:
192,192,136273,1,0,0:0:0:0:
64,192,136348,1,0,0:0:0:0:
320,192,136423,1,0,0:0:0:0:
192,192,136498,1,0,0:0:0:0:
320,192,136573,1,0,0:0:0:0:
448,192,136573,1,0,0:0:0:0:
64,192,136573,1,0,0:0:0:0:
192,192,136648,1,0,0:0:0:0:
448,192,136723,1,0,0:0:0:0:
320,192,136798,1,0,0:0:0:0:
192,192,136873,1,0,0:0:0:0:
64,192,136873,1,0,0:0:0:0:
448,192,136873,1,0,0:0:0:0:
320,192,136948,1,0,0:0:0:0:
192,192,137023,1,0,0:0:0:0:
64,192,137098,1,0,0:0:0:0:
192,192,137173,1,0,0:0:0:0:
448,192,137173,1,0,0:0:0:0:
320,192,137248,1,0,0:0:0:0:
64,192,137323,1,0,0:0:0:0:
192,192,137398,1,0,0:0:0:0:
320,192,137473,1,0,0:0:0:0:
448,192,137473,1,0,0:0:0:0:
64,192,137473,1,0,0:0:0:0:
192,192,137548,1,0,0:0:0:0:
64,192,137623,1,0,0:0:0:0:
320,192,137698,1,0,0:0:0:0:
192,192,137773,1,0,0:0:0:0:
64,192,137773,1,0,0:0:0:0:
320,192,137848,1,0,0:0:0:0:
448,192,137923,1,0,0:0:0:0:
192,192,137998,1,0,0:0:0:0:
64,192,138073,1,0,0:0:0:0:
448,192,138073,1,0,0:0:0:0:
320,192,138073,1,0,0:0:0:0:
192,192,138148,1,0,0:0:0:0:
64,192,138223,1,0,0:0:0:0:
320,192,138223,1,0,0:0:0:0:
448,192,138298,1,0,0:0:0:0:
192,192,138373,1,0,0:0:0:0:
320,192,138373,1,0,0:0:0:0:
64,192,138448,1,0,0:0:0:0:
192,192,138523,1,0,0:0:0:0:
448,192,138523,1,0,0:0:0:0:
320,192,138598,1,0,0:0:0:0:
448,192,138673,1,0,0:0:0:0:
64,192,138673,1,0,0:0:0:0:
192,192,138748,1,0,0:0:0:0:
320,192,138748,1,0,0:0:0:0:
64,192,138823,1,0,0:0:0:0:
448,192,138823,1,0,0:0:0:0:
192,192,138898,1,0,0:0:0:0:
448,192,138973,1,0,0:0:0:0:
320,192,138973,1,0,0:0:0:0:
64,192,139048,1,0,0:0:0:0:
192,192,139048,1,0,0:0:0:0:
448,192,139123,1,0,0:0:0:0:
320,192,139123,1,0,0:0:0:0:
192,192,139198,1,0,0:0:0:0:
64,192,139198,1,0,0:0:0:0:
64,192,139273,1,0,0:0:0:0:
448,192,139273,1,0,0:0:0:0:
320,192,139273,1,0,0:0:0:0:
192,192,139423,1,0,0:0:0:0:
192,192,139573,1,0,0:0:0:0:
64,192,139573,1,0,0:0:0:0:
448,192,139573,1,0,0:0:0:0:
320,192,139723,1,0,0:0:0:0:
64,192,139873,1,0,0:0:0:0:
448,192,139873,1,0,0:0:0:0:
192,192,140023,1,0,0:0:0:0:
320,192,140173,1,0,0:0:0:0:
448,192,140173,1,0,0:0:0:0:
64,192,140173,1,0,0:0:0:0:
192,192,140323,128,0,140773:0:0:0:0:
320,192,140473,1,0,0:0:0:0:
448,192,140473,1,0,0:0:0:0:
64,192,140623,1,0,0:0:0:0:
320,192,140773,1,0,0:0:0:0:
448,192,140773,1,0,0:0:0:0:
64,192,140773,1,0,0:0:0:0:
192,192,140923,1,0,0:0:0:0:
64,192,141073,1,0,0:0:0:0:
320,192,141073,1,0,0:0:0:0:
448,192,141223,1,0,0:0:0:0:
320,192,141373,1,0,0:0:0:0:
192,192,141373,1,0,0:0:0:0:
64,192,141373,1,0,0:0:0:0:
448,192,141523,1,0,0:0:0:0:
64,192,141673,1,0,0:0:0:0:
192,192,141673,1,0,0:0:0:0:
320,192,141823,1,0,0:0:0:0:
320,192,141973,1,0,0:0:0:0:
448,192,141973,1,0,0:0:0:0:
64,192,141973,1,0,0:0:0:0:
192,192,142123,1,0,0:0:0:0:
448,192,142273,1,0,0:0:0:0:
320,192,142273,1,0,0:0:0:0:
192,192,142423,1,0,0:0:0:0:
64,192,142573,1,0,0:0:0:0:
448,192,142573,1,0,0:0:0:0:
320,192,142648,1,0,0:0:0:0:
192,192,142723,1,0,0:0:0:0:
64,192,142723,1,0,0:0:0:0:
448,192,142723,1,0,0:0:0:0:
320,192,142873,1,0,0:0:0:0:
192,192,143023,1,0,0:0:0:0:
64,192,143023,1,0,0:0:0:0:
320,192,143173,1,0,0:0:0:0:
448,192,143173,1,0,0:0:0:0:
64,192,143173,1,0,0:0:0:0:
192,192,143323,1,0,0:0:0:0:
448,192,143323,1,0,0:0:0:0:
320,192,143473,1,0,0:0:0:0:
64,192,143473,1,0,0:0:0:0:
64,192,143623,1,0,0:0:0:0:
448,192,143623,1,0,0:0:0:0:
320,192,143698,1,0,0:0:0:0:
192,192,143698,1,0,0:0:0:0:
64,192,143773,1,0,0:0:0:0:
448,192,143773,1,0,0:0:0:0:
320,192,143848,1,0,0:0:0:0:
192,192,143923,1,0,0:0:0:0:
64,192,143923,1,0,0:0:0:0:
320,192,143998,1,0,0:0:0:0:
448,192,143998,1,0,0:0:0:0:
192,192,144073,1,0,0:0:0:0:
64,192,144073,1,0,0:0:0:0:
448,192,144073,1,0,0:0:0:0:
320,192,144223,1,0,0:0:0:0:
320,192,144373,1,0,0:0:0:0:
448,192,144373,1,0,0:0:0:0:
64,192,144373,1,0,0:0:0:0:
192,192,144523,1,0,0:0:0:0:
320,192,144673,1,0,0:0:0:0:
448,192,144673,1,0,0:0:0:0:
64,192,144823,1,0,0:0:0:0:
192,192,144973,1,0,0:0:0:0:
64,192,144973,1,0,0:0:0:0:
448,192,144973,1,0,0:0:0:0:
320,192,145123,128,0,145573:0:0:0:0:
192,192,145273,1,0,0:0:0:0:
64,192,145273,1,0,0:0:0:0:
448,192,145423,1,0,0:0:0:0:
448,192,145573,1,0,0:0:0:0:
192,192,145573,1,0,0:0:0:0:
64,192,145573,1,0,0:0:0:0:
320,192,145723,1,0,0:0:0:0:
320,192,145873,1,0,0:0:0:0:
448,192,145873,1,0,0:0:0:0:
64,192,146023,1,0,0:0:0:0:
192,192,146173,1,0,0:0:0:0:
320,192,146173,1,0,0:0:0:0:
448,192,146173,1,0,0:0:0:0:
64,192,146323,1,0,0:0:0:0:
448,192,146323,1,0,0:0:0:0:
320,192,146398,1,0,0:0:0:0:
192,192,146398,1,0,0:0:0:0:
64,192,146473,1,0,0:0:0:0:
448,192,146473,1,0,0:0:0:0:
320,192,146473,1,0,0:0:0:0:
192,192,146623,5,0,0:0:0:0:
320,192,146773,1,0,0:0:0:0:
448,192,146773,1,0,0:0:0:0:
192,192,146773,1,0,0:0:0:0:
64,192,146923,1,0,0:0:0:0:
64,192,147073,1,0,0:0:0:0:
320,192,147073,1,0,0:0:0:0:
192,192,147073,1,0,0:0:0:0:
448,192,147223,1,0,0:0:0:0:
448,192,147373,1,0,0:0:0:0:
320,192,147373,1,0,0:0:0:0:
64,192,147373,1,0,0:0:0:0:
192,192,147448,1,0,0:0:0:0:
320,192,147523,1,0,0:0:0:0:
192,192,147598,1,0,0:0:0:0:
64,192,147673,128,0,147823:0:0:0:0:
448,192,147673,1,0,0:0:0:0:
192,192,147748,128,0,147898:0:0:0:0:
320,192,147748,1,0,0:0:0:0:
448,192,147823,1,0,0:0:0:0:
320,192,147823,128,0,147973:0:0:0:0:
64,192,147898,1,0,0:0:0:0:
448,192,147898,128,0,148048:0:0:0:0:
192,192,147973,1,0,0:0:0:0:
64,192,147973,128,0,148123:0:0:0:0:
192,192,148048,128,0,148198:0:0:0:0:
320,192,148048,1,0,0:0:0:0:
320,192,148123,128,0,148273:0:0:0:0:
448,192,148123,1,0,0:0:0:0:
448,192,148198,128,0,148348:0:0:0:0:
64,192,148198,128,0,148348:0:0:0:0:
192,192,148273,128,0,148423:0:0:0:0:
320,192,148348,128,0,148498:0:0:0:0:
448,192,148423,128,0,148573:0:0:0:0:
64,192,148423,128,0,148498:0:0:0:0:
192,192,148498,1,0,0:0:0:0:
64,192,148573,128,0,148685:0:0:0:0:
192,192,148573,128,0,148648:0:0:0:0:
320,192,148573,128,0,148610:0:0:0:0:
448,192,148610,128,0,148723:0:0:0:0:
320,192,148648,128,0,148723:0:0:0:0:
192,192,148685,128,0,148723:0:0:0:0:
64,192,148723,128,0,148873:0:0:0:0:
192,192,148798,128,0,148873:0:0:0:0:
320,192,148835,128,0,148873:0:0:0:0:
448,192,148873,128,0,149023:0:0:0:0:
320,192,148948,128,0,149023:0:0:0:0:
192,192,148948,128,0,149023:0:0:0:0:
64,192,149023,128,0,149173:0:0:0:0:
192,192,149098,128,0,149173:0:0:0:0:
448,192,149098,128,0,149248:0:0:0:0:
320,192,149173,128,0,149323:0:0:0:0:
192,192,149248,128,0,149323:0:0:0:0:
448,192,149323,128,0,149473:0:0:0:0:
64,192,149323,128,0,149473:0:0:0:0:
192,192,149398,128,0,149473:0:0:0:0:
320,192,149473,128,0,149623:0:0:0:0:
192,192,149548,128,0,149623:0:0:0:0:
448,192,149623,128,0,149773:0:0:0:0:
64,192,149623,128,0,149773:0:0:0:0:
192,192,149698,128,0,149773:0:0:0:0:
320,192,149773,128,0,150073:0:0:0:0:
448,192,149848,128,0,149998:0:0:0:0:
192,192,149923,128,0,150073:0:0:0:0:
64,192,149923,128,0,150073:0:0:0:0:
448,192,150073,128,0,150223:0:0:0:0:
64,192,150148,128,0,150298:0:0:0:0:
192,192,150223,128,0,150523:0:0:0:0:
320,192,150223,128,0,150373:0:0:0:0:
448,192,150298,128,0,150448:0:0:0:0:
64,192,150373,128,0,150673:0:0:0:0:
320,192,150448,128,0,150598:0:0:0:0:
448,192,150523,128,0,150673:0:0:0:0:
192,192,150598,128,0,150748:0:0:0:0:
320,192,150673,128,0,150823:0:0:0:0:
64,192,150748,128,0,150898:0:0:0:0:
448,192,150823,128,0,151123:0:0:0:0:
192,192,150823,128,0,151048:0:0:0:0:
320,192,150973,128,0,151123:0:0:0:0:
64,192,150973,128,0,151123:0:0:0:0:
192,192,151123,128,0,151273:0:0:0:0:
320,192,151198,128,0,151348:0:0:0:0:
64,192,151198,128,0,151648:0:0:0:0:
448,192,151273,128,0,151498:0:0:0:0:
192,192,151348,128,0,151498:0:0:0:0:
320,192,151423,128,0,151723:0:0:0:0:
192,192,151573,128,0,151873:0:0:0:0:
448,192,151573,128,0,151648:0:0:0:0:
64,192,151723,128,0,151798:0:0:0:0:
448,192,151723,128,0,151873:0:0:0:0:
320,192,151798,128,0,152023:0:0:0:0:
64,192,151873,128,0,152023:0:0:0:0:
192,192,151948,128,0,152098:0:0:0:0:
448,192,151948,128,0,152173:0:0:0:0:
64,192,152098,128,0,152323:0:0:0:0:
320,192,152098,128,0,152248:0:0:0:0:
192,192,152173,128,0,152323:0:0:0:0:
448,192,152248,128,0,152473:0:0:0:0:
320,192,152323,128,0,152473:0:0:0:0:
64,192,152398,128,0,152473:0:0:0:0:
192,192,152398,128,0,152548:0:0:0:0:
320,192,152548,128,0,152623:0:0:0:0:
448,192,152548,128,0,152623:0:0:0:0:
64,192,152623,128,0,152923:0:0:0:0:
192,192,152623,128,0,152773:0:0:0:0:
448,192,152698,128,0,152848:0:0:0:0:
320,192,152773,128,0,152923:0:0:0:0:
192,192,152848,128,0,152923:0:0:0:0:
448,192,152923,128,0,152998:0:0:0:0:
64,192,152998,128,0,153073:0:0:0:0:
320,192,152998,128,0,153073:0:0:0:0:
192,192,153073,128,0,153223:0:0:0:0:
320,192,153148,128,0,153223:0:0:0:0:
448,192,153148,128,0,153223:0:0:0:0:
64,192,153298,128,0,153373:0:0:0:0:
192,192,153298,128,0,153373:0:0:0:0:
320,192,153373,128,0,153448:0:0:0:0:
448,192,153373,1,0,0:0:0:0:
64,192,153448,128,0,153523:0:0:0:0:
192,192,153448,1,0,0:0:0:0:
192,192,153523,128,0,153598:0:0:0:0:
448,192,153523,1,0,0:0:0:0:
320,192,153598,128,0,153673:0:0:0:0:
64,192,153598,1,0,0:0:0:0:
192,192,153673,128,0,153823:0:0:0:0:
448,192,153673,1,0,0:0:0:0:
320,192,153748,128,0,153823:0:0:0:0:
448,192,153823,128,0,153973:0:0:0:0:
64,192,153898,128,0,153973:0:0:0:0:
320,192,153973,128,0,154123:0:0:0:0:
192,192,153973,128,0,154048:0:0:0:0:
192,192,154123,128,0,154273:0:0:0:0:
320,192,154198,128,0,154273:0:0:0:0:
64,192,154198,128,0,154423:0:0:0:0:
192,192,154348,128,0,154423:0:0:0:0:
448,192,154423,128,0,154573:0:0:0:0:
192,192,154498,128,0,154573:0:0:0:0:
64,192,154573,128,0,154648:0:0:0:0:
320,192,154573,128,0,154723:0:0:0:0:
192,192,154648,128,0,154798:0:0:0:0:
448,192,154648,128,0,154723:0:0:0:0:
64,192,154723,128,0,154873:0:0:0:0:
320,192,154798,128,0,154873:0:0:0:0:
448,192,154873,128,0,155173:0:0:0:0:
192,192,154873,128,0,154948:0:0:0:0:
320,192,154948,128,0,155023:0:0:0:0:
64,192,155023,128,0,155098:0:0:0:0:
192,192,155023,128,0,155098:0:0:0:0:
320,192,155098,128,0,155173:0:0:0:0:
64,192,155173,128,0,155248:0:0:0:0:
192,192,155173,128,0,155248:0:0:0:0:
448,192,155248,128,0,155323:0:0:0:0:
320,192,155323,128,0,155398:0:0:0:0:
64,192,155323,128,0,155398:0:0:0:0:
192,192,155398,128,0,155473:0:0:0:0:
448,192,155473,128,0,155548:0:0:0:0:
320,192,155473,128,0,155548:0:0:0:0:
64,192,155548,128,0,155623:0:0:0:0:
192,192,155623,128,0,155698:0:0:0:0:
448,192,155623,128,0,155698:0:0:0:0:
320,192,155698,128,0,155773:0:0:0:0:
192,192,155773,128,0,155848:0:0:0:0:
64,192,155773,128,0,155848:0:0:0:0:
448,192,155848,128,0,155923:0:0:0:0:
320,192,155923,128,0,155998:0:0:0:0:
192,192,155923,128,0,155998:0:0:0:0:
64,192,155998,128,0,156073:0:0:0:0:
320,192,156073,128,0,156148:0:0:0:0:
448,192,156073,128,0,156223:0:0:0:0:
192,192,156148,128,0,156223:0:0:0:0:
64,192,156148,128,0,156223:0:0:0:0:
320,192,156223,128,0,156373:0:0:0:0:
448,192,156298,128,0,156373:0:0:0:0:
192,192,156373,128,0,156448:0:0:0:0:
64,192,156373,128,0,156448:0:0:0:0:
448,192,156448,128,0,156523:0:0:0:0:
320,192,156523,128,0,156598:0:0:0:0:
64,192,156523,128,0,156598:0:0:0:0:
192,192,156598,128,0,156673:0:0:0:0:
64,192,156673,128,0,156748:0:0:0:0:
448,192,156673,128,0,156748:0:0:0:0:
320,192,156748,128,0,156823:0:0:0:0:
192,192,156823,128,0,156898:0:0:0:0:
448,192,156823,128,0,156898:0:0:0:0:
64,192,156898,128,0,156973:0:0:0:0:
192,192,156973,128,0,157048:0:0:0:0:
320,192,156973,128,0,157048:0:0:0:0:
448,192,157048,128,0,157123:0:0:0:0:
64,192,157123,128,0,157198:0:0:0:0:
320,192,157123,128,0,157198:0:0:0:0:
192,192,157198,128,0,157273:0:0:0:0:
64,192,157273,128,0,157348:0:0:0:0:
448,192,157273,128,0,157348:0:0:0:0:
320,192,157348,128,0,157423:0:0:0:0:
192,192,157348,128,0,157423:0:0:0:0:
64,192,157423,128,0,157498:0:0:0:0:
448,192,157423,128,0,157498:0:0:0:0:
320,192,157498,128,0,157573:0:0:0:0:
192,192,157498,128,0,157573:0:0:0:0:
448,192,157573,128,0,157648:0:0:0:0:
64,192,157573,128,0,157648:0:0:0:0:
192,192,157648,128,0,157723:0:0:0:0:
320,192,157648,128,0,157723:0:0:0:0:
448,192,157723,128,0,157798:0:0:0:0:
64,192,157723,128,0,157798:0:0:0:0:
192,192,157798,128,0,157873:0:0:0:0:
320,192,157798,128,0,157873:0:0:0:0:
448,192,157873,128,0,157948:0:0:0:0:
64,192,157873,128,0,157948:0:0:0:0:
192,192,157948,128,0,158023:0:0:0:0:
320,192,157948,128,0,158023:0:0:0:0:
448,192,158023,128,0,158098:0:0:0:0:
64,192,158023,128,0,158098:0:0:0:0:
192,192,158098,128,0,158173:0:0:0:0:
320,192,158173,128,0,158248:0:0:0:0:
448,192,158173,128,0,158248:0:0:0:0:
192,192,158248,128,0,158323:0:0:0:0:
64,192,158248,128,0,158323:0:0:0:0:
320,192,158323,128,0,158398:0:0:0:0:
448,192,158323,128,0,158398:0:0:0:0:
192,192,158398,128,0,158473:0:0:0:0:
64,192,158398,128,0,158473:0:0:0:0:
320,192,158473,1,0,0:0:0:0:
448,192,158473,1,0,0:0:0:0:
64,192,158773,1,0,0:0:0:0:
320,192,158773,1,0,0:0:0:0:
448,192,158773,1,0,0:0:0:0:
192,192,159073,1,0,0:0:0:0:
320,192,159073,1,0,0:0:0:0:
448,192,159073,1,0,0:0:0:0:
192,192,159373,1,0,0:0:0:0:
64,192,159373,1,0,0:0:0:0:
448,192,159373,1,0,0:0:0:0:
64,192,159673,1,0,0:0:0:0:
192,192,159673,1,0,0:0:0:0:
320,192,159673,1,0,0:0:0:0:
448,192,159673,1,0,0:0:0:0:
192,192,159973,1,0,0:0:0:0:
320,192,159973,1,0,0:0:0:0:
448,192,159973,1,0,0:0:0:0:
320,192,160273,1,0,0:0:0:0:
448,192,160273,1,0,0:0:0:0:
64,192,160273,1,0,0:0:0:0:
64,192,160573,1,0,0:0:0:0:
192,192,160573,1,0,0:0:0:0:
448,192,160573,1,0,0:0:0:0:
320,192,160873,1,0,0:0:0:0:
192,192,160873,1,0,0:0:0:0:
64,192,160873,1,0,0:0:0:0:
448,192,160873,1,0,0:0:0:0:
320,192,161173,1,0,0:0:0:0:
448,192,161173,1,0,0:0:0:0:
64,192,161173,1,0,0:0:0:0:
192,192,161473,1,0,0:0:0:0:
320,192,161473,1,0,0:0:0:0:
448,192,161473,1,0,0:0:0:0:
64,192,161773,1,0,0:0:0:0:
192,192,161773,1,0,0:0:0:0:
448,192,161773,1,0,0:0:0:0:
448,192,162073,1,0,0:0:0:0:
320,192,162073,1,0,0:0:0:0:
192,192,162073,1,0,0:0:0:0:
64,192,162073,1,0,0:0:0:0:
192,192,162373,1,0,0:0:0:0:
320,192,162373,1,0,0:0:0:0:
448,192,162373,1,0,0:0:0:0:
448,192,162673,1,0,0:0:0:0:
320,192,162673,1,0,0:0:0:0:
64,192,162673,1,0,0:0:0:0:
192,192,162973,1,0,0:0:0:0:
64,192,162973,1,0,0:0:0:0:
320,192,162973,1,0,0:0:0:0:
320,192,163273,1,0,0:0:0:0:
448,192,163273,1,0,0:0:0:0:
192,192,163273,1,0,0:0:0:0:
64,192,163273,1,0,0:0:0:0:
192,192,163573,1,0,0:0:0:0:
320,192,163573,1,0,0:0:0:0:
448,192,163573,1,0,0:0:0:0:
320,192,163873,1,0,0:0:0:0:
448,192,163873,1,0,0:0:0:0:
64,192,163873,1,0,0:0:0:0:
192,192,164173,1,0,0:0:0:0:
64,192,164173,1,0,0:0:0:0:
320,192,164173,1,0,0:0:0:0:
320,192,164473,1,0,0:0:0:0:
448,192,164473,1,0,0:0:0:0:
192,192,164473,1,0,0:0:0:0:
64,192,164473,1,0,0:0:0:0:
320,192,164773,1,0,0:0:0:0:
448,192,164773,1,0,0:0:0:0:
192,192,164773,1,0,0:0:0:0:
320,192,165073,1,0,0:0:0:0:
448,192,165073,1,0,0:0:0:0:
64,192,165073,1,0,0:0:0:0:
192,192,165373,1,0,0:0:0:0:
320,192,165373,1,0,0:0:0:0:
64,192,165373,1,0,0:0:0:0:
64,192,165673,1,0,0:0:0:0:
192,192,165673,1,0,0:0:0:0:
320,192,165673,1,0,0:0:0:0:
448,192,165673,1,0,0:0:0:0:
448,192,165973,1,0,0:0:0:0:
320,192,165973,1,0,0:0:0:0:
64,192,165973,1,0,0:0:0:0:
192,192,166273,1,0,0:0:0:0:
64,192,166273,1,0,0:0:0:0:
320,192,166273,1,0,0:0:0:0:
448,192,166573,1,0,0:0:0:0:
320,192,166573,1,0,0:0:0:0:
192,192,166573,1,0,0:0:0:0:
192,192,166873,1,0,0:0:0:0:
64,192,166873,1,0,0:0:0:0:
320,192,166873,1,0,0:0:0:0:
448,192,166873,1,0,0:0:0:0:
192,192,167023,1,0,0:0:0:0:
64,192,167023,1,0,0:0:0:0:
64,192,167173,1,0,0:0:0:0:
320,192,167173,1,0,0:0:0:0:
448,192,167173,1,0,0:0:0:0:
192,192,167323,1,0,0:0:0:0:
320,192,167323,1,0,0:0:0:0:
448,192,167473,128,0,167698:0:0:0:0:
320,192,167473,128,0,167698:0:0:0:0:
192,192,167473,128,0,167698:0:0:0:0:
64,192,167473,128,0,167698:0:0:0:0:
64,192,167773,128,0,167998:0:0:0:0:
192,192,167773,128,0,167998:0:0:0:0:
320,192,167773,128,0,167998:0:0:0:0:
448,192,167773,128,0,167998:0:0:0:0:
448,192,168073,1,0,0:0:0:0:
320,192,168073,1,0,0:0:0:0:
192,192,168073,1,0,0:0:0:0:
64,192,168073,1,0,0:0:0:0:
320,192,168223,1,0,0:0:0:0:
192,192,168223,1,0,0:0:0:0:
320,192,168373,1,0,0:0:0:0:
448,192,168373,1,0,0:0:0:0:
64,192,168373,1,0,0:0:0:0:
192,192,168523,1,0,0:0:0:0:
448,192,168523,1,0,0:0:0:0:
320,192,168673,1,0,0:0:0:0:
192,192,168673,1,0,0:0:0:0:
320,192,168823,1,0,0:0:0:0:
64,192,168823,1,0,0:0:0:0:
192,192,168973,1,0,0:0:0:0:
448,192,168973,1,0,0:0:0:0:
64,192,168973,1,0,0:0:0:0:
320,192,169123,1,0,0:0:0:0:
448,192,169123,1,0,0:0:0:0:
192,192,169198,1,0,0:0:0:0:
64,192,169273,1,0,0:0:0:0:
448,192,169273,1,0,0:0:0:0:
320,192,169423,1,0,0:0:0:0:
192,192,169423,1,0,0:0:0:0:
320,192,169573,1,0,0:0:0:0:
448,192,169573,1,0,0:0:0:0:
64,192,169573,1,0,0:0:0:0:
192,192,169723,1,0,0:0:0:0:
448,192,169723,1,0,0:0:0:0:
64,192,169798,1,0,0:0:0:0:
320,192,169873,1,0,0:0:0:0:
192,192,169873,1,0,0:0:0:0:
64,192,170023,1,0,0:0:0:0:
448,192,170023,1,0,0:0:0:0:
192,192,170173,1,0,0:0:0:0:
64,192,170173,1,0,0:0:0:0:
320,192,170173,1,0,0:0:0:0:
320,192,170323,1,0,0:0:0:0:
448,192,170323,1,0,0:0:0:0:
448,192,170473,1,0,0:0:0:0:
64,192,170473,1,0,0:0:0:0:
64,192,170623,1,0,0:0:0:0:
192,192,170623,1,0,0:0:0:0:
320,192,170773,1,0,0:0:0:0:
192,192,170773,1,0,0:0:0:0:
448,192,170773,1,0,0:0:0:0:
64,192,170923,1,0,0:0:0:0:
320,192,170923,1,0,0:0:0:0:
192,192,171073,1,0,0:0:0:0:
64,192,171073,1,0,0:0:0:0:
192,192,171223,1,0,0:0:0:0:
448,192,171223,1,0,0:0:0:0:
320,192,171373,1,0,0:0:0:0:
448,192,171373,1,0,0:0:0:0:
64,192,171373,1,0,0:0:0:0:
192,192,171523,1,0,0:0:0:0:
64,192,171523,1,0,0:0:0:0:
192,192,171673,1,0,0:0:0:0:
320,192,171673,1,0,0:0:0:0:
448,192,171823,1,0,0:0:0:0:
320,192,171823,1,0,0:0:0:0:
448,192,171973,1,0,0:0:0:0:
192,192,171973,1,0,0:0:0:0:
64,192,171973,1,0,0:0:0:0:
320,192,172123,1,0,0:0:0:0:
192,192,172123,1,0,0:0:0:0:
320,192,172273,1,0,0:0:0:0:
448,192,172273,1,0,0:0:0:0:
192,192,172348,1,0,0:0:0:0:
64,192,172423,1,0,0:0:0:0:
448,192,172423,1,0,0:0:0:0:
320,192,172498,1,0,0:0:0:0:
192,192,172498,1,0,0:0:0:0:
64,192,172573,1,0,0:0:0:0:
448,192,172573,1,0,0:0:0:0:
320,192,172648,1,0,0:0:0:0:
192,192,172723,1,0,0:0:0:0:
64,192,172798,1,0,0:0:0:0:
192,192,172873,1,0,0:0:0:0:
320,192,172873,1,0,0:0:0:0:
448,192,172873,1,0,0:0:0:0:
192,192,173173,1,0,0:0:0:0:
64,192,173173,1,0,0:0:0:0:
448,192,173173,1,0,0:0:0:0:
192,192,173473,1,0,0:0:0:0:
320,192,173473,1,0,0:0:0:0:
448,192,173473,1,0,0:0:0:0:
192,192,173773,1,0,0:0:0:0:
64,192,173773,1,0,0:0:0:0:
320,192,173773,1,0,0:0:0:0:
448,192,174073,1,0,0:0:0:0:
320,192,174073,1,0,0:0:0:0:
64,192,174073,1,0,0:0:0:0:
192,192,174148,1,0,0:0:0:0:
64,192,174223,1,0,0:0:0:0:
448,192,174223,1,0,0:0:0:0:
320,192,174298,1,0,0:0:0:0:
192,192,174373,1,0,0:0:0:0:
64,192,174373,1,0,0:0:0:0:
448,192,174448,1,0,0:0:0:0:
320,192,174523,1,0,0:0:0:0:
192,192,174523,1,0,0:0:0:0:
64,192,174598,1,0,0:0:0:0:
320,192,174673,1,0,0:0:0:0:
448,192,174673,1,0,0:0:0:0:
192,192,174748,1,0,0:0:0:0:
64,192,174823,1,0,0:0:0:0:
448,192,174823,1,0,0:0:0:0:
320,192,174898,1,0,0:0:0:0:
192,192,174973,1,0,0:0:0:0:
448,192,174973,1,0,0:0:0:0:
64,192,175048,1,0,0:0:0:0:
192,192,175123,1,0,0:0:0:0:
320,192,175123,1,0,0:0:0:0:
448,192,175198,1,0,0:0:0:0:
320,192,175273,1,0,0:0:0:0:
64,192,175273,1,0,0:0:0:0:
192,192,175273,1,0,0:0:0:0:
320,192,175573,1,0,0:0:0:0:
448,192,175573,1,0,0:0:0:0:
192,192,175648,1,0,0:0:0:0:
320,192,175723,1,0,0:0:0:0:
448,192,175798,1,0,0:0:0:0:
192,192,175873,1,0,0:0:0:0:
64,192,175873,1,0,0:0:0:0:
320,192,175948,1,0,0:0:0:0:
448,192,175948,1,0,0:0:0:0:
192,192,176023,1,0,0:0:0:0:
64,192,176023,1,0,0:0:0:0:
320,192,176098,1,0,0:0:0:0:
64,192,176173,1,0,0:0:0:0:
448,192,176173,1,0,0:0:0:0:
192,192,176248,1,0,0:0:0:0:
320,192,176248,1,0,0:0:0:0:
448,192,176323,1,0,0:0:0:0:
64,192,176323,1,0,0:0:0:0:
192,192,176398,1,0,0:0:0:0:
320,192,176398,1,0,0:0:0:0:
448,192,176473,1,0,0:0:0:0:
64,192,176473,1,0,0:0:0:0:
320,192,176473,1,0,0:0:0:0:
192,192,176698,1,0,0:0:0:0:
320,192,176698,1,0,0:0:0:0:
448,192,176698,1,0,0:0:0:0:
192,192,176848,1,0,0:0:0:0:
64,192,176848,1,0,0:0:0:0:
320,192,176923,1,0,0:0:0:0:
448,192,176923,1,0,0:0:0:0:
192,192,177073,1,0,0:0:0:0:
64,192,177073,1,0,0:0:0:0:
448,192,177073,1,0,0:0:0:0:
320,192,177223,1,0,0:0:0:0:
64,192,177223,1,0,0:0:0:0:
320,192,177298,1,0,0:0:0:0:
448,192,177373,1,0,0:0:0:0:
64,192,177373,1,0,0:0:0:0:
448,192,177448,1,0,0:0:0:0:
448,192,177523,1,0,0:0:0:0:
192,192,177523,1,0,0:0:0:0:
320,192,177523,1,0,0:0:0:0:
64,192,178873,128,0,179173:0:0:0:0:
448,192,179023,1,0,0:0:0:0:
192,192,179173,128,0,179473:0:0:0:0:
64,192,179323,1,0,0:0:0:0:
320,192,179473,128,0,179773:0:0:0:0:
192,192,179623,1,0,0:0:0:0:
448,192,179773,128,0,180073:0:0:0:0:
320,192,179923,1,0,0:0:0:0:
192,192,180073,128,0,180373:0:0:0:0:
64,192,180373,1,0,0:0:0:0:
320,192,180673,1,0,0:0:0:0:
448,192,180673,1,0,0:0:0:0:
192,192,180973,1,0,0:0:0:0:
64,192,181273,1,0,0:0:0:0:
320,192,181423,1,0,0:0:0:0:
448,192,181573,1,0,0:0:0:0:
192,192,181723,1,0,0:0:0:0:
320,192,181873,128,0,182173:0:0:0:0:
192,192,182173,128,0,182473:0:0:0:0:
64,192,182473,1,0,0:0:0:0:
448,192,182473,128,0,182773:0:0:0:0:
320,192,182773,1,0,0:0:0:0:
192,192,182923,1,0,0:0:0:0:
64,192,183073,1,0,0:0:0:0:
320,192,183223,1,0,0:0:0:0:
192,192,183373,1,0,0:0:0:0:
448,192,183523,1,0,0:0:0:0:
320,192,183673,128,0,183973:0:0:0:0:
64,192,183823,1,0,0:0:0:0:
192,192,183973,128,0,184273:0:0:0:0:
320,192,184123,1,0,0:0:0:0:
448,192,184273,128,0,184573:0:0:0:0:
320,192,184423,1,0,0:0:0:0:
192,192,184573,128,0,184873:0:0:0:0:
448,192,184723,1,0,0:0:0:0:
64,192,184873,128,0,185473:0:0:0:0:
320,192,185023,1,0,0:0:0:0:
192,192,185173,1,0,0:0:0:0:
448,192,185323,1,0,0:0:0:0:
320,192,185473,128,0,185773:0:0:0:0:
448,192,185623,1,0,0:0:0:0:
192,192,185773,128,0,186073:0:0:0:0:
64,192,185923,1,0,0:0:0:0:
448,192,186073,128,0,186673:0:0:0:0:
320,192,186223,1,0,0:0:0:0:
192,192,186373,1,0,0:0:0:0:
64,192,186523,1,0,0:0:0:0:
320,192,186673,1,0,0:0:0:0:
64,192,187573,128,0,187723:0:0:0:0:
192,192,187723,128,0,187873:0:0:0:0:
448,192,187873,128,0,188173:0:0:0:0:
320,192,188173,128,0,188473:0:0:0:0:
64,192,188473,128,0,189073:0:0:0:0:
192,192,188473,128,0,188548:0:0:0:0:
320,192,188548,128,0,188623:0:0:0:0:
448,192,188623,128,0,188698:0:0:0:0:
192,192,188698,128,0,188773:0:0:0:0:
320,192,188773,128,0,188848:0:0:0:0:
192,192,188848,128,0,188923:0:0:0:0:
448,192,188923,128,0,188998:0:0:0:0:
320,192,188998,128,0,189073:0:0:0:0:
192,192,189073,128,0,189673:0:0:0:0:
320,192,189673,1,0,0:0:0:0:
448,192,189673,1,0,0:0:0:0:
64,192,189673,1,0,0:0:0:0:
192,192,189748,1,0,0:0:0:0:
320,192,189823,1,0,0:0:0:0:
64,192,189898,1,0,0:0:0:0:
192,192,189973,1,0,0:0:0:0:
320,192,189973,1,0,0:0:0:0:
448,192,189973,1,0,0:0:0:0:
64,192,190048,1,0,0:0:0:0:
448,192,190123,1,0,0:0:0:0:
192,192,190123,1,0,0:0:0:0:
320,192,190198,1,0,0:0:0:0:
448,192,190273,1,0,0:0:0:0:
64,192,190273,1,0,0:0:0:0:
192,192,190348,1,0,0:0:0:0:
320,192,190423,1,0,0:0:0:0:
64,192,190498,1,0,0:0:0:0:
192,192,190573,1,0,0:0:0:0:
448,192,190573,1,0,0:0:0:0:
320,192,190573,1,0,0:0:0:0:
64,192,190648,1,0,0:0:0:0:
448,192,190723,1,0,0:0:0:0:
320,192,190798,1,0,0:0:0:0:
192,192,190873,1,0,0:0:0:0:
64,192,190873,128,0,191173:0:0:0:0:
320,192,191023,1,0,0:0:0:0:
448,192,191023,1,0,0:0:0:0:
192,192,191173,128,0,191473:0:0:0:0:
320,192,191173,1,0,0:0:0:0:
448,192,191173,1,0,0:0:0:0:
448,192,191323,1,0,0:0:0:0:
64,192,191323,1,0,0:0:0:0:
320,192,191473,128,0,191773:0:0:0:0:
64,192,191473,1,0,0:0:0:0:
192,192,191623,1,0,0:0:0:0:
64,192,191623,1,0,0:0:0:0:
448,192,191773,128,0,192073:0:0:0:0:
192,192,191773,1,0,0:0:0:0:
64,192,191773,1,0,0:0:0:0:
320,192,191923,1,0,0:0:0:0:
64,192,191923,1,0,0:0:0:0:
192,192,192073,128,0,192373:0:0:0:0:
320,192,192073,1,0,0:0:0:0:
64,192,192223,1,0,0:0:0:0:
448,192,192223,1,0,0:0:0:0:
320,192,192373,1,0,0:0:0:0:
448,192,192373,1,0,0:0:0:0:
64,192,192373,1,0,0:0:0:0:
192,192,192448,1,0,0:0:0:0:
320,192,192523,1,0,0:0:0:0:
64,192,192598,1,0,0:0:0:0:
192,192,192673,1,0,0:0:0:0:
448,192,192673,1,0,0:0:0:0:
320,192,192748,1,0,0:0:0:0:
192,192,192823,1,0,0:0:0:0:
320,192,192898,1,0,0:0:0:0:
448,192,192973,1,0,0:0:0:0:
64,192,192973,1,0,0:0:0:0:
192,192,193048,1,0,0:0:0:0:
320,192,193048,1,0,0:0:0:0:
64,192,193123,1,0,0:0:0:0:
448,192,193123,1,0,0:0:0:0:
320,192,193198,1,0,0:0:0:0:
192,192,193198,1,0,0:0:0:0:
64,192,193273,1,0,0:0:0:0:
448,192,193273,1,0,0:0:0:0:
320,192,193273,1,0,0:0:0:0:
192,192,193348,1,0,0:0:0:0:
320,192,193423,1,0,0:0:0:0:
448,192,193498,1,0,0:0:0:0:
320,192,193573,1,0,0:0:0:0:
64,192,193573,1,0,0:0:0:0:
192,192,193573,1,0,0:0:0:0:
448,192,193648,1,0,0:0:0:0:
192,192,193723,1,0,0:0:0:0:
320,192,193798,1,0,0:0:0:0:
448,192,193873,1,0,0:0:0:0:
64,192,193873,1,0,0:0:0:0:
192,192,193948,1,0,0:0:0:0:
320,192,194023,1,0,0:0:0:0:
64,192,194098,1,0,0:0:0:0:
320,192,194173,1,0,0:0:0:0:
448,192,194173,1,0,0:0:0:0:
192,192,194173,1,0,0:0:0:0:
64,192,194248,1,0,0:0:0:0:
448,192,194323,1,0,0:0:0:0:
320,192,194398,1,0,0:0:0:0:
192,192,194473,1,0,0:0:0:0:
64,192,194473,1,0,0:0:0:0:
320,192,194548,1,0,0:0:0:0:
192,192,194623,1,0,0:0:0:0:
320,192,194698,1,0,0:0:0:0:
448,192,194773,1,0,0:0:0:0:
64,192,194773,1,0,0:0:0:0:
192,192,194773,1,0,0:0:0:0:
320,192,194848,1,0,0:0:0:0:
64,192,194923,1,0,0:0:0:0:
192,192,194998,1,0,0:0:0:0:
320,192,195073,1,0,0:0:0:0:
64,192,195073,1,0,0:0:0:0:
448,192,195148,1,0,0:0:0:0:
192,192,195223,1,0,0:0:0:0:
320,192,195298,1,0,0:0:0:0:
448,192,195373,1,0,0:0:0:0:
192,192,195373,1,0,0:0:0:0:
64,192,195373,1,0,0:0:0:0:
320,192,195448,1,0,0:0:0:0:
192,192,195523,1,0,0:0:0:0:
320,192,195598,1,0,0:0:0:0:
192,192,195673,1,0,0:0:0:0:
64,192,195673,1,0,0:0:0:0:
320,192,195748,1,0,0:0:0:0:
448,192,195748,1,0,0:0:0:0:
192,192,195823,1,0,0:0:0:0:
64,192,195823,1,0,0:0:0:0:
320,192,195898,1,0,0:0:0:0:
448,192,195898,1,0,0:0:0:0:
192,192,195973,1,0,0:0:0:0:
64,192,195973,1,0,0:0:0:0:
448,192,195973,1,0,0:0:0:0:
448,192,196273,1,0,0:0:0:0:
320,192,196273,1,0,0:0:0:0:
192,192,196348,1,0,0:0:0:0:
64,192,196348,1,0,0:0:0:0:
320,192,196423,1,0,0:0:0:0:
448,192,196423,1,0,0:0:0:0:
192,192,196498,1,0,0:0:0:0:
64,192,196498,1,0,0:0:0:0:
320,192,196573,1,0,0:0:0:0:
448,192,196573,1,0,0:0:0:0:
64,192,196573,1,0,0:0:0:0:
192,192,196723,1,0,0:0:0:0:
320,192,196798,1,0,0:0:0:0:
448,192,196873,1,0,0:0:0:0:
64,192,196873,1,0,0:0:0:0:
192,192,196948,1,0,0:0:0:0:
320,192,197023,1,0,0:0:0:0:
448,192,197023,1,0,0:0:0:0:
64,192,197098,1,0,0:0:0:0:
192,192,197173,1,0,0:0:0:0:
320,192,197173,1,0,0:0:0:0:
448,192,197248,1,0,0:0:0:0:
192,192,197323,1,0,0:0:0:0:
64,192,197323,1,0,0:0:0:0:
320,192,197398,1,0,0:0:0:0:
64,192,197473,1,0,0:0:0:0:
448,192,197473,1,0,0:0:0:0:
192,192,197548,1,0,0:0:0:0:
320,192,197623,1,0,0:0:0:0:
64,192,197623,1,0,0:0:0:0:
448,192,197698,1,0,0:0:0:0:
192,192,197773,1,0,0:0:0:0:
64,192,197773,1,0,0:0:0:0:
320,192,197848,1,0,0:0:0:0:
448,192,197848,1,0,0:0:0:0:
192,192,197923,1,0,0:0:0:0:
64,192,197923,1,0,0:0:0:0:
320,192,197998,1,0,0:0:0:0:
448,192,197998,1,0,0:0:0:0:
448,192,198073,1,0,0:0:0:0:
192,192,198073,1,0,0:0:0:0:
64,192,198073,1,0,0:0:0:0:
320,192,198148,1,0,0:0:0:0:
192,192,198223,1,0,0:0:0:0:
64,192,198298,1,0,0:0:0:0:
320,192,198373,1,0,0:0:0:0:
448,192,198373,1,0,0:0:0:0:
192,192,198373,1,0,0:0:0:0:
64,192,198448,1,0,0:0:0:0:
192,192,198523,1,0,0:0:0:0:
448,192,198598,1,0,0:0:0:0:
320,192,198673,1,0,0:0:0:0:
64,192,198673,1,0,0:0:0:0:
192,192,198748,1,0,0:0:0:0:
448,192,198823,1,0,0:0:0:0:
320,192,198898,1,0,0:0:0:0:
192,192,198973,1,0,0:0:0:0:
64,192,198973,1,0,0:0:0:0:
448,192,198973,1,0,0:0:0:0:
320,192,199048,1,0,0:0:0:0:
448,192,199123,1,0,0:0:0:0:
192,192,199198,1,0,0:0:0:0:
320,192,199273,1,0,0:0:0:0:
64,192,199273,1,0,0:0:0:0:
448,192,199348,1,0,0:0:0:0:
192,192,199423,1,0,0:0:0:0:
320,192,199498,1,0,0:0:0:0:
192,192,199573,1,0,0:0:0:0:
64,192,199573,1,0,0:0:0:0:
448,192,199573,1,0,0:0:0:0:
320,192,199648,1,0,0:0:0:0:
192,192,199723,1,0,0:0:0:0:
448,192,199723,1,0,0:0:0:0:
64,192,199798,1,0,0:0:0:0:
192,192,199873,1,0,0:0:0:0:
320,192,199873,1,0,0:0:0:0:
448,192,199948,1,0,0:0:0:0:
320,192,200023,1,0,0:0:0:0:
64,192,200098,1,0,0:0:0:0:
192,192,200173,1,0,0:0:0:0:
320,192,200173,1,0,0:0:0:0:
448,192,200173,1,0,0:0:0:0:
64,192,200248,1,0,0:0:0:0:
192,192,200323,1,0,0:0:0:0:
320,192,200398,1,0,0:0:0:0:
192,192,200473,1,0,0:0:0:0:
448,192,200473,128,0,200773:0:0:0:0:
320,192,200623,1,0,0:0:0:0:
64,192,200623,1,0,0:0:0:0:
64,192,200773,1,0,0:0:0:0:
192,192,200773,128,0,201073:0:0:0:0:
320,192,200773,1,0,0:0:0:0:
320,192,200923,1,0,0:0:0:0:
448,192,200923,1,0,0:0:0:0:
320,192,201073,128,0,201373:0:0:0:0:
64,192,201073,1,0,0:0:0:0:
192,192,201223,1,0,0:0:0:0:
64,192,201223,1,0,0:0:0:0:
448,192,201373,128,0,201673:0:0:0:0:
192,192,201373,1,0,0:0:0:0:
64,192,201373,1,0,0:0:0:0:
320,192,201523,1,0,0:0:0:0:
192,192,201523,1,0,0:0:0:0:
64,192,201673,1,0,0:0:0:0:
192,192,201673,1,0,0:0:0:0:
320,192,201748,1,0,0:0:0:0:
192,192,201823,1,0,0:0:0:0:
64,192,201898,1,0,0:0:0:0:
192,192,201973,1,0,0:0:0:0:
320,192,201973,1,0,0:0:0:0:
448,192,201973,1,0,0:0:0:0:
64,192,202048,1,0,0:0:0:0:
448,192,202123,1,0,0:0:0:0:
320,192,202198,1,0,0:0:0:0:
192,192,202273,1,0,0:0:0:0:
448,192,202273,1,0,0:0:0:0:
64,192,202348,1,0,0:0:0:0:
320,192,202423,1,0,0:0:0:0:
192,192,202498,1,0,0:0:0:0:
320,192,202573,1,0,0:0:0:0:
448,192,202573,1,0,0:0:0:0:
192,192,202648,1,0,0:0:0:0:
64,192,202648,1,0,0:0:0:0:
320,192,202723,1,0,0:0:0:0:
448,192,202723,1,0,0:0:0:0:
192,192,202798,1,0,0:0:0:0:
64,192,202798,1,0,0:0:0:0:
320,192,202873,1,0,0:0:0:0:
448,192,202873,1,0,0:0:0:0:
64,192,202873,1,0,0:0:0:0:
192,192,202948,1,0,0:0:0:0:
320,192,203023,1,0,0:0:0:0:
448,192,203098,1,0,0:0:0:0:
320,192,203173,1,0,0:0:0:0:
192,192,203173,1,0,0:0:0:0:
64,192,203173,1,0,0:0:0:0:
448,192,203248,1,0,0:0:0:0:
64,192,203323,1,0,0:0:0:0:
192,192,203398,1,0,0:0:0:0:
320,192,203473,1,0,0:0:0:0:
64,192,203473,1,0,0:0:0:0:
448,192,203548,1,0,0:0:0:0:
192,192,203623,1,0,0:0:0:0:
320,192,203698,1,0,0:0:0:0:
64,192,203773,1,0,0:0:0:0:
448,192,203773,1,0,0:0:0:0:
192,192,203773,1,0,0:0:0:0:
320,192,203848,1,0,0:0:0:0:
192,192,203923,1,0,0:0:0:0:
64,192,203998,1,0,0:0:0:0:
192,192,204073,1,0,0:0:0:0:
320,192,204073,1,0,0:0:0:0:
448,192,204073,1,0,0:0:0:0:
64,192,204148,1,0,0:0:0:0:
192,192,204223,1,0,0:0:0:0:
320,192,204298,1,0,0:0:0:0:
448,192,204373,1,0,0:0:0:0:
192,192,204373,1,0,0:0:0:0:
64,192,204448,1,0,0:0:0:0:
320,192,204523,1,0,0:0:0:0:
192,192,204598,1,0,0:0:0:0:
64,192,204673,1,0,0:0:0:0:
448,192,204673,1,0,0:0:0:0:
192,192,204748,1,0,0:0:0:0:
320,192,204823,1,0,0:0:0:0:
448,192,204898,1,0,0:0:0:0:
64,192,204973,1,0,0:0:0:0:
192,192,204973,1,0,0:0:0:0:
320,192,205048,1,0,0:0:0:0:
448,192,205123,1,0,0:0:0:0:
192,192,205198,1,0,0:0:0:0:
64,192,205273,1,0,0:0:0:0:
64,192,205573,1,0,0:0:0:0:
448,192,205573,1,0,0:0:0:0:
320,192,205573,1,0,0:0:0:0:
192,192,205648,1,0,0:0:0:0:
64,192,205723,1,0,0:0:0:0:
448,192,205798,1,0,0:0:0:0:
320,192,205873,1,0,0:0:0:0:
192,192,205873,1,0,0:0:0:0:
64,192,205948,1,0,0:0:0:0:
448,192,206023,1,0,0:0:0:0:
320,192,206098,1,0,0:0:0:0:
448,192,206173,1,0,0:0:0:0:
64,192,206173,1,0,0:0:0:0:
192,192,206173,1,0,0:0:0:0:
320,192,206248,1,0,0:0:0:0:
64,192,206323,1,0,0:0:0:0:
192,192,206398,1,0,0:0:0:0:
320,192,206473,1,0,0:0:0:0:
448,192,206473,1,0,0:0:0:0:
192,192,206548,1,0,0:0:0:0:
64,192,206623,1,0,0:0:0:0:
448,192,206698,1,0,0:0:0:0:
320,192,206773,1,0,0:0:0:0:
192,192,206773,1,0,0:0:0:0:
64,192,206773,1,0,0:0:0:0:
448,192,206848,1,0,0:0:0:0:
320,192,206923,1,0,0:0:0:0:
192,192,206923,1,0,0:0:0:0:
64,192,206998,1,0,0:0:0:0:
192,192,207073,1,0,0:0:0:0:
448,192,207073,1,0,0:0:0:0:
320,192,207148,1,0,0:0:0:0:
448,192,207223,1,0,0:0:0:0:
64,192,207223,1,0,0:0:0:0:
192,192,207298,1,0,0:0:0:0:
64,192,207373,1,0,0:0:0:0:
448,192,207373,1,0,0:0:0:0:
320,192,207373,1,0,0:0:0:0:
192,192,207448,1,0,0:0:0:0:
320,192,207523,1,0,0:0:0:0:
192,192,207598,1,0,0:0:0:0:
448,192,207673,128,0,207973:0:0:0:0:
64,192,207673,1,0,0:0:0:0:
64,192,207823,1,0,0:0:0:0:
192,192,207823,1,0,0:0:0:0:
192,192,207973,128,0,208273:0:0:0:0:
320,192,207973,1,0,0:0:0:0:
64,192,207973,1,0,0:0:0:0:
448,192,208123,1,0,0:0:0:0:
320,192,208123,1,0,0:0:0:0:
320,192,208273,128,0,208573:0:0:0:0:
64,192,208273,1,0,0:0:0:0:
448,192,208423,1,0,0:0:0:0:
192,192,208423,1,0,0:0:0:0:
448,192,208573,128,0,208873:0:0:0:0:
192,192,208573,1,0,0:0:0:0:
64,192,208573,1,0,0:0:0:0:
192,192,208723,1,0,0:0:0:0:
320,192,208723,1,0,0:0:0:0:
192,192,208873,1,0,0:0:0:0:
64,192,208873,1,0,0:0:0:0:
320,192,208948,1,0,0:0:0:0:
192,192,209023,1,0,0:0:0:0:
320,192,209098,1,0,0:0:0:0:
448,192,209173,1,0,0:0:0:0:
64,192,209173,1,0,0:0:0:0:
192,192,209173,1,0,0:0:0:0:
320,192,209248,1,0,0:0:0:0:
192,192,209323,1,0,0:0:0:0:
64,192,209398,1,0,0:0:0:0:
192,192,209473,1,0,0:0:0:0:
448,192,209473,1,0,0:0:0:0:
320,192,209548,1,0,0:0:0:0:
64,192,209623,1,0,0:0:0:0:
192,192,209698,1,0,0:0:0:0:
320,192,209773,1,0,0:0:0:0:
448,192,209773,1,0,0:0:0:0:
192,192,209848,1,0,0:0:0:0:
64,192,209848,1,0,0:0:0:0:
320,192,209923,1,0,0:0:0:0:
448,192,209923,1,0,0:0:0:0:
192,192,209998,1,0,0:0:0:0:
64,192,209998,1,0,0:0:0:0:
320,192,210073,1,0,0:0:0:0:
448,192,210073,1,0,0:0:0:0:
64,192,210073,1,0,0:0:0:0:
192,192,210148,1,0,0:0:0:0:
320,192,210223,1,0,0:0:0:0:
448,192,210298,1,0,0:0:0:0:
320,192,210373,1,0,0:0:0:0:
192,192,210373,1,0,0:0:0:0:
64,192,210373,1,0,0:0:0:0:
448,192,210448,1,0,0:0:0:0:
64,192,210523,1,0,0:0:0:0:
192,192,210598,1,0,0:0:0:0:
320,192,210673,1,0,0:0:0:0:
64,192,210673,1,0,0:0:0:0:
448,192,210748,1,0,0:0:0:0:
192,192,210823,1,0,0:0:0:0:
320,192,210898,1,0,0:0:0:0:
192,192,210973,1,0,0:0:0:0:
64,192,210973,1,0,0:0:0:0:
448,192,210973,1,0,0:0:0:0:
320,192,211048,1,0,0:0:0:0:
192,192,211123,1,0,0:0:0:0:
64,192,211198,1,0,0:0:0:0:
192,192,211273,1,0,0:0:0:0:
320,192,211273,1,0,0:0:0:0:
448,192,211348,1,0,0:0:0:0:
320,192,211423,1,0,0:0:0:0:
64,192,211498,1,0,0:0:0:0:
192,192,211573,1,0,0:0:0:0:
320,192,211573,1,0,0:0:0:0:
448,192,211573,1,0,0:0:0:0:
64,192,211648,1,0,0:0:0:0:
192,192,211723,1,0,0:0:0:0:
320,192,211798,1,0,0:0:0:0:
448,192,211873,1,0,0:0:0:0:
192,192,211873,1,0,0:0:0:0:
64,192,211948,1,0,0:0:0:0:
320,192,212023,1,0,0:0:0:0:
192,192,212098,1,0,0:0:0:0:
320,192,212173,1,0,0:0:0:0:
448,192,212173,1,0,0:0:0:0:
64,192,212173,1,0,0:0:0:0:
192,192,212248,1,0,0:0:0:0:
64,192,212323,1,0,0:0:0:0:
192,192,212398,1,0,0:0:0:0:
320,192,212473,1,0,0:0:0:0:
448,192,212473,1,0,0:0:0:0:
192,192,212548,1,0,0:0:0:0:
64,192,212548,1,0,0:0:0:0:
320,192,212623,1,0,0:0:0:0:
448,192,212623,1,0,0:0:0:0:
192,192,212698,1,0,0:0:0:0:
64,192,212698,1,0,0:0:0:0:
320,192,212773,1,0,0:0:0:0:
448,192,212773,1,0,0:0:0:0:
64,192,212773,1,0,0:0:0:0:
192,192,213073,1,0,0:0:0:0:
448,192,213073,1,0,0:0:0:0:
320,192,213148,1,0,0:0:0:0:
64,192,213148,1,0,0:0:0:0:
192,192,213223,1,0,0:0:0:0:
448,192,213223,1,0,0:0:0:0:
320,192,213298,1,0,0:0:0:0:
64,192,213298,1,0,0:0:0:0:
192,192,213373,1,0,0:0:0:0:
64,192,213373,1,0,0:0:0:0:
448,192,213373,1,0,0:0:0:0:
320,192,213523,1,0,0:0:0:0:
448,192,213523,1,0,0:0:0:0:
192,192,213598,1,0,0:0:0:0:
64,192,213673,1,0,0:0:0:0:
448,192,213673,1,0,0:0:0:0:
320,192,213673,1,0,0:0:0:0:
192,192,213748,1,0,0:0:0:0:
64,192,213823,1,0,0:0:0:0:
448,192,213823,1,0,0:0:0:0:
320,192,213898,1,0,0:0:0:0:
192,192,213973,1,0,0:0:0:0:
64,192,213973,1,0,0:0:0:0:
448,192,213973,1,0,0:0:0:0:
320,192,214048,1,0,0:0:0:0:
192,192,214123,1,0,0:0:0:0:
64,192,214123,1,0,0:0:0:0:
448,192,214198,1,0,0:0:0:0:
320,192,214273,1,0,0:0:0:0:
192,192,214273,1,0,0:0:0:0:
64,192,214273,1,0,0:0:0:0:
448,192,214348,1,0,0:0:0:0:
320,192,214423,1,0,0:0:0:0:
64,192,214423,1,0,0:0:0:0:
192,192,214498,1,0,0:0:0:0:
320,192,214573,1,0,0:0:0:0:
448,192,214573,1,0,0:0:0:0:
64,192,214573,1,0,0:0:0:0:
192,192,214648,1,0,0:0:0:0:
448,192,214723,1,0,0:0:0:0:
320,192,214723,1,0,0:0:0:0:
192,192,214798,1,0,0:0:0:0:
64,192,214798,1,0,0:0:0:0:
64,192,214873,1,0,0:0:0:0:
320,192,214873,1,0,0:0:0:0:
448,192,214873,1,0,0:0:0:0:
192,192,214948,1,0,0:0:0:0:
320,192,215023,1,0,0:0:0:0:
448,192,215098,1,0,0:0:0:0:
320,192,215173,1,0,0:0:0:0:
192,192,215173,1,0,0:0:0:0:
64,192,215173,1,0,0:0:0:0:
448,192,215248,1,0,0:0:0:0:
320,192,215323,1,0,0:0:0:0:
64,192,215398,1,0,0:0:0:0:
192,192,215473,1,0,0:0:0:0:
448,192,215473,1,0,0:0:0:0:
320,192,215548,1,0,0:0:0:0:
192,192,215623,1,0,0:0:0:0:
64,192,215698,1,0,0:0:0:0:
192,192,215773,1,0,0:0:0:0:
320,192,215773,1,0,0:0:0:0:
448,192,215773,1,0,0:0:0:0:
64,192,215848,1,0,0:0:0:0:
320,192,215923,1,0,0:0:0:0:
192,192,215998,1,0,0:0:0:0:
320,192,216073,1,0,0:0:0:0:
448,192,216073,1,0,0:0:0:0:
192,192,216148,1,0,0:0:0:0:
320,192,216223,1,0,0:0:0:0:
448,192,216298,1,0,0:0:0:0:
320,192,216373,1,0,0:0:0:0:
192,192,216373,1,0,0:0:0:0:
64,192,216373,1,0,0:0:0:0:
448,192,216448,1,0,0:0:0:0:
320,192,216523,1,0,0:0:0:0:
64,192,216523,1,0,0:0:0:0:
192,192,216598,1,0,0:0:0:0:
320,192,216673,1,0,0:0:0:0:
448,192,216673,1,0,0:0:0:0:
192,192,216748,1,0,0:0:0:0:
448,192,216823,1,0,0:0:0:0:
320,192,216898,1,0,0:0:0:0:
192,192,216973,1,0,0:0:0:0:
64,192,216973,1,0,0:0:0:0:
448,192,216973,1,0,0:0:0:0:
320,192,217048,1,0,0:0:0:0:
192,192,217123,1,0,0:0:0:0:
64,192,217198,1,0,0:0:0:0:
192,192,217273,128,0,217573:0:0:0:0:
448,192,217273,1,0,0:0:0:0:
320,192,217423,1,0,0:0:0:0:
448,192,217423,1,0,0:0:0:0:
320,192,217573,128,0,217873:0:0:0:0:
64,192,217573,1,0,0:0:0:0:
448,192,217573,1,0,0:0:0:0:
192,192,217723,1,0,0:0:0:0:
64,192,217723,1,0,0:0:0:0:
448,192,217873,128,0,218173:0:0:0:0:
192,192,217873,1,0,0:0:0:0:
320,192,218023,1,0,0:0:0:0:
192,192,218023,1,0,0:0:0:0:
64,192,218173,128,0,218473:0:0:0:0:
192,192,218173,1,0,0:0:0:0:
320,192,218173,1,0,0:0:0:0:
448,192,218323,1,0,0:0:0:0:
320,192,218323,1,0,0:0:0:0:
192,192,218473,1,0,0:0:0:0:
320,192,218473,1,0,0:0:0:0:
448,192,218548,1,0,0:0:0:0:
320,192,218623,1,0,0:0:0:0:
192,192,218698,1,0,0:0:0:0:
64,192,218773,1,0,0:0:0:0:
320,192,218773,1,0,0:0:0:0:
448,192,218773,1,0,0:0:0:0:
192,192,218848,1,0,0:0:0:0:
320,192,218923,1,0,0:0:0:0:
448,192,218998,1,0,0:0:0:0:
320,192,219073,1,0,0:0:0:0:
64,192,219073,1,0,0:0:0:0:
192,192,219148,1,0,0:0:0:0:
448,192,219223,1,0,0:0:0:0:
320,192,219298,1,0,0:0:0:0:
192,192,219373,1,0,0:0:0:0:
64,192,219373,1,0,0:0:0:0:
320,192,219448,1,0,0:0:0:0:
448,192,219448,1,0,0:0:0:0:
64,192,219523,1,0,0:0:0:0:
192,192,219523,1,0,0:0:0:0:
320,192,219598,1,0,0:0:0:0:
448,192,219598,1,0,0:0:0:0:
448,192,219673,1,0,0:0:0:0:
192,192,219673,1,0,0:0:0:0:
64,192,219673,1,0,0:0:0:0:
320,192,219748,1,0,0:0:0:0:
192,192,219823,1,0,0:0:0:0:
64,192,219898,1,0,0:0:0:0:
192,192,219973,1,0,0:0:0:0:
320,192,219973,1,0,0:0:0:0:
448,192,219973,1,0,0:0:0:0:
64,192,220048,1,0,0:0:0:0:
192,192,220123,1,0,0:0:0:0:
448,192,220198,1,0,0:0:0:0:
320,192,220273,1,0,0:0:0:0:
64,192,220273,1,0,0:0:0:0:
192,192,220348,1,0,0:0:0:0:
320,192,220423,1,0,0:0:0:0:
448,192,220498,1,0,0:0:0:0:
320,192,220573,1,0,0:0:0:0:
192,192,220573,1,0,0:0:0:0:
64,192,220573,1,0,0:0:0:0:
448,192,220648,1,0,0:0:0:0:
192,192,220723,1,0,0:0:0:0:
320,192,220798,1,0,0:0:0:0:
192,192,220873,1,0,0:0:0:0:
64,192,220873,1,0,0:0:0:0:
320,192,220948,1,0,0:0:0:0:
192,192,221023,1,0,0:0:0:0:
320,192,221098,1,0,0:0:0:0:
448,192,221173,1,0,0:0:0:0:
192,192,221173,1,0,0:0:0:0:
64,192,221173,1,0,0:0:0:0:
320,192,221248,1,0,0:0:0:0:
64,192,221323,1,0,0:0:0:0:
192,192,221398,1,0,0:0:0:0:
320,192,221473,1,0,0:0:0:0:
448,192,221473,1,0,0:0:0:0:
192,192,221548,1,0,0:0:0:0:
64,192,221623,1,0,0:0:0:0:
320,192,221698,1,0,0:0:0:0:
448,192,221773,1,0,0:0:0:0:
192,192,221773,1,0,0:0:0:0:
64,192,221773,1,0,0:0:0:0:
320,192,221848,1,0,0:0:0:0:
192,192,221923,1,0,0:0:0:0:
64,192,221998,1,0,0:0:0:0:
192,192,222073,1,0,0:0:0:0:
320,192,222073,1,0,0:0:0:0:
448,192,222073,1,0,0:0:0:0:
192,192,222373,1,0,0:0:0:0:
64,192,222373,1,0,0:0:0:0:
448,192,222373,1,0,0:0:0:0:
320,192,222673,1,0,0:0:0:0:
192,192,222673,1,0,0:0:0:0:
64,192,222673,1,0,0:0:0:0:
448,192,222748,1,0,0:0:0:0:
192,192,222823,1,0,0:0:0:0:
320,192,222898,1,0,0:0:0:0:
448,192,222973,1,0,0:0:0:0:
64,192,222973,1,0,0:0:0:0:
192,192,222973,1,0,0:0:0:0:
320,192,223048,1,0,0:0:0:0:
64,192,223123,1,0,0:0:0:0:
192,192,223198,1,0,0:0:0:0:
320,192,223273,1,0,0:0:0:0:
448,192,223273,1,0,0:0:0:0:
64,192,223273,1,0,0:0:0:0:
192,192,223348,1,0,0:0:0:0:
320,192,223423,1,0,0:0:0:0:
448,192,223423,1,0,0:0:0:0:
192,192,223498,1,0,0:0:0:0:
64,192,223573,1,0,0:0:0:0:
448,192,223573,1,0,0:0:0:0:
320,192,223648,1,0,0:0:0:0:
192,192,223723,1,0,0:0:0:0:
64,192,223723,1,0,0:0:0:0:
320,192,223798,1,0,0:0:0:0:
448,192,223873,1,0,0:0:0:0:
192,192,223873,1,0,0:0:0:0:
64,192,223873,1,0,0:0:0:0:
320,192,223948,1,0,0:0:0:0:
448,192,224023,1,0,0:0:0:0:
64,192,224023,1,0,0:0:0:0:
192,192,224098,1,0,0:0:0:0:
320,192,224173,1,0,0:0:0:0:
448,192,224173,1,0,0:0:0:0:
64,192,224173,1,0,0:0:0:0:
64,192,224473,1,0,0:0:0:0:
192,192,224473,1,0,0:0:0:0:
320,192,224473,1,0,0:0:0:0:
448,192,224473,1,0,0:0:0:0:
