osu file format v14

[General]
AudioFilename: Youyoumu no Gotoku.mp3
AudioLeadIn: 0
PreviewTime: 97279
Countdown: 0
SampleSet: Normal
StackLeniency: 0.7
Mode: 3
LetterboxInBreaks: 0
SpecialStyle: 0
WidescreenStoryboard: 1

[Editor]
Bookmarks: 181279
DistanceSpacing: 0.8
BeatDivisor: 4
GridSize: 4
TimelineZoom: 2.5

[Metadata]
Title:Envory's 4K Practice Pack
TitleUnicode:Envory's 4K Practice Pack
Artist:Various Artist
ArtistUnicode:Various Artist
Creator:Envory
Version:senya - Youyoumu no Gotoku [SV]
Source:
Tags:
BeatmapID:1786875
BeatmapSetID:855110

[Difficulty]
HPDrainRate:8
CircleSize:4
OverallDifficulty:7
ApproachRate:5
SliderMultiplier:1.4
SliderTickRate:1

[Events]
//Background and Video events
0,0,"656145.jpg",0,0
//Break Periods
//Storyboard Layer 0 (Background)
//Storyboard Layer 1 (Fail)
//Storyboard Layer 2 (Pass)
//Storyboard Layer 3 (Foreground)
//Storyboard Sound Samples

[TimingPoints]
529,375,4,1,0,50,1,0
29029,-250,4,1,0,50,0,0
29122,-83.3333333333333,4,1,0,50,0,0
29310,-250,4,1,0,50,0,0
29404,-83.3333333333333,4,1,0,50,0,0
29591,-100,4,1,0,50,0,0
30529,-55.5555555555556,4,1,0,50,0,0
30552,-333.333333333333,4,1,0,50,0,0
30622,-100,4,1,0,50,0,0
31279,-55.5555555555556,4,1,0,50,0,0
31302,-333.333333333333,4,1,0,50,0,0
31372,-100,4,1,0,50,0,0
32029,-55.5555555555556,4,1,0,50,0,0
32052,-333.333333333333,4,1,0,50,0,0
32122,-100,4,1,0,50,0,0
32779,-55.5555555555556,4,1,0,50,0,0
32802,-333.333333333333,4,1,0,50,0,0
32872,-100,4,1,0,50,0,0
33529,-200,4,1,0,50,0,0
33622,-66.6666666666667,4,1,0,50,0,0
33716,-200,4,1,0,50,0,0
33810,-66.6666666666667,4,1,0,50,0,0
33904,-200,4,1,0,50,0,0
33997,-66.6666666666667,4,1,0,50,0,0
34091,-200,4,1,0,50,0,0
34185,-66.6666666666667,4,1,0,50,0,0
34279,-200,4,1,0,50,0,0
34372,-66.6666666666667,4,1,0,50,0,0
34466,-200,4,1,0,50,0,0
34560,-66.6666666666667,4,1,0,50,0,0
34654,-200,4,1,0,50,0,0
34747,-66.6666666666667,4,1,0,50,0,0
34841,-200,4,1,0,50,0,0
34935,-66.6666666666667,4,1,0,50,0,0
35029,-100,4,1,0,50,0,0
47029,-250,4,1,0,50,0,0
47216,-83.3333333333333,4,1,0,50,0,0
47310,-250,4,1,0,50,0,0
47497,-83.3333333333333,4,1,0,50,0,0
47591,-100,4,1,0,50,0,0
59029,-250,4,1,0,50,0,0
59216,-83.3333333333333,4,1,0,50,0,0
59310,-250,4,1,0,50,0,0
59497,-83.3333333333333,4,1,0,50,0,0
59591,-100,4,1,0,50,0,0
69529,-250,4,1,0,50,0,0
69716,-83.3333333333333,4,1,0,50,0,0
69810,-250,4,1,0,50,0,0
69997,-83.3333333333333,4,1,0,50,0,0
70091,-250,4,1,0,50,0,0
70185,-83.3333333333333,4,1,0,50,0,0
70279,-250,4,1,0,50,0,0
70466,-83.3333333333333,4,1,0,50,0,0
70560,-250,4,1,0,50,0,0
70747,-83.3333333333333,4,1,0,50,0,0
70841,-250,4,1,0,50,0,0
70935,-83.3333333333333,4,1,0,50,0,0
71029,-250,4,1,0,50,0,0
71216,-83.3333333333333,4,1,0,50,0,0
71310,-250,4,1,0,50,0,0
71497,-83.3333333333333,4,1,0,50,0,0
71591,-250,4,1,0,50,0,0
71685,-83.3333333333333,4,1,0,50,0,0
71779,-100,4,1,0,50,0,0
72529,-111.111111111111,4,1,0,50,0,0
78529,-105.263157894737,4,1,0,50,0,0
83029,-103.092783505155,4,1,0,50,0,0
84529,-100,4,1,0,50,0,0
88654,-333.333333333333,4,1,0,50,0,0
88841,-83.3333333333333,4,1,0,50,0,0
89029,-250,4,1,0,50,0,0
89216,-83.3333333333333,4,1,0,50,0,0
89310,-250,4,1,0,50,0,0
89497,-83.3333333333333,4,1,0,50,0,0
89591,-100,4,1,0,50,0,0
90529,-55.5555555555556,4,1,0,50,0,0
90552,-333.333333333333,4,1,0,50,0,0
90622,-100,4,1,0,50,0,0
91279,-55.5555555555556,4,1,0,50,0,0
91302,-333.333333333333,4,1,0,50,0,0
91372,-100,4,1,0,50,0,0
92029,-55.5555555555556,4,1,0,50,0,0
92052,-333.333333333333,4,1,0,50,0,0
92122,-100,4,1,0,50,0,0
92779,-55.5555555555556,4,1,0,50,0,0
92802,-333.333333333333,4,1,0,50,0,0
92872,-100,4,1,0,50,0,0
93529,-200,4,1,0,50,0,0
93622,-66.6666666666667,4,1,0,50,0,0
93716,-200,4,1,0,50,0,0
93810,-66.6666666666667,4,1,0,50,0,0
93904,-200,4,1,0,50,0,0
93997,-66.6666666666667,4,1,0,50,0,0
94091,-200,4,1,0,50,0,0
94185,-66.6666666666667,4,1,0,50,0,0
94279,-200,4,1,0,50,0,0
94372,-66.6666666666667,4,1,0,50,0,0
94466,-200,4,1,0,50,0,0
94560,-66.6666666666667,4,1,0,50,0,0
94654,-200,4,1,0,50,0,0
94747,-66.6666666666667,4,1,0,50,0,0
94841,-200,4,1,0,50,0,0
94935,-66.6666666666667,4,1,0,50,0,0
95029,-100,4,1,0,50,0,0
96529,-333.333333333333,4,1,0,50,0,0
97091,-111.111111111111,4,1,0,50,0,0
97279,-100,4,1,0,50,0,0
107779,-250,4,1,0,50,0,0
107966,-83.3333333333333,4,1,0,50,0,0
108060,-250,4,1,0,50,0,0
108247,-83.3333333333333,4,1,0,50,0,0
108341,-100,4,1,0,50,0,0
119779,-250,4,1,0,50,0,0
119966,-83.3333333333333,4,1,0,50,0,0
120060,-250,4,1,0,50,0,0
120247,-83.3333333333333,4,1,0,50,0,0
120341,-100,4,1,0,50,0,0
121654,-250,4,1,0,50,0,0
121935,-83.3333333333333,4,1,0,50,0,0
122029,-250,4,1,0,50,0,0
122216,-83.3333333333333,4,1,0,50,0,0
122310,-250,4,1,0,50,0,0
122497,-83.3333333333333,4,1,0,50,0,0
122591,-250,4,1,0,50,0,0
122685,-83.3333333333333,4,1,0,50,0,0
122779,-250,4,1,0,50,0,0
122966,-83.3333333333333,4,1,0,50,0,0
123060,-250,4,1,0,50,0,0
123247,-83.3333333333333,4,1,0,50,0,0
123341,-250,4,1,0,50,0,0
123435,-83.3333333333333,4,1,0,50,0,0
123529,-250,4,1,0,50,0,0
123716,-83.3333333333333,4,1,0,50,0,0
123810,-250,4,1,0,50,0,0
123997,-83.3333333333333,4,1,0,50,0,0
124091,-100,4,1,0,50,0,0
124654,-250,4,1,0,50,0,0
124935,-83.3333333333333,4,1,0,50,0,0
125029,-250,4,1,0,50,0,0
125216,-83.3333333333333,4,1,0,50,0,0
125310,-250,4,1,0,50,0,0
125497,-83.3333333333333,4,1,0,50,0,0
125591,-250,4,1,0,50,0,0
125685,-83.3333333333333,4,1,0,50,0,0
125779,-250,4,1,0,50,0,0
125966,-83.3333333333333,4,1,0,50,0,0
126060,-250,4,1,0,50,0,0
126247,-83.3333333333333,4,1,0,50,0,0
126341,-250,4,1,0,50,0,0
126435,-83.3333333333333,4,1,0,50,0,0
126529,-250,4,1,0,50,0,0
126716,-83.3333333333333,4,1,0,50,0,0
126810,-100,4,1,0,50,0,0
133654,-250,4,1,0,50,0,0
133935,-83.3333333333333,4,1,0,50,0,0
134029,-250,4,1,0,50,0,0
134216,-83.3333333333333,4,1,0,50,0,0
134310,-250,4,1,0,50,0,0
134497,-83.3333333333333,4,1,0,50,0,0
134591,-250,4,1,0,50,0,0
134685,-83.3333333333333,4,1,0,50,0,0
134779,-250,4,1,0,50,0,0
134872,-83.3333333333333,4,1,0,50,0,0
135060,-250,4,1,0,50,0,0
135247,-83.3333333333333,4,1,0,50,0,0
135341,-250,4,1,0,50,0,0
135435,-83.3333333333333,4,1,0,50,0,0
135529,-250,4,1,0,50,0,0
135716,-83.3333333333333,4,1,0,50,0,0
135810,-250,4,1,0,50,0,0
135997,-83.3333333333333,4,1,0,50,0,0
136091,-100,4,1,0,50,0,0
136654,-250,4,1,0,50,0,0
136935,-83.3333333333333,4,1,0,50,0,0
137029,-250,4,1,0,50,0,0
137216,-83.3333333333333,4,1,0,50,0,0
137310,-250,4,1,0,50,0,0
137497,-83.3333333333333,4,1,0,50,0,0
137591,-250,4,1,0,50,0,0
137685,-83.3333333333333,4,1,0,50,0,0
137779,-250,4,1,0,50,0,0
137966,-83.3333333333333,4,1,0,50,0,0
138060,-250,4,1,0,50,0,0
138247,-83.3333333333333,4,1,0,50,0,0
138341,-250,4,1,0,50,0,0
138435,-83.3333333333333,4,1,0,50,0,0
138529,-100,4,1,0,50,0,0
142279,-250,4,1,0,50,0,0
142466,-83.3333333333333,4,1,0,50,0,0
142560,-250,4,1,0,50,0,0
142747,-83.3333333333333,4,1,0,50,0,0
142841,-250,4,1,0,50,0,0
142935,-83.3333333333333,4,1,0,50,0,0
143029,-250,4,1,0,50,0,0
143216,-83.3333333333333,4,1,0,50,0,0
143310,-250,4,1,0,50,0,0
143497,-83.3333333333333,4,1,0,50,0,0
143591,-250,4,1,0,50,0,0
143685,-83.3333333333333,4,1,0,50,0,0
143779,-250,4,1,0,50,0,0
143966,-83.3333333333333,4,1,0,50,0,0
144060,-250,4,1,0,50,0,0
144247,-83.3333333333333,4,1,0,50,0,0
144341,-250,4,1,0,50,0,0
144435,-83.3333333333333,4,1,0,50,0,0
144529,-100,4,1,0,50,0,0
145279,-111.111111111111,4,1,0,50,0,0
150529,-100,4,1,0,50,0,0
151279,-55.5555555555556,4,1,0,50,0,0
151302,-200,4,1,0,50,0,0
151372,-100,4,1,0,50,0,0
152029,-55.5555555555556,4,1,0,50,0,0
152052,-200,4,1,0,50,0,0
152122,-100,4,1,0,50,0,0
152779,-55.5555555555556,4,1,0,50,0,0
152802,-200,4,1,0,50,0,0
152872,-100,4,1,0,50,0,0
153529,-55.5555555555556,4,1,0,50,0,0
153552,-200,4,1,0,50,0,0
153622,-100,4,1,0,50,0,0
154279,-200,4,1,0,50,0,0
154372,-66.6666666666667,4,1,0,50,0,0
154466,-200,4,1,0,50,0,0
154560,-66.6666666666667,4,1,0,50,0,0
154654,-200,4,1,0,50,0,0
154747,-66.6666666666667,4,1,0,50,0,0
154841,-200,4,1,0,50,0,0
154935,-66.6666666666667,4,1,0,50,0,0
155029,-200,4,1,0,50,0,0
155122,-66.6666666666667,4,1,0,50,0,0
155216,-200,4,1,0,50,0,0
155310,-66.6666666666667,4,1,0,50,0,0
155404,-200,4,1,0,50,0,0
155497,-66.6666666666667,4,1,0,50,0,0
155591,-200,4,1,0,50,0,0
155685,-66.6666666666667,4,1,0,50,0,0
155779,-100,4,1,0,50,0,0
167404,-333.333333333333,4,1,0,50,0,0
167591,-83.3333333333333,4,1,0,50,0,0
167779,-250,4,1,0,50,0,0
167966,-83.3333333333333,4,1,0,50,0,0
168060,-250,4,1,0,50,0,0
168247,-83.3333333333333,4,1,0,50,0,0
168341,-100,4,1,0,50,0,0
179779,-250,4,1,0,50,0,0
179966,-83.3333333333333,4,1,0,50,0,0
180060,-250,4,1,0,50,0,0
180247,-83.3333333333333,4,1,0,50,0,0
180341,-100,4,1,0,50,0,0

[HitObjects]
448,192,529,5,0,0:0:0:0:
64,192,529,1,0,0:0:0:0:
192,192,529,1,0,0:0:0:0:
320,192,716,1,0,0:0:0:0:
192,192,904,1,0,0:0:0:0:
64,192,1091,1,0,0:0:0:0:
192,192,1279,1,0,0:0:0:0:
448,192,1279,1,0,0:0:0:0:
320,192,1466,1,0,0:0:0:0:
64,192,1654,1,0,0:0:0:0:
192,192,1841,1,0,0:0:0:0:
320,192,2029,1,0,0:0:0:0:
448,192,2029,128,0,2872:0:0:0:0:
64,192,3154,1,0,0:0:0:0:
192,192,3341,1,0,0:0:0:0:
320,192,3529,1,0,0:0:0:0:
448,192,3529,1,0,0:0:0:0:
192,192,3716,1,0,0:0:0:0:
64,192,3904,1,0,0:0:0:0:
448,192,4091,1,0,0:0:0:0:
64,192,4279,1,0,0:0:0:0:
192,192,4279,1,0,0:0:0:0:
320,192,4466,1,0,0:0:0:0:
448,192,4654,1,0,0:0:0:0:
64,192,4841,1,0,0:0:0:0:
320,192,5029,1,0,0:0:0:0:
448,192,5029,128,0,5404:0:0:0:0:
320,192,5404,128,0,5779:0:0:0:0:
192,192,5404,1,0,0:0:0:0:
192,192,5779,128,0,6154:0:0:0:0:
64,192,5779,1,0,0:0:0:0:
64,192,6154,128,0,6529:0:0:0:0:
320,192,6154,1,0,0:0:0:0:
448,192,6529,128,0,7279:0:0:0:0:
192,192,6529,1,0,0:0:0:0:
192,192,7279,128,0,8029:0:0:0:0:
320,192,7279,1,0,0:0:0:0:
64,192,8029,128,0,8404:0:0:0:0:
448,192,8029,1,0,0:0:0:0:
320,192,8404,128,0,8779:0:0:0:0:
64,192,8779,1,0,0:0:0:0:
192,192,8779,1,0,0:0:0:0:
448,192,9154,1,0,0:0:0:0:
320,192,9341,1,0,0:0:0:0:
192,192,9529,1,0,0:0:0:0:
64,192,9529,1,0,0:0:0:0:
448,192,9716,1,0,0:0:0:0:
320,192,9904,1,0,0:0:0:0:
192,192,10091,1,0,0:0:0:0:
64,192,10279,1,0,0:0:0:0:
448,192,10279,1,0,0:0:0:0:
320,192,10466,1,0,0:0:0:0:
448,192,10466,1,0,0:0:0:0:
320,192,10654,1,0,0:0:0:0:
64,192,10654,1,0,0:0:0:0:
192,192,10841,1,0,0:0:0:0:
64,192,10841,1,0,0:0:0:0:
320,192,11029,1,0,0:0:0:0:
448,192,11029,1,0,0:0:0:0:
64,192,11216,1,0,0:0:0:0:
320,192,11216,128,0,11404:0:0:0:0:
448,192,11404,1,0,0:0:0:0:
192,192,11404,128,0,11591:0:0:0:0:
320,192,11591,1,0,0:0:0:0:
64,192,11591,128,0,11779:0:0:0:0:
448,192,11779,128,0,11966:0:0:0:0:
192,192,11779,1,0,0:0:0:0:
64,192,11966,128,0,12154:0:0:0:0:
320,192,11966,1,0,0:0:0:0:
192,192,12154,1,0,0:0:0:0:
320,192,12154,128,0,12341:0:0:0:0:
448,192,12341,1,0,0:0:0:0:
192,192,12341,128,0,12529:0:0:0:0:
320,192,12529,1,0,0:0:0:0:
64,192,12529,1,0,0:0:0:0:
448,192,12529,1,0,0:0:0:0:
320,192,12716,128,0,12904:0:0:0:0:
64,192,12904,1,0,0:0:0:0:
448,192,12904,1,0,0:0:0:0:
320,192,13091,1,0,0:0:0:0:
192,192,13279,1,0,0:0:0:0:
448,192,13279,1,0,0:0:0:0:
64,192,13466,128,0,13654:0:0:0:0:
320,192,13654,1,0,0:0:0:0:
448,192,13654,1,0,0:0:0:0:
192,192,13841,1,0,0:0:0:0:
448,192,14029,1,0,0:0:0:0:
64,192,14029,1,0,0:0:0:0:
320,192,14216,128,0,14404:0:0:0:0:
64,192,14404,1,0,0:0:0:0:
192,192,14404,1,0,0:0:0:0:
448,192,14591,1,0,0:0:0:0:
320,192,14779,1,0,0:0:0:0:
192,192,14779,1,0,0:0:0:0:
64,192,14966,128,0,15154:0:0:0:0:
192,192,15154,1,0,0:0:0:0:
448,192,15154,1,0,0:0:0:0:
320,192,15341,1,0,0:0:0:0:
192,192,15529,1,0,0:0:0:0:
64,192,15529,1,0,0:0:0:0:
448,192,15716,128,0,15904:0:0:0:0:
64,192,15904,1,0,0:0:0:0:
320,192,15904,1,0,0:0:0:0:
192,192,16091,1,0,0:0:0:0:
64,192,16279,1,0,0:0:0:0:
448,192,16279,1,0,0:0:0:0:
320,192,16466,128,0,16654:0:0:0:0:
192,192,16654,1,0,0:0:0:0:
64,192,16654,1,0,0:0:0:0:
320,192,16841,1,0,0:0:0:0:
448,192,17029,128,0,17404:0:0:0:0:
192,192,17029,1,0,0:0:0:0:
192,192,17216,1,0,0:0:0:0:
320,192,17404,128,0,17779:0:0:0:0:
64,192,17404,1,0,0:0:0:0:
64,192,17591,1,0,0:0:0:0:
192,192,17779,128,0,18154:0:0:0:0:
448,192,17779,1,0,0:0:0:0:
448,192,17966,1,0,0:0:0:0:
64,192,18154,128,0,18529:0:0:0:0:
320,192,18154,1,0,0:0:0:0:
320,192,18341,1,0,0:0:0:0:
448,192,18529,1,0,0:0:0:0:
192,192,18529,1,0,0:0:0:0:
320,192,18716,1,0,0:0:0:0:
448,192,18904,1,0,0:0:0:0:
64,192,19091,1,0,0:0:0:0:
192,192,19279,1,0,0:0:0:0:
448,192,19279,1,0,0:0:0:0:
320,192,19466,128,0,19654:0:0:0:0:
192,192,19654,1,0,0:0:0:0:
64,192,19654,1,0,0:0:0:0:
448,192,19841,1,0,0:0:0:0:
320,192,20029,1,0,0:0:0:0:
64,192,20029,1,0,0:0:0:0:
192,192,20216,128,0,20404:0:0:0:0:
448,192,20404,1,0,0:0:0:0:
64,192,20404,1,0,0:0:0:0:
320,192,20591,1,0,0:0:0:0:
192,192,20779,1,0,0:0:0:0:
64,192,20779,1,0,0:0:0:0:
448,192,20966,128,0,21154:0:0:0:0:
320,192,21154,1,0,0:0:0:0:
192,192,21154,1,0,0:0:0:0:
64,192,21341,1,0,0:0:0:0:
192,192,21529,1,0,0:0:0:0:
448,192,21529,1,0,0:0:0:0:
320,192,21716,128,0,21904:0:0:0:0:
192,192,21904,1,0,0:0:0:0:
64,192,21904,1,0,0:0:0:0:
320,192,22091,1,0,0:0:0:0:
448,192,22279,1,0,0:0:0:0:
64,192,22279,1,0,0:0:0:0:
192,192,22466,128,0,22654:0:0:0:0:
320,192,22654,1,0,0:0:0:0:
448,192,22654,1,0,0:0:0:0:
64,192,22841,1,0,0:0:0:0:
448,192,23029,1,0,0:0:0:0:
320,192,23075,1,0,0:0:0:0:
192,192,23122,1,0,0:0:0:0:
64,192,23169,1,0,0:0:0:0:
448,192,23216,1,0,0:0:0:0:
320,192,23263,1,0,0:0:0:0:
192,192,23310,1,0,0:0:0:0:
64,192,23357,1,0,0:0:0:0:
448,192,23404,1,0,0:0:0:0:
320,192,23450,1,0,0:0:0:0:
192,192,23497,1,0,0:0:0:0:
64,192,23544,1,0,0:0:0:0:
448,192,23591,1,0,0:0:0:0:
320,192,23638,1,0,0:0:0:0:
192,192,23685,1,0,0:0:0:0:
64,192,23732,1,0,0:0:0:0:
448,192,23779,1,0,0:0:0:0:
320,192,23825,1,0,0:0:0:0:
192,192,23872,1,0,0:0:0:0:
64,192,23919,1,0,0:0:0:0:
448,192,23966,1,0,0:0:0:0:
320,192,24013,1,0,0:0:0:0:
192,192,24060,1,0,0:0:0:0:
64,192,24107,1,0,0:0:0:0:
448,192,24154,1,0,0:0:0:0:
320,192,24200,1,0,0:0:0:0:
64,192,24247,1,0,0:0:0:0:
192,192,24294,1,0,0:0:0:0:
448,192,24341,1,0,0:0:0:0:
320,192,24388,1,0,0:0:0:0:
64,192,24435,1,0,0:0:0:0:
192,192,24482,1,0,0:0:0:0:
320,192,24529,1,0,0:0:0:0:
448,192,24529,1,0,0:0:0:0:
192,192,24716,1,0,0:0:0:0:
320,192,24904,1,0,0:0:0:0:
448,192,24904,1,0,0:0:0:0:
64,192,24904,1,0,0:0:0:0:
192,192,25091,1,0,0:0:0:0:
448,192,25279,1,0,0:0:0:0:
320,192,25279,1,0,0:0:0:0:
64,192,25466,1,0,0:0:0:0:
192,192,25654,1,0,0:0:0:0:
448,192,25654,1,0,0:0:0:0:
320,192,25654,1,0,0:0:0:0:
64,192,25841,1,0,0:0:0:0:
192,192,26029,1,0,0:0:0:0:
448,192,26029,1,0,0:0:0:0:
320,192,26216,1,0,0:0:0:0:
192,192,26404,1,0,0:0:0:0:
64,192,26404,1,0,0:0:0:0:
448,192,26404,1,0,0:0:0:0:
320,192,26591,1,0,0:0:0:0:
448,192,26779,1,0,0:0:0:0:
64,192,26779,1,0,0:0:0:0:
192,192,26966,1,0,0:0:0:0:
320,192,27154,1,0,0:0:0:0:
448,192,27154,1,0,0:0:0:0:
64,192,27154,1,0,0:0:0:0:
192,192,27341,1,0,0:0:0:0:
448,192,27529,1,0,0:0:0:0:
64,192,27529,1,0,0:0:0:0:
192,192,27529,1,0,0:0:0:0:
320,192,27716,1,0,0:0:0:0:
448,192,27904,1,0,0:0:0:0:
64,192,27904,1,0,0:0:0:0:
320,192,28091,1,0,0:0:0:0:
320,192,28279,1,0,0:0:0:0:
448,192,28279,1,0,0:0:0:0:
64,192,28279,1,0,0:0:0:0:
192,192,28466,1,0,0:0:0:0:
320,192,28654,1,0,0:0:0:0:
448,192,28654,1,0,0:0:0:0:
64,192,28841,1,0,0:0:0:0:
64,192,29029,1,0,0:0:0:0:
192,192,29029,1,0,0:0:0:0:
448,192,29029,1,0,0:0:0:0:
192,192,29310,1,0,0:0:0:0:
320,192,29310,1,0,0:0:0:0:
448,192,29310,1,0,0:0:0:0:
64,192,29591,1,0,0:0:0:0:
448,192,29591,128,0,29966:0:0:0:0:
320,192,29591,1,0,0:0:0:0:
64,192,29966,1,0,0:0:0:0:
192,192,29966,1,0,0:0:0:0:
320,192,30060,1,0,0:0:0:0:
448,192,30154,1,0,0:0:0:0:
320,192,30200,1,0,0:0:0:0:
64,192,30247,1,0,0:0:0:0:
192,192,30294,1,0,0:0:0:0:
448,192,30341,1,0,0:0:0:0:
320,192,30388,1,0,0:0:0:0:
64,192,30435,1,0,0:0:0:0:
192,192,30482,1,0,0:0:0:0:
448,192,30529,1,0,0:0:0:0:
320,192,30529,1,0,0:0:0:0:
192,192,30716,1,0,0:0:0:0:
64,192,30904,1,0,0:0:0:0:
448,192,30904,1,0,0:0:0:0:
320,192,31091,1,0,0:0:0:0:
64,192,31279,1,0,0:0:0:0:
320,192,31279,1,0,0:0:0:0:
448,192,31279,1,0,0:0:0:0:
192,192,31466,1,0,0:0:0:0:
448,192,31654,1,0,0:0:0:0:
64,192,31654,1,0,0:0:0:0:
192,192,31841,1,0,0:0:0:0:
192,192,32029,1,0,0:0:0:0:
448,192,32029,1,0,0:0:0:0:
64,192,32029,1,0,0:0:0:0:
320,192,32216,1,0,0:0:0:0:
192,192,32404,1,0,0:0:0:0:
64,192,32404,1,0,0:0:0:0:
448,192,32591,1,0,0:0:0:0:
448,192,32779,1,0,0:0:0:0:
320,192,32779,1,0,0:0:0:0:
64,192,32779,1,0,0:0:0:0:
192,192,32966,1,0,0:0:0:0:
320,192,33154,1,0,0:0:0:0:
448,192,33154,1,0,0:0:0:0:
64,192,33341,1,0,0:0:0:0:
192,192,33529,1,0,0:0:0:0:
320,192,33529,1,0,0:0:0:0:
448,192,33529,1,0,0:0:0:0:
64,192,33716,1,0,0:0:0:0:
192,192,33716,1,0,0:0:0:0:
448,192,33904,1,0,0:0:0:0:
64,192,33904,1,0,0:0:0:0:
320,192,33904,1,0,0:0:0:0:
192,192,34091,1,0,0:0:0:0:
448,192,34091,1,0,0:0:0:0:
192,192,34279,1,0,0:0:0:0:
320,192,34279,1,0,0:0:0:0:
64,192,34466,1,0,0:0:0:0:
320,192,34466,1,0,0:0:0:0:
64,192,34654,1,0,0:0:0:0:
448,192,34654,1,0,0:0:0:0:
192,192,34654,1,0,0:0:0:0:
320,192,34841,1,0,0:0:0:0:
192,192,34841,1,0,0:0:0:0:
448,192,35029,1,0,0:0:0:0:
64,192,35029,128,0,36154:0:0:0:0:
320,192,35029,128,0,35591:0:0:0:0:
192,192,35591,128,0,36154:0:0:0:0:
448,192,36154,1,0,0:0:0:0:
320,192,36200,1,0,0:0:0:0:
192,192,36247,1,0,0:0:0:0:
64,192,36294,1,0,0:0:0:0:
448,192,36341,1,0,0:0:0:0:
320,192,36388,1,0,0:0:0:0:
192,192,36435,1,0,0:0:0:0:
64,192,36482,1,0,0:0:0:0:
320,192,36529,1,0,0:0:0:0:
448,192,36529,1,0,0:0:0:0:
320,192,36716,1,0,0:0:0:0:
64,192,36716,1,0,0:0:0:0:
448,192,36904,1,0,0:0:0:0:
192,192,36904,1,0,0:0:0:0:
64,192,36904,1,0,0:0:0:0:
320,192,37091,1,0,0:0:0:0:
192,192,37091,1,0,0:0:0:0:
448,192,37279,1,0,0:0:0:0:
64,192,37279,1,0,0:0:0:0:
320,192,37466,1,0,0:0:0:0:
448,192,37466,1,0,0:0:0:0:
320,192,37654,1,0,0:0:0:0:
192,192,37654,1,0,0:0:0:0:
64,192,37654,1,0,0:0:0:0:
448,192,37841,1,0,0:0:0:0:
64,192,37841,1,0,0:0:0:0:
320,192,38029,1,0,0:0:0:0:
192,192,38029,1,0,0:0:0:0:
192,192,38216,1,0,0:0:0:0:
64,192,38216,1,0,0:0:0:0:
320,192,38404,1,0,0:0:0:0:
448,192,38404,1,0,0:0:0:0:
64,192,38404,1,0,0:0:0:0:
448,192,38591,1,0,0:0:0:0:
192,192,38591,1,0,0:0:0:0:
320,192,38779,1,0,0:0:0:0:
64,192,38779,128,0,38966:0:0:0:0:
448,192,38966,1,0,0:0:0:0:
192,192,38966,128,0,39154:0:0:0:0:
64,192,39154,1,0,0:0:0:0:
448,192,39154,1,0,0:0:0:0:
320,192,39154,128,0,39341:0:0:0:0:
64,192,39341,1,0,0:0:0:0:
448,192,39341,128,0,39529:0:0:0:0:
192,192,39529,1,0,0:0:0:0:
320,192,39529,1,0,0:0:0:0:
64,192,39529,128,0,39904:0:0:0:0:
448,192,39716,1,0,0:0:0:0:
320,192,39716,1,0,0:0:0:0:
320,192,39904,1,0,0:0:0:0:
192,192,39904,1,0,0:0:0:0:
448,192,39904,1,0,0:0:0:0:
64,192,40091,1,0,0:0:0:0:
192,192,40091,1,0,0:0:0:0:
192,192,40279,1,0,0:0:0:0:
320,192,40279,1,0,0:0:0:0:
448,192,40466,1,0,0:0:0:0:
64,192,40466,1,0,0:0:0:0:
320,192,40654,1,0,0:0:0:0:
64,192,40654,1,0,0:0:0:0:
448,192,40654,1,0,0:0:0:0:
192,192,40841,1,0,0:0:0:0:
320,192,40841,1,0,0:0:0:0:
448,192,41029,1,0,0:0:0:0:
64,192,41029,1,0,0:0:0:0:
192,192,41216,1,0,0:0:0:0:
448,192,41216,1,0,0:0:0:0:
320,192,41404,1,0,0:0:0:0:
192,192,41404,1,0,0:0:0:0:
64,192,41404,1,0,0:0:0:0:
448,192,41591,1,0,0:0:0:0:
320,192,41591,1,0,0:0:0:0:
448,192,41779,1,0,0:0:0:0:
64,192,41779,1,0,0:0:0:0:
320,192,41872,1,0,0:0:0:0:
192,192,41966,1,0,0:0:0:0:
320,192,42060,1,0,0:0:0:0:
64,192,42154,1,0,0:0:0:0:
448,192,42154,1,0,0:0:0:0:
192,192,42200,1,0,0:0:0:0:
320,192,42247,1,0,0:0:0:0:
448,192,42294,1,0,0:0:0:0:
64,192,42341,1,0,0:0:0:0:
192,192,42388,1,0,0:0:0:0:
320,192,42435,1,0,0:0:0:0:
448,192,42482,1,0,0:0:0:0:
192,192,42529,1,0,0:0:0:0:
64,192,42529,1,0,0:0:0:0:
64,192,42716,1,0,0:0:0:0:
448,192,42716,1,0,0:0:0:0:
192,192,42904,1,0,0:0:0:0:
320,192,42904,1,0,0:0:0:0:
448,192,42904,1,0,0:0:0:0:
320,192,43091,1,0,0:0:0:0:
64,192,43091,1,0,0:0:0:0:
192,192,43279,1,0,0:0:0:0:
64,192,43279,1,0,0:0:0:0:
448,192,43279,1,0,0:0:0:0:
448,192,43466,1,0,0:0:0:0:
320,192,43466,1,0,0:0:0:0:
320,192,43654,1,0,0:0:0:0:
192,192,43654,1,0,0:0:0:0:
64,192,43654,1,0,0:0:0:0:
448,192,43841,1,0,0:0:0:0:
64,192,43841,1,0,0:0:0:0:
320,192,44029,1,0,0:0:0:0:
192,192,44029,1,0,0:0:0:0:
64,192,44216,1,0,0:0:0:0:
320,192,44216,1,0,0:0:0:0:
192,192,44404,1,0,0:0:0:0:
64,192,44404,1,0,0:0:0:0:
448,192,44404,1,0,0:0:0:0:
320,192,44591,1,0,0:0:0:0:
448,192,44591,1,0,0:0:0:0:
64,192,44779,128,0,44966:0:0:0:0:
192,192,44779,1,0,0:0:0:0:
192,192,44966,128,0,45154:0:0:0:0:
320,192,44966,1,0,0:0:0:0:
320,192,45154,1,0,0:0:0:0:
64,192,45154,1,0,0:0:0:0:
448,192,45154,128,0,45341:0:0:0:0:
192,192,45341,1,0,0:0:0:0:
320,192,45341,128,0,45529:0:0:0:0:
192,192,45529,1,0,0:0:0:0:
448,192,45529,1,0,0:0:0:0:
64,192,45529,128,0,45904:0:0:0:0:
320,192,45716,1,0,0:0:0:0:
192,192,45716,1,0,0:0:0:0:
192,192,45904,1,0,0:0:0:0:
448,192,45904,1,0,0:0:0:0:
320,192,45904,1,0,0:0:0:0:
64,192,46091,1,0,0:0:0:0:
448,192,46091,1,0,0:0:0:0:
192,192,46279,1,0,0:0:0:0:
64,192,46279,1,0,0:0:0:0:
320,192,46279,1,0,0:0:0:0:
448,192,46466,1,0,0:0:0:0:
192,192,46466,1,0,0:0:0:0:
320,192,46654,1,0,0:0:0:0:
448,192,46654,1,0,0:0:0:0:
64,192,46654,1,0,0:0:0:0:
320,192,46841,1,0,0:0:0:0:
192,192,46841,1,0,0:0:0:0:
192,192,47029,1,0,0:0:0:0:
64,192,47029,1,0,0:0:0:0:
448,192,47029,1,0,0:0:0:0:
64,192,47310,1,0,0:0:0:0:
192,192,47310,1,0,0:0:0:0:
320,192,47310,1,0,0:0:0:0:
448,192,47591,1,0,0:0:0:0:
320,192,47591,1,0,0:0:0:0:
64,192,47591,1,0,0:0:0:0:
192,192,47685,1,0,0:0:0:0:
320,192,47779,1,0,0:0:0:0:
448,192,47872,1,0,0:0:0:0:
64,192,47966,1,0,0:0:0:0:
192,192,47966,1,0,0:0:0:0:
320,192,48060,1,0,0:0:0:0:
448,192,48154,1,0,0:0:0:0:
320,192,48200,1,0,0:0:0:0:
192,192,48247,1,0,0:0:0:0:
64,192,48294,1,0,0:0:0:0:
448,192,48341,1,0,0:0:0:0:
320,192,48388,1,0,0:0:0:0:
192,192,48435,1,0,0:0:0:0:
64,192,48482,1,0,0:0:0:0:
320,192,48529,1,0,0:0:0:0:
448,192,48529,1,0,0:0:0:0:
192,192,48716,1,0,0:0:0:0:
320,192,48716,1,0,0:0:0:0:
448,192,48904,1,0,0:0:0:0:
64,192,48904,1,0,0:0:0:0:
192,192,48904,1,0,0:0:0:0:
192,192,49091,1,0,0:0:0:0:
320,192,49091,1,0,0:0:0:0:
320,192,49279,1,0,0:0:0:0:
448,192,49279,1,0,0:0:0:0:
64,192,49466,1,0,0:0:0:0:
448,192,49466,1,0,0:0:0:0:
64,192,49654,1,0,0:0:0:0:
192,192,49654,1,0,0:0:0:0:
320,192,49654,1,0,0:0:0:0:
192,192,49841,1,0,0:0:0:0:
448,192,49841,1,0,0:0:0:0:
448,192,50029,1,0,0:0:0:0:
64,192,50029,1,0,0:0:0:0:
320,192,50216,1,0,0:0:0:0:
64,192,50216,1,0,0:0:0:0:
192,192,50404,1,0,0:0:0:0:
320,192,50404,1,0,0:0:0:0:
448,192,50404,1,0,0:0:0:0:
64,192,50591,1,0,0:0:0:0:
192,192,50591,1,0,0:0:0:0:
448,192,50779,128,0,50966:0:0:0:0:
64,192,50779,1,0,0:0:0:0:
320,192,50966,128,0,51154:0:0:0:0:
192,192,50966,1,0,0:0:0:0:
192,192,51154,128,0,51341:0:0:0:0:
448,192,51154,1,0,0:0:0:0:
64,192,51154,1,0,0:0:0:0:
64,192,51341,128,0,51529:0:0:0:0:
320,192,51341,1,0,0:0:0:0:
320,192,51529,1,0,0:0:0:0:
192,192,51529,1,0,0:0:0:0:
448,192,51529,128,0,51904:0:0:0:0:
64,192,51716,1,0,0:0:0:0:
192,192,51716,1,0,0:0:0:0:
192,192,51904,1,0,0:0:0:0:
64,192,51904,1,0,0:0:0:0:
320,192,51904,1,0,0:0:0:0:
448,192,52091,1,0,0:0:0:0:
320,192,52091,1,0,0:0:0:0:
192,192,52279,1,0,0:0:0:0:
448,192,52279,1,0,0:0:0:0:
64,192,52466,1,0,0:0:0:0:
192,192,52466,1,0,0:0:0:0:
64,192,52654,1,0,0:0:0:0:
320,192,52654,1,0,0:0:0:0:
448,192,52654,1,0,0:0:0:0:
320,192,52841,1,0,0:0:0:0:
192,192,52841,1,0,0:0:0:0:
192,192,53029,1,0,0:0:0:0:
64,192,53029,1,0,0:0:0:0:
448,192,53216,1,0,0:0:0:0:
320,192,53216,1,0,0:0:0:0:
448,192,53404,1,0,0:0:0:0:
192,192,53404,1,0,0:0:0:0:
64,192,53404,1,0,0:0:0:0:
320,192,53591,1,0,0:0:0:0:
64,192,53591,1,0,0:0:0:0:
448,192,53779,1,0,0:0:0:0:
192,192,53779,1,0,0:0:0:0:
64,192,53966,1,0,0:0:0:0:
320,192,53966,1,0,0:0:0:0:
320,192,54154,1,0,0:0:0:0:
448,192,54154,1,0,0:0:0:0:
192,192,54154,1,0,0:0:0:0:
64,192,54341,1,0,0:0:0:0:
192,192,54388,1,0,0:0:0:0:
320,192,54435,1,0,0:0:0:0:
448,192,54482,1,0,0:0:0:0:
320,192,54529,1,0,0:0:0:0:
192,192,54529,1,0,0:0:0:0:
192,192,54716,1,0,0:0:0:0:
64,192,54716,1,0,0:0:0:0:
64,192,54904,1,0,0:0:0:0:
448,192,54904,1,0,0:0:0:0:
320,192,54904,1,0,0:0:0:0:
192,192,55091,1,0,0:0:0:0:
320,192,55091,1,0,0:0:0:0:
192,192,55279,1,0,0:0:0:0:
448,192,55279,1,0,0:0:0:0:
448,192,55466,1,0,0:0:0:0:
64,192,55466,1,0,0:0:0:0:
320,192,55654,1,0,0:0:0:0:
192,192,55654,1,0,0:0:0:0:
64,192,55654,1,0,0:0:0:0:
192,192,55841,1,0,0:0:0:0:
448,192,55841,1,0,0:0:0:0:
320,192,56029,1,0,0:0:0:0:
448,192,56029,1,0,0:0:0:0:
64,192,56216,1,0,0:0:0:0:
320,192,56216,1,0,0:0:0:0:
64,192,56404,1,0,0:0:0:0:
192,192,56404,1,0,0:0:0:0:
448,192,56404,1,0,0:0:0:0:
192,192,56591,1,0,0:0:0:0:
320,192,56591,1,0,0:0:0:0:
320,192,56779,128,0,56966:0:0:0:0:
64,192,56779,1,0,0:0:0:0:
448,192,56966,128,0,57154:0:0:0:0:
192,192,56966,1,0,0:0:0:0:
192,192,57154,128,0,57341:0:0:0:0:
320,192,57154,1,0,0:0:0:0:
64,192,57154,1,0,0:0:0:0:
64,192,57341,128,0,57529:0:0:0:0:
320,192,57341,1,0,0:0:0:0:
320,192,57529,1,0,0:0:0:0:
192,192,57529,1,0,0:0:0:0:
448,192,57529,128,0,57904:0:0:0:0:
64,192,57716,1,0,0:0:0:0:
320,192,57716,1,0,0:0:0:0:
320,192,57904,1,0,0:0:0:0:
192,192,57904,1,0,0:0:0:0:
64,192,57904,1,0,0:0:0:0:
448,192,58091,1,0,0:0:0:0:
192,192,58091,1,0,0:0:0:0:
320,192,58279,1,0,0:0:0:0:
64,192,58279,1,0,0:0:0:0:
448,192,58279,1,0,0:0:0:0:
192,192,58466,1,0,0:0:0:0:
320,192,58466,1,0,0:0:0:0:
448,192,58654,1,0,0:0:0:0:
64,192,58654,1,0,0:0:0:0:
192,192,58654,1,0,0:0:0:0:
64,192,58841,1,0,0:0:0:0:
320,192,58841,1,0,0:0:0:0:
320,192,59029,5,0,0:0:0:0:
192,192,59029,1,0,0:0:0:0:
448,192,59029,1,0,0:0:0:0:
192,192,59310,1,0,0:0:0:0:
64,192,59310,1,0,0:0:0:0:
448,192,59310,1,0,0:0:0:0:
64,192,59591,1,0,0:0:0:0:
448,192,59591,1,0,0:0:0:0:
192,192,59591,1,0,0:0:0:0:
320,192,59779,1,0,0:0:0:0:
192,192,59872,1,0,0:0:0:0:
320,192,59966,1,0,0:0:0:0:
448,192,60060,1,0,0:0:0:0:
64,192,60154,1,0,0:0:0:0:
192,192,60200,1,0,0:0:0:0:
448,192,60247,1,0,0:0:0:0:
320,192,60294,1,0,0:0:0:0:
64,192,60341,1,0,0:0:0:0:
192,192,60388,1,0,0:0:0:0:
448,192,60435,1,0,0:0:0:0:
320,192,60482,1,0,0:0:0:0:
192,192,60529,1,0,0:0:0:0:
64,192,60529,128,0,60716:0:0:0:0:
320,192,60716,128,0,60904:0:0:0:0:
64,192,60904,1,0,0:0:0:0:
448,192,60904,1,0,0:0:0:0:
192,192,60904,128,0,61091:0:0:0:0:
448,192,61091,128,0,61279:0:0:0:0:
320,192,61279,1,0,0:0:0:0:
64,192,61279,128,0,61466:0:0:0:0:
192,192,61466,128,0,61654:0:0:0:0:
320,192,61654,1,0,0:0:0:0:
64,192,61654,1,0,0:0:0:0:
448,192,61654,128,0,61841:0:0:0:0:
320,192,61841,128,0,62029:0:0:0:0:
64,192,62029,128,0,62216:0:0:0:0:
192,192,62029,1,0,0:0:0:0:
448,192,62216,128,0,62404:0:0:0:0:
192,192,62404,128,0,62591:0:0:0:0:
320,192,62404,1,0,0:0:0:0:
64,192,62404,1,0,0:0:0:0:
320,192,62591,128,0,62779:0:0:0:0:
64,192,62779,128,0,62966:0:0:0:0:
448,192,62779,1,0,0:0:0:0:
192,192,62966,128,0,63154:0:0:0:0:
64,192,63154,1,0,0:0:0:0:
448,192,63154,1,0,0:0:0:0:
320,192,63154,128,0,63341:0:0:0:0:
192,192,63341,128,0,63529:0:0:0:0:
64,192,63529,1,0,0:0:0:0:
320,192,63529,1,0,0:0:0:0:
448,192,63529,128,0,63716:0:0:0:0:
64,192,63716,128,0,63904:0:0:0:0:
448,192,63904,1,0,0:0:0:0:
192,192,63904,1,0,0:0:0:0:
320,192,63904,128,0,64091:0:0:0:0:
192,192,64091,128,0,64279:0:0:0:0:
64,192,64279,1,0,0:0:0:0:
320,192,64279,1,0,0:0:0:0:
448,192,64279,128,0,64466:0:0:0:0:
64,192,64466,128,0,64654:0:0:0:0:
192,192,64654,1,0,0:0:0:0:
448,192,64654,1,0,0:0:0:0:
320,192,64654,128,0,64841:0:0:0:0:
192,192,64841,128,0,65029:0:0:0:0:
320,192,65029,1,0,0:0:0:0:
64,192,65029,1,0,0:0:0:0:
448,192,65029,128,0,65216:0:0:0:0:
320,192,65216,128,0,65404:0:0:0:0:
192,192,65404,1,0,0:0:0:0:
448,192,65404,1,0,0:0:0:0:
64,192,65404,128,0,65591:0:0:0:0:
192,192,65591,128,0,65779:0:0:0:0:
448,192,65779,1,0,0:0:0:0:
64,192,65779,1,0,0:0:0:0:
320,192,65872,1,0,0:0:0:0:
192,192,65966,1,0,0:0:0:0:
64,192,66060,1,0,0:0:0:0:
448,192,66154,1,0,0:0:0:0:
320,192,66200,1,0,0:0:0:0:
192,192,66247,1,0,0:0:0:0:
64,192,66294,1,0,0:0:0:0:
448,192,66341,1,0,0:0:0:0:
320,192,66388,1,0,0:0:0:0:
192,192,66435,1,0,0:0:0:0:
64,192,66482,1,0,0:0:0:0:
320,192,66529,1,0,0:0:0:0:
448,192,66529,128,0,66716:0:0:0:0:
192,192,66716,128,0,66904:0:0:0:0:
448,192,66904,1,0,0:0:0:0:
64,192,66904,1,0,0:0:0:0:
320,192,66904,128,0,67091:0:0:0:0:
64,192,67091,128,0,67279:0:0:0:0:
192,192,67279,1,0,0:0:0:0:
448,192,67279,128,0,67466:0:0:0:0:
64,192,67466,128,0,67654:0:0:0:0:
192,192,67654,1,0,0:0:0:0:
448,192,67654,1,0,0:0:0:0:
320,192,67654,128,0,67841:0:0:0:0:
192,192,67841,128,0,68029:0:0:0:0:
448,192,68029,128,0,68216:0:0:0:0:
64,192,68029,1,0,0:0:0:0:
320,192,68216,128,0,68404:0:0:0:0:
192,192,68404,1,0,0:0:0:0:
448,192,68404,1,0,0:0:0:0:
64,192,68404,128,0,68591:0:0:0:0:
448,192,68591,128,0,68779:0:0:0:0:
192,192,68779,128,0,68966:0:0:0:0:
64,192,68779,1,0,0:0:0:0:
320,192,68966,128,0,69154:0:0:0:0:
192,192,69154,1,0,0:0:0:0:
64,192,69154,1,0,0:0:0:0:
448,192,69154,128,0,69341:0:0:0:0:
64,192,69341,128,0,69529:0:0:0:0:
192,192,69529,5,0,0:0:0:0:
320,192,69529,1,0,0:0:0:0:
448,192,69529,1,0,0:0:0:0:
320,192,69810,1,0,0:0:0:0:
448,192,69810,1,0,0:0:0:0:
192,192,69810,1,0,0:0:0:0:
320,192,70091,1,0,0:0:0:0:
64,192,70091,1,0,0:0:0:0:
448,192,70091,1,0,0:0:0:0:
320,192,70279,1,0,0:0:0:0:
448,192,70279,1,0,0:0:0:0:
64,192,70279,1,0,0:0:0:0:
192,192,70560,1,0,0:0:0:0:
64,192,70560,1,0,0:0:0:0:
320,192,70560,1,0,0:0:0:0:
320,192,70841,1,0,0:0:0:0:
64,192,70841,1,0,0:0:0:0:
448,192,70841,1,0,0:0:0:0:
320,192,71029,1,0,0:0:0:0:
448,192,71029,1,0,0:0:0:0:
64,192,71029,1,0,0:0:0:0:
192,192,71310,1,0,0:0:0:0:
64,192,71310,1,0,0:0:0:0:
320,192,71310,1,0,0:0:0:0:
320,192,71591,1,0,0:0:0:0:
64,192,71591,1,0,0:0:0:0:
192,192,71591,1,0,0:0:0:0:
448,192,71779,1,0,0:0:0:0:
64,192,71779,1,0,0:0:0:0:
320,192,71825,1,0,0:0:0:0:
192,192,71872,1,0,0:0:0:0:
64,192,71919,1,0,0:0:0:0:
448,192,71966,1,0,0:0:0:0:
320,192,72013,1,0,0:0:0:0:
192,192,72060,1,0,0:0:0:0:
64,192,72107,1,0,0:0:0:0:
448,192,72154,1,0,0:0:0:0:
320,192,72200,1,0,0:0:0:0:
192,192,72247,1,0,0:0:0:0:
64,192,72294,1,0,0:0:0:0:
448,192,72341,1,0,0:0:0:0:
320,192,72388,1,0,0:0:0:0:
192,192,72435,1,0,0:0:0:0:
64,192,72482,1,0,0:0:0:0:
320,192,72529,1,0,0:0:0:0:
448,192,72529,1,0,0:0:0:0:
192,192,72716,1,0,0:0:0:0:
320,192,72904,1,0,0:0:0:0:
64,192,72904,1,0,0:0:0:0:
192,192,73091,1,0,0:0:0:0:
64,192,73279,1,0,0:0:0:0:
448,192,73279,1,0,0:0:0:0:
320,192,73466,1,0,0:0:0:0:
192,192,73654,1,0,0:0:0:0:
448,192,73654,1,0,0:0:0:0:
320,192,73841,1,0,0:0:0:0:
64,192,74029,1,0,0:0:0:0:
448,192,74029,128,0,75154:0:0:0:0:
320,192,74216,1,0,0:0:0:0:
192,192,74404,1,0,0:0:0:0:
64,192,74591,1,0,0:0:0:0:
320,192,74779,1,0,0:0:0:0:
192,192,75154,128,0,75341:0:0:0:0:
320,192,75341,128,0,75529:0:0:0:0:
64,192,75529,128,0,77029:0:0:0:0:
192,192,75529,1,0,0:0:0:0:
448,192,75716,1,0,0:0:0:0:
192,192,75904,1,0,0:0:0:0:
320,192,76091,1,0,0:0:0:0:
448,192,76279,1,0,0:0:0:0:
192,192,76466,1,0,0:0:0:0:
448,192,76654,1,0,0:0:0:0:
320,192,76841,1,0,0:0:0:0:
192,192,77029,128,0,77216:0:0:0:0:
448,192,77029,1,0,0:0:0:0:
320,192,77216,128,0,77404:0:0:0:0:
64,192,77216,1,0,0:0:0:0:
448,192,77404,128,0,77591:0:0:0:0:
192,192,77404,1,0,0:0:0:0:
64,192,77591,128,0,77779:0:0:0:0:
320,192,77591,1,0,0:0:0:0:
448,192,77779,128,0,77966:0:0:0:0:
192,192,77779,1,0,0:0:0:0:
64,192,77966,128,0,78154:0:0:0:0:
320,192,77966,1,0,0:0:0:0:
192,192,78154,128,0,78341:0:0:0:0:
448,192,78154,1,0,0:0:0:0:
320,192,78341,128,0,78529:0:0:0:0:
64,192,78341,1,0,0:0:0:0:
448,192,78529,1,0,0:0:0:0:
192,192,78529,1,0,0:0:0:0:
64,192,78529,1,0,0:0:0:0:
320,192,78716,1,0,0:0:0:0:
64,192,78904,1,0,0:0:0:0:
448,192,78904,1,0,0:0:0:0:
192,192,79091,1,0,0:0:0:0:
320,192,79279,1,0,0:0:0:0:
64,192,79279,1,0,0:0:0:0:
448,192,79466,1,0,0:0:0:0:
320,192,79654,1,0,0:0:0:0:
192,192,79654,1,0,0:0:0:0:
64,192,79841,1,0,0:0:0:0:
192,192,80029,1,0,0:0:0:0:
448,192,80029,1,0,0:0:0:0:
320,192,80216,1,0,0:0:0:0:
192,192,80404,1,0,0:0:0:0:
64,192,80404,1,0,0:0:0:0:
448,192,80591,1,0,0:0:0:0:
320,192,80779,1,0,0:0:0:0:
192,192,80779,1,0,0:0:0:0:
64,192,80966,1,0,0:0:0:0:
192,192,81154,1,0,0:0:0:0:
448,192,81154,1,0,0:0:0:0:
320,192,81341,1,0,0:0:0:0:
448,192,81529,1,0,0:0:0:0:
64,192,81529,1,0,0:0:0:0:
192,192,81716,1,0,0:0:0:0:
320,192,81904,1,0,0:0:0:0:
448,192,81904,1,0,0:0:0:0:
64,192,82091,1,0,0:0:0:0:
448,192,82279,1,0,0:0:0:0:
192,192,82279,1,0,0:0:0:0:
320,192,82466,1,0,0:0:0:0:
192,192,82654,1,0,0:0:0:0:
64,192,82654,1,0,0:0:0:0:
320,192,82841,1,0,0:0:0:0:
64,192,83029,128,0,84529:0:0:0:0:
448,192,83029,128,0,83216:0:0:0:0:
192,192,83216,128,0,83404:0:0:0:0:
448,192,83404,128,0,83591:0:0:0:0:
320,192,83591,128,0,83779:0:0:0:0:
192,192,83779,128,0,84529:0:0:0:0:
448,192,83779,128,0,83966:0:0:0:0:
320,192,83966,128,0,84154:0:0:0:0:
448,192,84154,128,0,84341:0:0:0:0:
320,192,84341,128,0,84529:0:0:0:0:
448,192,84529,1,0,0:0:0:0:
64,192,84716,1,0,0:0:0:0:
192,192,84904,1,0,0:0:0:0:
320,192,84904,1,0,0:0:0:0:
448,192,84904,1,0,0:0:0:0:
64,192,85091,1,0,0:0:0:0:
448,192,85279,1,0,0:0:0:0:
320,192,85279,1,0,0:0:0:0:
192,192,85466,1,0,0:0:0:0:
192,192,85654,1,0,0:0:0:0:
64,192,85654,1,0,0:0:0:0:
448,192,85654,1,0,0:0:0:0:
320,192,85841,1,0,0:0:0:0:
448,192,86029,1,0,0:0:0:0:
64,192,86029,1,0,0:0:0:0:
192,192,86216,1,0,0:0:0:0:
448,192,86404,1,0,0:0:0:0:
320,192,86404,1,0,0:0:0:0:
64,192,86404,1,0,0:0:0:0:
192,192,86591,1,0,0:0:0:0:
320,192,86779,1,0,0:0:0:0:
64,192,86779,1,0,0:0:0:0:
448,192,86966,1,0,0:0:0:0:
320,192,87154,1,0,0:0:0:0:
192,192,87154,1,0,0:0:0:0:
64,192,87154,1,0,0:0:0:0:
448,192,87341,1,0,0:0:0:0:
448,192,87529,1,0,0:0:0:0:
320,192,87529,1,0,0:0:0:0:
192,192,87529,1,0,0:0:0:0:
320,192,87716,1,0,0:0:0:0:
64,192,87904,1,0,0:0:0:0:
192,192,87904,1,0,0:0:0:0:
448,192,87904,1,0,0:0:0:0:
64,192,88091,1,0,0:0:0:0:
192,192,88279,1,0,0:0:0:0:
320,192,88279,1,0,0:0:0:0:
448,192,88279,1,0,0:0:0:0:
64,192,88466,1,0,0:0:0:0:
64,192,88654,1,0,0:0:0:0:
448,192,88654,1,0,0:0:0:0:
320,192,88654,1,0,0:0:0:0:
192,192,89029,1,0,0:0:0:0:
320,192,89029,1,0,0:0:0:0:
448,192,89029,1,0,0:0:0:0:
64,192,89310,1,0,0:0:0:0:
192,192,89310,1,0,0:0:0:0:
448,192,89310,1,0,0:0:0:0:
320,192,89591,1,0,0:0:0:0:
64,192,89591,1,0,0:0:0:0:
448,192,89591,128,0,90529:0:0:0:0:
192,192,89966,1,0,0:0:0:0:
64,192,89966,1,0,0:0:0:0:
320,192,90154,128,0,90529:0:0:0:0:
64,192,90341,1,0,0:0:0:0:
192,192,90529,1,0,0:0:0:0:
64,192,90529,1,0,0:0:0:0:
320,192,90716,1,0,0:0:0:0:
448,192,90904,1,0,0:0:0:0:
192,192,91091,1,0,0:0:0:0:
192,192,91279,1,0,0:0:0:0:
448,192,91279,1,0,0:0:0:0:
64,192,91279,1,0,0:0:0:0:
320,192,91466,1,0,0:0:0:0:
192,192,91654,1,0,0:0:0:0:
448,192,91841,1,0,0:0:0:0:
320,192,92029,1,0,0:0:0:0:
448,192,92029,1,0,0:0:0:0:
64,192,92029,1,0,0:0:0:0:
192,192,92216,1,0,0:0:0:0:
64,192,92404,1,0,0:0:0:0:
320,192,92591,1,0,0:0:0:0:
192,192,92779,1,0,0:0:0:0:
320,192,92779,1,0,0:0:0:0:
448,192,92779,1,0,0:0:0:0:
64,192,92966,1,0,0:0:0:0:
320,192,93154,1,0,0:0:0:0:
448,192,93341,1,0,0:0:0:0:
320,192,93529,1,0,0:0:0:0:
448,192,93529,1,0,0:0:0:0:
64,192,93529,1,0,0:0:0:0:
192,192,93716,1,0,0:0:0:0:
320,192,93716,1,0,0:0:0:0:
192,192,93904,1,0,0:0:0:0:
64,192,93904,1,0,0:0:0:0:
448,192,93904,1,0,0:0:0:0:
64,192,94091,1,0,0:0:0:0:
320,192,94091,1,0,0:0:0:0:
320,192,94279,1,0,0:0:0:0:
448,192,94279,1,0,0:0:0:0:
448,192,94466,1,0,0:0:0:0:
192,192,94466,1,0,0:0:0:0:
192,192,94654,1,0,0:0:0:0:
64,192,94654,1,0,0:0:0:0:
320,192,94654,1,0,0:0:0:0:
320,192,94841,1,0,0:0:0:0:
448,192,94841,1,0,0:0:0:0:
192,192,95029,1,0,0:0:0:0:
64,192,95029,128,0,95779:0:0:0:0:
448,192,95029,128,0,95779:0:0:0:0:
320,192,95779,1,0,0:0:0:0:
448,192,95872,1,0,0:0:0:0:
64,192,95966,1,0,0:0:0:0:
192,192,96060,1,0,0:0:0:0:
448,192,96154,1,0,0:0:0:0:
320,192,96200,1,0,0:0:0:0:
192,192,96247,1,0,0:0:0:0:
64,192,96294,1,0,0:0:0:0:
448,192,96341,1,0,0:0:0:0:
320,192,96388,1,0,0:0:0:0:
192,192,96435,1,0,0:0:0:0:
64,192,96482,1,0,0:0:0:0:
448,192,96529,5,0,0:0:0:0:
320,192,96529,1,0,0:0:0:0:
320,192,97279,5,0,0:0:0:0:
448,192,97279,1,0,0:0:0:0:
64,192,97279,1,0,0:0:0:0:
192,192,97279,1,0,0:0:0:0:
192,192,97466,1,0,0:0:0:0:
64,192,97466,1,0,0:0:0:0:
192,192,97654,1,0,0:0:0:0:
448,192,97654,1,0,0:0:0:0:
320,192,97654,1,0,0:0:0:0:
448,192,97841,1,0,0:0:0:0:
64,192,97841,1,0,0:0:0:0:
320,192,98029,1,0,0:0:0:0:
64,192,98029,1,0,0:0:0:0:
192,192,98216,1,0,0:0:0:0:
320,192,98216,1,0,0:0:0:0:
192,192,98404,1,0,0:0:0:0:
64,192,98404,1,0,0:0:0:0:
448,192,98404,1,0,0:0:0:0:
448,192,98591,1,0,0:0:0:0:
320,192,98591,1,0,0:0:0:0:
192,192,98779,1,0,0:0:0:0:
64,192,98779,1,0,0:0:0:0:
448,192,98966,1,0,0:0:0:0:
192,192,98966,1,0,0:0:0:0:
64,192,99154,1,0,0:0:0:0:
448,192,99154,1,0,0:0:0:0:
320,192,99154,1,0,0:0:0:0:
192,192,99341,1,0,0:0:0:0:
320,192,99341,1,0,0:0:0:0:
192,192,99529,1,0,0:0:0:0:
448,192,99529,128,0,99716:0:0:0:0:
64,192,99716,128,0,99904:0:0:0:0:
320,192,99716,1,0,0:0:0:0:
448,192,99904,128,0,100091:0:0:0:0:
192,192,99904,1,0,0:0:0:0:
320,192,99904,1,0,0:0:0:0:
64,192,100091,128,0,100279:0:0:0:0:
192,192,100091,1,0,0:0:0:0:
320,192,100279,128,0,100654:0:0:0:0:
448,192,100279,1,0,0:0:0:0:
192,192,100279,1,0,0:0:0:0:
64,192,100466,1,0,0:0:0:0:
64,192,100654,1,0,0:0:0:0:
192,192,100654,1,0,0:0:0:0:
448,192,100654,1,0,0:0:0:0:
448,192,100841,1,0,0:0:0:0:
320,192,100841,1,0,0:0:0:0:
320,192,101029,1,0,0:0:0:0:
192,192,101029,1,0,0:0:0:0:
64,192,101216,1,0,0:0:0:0:
192,192,101216,1,0,0:0:0:0:
64,192,101404,1,0,0:0:0:0:
448,192,101404,1,0,0:0:0:0:
320,192,101404,1,0,0:0:0:0:
192,192,101591,1,0,0:0:0:0:
320,192,101591,1,0,0:0:0:0:
448,192,101779,1,0,0:0:0:0:
64,192,101779,1,0,0:0:0:0:
448,192,101966,1,0,0:0:0:0:
192,192,101966,1,0,0:0:0:0:
192,192,102154,1,0,0:0:0:0:
320,192,102154,1,0,0:0:0:0:
64,192,102154,1,0,0:0:0:0:
320,192,102341,1,0,0:0:0:0:
448,192,102341,1,0,0:0:0:0:
448,192,102529,1,0,0:0:0:0:
64,192,102529,1,0,0:0:0:0:
192,192,102622,1,0,0:0:0:0:
320,192,102716,1,0,0:0:0:0:
448,192,102716,1,0,0:0:0:0:
64,192,102810,1,0,0:0:0:0:
192,192,102904,1,0,0:0:0:0:
320,192,102904,1,0,0:0:0:0:
448,192,102904,1,0,0:0:0:0:
64,192,102997,1,0,0:0:0:0:
448,192,103091,1,0,0:0:0:0:
192,192,103091,1,0,0:0:0:0:
320,192,103185,1,0,0:0:0:0:
64,192,103279,1,0,0:0:0:0:
448,192,103279,1,0,0:0:0:0:
192,192,103279,1,0,0:0:0:0:
448,192,103466,1,0,0:0:0:0:
320,192,103466,1,0,0:0:0:0:
192,192,103654,1,0,0:0:0:0:
64,192,103654,1,0,0:0:0:0:
320,192,103654,1,0,0:0:0:0:
64,192,103841,1,0,0:0:0:0:
448,192,103841,1,0,0:0:0:0:
320,192,104029,1,0,0:0:0:0:
448,192,104029,1,0,0:0:0:0:
64,192,104216,1,0,0:0:0:0:
320,192,104216,1,0,0:0:0:0:
192,192,104404,1,0,0:0:0:0:
64,192,104404,1,0,0:0:0:0:
448,192,104404,1,0,0:0:0:0:
192,192,104591,1,0,0:0:0:0:
320,192,104591,1,0,0:0:0:0:
320,192,104779,1,0,0:0:0:0:
64,192,104779,1,0,0:0:0:0:
448,192,104966,1,0,0:0:0:0:
192,192,104966,1,0,0:0:0:0:
448,192,105154,1,0,0:0:0:0:
320,192,105154,1,0,0:0:0:0:
64,192,105154,1,0,0:0:0:0:
192,192,105341,1,0,0:0:0:0:
320,192,105341,1,0,0:0:0:0:
448,192,105529,1,0,0:0:0:0:
64,192,105529,128,0,105716:0:0:0:0:
192,192,105716,128,0,105904:0:0:0:0:
320,192,105716,1,0,0:0:0:0:
320,192,105904,128,0,106091:0:0:0:0:
448,192,105904,1,0,0:0:0:0:
64,192,105904,1,0,0:0:0:0:
448,192,106091,128,0,106279:0:0:0:0:
192,192,106091,1,0,0:0:0:0:
64,192,106279,128,0,106654:0:0:0:0:
320,192,106279,1,0,0:0:0:0:
192,192,106279,1,0,0:0:0:0:
448,192,106466,1,0,0:0:0:0:
448,192,106654,1,0,0:0:0:0:
320,192,106654,1,0,0:0:0:0:
192,192,106654,1,0,0:0:0:0:
64,192,106841,1,0,0:0:0:0:
320,192,106841,1,0,0:0:0:0:
192,192,107029,1,0,0:0:0:0:
64,192,107029,1,0,0:0:0:0:
448,192,107029,1,0,0:0:0:0:
320,192,107216,1,0,0:0:0:0:
448,192,107216,1,0,0:0:0:0:
320,192,107404,1,0,0:0:0:0:
192,192,107404,1,0,0:0:0:0:
64,192,107404,1,0,0:0:0:0:
448,192,107591,1,0,0:0:0:0:
64,192,107591,1,0,0:0:0:0:
192,192,107779,1,0,0:0:0:0:
448,192,107779,1,0,0:0:0:0:
320,192,107779,1,0,0:0:0:0:
192,192,108060,1,0,0:0:0:0:
64,192,108060,1,0,0:0:0:0:
448,192,108060,1,0,0:0:0:0:
320,192,108341,1,0,0:0:0:0:
64,192,108341,1,0,0:0:0:0:
448,192,108341,1,0,0:0:0:0:
192,192,108435,1,0,0:0:0:0:
320,192,108529,1,0,0:0:0:0:
64,192,108622,1,0,0:0:0:0:
192,192,108716,1,0,0:0:0:0:
448,192,108716,1,0,0:0:0:0:
320,192,108810,1,0,0:0:0:0:
64,192,108904,1,0,0:0:0:0:
448,192,108904,1,0,0:0:0:0:
320,192,108950,1,0,0:0:0:0:
192,192,108997,1,0,0:0:0:0:
64,192,109044,1,0,0:0:0:0:
448,192,109091,1,0,0:0:0:0:
320,192,109138,1,0,0:0:0:0:
192,192,109185,1,0,0:0:0:0:
64,192,109232,1,0,0:0:0:0:
320,192,109279,1,0,0:0:0:0:
448,192,109279,1,0,0:0:0:0:
192,192,109466,1,0,0:0:0:0:
448,192,109466,1,0,0:0:0:0:
320,192,109654,1,0,0:0:0:0:
192,192,109654,1,0,0:0:0:0:
64,192,109654,1,0,0:0:0:0:
320,192,109841,1,0,0:0:0:0:
448,192,109841,1,0,0:0:0:0:
64,192,110029,1,0,0:0:0:0:
192,192,110029,1,0,0:0:0:0:
448,192,110216,1,0,0:0:0:0:
320,192,110216,1,0,0:0:0:0:
64,192,110216,1,0,0:0:0:0:
320,192,110404,1,0,0:0:0:0:
448,192,110404,1,0,0:0:0:0:
192,192,110404,1,0,0:0:0:0:
320,192,110591,1,0,0:0:0:0:
64,192,110591,1,0,0:0:0:0:
192,192,110779,1,0,0:0:0:0:
448,192,110779,1,0,0:0:0:0:
64,192,110966,1,0,0:0:0:0:
320,192,110966,1,0,0:0:0:0:
192,192,111154,1,0,0:0:0:0:
64,192,111154,1,0,0:0:0:0:
320,192,111154,1,0,0:0:0:0:
192,192,111341,1,0,0:0:0:0:
448,192,111341,1,0,0:0:0:0:
320,192,111529,1,0,0:0:0:0:
448,192,111529,128,0,111716:0:0:0:0:
192,192,111716,128,0,111904:0:0:0:0:
64,192,111716,1,0,0:0:0:0:
320,192,111904,128,0,112091:0:0:0:0:
64,192,111904,1,0,0:0:0:0:
448,192,111904,1,0,0:0:0:0:
64,192,112091,128,0,112279:0:0:0:0:
192,192,112091,1,0,0:0:0:0:
448,192,112279,128,0,112654:0:0:0:0:
192,192,112279,1,0,0:0:0:0:
320,192,112279,1,0,0:0:0:0:
64,192,112466,1,0,0:0:0:0:
64,192,112654,1,0,0:0:0:0:
192,192,112654,1,0,0:0:0:0:
320,192,112654,1,0,0:0:0:0:
192,192,112841,1,0,0:0:0:0:
448,192,112841,1,0,0:0:0:0:
64,192,113029,1,0,0:0:0:0:
448,192,113029,1,0,0:0:0:0:
64,192,113216,1,0,0:0:0:0:
320,192,113216,1,0,0:0:0:0:
320,192,113404,1,0,0:0:0:0:
192,192,113404,1,0,0:0:0:0:
448,192,113404,1,0,0:0:0:0:
192,192,113591,1,0,0:0:0:0:
64,192,113591,1,0,0:0:0:0:
320,192,113779,1,0,0:0:0:0:
448,192,113779,1,0,0:0:0:0:
64,192,113966,1,0,0:0:0:0:
448,192,113966,1,0,0:0:0:0:
64,192,114154,1,0,0:0:0:0:
192,192,114154,1,0,0:0:0:0:
320,192,114154,1,0,0:0:0:0:
192,192,114341,1,0,0:0:0:0:
448,192,114341,1,0,0:0:0:0:
320,192,114529,1,0,0:0:0:0:
448,192,114529,1,0,0:0:0:0:
192,192,114716,1,0,0:0:0:0:
320,192,114716,1,0,0:0:0:0:
448,192,114904,1,0,0:0:0:0:
192,192,114904,1,0,0:0:0:0:
64,192,114904,1,0,0:0:0:0:
320,192,114997,1,0,0:0:0:0:
64,192,115091,1,0,0:0:0:0:
192,192,115138,1,0,0:0:0:0:
320,192,115185,1,0,0:0:0:0:
448,192,115232,1,0,0:0:0:0:
192,192,115279,1,0,0:0:0:0:
64,192,115279,1,0,0:0:0:0:
192,192,115466,1,0,0:0:0:0:
448,192,115466,1,0,0:0:0:0:
320,192,115654,1,0,0:0:0:0:
448,192,115654,1,0,0:0:0:0:
64,192,115654,1,0,0:0:0:0:
320,192,115841,1,0,0:0:0:0:
192,192,115841,1,0,0:0:0:0:
192,192,116029,1,0,0:0:0:0:
64,192,116029,1,0,0:0:0:0:
448,192,116216,1,0,0:0:0:0:
64,192,116216,1,0,0:0:0:0:
192,192,116404,1,0,0:0:0:0:
320,192,116404,1,0,0:0:0:0:
448,192,116404,1,0,0:0:0:0:
320,192,116591,1,0,0:0:0:0:
64,192,116591,1,0,0:0:0:0:
192,192,116779,1,0,0:0:0:0:
320,192,116779,1,0,0:0:0:0:
448,192,116966,1,0,0:0:0:0:
192,192,116966,1,0,0:0:0:0:
320,192,117154,1,0,0:0:0:0:
448,192,117154,1,0,0:0:0:0:
64,192,117154,1,0,0:0:0:0:
320,192,117341,1,0,0:0:0:0:
192,192,117341,1,0,0:0:0:0:
448,192,117529,1,0,0:0:0:0:
64,192,117529,128,0,117716:0:0:0:0:
448,192,117716,128,0,117904:0:0:0:0:
192,192,117716,1,0,0:0:0:0:
64,192,117904,128,0,118091:0:0:0:0:
320,192,117904,1,0,0:0:0:0:
192,192,117904,1,0,0:0:0:0:
448,192,118091,128,0,118279:0:0:0:0:
320,192,118091,1,0,0:0:0:0:
192,192,118279,128,0,118654:0:0:0:0:
320,192,118279,1,0,0:0:0:0:
64,192,118279,1,0,0:0:0:0:
448,192,118466,1,0,0:0:0:0:
448,192,118654,1,0,0:0:0:0:
320,192,118654,1,0,0:0:0:0:
64,192,118654,1,0,0:0:0:0:
192,192,118841,1,0,0:0:0:0:
320,192,118841,1,0,0:0:0:0:
192,192,119029,1,0,0:0:0:0:
64,192,119029,1,0,0:0:0:0:
448,192,119029,1,0,0:0:0:0:
64,192,119216,1,0,0:0:0:0:
320,192,119216,1,0,0:0:0:0:
448,192,119404,1,0,0:0:0:0:
320,192,119404,1,0,0:0:0:0:
192,192,119404,1,0,0:0:0:0:
64,192,119591,1,0,0:0:0:0:
448,192,119591,1,0,0:0:0:0:
320,192,119779,1,0,0:0:0:0:
192,192,119779,1,0,0:0:0:0:
64,192,119779,1,0,0:0:0:0:
192,192,120060,1,0,0:0:0:0:
320,192,120060,1,0,0:0:0:0:
448,192,120060,1,0,0:0:0:0:
448,192,120341,1,0,0:0:0:0:
192,192,120341,1,0,0:0:0:0:
64,192,120341,1,0,0:0:0:0:
320,192,120435,1,0,0:0:0:0:
448,192,120529,1,0,0:0:0:0:
64,192,120529,1,0,0:0:0:0:
192,192,120622,1,0,0:0:0:0:
320,192,120716,1,0,0:0:0:0:
448,192,120716,1,0,0:0:0:0:
192,192,120810,1,0,0:0:0:0:
448,192,120904,1,0,0:0:0:0:
64,192,120904,1,0,0:0:0:0:
320,192,120950,1,0,0:0:0:0:
192,192,120997,1,0,0:0:0:0:
64,192,121044,1,0,0:0:0:0:
448,192,121091,1,0,0:0:0:0:
320,192,121138,1,0,0:0:0:0:
192,192,121185,1,0,0:0:0:0:
64,192,121232,1,0,0:0:0:0:
448,192,121279,1,0,0:0:0:0:
320,192,121325,1,0,0:0:0:0:
64,192,121372,1,0,0:0:0:0:
192,192,121419,1,0,0:0:0:0:
320,192,121466,1,0,0:0:0:0:
64,192,121513,1,0,0:0:0:0:
192,192,121560,1,0,0:0:0:0:
320,192,121607,1,0,0:0:0:0:
448,192,121654,1,0,0:0:0:0:
64,192,121654,1,0,0:0:0:0:
192,192,122029,1,0,0:0:0:0:
320,192,122029,1,0,0:0:0:0:
448,192,122029,1,0,0:0:0:0:
192,192,122310,1,0,0:0:0:0:
64,192,122310,1,0,0:0:0:0:
448,192,122310,1,0,0:0:0:0:
320,192,122591,1,0,0:0:0:0:
448,192,122591,1,0,0:0:0:0:
192,192,122591,1,0,0:0:0:0:
192,192,122779,1,0,0:0:0:0:
320,192,122779,1,0,0:0:0:0:
448,192,122779,1,0,0:0:0:0:
320,192,123060,1,0,0:0:0:0:
192,192,123060,1,0,0:0:0:0:
64,192,123060,1,0,0:0:0:0:
320,192,123341,1,0,0:0:0:0:
448,192,123341,1,0,0:0:0:0:
64,192,123341,1,0,0:0:0:0:
320,192,123529,1,0,0:0:0:0:
192,192,123529,1,0,0:0:0:0:
64,192,123529,1,0,0:0:0:0:
192,192,123810,1,0,0:0:0:0:
64,192,123810,1,0,0:0:0:0:
448,192,123810,1,0,0:0:0:0:
448,192,124091,1,0,0:0:0:0:
192,192,124091,1,0,0:0:0:0:
64,192,124091,1,0,0:0:0:0:
320,192,124279,1,0,0:0:0:0:
448,192,124325,1,0,0:0:0:0:
192,192,124372,1,0,0:0:0:0:
320,192,124419,1,0,0:0:0:0:
64,192,124466,1,0,0:0:0:0:
192,192,124513,1,0,0:0:0:0:
448,192,124560,1,0,0:0:0:0:
320,192,124607,1,0,0:0:0:0:
192,192,124654,1,0,0:0:0:0:
64,192,124654,1,0,0:0:0:0:
192,192,125029,1,0,0:0:0:0:
320,192,125029,1,0,0:0:0:0:
448,192,125029,1,0,0:0:0:0:
192,192,125310,1,0,0:0:0:0:
64,192,125310,1,0,0:0:0:0:
448,192,125310,1,0,0:0:0:0:
192,192,125591,1,0,0:0:0:0:
320,192,125591,1,0,0:0:0:0:
448,192,125591,1,0,0:0:0:0:
192,192,125779,1,0,0:0:0:0:
64,192,125779,1,0,0:0:0:0:
448,192,125779,1,0,0:0:0:0:
320,192,126060,1,0,0:0:0:0:
448,192,126060,1,0,0:0:0:0:
64,192,126060,1,0,0:0:0:0:
320,192,126341,1,0,0:0:0:0:
448,192,126341,1,0,0:0:0:0:
64,192,126341,1,0,0:0:0:0:
64,192,126529,1,0,0:0:0:0:
192,192,126529,1,0,0:0:0:0:
320,192,126529,1,0,0:0:0:0:
192,192,126810,1,0,0:0:0:0:
320,192,126810,1,0,0:0:0:0:
448,192,126810,1,0,0:0:0:0:
64,192,126904,1,0,0:0:0:0:
192,192,126997,1,0,0:0:0:0:
320,192,127091,1,0,0:0:0:0:
448,192,127091,1,0,0:0:0:0:
64,192,127091,1,0,0:0:0:0:
192,192,127185,1,0,0:0:0:0:
64,192,127279,1,0,0:0:0:0:
320,192,127279,1,0,0:0:0:0:
448,192,127279,1,0,0:0:0:0:
192,192,127466,1,0,0:0:0:0:
320,192,127466,1,0,0:0:0:0:
192,192,127654,1,0,0:0:0:0:
64,192,127654,1,0,0:0:0:0:
448,192,127654,1,0,0:0:0:0:
448,192,127841,1,0,0:0:0:0:
320,192,127841,1,0,0:0:0:0:
64,192,128029,1,0,0:0:0:0:
192,192,128029,1,0,0:0:0:0:
320,192,128216,1,0,0:0:0:0:
192,192,128216,1,0,0:0:0:0:
320,192,128404,1,0,0:0:0:0:
448,192,128404,1,0,0:0:0:0:
64,192,128404,1,0,0:0:0:0:
192,192,128591,1,0,0:0:0:0:
448,192,128591,1,0,0:0:0:0:
320,192,128779,1,0,0:0:0:0:
64,192,128779,1,0,0:0:0:0:
64,192,128966,1,0,0:0:0:0:
448,192,128966,1,0,0:0:0:0:
192,192,129154,1,0,0:0:0:0:
320,192,129154,1,0,0:0:0:0:
448,192,129154,1,0,0:0:0:0:
64,192,129341,1,0,0:0:0:0:
192,192,129341,1,0,0:0:0:0:
320,192,129529,1,0,0:0:0:0:
448,192,129529,1,0,0:0:0:0:
64,192,129716,1,0,0:0:0:0:
320,192,129716,1,0,0:0:0:0:
192,192,129904,1,0,0:0:0:0:
64,192,129904,1,0,0:0:0:0:
448,192,129904,1,0,0:0:0:0:
320,192,130091,1,0,0:0:0:0:
192,192,130091,1,0,0:0:0:0:
448,192,130279,1,0,0:0:0:0:
64,192,130279,1,0,0:0:0:0:
320,192,130279,1,0,0:0:0:0:
192,192,130466,1,0,0:0:0:0:
64,192,130466,1,0,0:0:0:0:
448,192,130654,1,0,0:0:0:0:
192,192,130654,1,0,0:0:0:0:
320,192,130654,1,0,0:0:0:0:
64,192,130841,1,0,0:0:0:0:
448,192,130841,1,0,0:0:0:0:
320,192,131029,1,0,0:0:0:0:
192,192,131029,1,0,0:0:0:0:
64,192,131029,1,0,0:0:0:0:
320,192,131216,1,0,0:0:0:0:
448,192,131216,1,0,0:0:0:0:
192,192,131404,1,0,0:0:0:0:
64,192,131404,1,0,0:0:0:0:
448,192,131404,1,0,0:0:0:0:
320,192,131591,1,0,0:0:0:0:
192,192,131591,1,0,0:0:0:0:
64,192,131779,1,0,0:0:0:0:
448,192,131779,1,0,0:0:0:0:
320,192,131779,1,0,0:0:0:0:
192,192,131966,1,0,0:0:0:0:
448,192,131966,1,0,0:0:0:0:
320,192,132154,1,0,0:0:0:0:
192,192,132154,1,0,0:0:0:0:
64,192,132154,1,0,0:0:0:0:
448,192,132341,1,0,0:0:0:0:
320,192,132341,1,0,0:0:0:0:
192,192,132529,1,0,0:0:0:0:
64,192,132529,1,0,0:0:0:0:
192,192,132716,1,0,0:0:0:0:
320,192,132716,1,0,0:0:0:0:
320,192,132904,1,0,0:0:0:0:
448,192,132904,1,0,0:0:0:0:
64,192,132904,1,0,0:0:0:0:
192,192,132997,1,0,0:0:0:0:
448,192,133091,1,0,0:0:0:0:
64,192,133091,1,0,0:0:0:0:
320,192,133185,1,0,0:0:0:0:
192,192,133279,1,0,0:0:0:0:
64,192,133325,1,0,0:0:0:0:
320,192,133372,1,0,0:0:0:0:
192,192,133419,1,0,0:0:0:0:
448,192,133466,1,0,0:0:0:0:
320,192,133513,1,0,0:0:0:0:
64,192,133560,1,0,0:0:0:0:
192,192,133607,1,0,0:0:0:0:
320,192,133654,1,0,0:0:0:0:
448,192,133654,1,0,0:0:0:0:
192,192,134029,1,0,0:0:0:0:
64,192,134029,1,0,0:0:0:0:
448,192,134029,1,0,0:0:0:0:
320,192,134310,1,0,0:0:0:0:
448,192,134310,1,0,0:0:0:0:
192,192,134310,1,0,0:0:0:0:
192,192,134591,1,0,0:0:0:0:
64,192,134591,1,0,0:0:0:0:
448,192,134591,1,0,0:0:0:0:
320,192,134779,1,0,0:0:0:0:
192,192,134779,1,0,0:0:0:0:
64,192,134779,1,0,0:0:0:0:
320,192,135060,1,0,0:0:0:0:
448,192,135060,1,0,0:0:0:0:
64,192,135060,1,0,0:0:0:0:
192,192,135341,1,0,0:0:0:0:
320,192,135341,1,0,0:0:0:0:
448,192,135341,1,0,0:0:0:0:
192,192,135529,1,0,0:0:0:0:
64,192,135529,1,0,0:0:0:0:
448,192,135529,1,0,0:0:0:0:
320,192,135810,1,0,0:0:0:0:
448,192,135810,1,0,0:0:0:0:
64,192,135810,1,0,0:0:0:0:
192,192,136091,1,0,0:0:0:0:
320,192,136091,1,0,0:0:0:0:
448,192,136091,1,0,0:0:0:0:
64,192,136279,1,0,0:0:0:0:
192,192,136325,1,0,0:0:0:0:
448,192,136372,1,0,0:0:0:0:
320,192,136419,1,0,0:0:0:0:
192,192,136466,1,0,0:0:0:0:
64,192,136513,1,0,0:0:0:0:
448,192,136560,1,0,0:0:0:0:
320,192,136607,1,0,0:0:0:0:
192,192,136654,1,0,0:0:0:0:
64,192,136654,1,0,0:0:0:0:
320,192,137029,1,0,0:0:0:0:
448,192,137029,1,0,0:0:0:0:
192,192,137029,1,0,0:0:0:0:
192,192,137310,1,0,0:0:0:0:
64,192,137310,1,0,0:0:0:0:
448,192,137310,1,0,0:0:0:0:
320,192,137591,1,0,0:0:0:0:
192,192,137591,1,0,0:0:0:0:
64,192,137591,1,0,0:0:0:0:
320,192,137779,1,0,0:0:0:0:
448,192,137779,1,0,0:0:0:0:
64,192,137779,1,0,0:0:0:0:
192,192,138060,1,0,0:0:0:0:
64,192,138060,1,0,0:0:0:0:
448,192,138060,1,0,0:0:0:0:
192,192,138341,1,0,0:0:0:0:
320,192,138341,1,0,0:0:0:0:
448,192,138341,1,0,0:0:0:0:
192,192,138529,1,0,0:0:0:0:
64,192,138529,1,0,0:0:0:0:
320,192,138529,1,0,0:0:0:0:
448,192,138622,1,0,0:0:0:0:
320,192,138716,1,0,0:0:0:0:
192,192,138810,1,0,0:0:0:0:
64,192,138810,1,0,0:0:0:0:
448,192,138810,1,0,0:0:0:0:
320,192,138904,1,0,0:0:0:0:
64,192,138997,1,0,0:0:0:0:
192,192,139091,1,0,0:0:0:0:
320,192,139091,1,0,0:0:0:0:
448,192,139091,1,0,0:0:0:0:
64,192,139185,1,0,0:0:0:0:
192,192,139279,1,0,0:0:0:0:
320,192,139279,1,0,0:0:0:0:
448,192,139279,1,0,0:0:0:0:
64,192,139466,1,0,0:0:0:0:
192,192,139466,1,0,0:0:0:0:
320,192,139654,1,0,0:0:0:0:
448,192,139654,1,0,0:0:0:0:
64,192,139654,1,0,0:0:0:0:
192,192,139841,1,0,0:0:0:0:
320,192,139841,1,0,0:0:0:0:
448,192,140029,1,0,0:0:0:0:
64,192,140029,1,0,0:0:0:0:
192,192,140216,1,0,0:0:0:0:
448,192,140216,1,0,0:0:0:0:
320,192,140404,1,0,0:0:0:0:
192,192,140404,1,0,0:0:0:0:
64,192,140404,1,0,0:0:0:0:
448,192,140591,1,0,0:0:0:0:
320,192,140591,1,0,0:0:0:0:
192,192,140779,1,0,0:0:0:0:
64,192,140779,1,0,0:0:0:0:
448,192,140966,1,0,0:0:0:0:
64,192,140966,1,0,0:0:0:0:
192,192,141154,1,0,0:0:0:0:
320,192,141154,1,0,0:0:0:0:
448,192,141154,1,0,0:0:0:0:
64,192,141341,1,0,0:0:0:0:
192,192,141341,1,0,0:0:0:0:
320,192,141529,1,0,0:0:0:0:
448,192,141529,1,0,0:0:0:0:
64,192,141716,1,0,0:0:0:0:
320,192,141716,1,0,0:0:0:0:
192,192,141904,1,0,0:0:0:0:
64,192,141904,1,0,0:0:0:0:
448,192,141904,1,0,0:0:0:0:
320,192,142091,1,0,0:0:0:0:
192,192,142091,1,0,0:0:0:0:
320,192,142279,1,0,0:0:0:0:
448,192,142279,1,0,0:0:0:0:
64,192,142279,1,0,0:0:0:0:
192,192,142560,1,0,0:0:0:0:
320,192,142560,1,0,0:0:0:0:
448,192,142560,1,0,0:0:0:0:
192,192,142841,1,0,0:0:0:0:
64,192,142841,1,0,0:0:0:0:
448,192,142841,1,0,0:0:0:0:
320,192,143029,1,0,0:0:0:0:
192,192,143029,1,0,0:0:0:0:
64,192,143029,1,0,0:0:0:0:
320,192,143310,1,0,0:0:0:0:
448,192,143310,1,0,0:0:0:0:
64,192,143310,1,0,0:0:0:0:
192,192,143591,1,0,0:0:0:0:
64,192,143591,1,0,0:0:0:0:
320,192,143591,1,0,0:0:0:0:
320,192,143779,1,0,0:0:0:0:
448,192,143779,1,0,0:0:0:0:
192,192,143779,1,0,0:0:0:0:
192,192,144060,1,0,0:0:0:0:
64,192,144060,1,0,0:0:0:0:
448,192,144060,1,0,0:0:0:0:
320,192,144341,5,0,0:0:0:0:
192,192,144341,1,0,0:0:0:0:
64,192,144341,1,0,0:0:0:0:
448,192,144529,1,0,0:0:0:0:
64,192,144529,1,0,0:0:0:0:
320,192,144575,1,0,0:0:0:0:
192,192,144622,1,0,0:0:0:0:
64,192,144669,1,0,0:0:0:0:
448,192,144716,1,0,0:0:0:0:
320,192,144763,1,0,0:0:0:0:
64,192,144810,1,0,0:0:0:0:
192,192,144857,1,0,0:0:0:0:
320,192,144904,1,0,0:0:0:0:
448,192,144950,1,0,0:0:0:0:
64,192,144997,1,0,0:0:0:0:
192,192,145044,1,0,0:0:0:0:
448,192,145091,1,0,0:0:0:0:
320,192,145138,1,0,0:0:0:0:
192,192,145185,1,0,0:0:0:0:
64,192,145232,1,0,0:0:0:0:
448,192,145279,5,0,0:0:0:0:
320,192,145279,1,0,0:0:0:0:
192,192,145466,1,0,0:0:0:0:
320,192,145654,1,0,0:0:0:0:
64,192,145841,1,0,0:0:0:0:
192,192,146029,1,0,0:0:0:0:
448,192,146029,1,0,0:0:0:0:
320,192,146216,1,0,0:0:0:0:
448,192,146404,1,0,0:0:0:0:
64,192,146591,1,0,0:0:0:0:
192,192,146779,1,0,0:0:0:0:
320,192,146779,1,0,0:0:0:0:
448,192,146966,1,0,0:0:0:0:
320,192,147154,1,0,0:0:0:0:
64,192,147341,1,0,0:0:0:0:
192,192,147529,1,0,0:0:0:0:
448,192,147529,1,0,0:0:0:0:
320,192,147716,1,0,0:0:0:0:
192,192,147904,1,0,0:0:0:0:
64,192,148091,1,0,0:0:0:0:
320,192,148279,1,0,0:0:0:0:
448,192,148279,1,0,0:0:0:0:
192,192,148466,1,0,0:0:0:0:
320,192,148654,1,0,0:0:0:0:
192,192,148841,1,0,0:0:0:0:
64,192,149029,1,0,0:0:0:0:
448,192,149029,1,0,0:0:0:0:
320,192,149216,1,0,0:0:0:0:
192,192,149404,1,0,0:0:0:0:
64,192,149404,1,0,0:0:0:0:
448,192,149591,1,0,0:0:0:0:
320,192,149779,1,0,0:0:0:0:
192,192,149779,1,0,0:0:0:0:
64,192,149966,1,0,0:0:0:0:
320,192,150154,1,0,0:0:0:0:
192,192,150341,1,0,0:0:0:0:
64,192,150529,1,0,0:0:0:0:
192,192,150575,1,0,0:0:0:0:
448,192,150622,1,0,0:0:0:0:
320,192,150669,1,0,0:0:0:0:
192,192,150716,1,0,0:0:0:0:
64,192,150763,1,0,0:0:0:0:
320,192,150810,1,0,0:0:0:0:
448,192,150857,1,0,0:0:0:0:
64,192,150904,1,0,0:0:0:0:
192,192,150950,1,0,0:0:0:0:
320,192,150997,1,0,0:0:0:0:
448,192,151044,1,0,0:0:0:0:
192,192,151091,1,0,0:0:0:0:
64,192,151138,1,0,0:0:0:0:
448,192,151185,1,0,0:0:0:0:
320,192,151232,1,0,0:0:0:0:
192,192,151279,1,0,0:0:0:0:
64,192,151279,1,0,0:0:0:0:
320,192,151466,1,0,0:0:0:0:
192,192,151654,1,0,0:0:0:0:
448,192,151841,1,0,0:0:0:0:
320,192,152029,1,0,0:0:0:0:
448,192,152029,1,0,0:0:0:0:
64,192,152029,1,0,0:0:0:0:
192,192,152216,1,0,0:0:0:0:
64,192,152404,1,0,0:0:0:0:
448,192,152591,1,0,0:0:0:0:
448,192,152779,1,0,0:0:0:0:
320,192,152779,1,0,0:0:0:0:
192,192,152779,1,0,0:0:0:0:
64,192,152966,1,0,0:0:0:0:
320,192,153154,1,0,0:0:0:0:
192,192,153341,1,0,0:0:0:0:
192,192,153529,1,0,0:0:0:0:
64,192,153529,1,0,0:0:0:0:
448,192,153529,1,0,0:0:0:0:
320,192,153716,1,0,0:0:0:0:
192,192,153904,1,0,0:0:0:0:
448,192,154091,1,0,0:0:0:0:
448,192,154279,1,0,0:0:0:0:
320,192,154279,1,0,0:0:0:0:
64,192,154279,1,0,0:0:0:0:
192,192,154466,1,0,0:0:0:0:
320,192,154466,1,0,0:0:0:0:
192,192,154654,1,0,0:0:0:0:
64,192,154654,1,0,0:0:0:0:
448,192,154654,1,0,0:0:0:0:
64,192,154841,1,0,0:0:0:0:
320,192,154841,1,0,0:0:0:0:
192,192,155029,1,0,0:0:0:0:
448,192,155029,1,0,0:0:0:0:
320,192,155216,1,0,0:0:0:0:
64,192,155216,1,0,0:0:0:0:
320,192,155404,1,0,0:0:0:0:
448,192,155404,1,0,0:0:0:0:
192,192,155404,1,0,0:0:0:0:
192,192,155591,1,0,0:0:0:0:
64,192,155591,1,0,0:0:0:0:
320,192,155779,1,0,0:0:0:0:
64,192,155779,128,0,156529:0:0:0:0:
448,192,155779,128,0,156529:0:0:0:0:
192,192,156529,1,0,0:0:0:0:
320,192,156622,1,0,0:0:0:0:
64,192,156716,1,0,0:0:0:0:
192,192,156810,1,0,0:0:0:0:
448,192,156904,1,0,0:0:0:0:
320,192,156950,1,0,0:0:0:0:
192,192,156997,1,0,0:0:0:0:
64,192,157044,1,0,0:0:0:0:
448,192,157091,1,0,0:0:0:0:
320,192,157138,1,0,0:0:0:0:
192,192,157185,1,0,0:0:0:0:
64,192,157232,1,0,0:0:0:0:
320,192,157279,1,0,0:0:0:0:
448,192,157279,1,0,0:0:0:0:
192,192,157466,1,0,0:0:0:0:
320,192,157466,1,0,0:0:0:0:
192,192,157654,1,0,0:0:0:0:
64,192,157654,1,0,0:0:0:0:
448,192,157654,1,0,0:0:0:0:
320,192,157841,1,0,0:0:0:0:
64,192,157841,1,0,0:0:0:0:
320,192,158029,1,0,0:0:0:0:
448,192,158029,1,0,0:0:0:0:
192,192,158216,1,0,0:0:0:0:
64,192,158216,1,0,0:0:0:0:
320,192,158404,1,0,0:0:0:0:
448,192,158404,1,0,0:0:0:0:
192,192,158404,1,0,0:0:0:0:
64,192,158591,1,0,0:0:0:0:
448,192,158591,1,0,0:0:0:0:
320,192,158779,1,0,0:0:0:0:
192,192,158779,1,0,0:0:0:0:
64,192,158966,1,0,0:0:0:0:
192,192,158966,1,0,0:0:0:0:
320,192,159154,1,0,0:0:0:0:
448,192,159154,1,0,0:0:0:0:
64,192,159154,1,0,0:0:0:0:
192,192,159341,1,0,0:0:0:0:
448,192,159341,1,0,0:0:0:0:
320,192,159529,1,0,0:0:0:0:
64,192,159529,128,0,159716:0:0:0:0:
192,192,159716,128,0,159904:0:0:0:0:
448,192,159716,1,0,0:0:0:0:
320,192,159904,128,0,160091:0:0:0:0:
448,192,159904,1,0,0:0:0:0:
64,192,159904,1,0,0:0:0:0:
448,192,160091,128,0,160279:0:0:0:0:
192,192,160091,1,0,0:0:0:0:
320,192,160279,1,0,0:0:0:0:
192,192,160279,1,0,0:0:0:0:
64,192,160279,128,0,160654:0:0:0:0:
320,192,160466,1,0,0:0:0:0:
448,192,160466,1,0,0:0:0:0:
192,192,160654,1,0,0:0:0:0:
320,192,160654,1,0,0:0:0:0:
448,192,160654,1,0,0:0:0:0:
64,192,160841,1,0,0:0:0:0:
192,192,160841,1,0,0:0:0:0:
192,192,161029,1,0,0:0:0:0:
320,192,161029,1,0,0:0:0:0:
448,192,161029,1,0,0:0:0:0:
320,192,161216,1,0,0:0:0:0:
448,192,161216,1,0,0:0:0:0:
448,192,161404,1,0,0:0:0:0:
64,192,161404,1,0,0:0:0:0:
192,192,161404,1,0,0:0:0:0:
64,192,161591,1,0,0:0:0:0:
320,192,161591,1,0,0:0:0:0:
192,192,161779,1,0,0:0:0:0:
448,192,161779,1,0,0:0:0:0:
320,192,161779,1,0,0:0:0:0:
64,192,161966,1,0,0:0:0:0:
448,192,161966,1,0,0:0:0:0:
320,192,162154,1,0,0:0:0:0:
192,192,162154,1,0,0:0:0:0:
64,192,162154,1,0,0:0:0:0:
320,192,162341,1,0,0:0:0:0:
448,192,162341,1,0,0:0:0:0:
192,192,162529,1,0,0:0:0:0:
64,192,162529,1,0,0:0:0:0:
448,192,162529,1,0,0:0:0:0:
320,192,162622,1,0,0:0:0:0:
192,192,162716,1,0,0:0:0:0:
448,192,162810,1,0,0:0:0:0:
320,192,162904,1,0,0:0:0:0:
64,192,162904,1,0,0:0:0:0:
192,192,162904,1,0,0:0:0:0:
448,192,162997,1,0,0:0:0:0:
320,192,163091,1,0,0:0:0:0:
64,192,163091,1,0,0:0:0:0:
192,192,163185,1,0,0:0:0:0:
64,192,163279,1,0,0:0:0:0:
320,192,163279,1,0,0:0:0:0:
448,192,163279,1,0,0:0:0:0:
192,192,163466,1,0,0:0:0:0:
320,192,163466,1,0,0:0:0:0:
192,192,163654,1,0,0:0:0:0:
64,192,163654,1,0,0:0:0:0:
448,192,163654,1,0,0:0:0:0:
320,192,163841,1,0,0:0:0:0:
64,192,163841,1,0,0:0:0:0:
192,192,164029,1,0,0:0:0:0:
448,192,164029,1,0,0:0:0:0:
192,192,164216,1,0,0:0:0:0:
64,192,164216,1,0,0:0:0:0:
320,192,164404,1,0,0:0:0:0:
448,192,164404,1,0,0:0:0:0:
64,192,164404,1,0,0:0:0:0:
192,192,164591,1,0,0:0:0:0:
448,192,164591,1,0,0:0:0:0:
320,192,164779,1,0,0:0:0:0:
192,192,164779,1,0,0:0:0:0:
320,192,164966,1,0,0:0:0:0:
64,192,164966,1,0,0:0:0:0:
192,192,165154,1,0,0:0:0:0:
64,192,165154,1,0,0:0:0:0:
448,192,165154,1,0,0:0:0:0:
192,192,165341,1,0,0:0:0:0:
320,192,165341,1,0,0:0:0:0:
448,192,165529,128,0,165716:0:0:0:0:
64,192,165529,1,0,0:0:0:0:
320,192,165716,128,0,165904:0:0:0:0:
192,192,165716,1,0,0:0:0:0:
64,192,165904,128,0,166091:0:0:0:0:
192,192,165904,1,0,0:0:0:0:
448,192,165904,1,0,0:0:0:0:
192,192,166091,128,0,166279:0:0:0:0:
320,192,166091,1,0,0:0:0:0:
448,192,166279,128,0,166654:0:0:0:0:
64,192,166279,1,0,0:0:0:0:
320,192,166279,1,0,0:0:0:0:
192,192,166466,1,0,0:0:0:0:
64,192,166466,1,0,0:0:0:0:
320,192,166654,1,0,0:0:0:0:
192,192,166654,1,0,0:0:0:0:
64,192,166654,1,0,0:0:0:0:
320,192,166841,1,0,0:0:0:0:
448,192,166841,1,0,0:0:0:0:
192,192,167029,1,0,0:0:0:0:
64,192,167029,1,0,0:0:0:0:
448,192,167029,1,0,0:0:0:0:
320,192,167216,1,0,0:0:0:0:
64,192,167216,1,0,0:0:0:0:
192,192,167404,1,0,0:0:0:0:
448,192,167404,1,0,0:0:0:0:
320,192,167404,1,0,0:0:0:0:
192,192,167779,1,0,0:0:0:0:
64,192,167779,1,0,0:0:0:0:
448,192,167779,1,0,0:0:0:0:
320,192,168060,1,0,0:0:0:0:
192,192,168060,1,0,0:0:0:0:
64,192,168060,1,0,0:0:0:0:
320,192,168341,1,0,0:0:0:0:
448,192,168341,128,0,168716:0:0:0:0:
64,192,168341,128,0,168716:0:0:0:0:
192,192,168716,1,0,0:0:0:0:
320,192,168716,1,0,0:0:0:0:
64,192,168810,1,0,0:0:0:0:
192,192,168904,1,0,0:0:0:0:
320,192,168997,1,0,0:0:0:0:
64,192,169091,1,0,0:0:0:0:
448,192,169091,1,0,0:0:0:0:
192,192,169185,1,0,0:0:0:0:
320,192,169279,1,0,0:0:0:0:
448,192,169279,1,0,0:0:0:0:
64,192,169279,1,0,0:0:0:0:
192,192,169466,1,0,0:0:0:0:
320,192,169466,1,0,0:0:0:0:
192,192,169654,1,0,0:0:0:0:
64,192,169654,1,0,0:0:0:0:
448,192,169654,1,0,0:0:0:0:
320,192,169841,1,0,0:0:0:0:
64,192,169841,1,0,0:0:0:0:
192,192,170029,1,0,0:0:0:0:
320,192,170029,1,0,0:0:0:0:
192,192,170216,1,0,0:0:0:0:
448,192,170216,1,0,0:0:0:0:
320,192,170404,1,0,0:0:0:0:
448,192,170404,1,0,0:0:0:0:
64,192,170404,1,0,0:0:0:0:
192,192,170591,1,0,0:0:0:0:
64,192,170591,1,0,0:0:0:0:
320,192,170779,1,0,0:0:0:0:
448,192,170779,1,0,0:0:0:0:
64,192,170966,1,0,0:0:0:0:
448,192,170966,1,0,0:0:0:0:
320,192,171154,1,0,0:0:0:0:
192,192,171154,1,0,0:0:0:0:
64,192,171154,1,0,0:0:0:0:
448,192,171341,1,0,0:0:0:0:
192,192,171341,1,0,0:0:0:0:
64,192,171529,128,0,171716:0:0:0:0:
448,192,171529,1,0,0:0:0:0:
320,192,171716,128,0,171904:0:0:0:0:
192,192,171716,1,0,0:0:0:0:
192,192,171904,128,0,172091:0:0:0:0:
448,192,171904,1,0,0:0:0:0:
64,192,171904,1,0,0:0:0:0:
448,192,172091,128,0,172279:0:0:0:0:
320,192,172091,1,0,0:0:0:0:
64,192,172279,128,0,172654:0:0:0:0:
192,192,172279,1,0,0:0:0:0:
320,192,172279,1,0,0:0:0:0:
320,192,172466,1,0,0:0:0:0:
448,192,172466,1,0,0:0:0:0:
192,192,172654,1,0,0:0:0:0:
320,192,172654,1,0,0:0:0:0:
448,192,172654,1,0,0:0:0:0:
64,192,172841,1,0,0:0:0:0:
192,192,172841,1,0,0:0:0:0:
448,192,173029,1,0,0:0:0:0:
64,192,173029,1,0,0:0:0:0:
320,192,173216,1,0,0:0:0:0:
448,192,173216,1,0,0:0:0:0:
320,192,173404,1,0,0:0:0:0:
192,192,173404,1,0,0:0:0:0:
64,192,173404,1,0,0:0:0:0:
448,192,173591,1,0,0:0:0:0:
64,192,173591,1,0,0:0:0:0:
192,192,173779,1,0,0:0:0:0:
320,192,173779,1,0,0:0:0:0:
192,192,173966,1,0,0:0:0:0:
64,192,173966,1,0,0:0:0:0:
64,192,174154,1,0,0:0:0:0:
320,192,174154,1,0,0:0:0:0:
448,192,174154,1,0,0:0:0:0:
192,192,174341,1,0,0:0:0:0:
448,192,174341,1,0,0:0:0:0:
320,192,174529,1,0,0:0:0:0:
64,192,174529,1,0,0:0:0:0:
64,192,174716,1,0,0:0:0:0:
448,192,174716,1,0,0:0:0:0:
192,192,174904,1,0,0:0:0:0:
320,192,174904,1,0,0:0:0:0:
448,192,174904,1,0,0:0:0:0:
64,192,174997,1,0,0:0:0:0:
448,192,175091,1,0,0:0:0:0:
320,192,175138,1,0,0:0:0:0:
192,192,175185,1,0,0:0:0:0:
64,192,175232,1,0,0:0:0:0:
192,192,175279,1,0,0:0:0:0:
320,192,175279,1,0,0:0:0:0:
448,192,175466,1,0,0:0:0:0:
64,192,175466,1,0,0:0:0:0:
320,192,175654,1,0,0:0:0:0:
192,192,175654,1,0,0:0:0:0:
64,192,175654,1,0,0:0:0:0:
448,192,175841,1,0,0:0:0:0:
320,192,175841,1,0,0:0:0:0:
192,192,176029,1,0,0:0:0:0:
320,192,176029,1,0,0:0:0:0:
64,192,176216,1,0,0:0:0:0:
448,192,176216,1,0,0:0:0:0:
192,192,176404,1,0,0:0:0:0:
320,192,176404,1,0,0:0:0:0:
448,192,176404,1,0,0:0:0:0:
192,192,176591,1,0,0:0:0:0:
64,192,176591,1,0,0:0:0:0:
64,192,176779,1,0,0:0:0:0:
448,192,176779,1,0,0:0:0:0:
320,192,176966,1,0,0:0:0:0:
192,192,176966,1,0,0:0:0:0:
320,192,177154,1,0,0:0:0:0:
448,192,177154,1,0,0:0:0:0:
64,192,177154,1,0,0:0:0:0:
192,192,177341,1,0,0:0:0:0:
448,192,177341,1,0,0:0:0:0:
320,192,177529,128,0,177716:0:0:0:0:
64,192,177529,1,0,0:0:0:0:
192,192,177716,128,0,177904:0:0:0:0:
448,192,177716,1,0,0:0:0:0:
64,192,177904,128,0,178091:0:0:0:0:
320,192,177904,1,0,0:0:0:0:
448,192,177904,1,0,0:0:0:0:
320,192,178091,128,0,178279:0:0:0:0:
192,192,178091,1,0,0:0:0:0:
448,192,178279,128,0,178654:0:0:0:0:
64,192,178279,1,0,0:0:0:0:
192,192,178279,1,0,0:0:0:0:
320,192,178466,1,0,0:0:0:0:
192,192,178466,1,0,0:0:0:0:
64,192,178654,1,0,0:0:0:0:
192,192,178654,1,0,0:0:0:0:
320,192,178654,1,0,0:0:0:0:
448,192,178841,1,0,0:0:0:0:
64,192,178841,1,0,0:0:0:0:
192,192,179029,1,0,0:0:0:0:
320,192,179029,1,0,0:0:0:0:
448,192,179029,1,0,0:0:0:0:
64,192,179216,1,0,0:0:0:0:
192,192,179216,1,0,0:0:0:0:
64,192,179404,1,0,0:0:0:0:
320,192,179404,1,0,0:0:0:0:
448,192,179404,1,0,0:0:0:0:
192,192,179591,1,0,0:0:0:0:
448,192,179591,1,0,0:0:0:0:
320,192,179779,1,0,0:0:0:0:
192,192,179779,1,0,0:0:0:0:
64,192,179779,1,0,0:0:0:0:
320,192,180060,1,0,0:0:0:0:
448,192,180060,1,0,0:0:0:0:
64,192,180060,1,0,0:0:0:0:
192,192,180341,1,0,0:0:0:0:
64,192,180341,1,0,0:0:0:0:
448,192,180341,1,0,0:0:0:0:
320,192,180435,1,0,0:0:0:0:
192,192,180529,1,0,0:0:0:0:
64,192,180529,1,0,0:0:0:0:
448,192,180622,1,0,0:0:0:0:
320,192,180716,1,0,0:0:0:0:
192,192,180716,1,0,0:0:0:0:
64,192,180810,1,0,0:0:0:0:
448,192,180904,1,0,0:0:0:0:
320,192,180950,1,0,0:0:0:0:
64,192,180997,1,0,0:0:0:0:
192,192,181044,1,0,0:0:0:0:
320,192,181091,1,0,0:0:0:0:
448,192,181138,1,0,0:0:0:0:
192,192,181185,1,0,0:0:0:0:
64,192,181232,1,0,0:0:0:0:
448,192,181279,1,0,0:0:0:0:
320,192,181279,1,0,0:0:0:0:
