osu file format v14

[General]
AudioFilename: Fallen.mp3
AudioLeadIn: 0
PreviewTime: 51535
Countdown: 0
SampleSet: Normal
StackLeniency: 0.7
Mode: 3
LetterboxInBreaks: 0
SpecialStyle: 0
WidescreenStoryboard: 1

[Editor]
Bookmarks: 89773
DistanceSpacing: 0.8
BeatDivisor: 4
GridSize: 4
TimelineZoom: 2.5

[Metadata]
Title:Envory's 4K Practice Pack
TitleUnicode:Envory's 4K Practice Pack
Artist:Various Artist
ArtistUnicode:Various Artist
Creator:Envory
Version:EGOIST - Fallen [Hammer]
Source:
Tags:
BeatmapID:1786870
BeatmapSetID:855110

[Difficulty]
HPDrainRate:8
CircleSize:4
OverallDifficulty:8
ApproachRate:5
SliderMultiplier:1.4
SliderTickRate:1

[Events]
//Background and Video events
0,0,"fallen.jpg",0,0
//Break Periods
//Storyboard Layer 0 (Background)
//Storyboard Layer 1 (Fail)
//Storyboard Layer 2 (Pass)
//Storyboard Layer 3 (Foreground)
//Storyboard Sound Samples

[TimingPoints]
240,310.880829015544,4,1,0,50,1,0
22312,-50,4,1,0,50,0,0
22390,-500,4,1,0,50,0,0
22467,-100,4,1,0,50,0,0
22545,-83.3333333333333,4,1,0,50,0,0
22623,-100,4,1,0,50,0,0

[HitObjects]
320,192,240,5,0,0:0:0:0:
448,192,240,1,0,0:0:0:0:
448,192,395,1,0,0:0:0:0:
320,192,395,1,0,0:0:0:0:
320,192,550,1,0,0:0:0:0:
448,192,550,1,0,0:0:0:0:
320,192,706,1,0,0:0:0:0:
448,192,706,1,0,0:0:0:0:
320,192,861,1,0,0:0:0:0:
448,192,861,1,0,0:0:0:0:
320,192,1017,1,0,0:0:0:0:
448,192,1017,1,0,0:0:0:0:
448,192,1172,1,0,0:0:0:0:
320,192,1172,1,0,0:0:0:0:
448,192,1328,1,0,0:0:0:0:
320,192,1328,1,0,0:0:0:0:
192,192,1483,1,0,0:0:0:0:
64,192,1483,1,0,0:0:0:0:
64,192,1638,1,0,0:0:0:0:
192,192,1638,1,0,0:0:0:0:
192,192,1794,1,0,0:0:0:0:
64,192,1794,1,0,0:0:0:0:
192,192,1949,1,0,0:0:0:0:
64,192,1949,1,0,0:0:0:0:
192,192,2105,1,0,0:0:0:0:
64,192,2105,1,0,0:0:0:0:
64,192,2260,1,0,0:0:0:0:
192,192,2260,1,0,0:0:0:0:
192,192,2416,1,0,0:0:0:0:
64,192,2416,1,0,0:0:0:0:
64,192,2571,1,0,0:0:0:0:
192,192,2571,1,0,0:0:0:0:
448,192,2727,1,0,0:0:0:0:
192,192,2727,1,0,0:0:0:0:
192,192,2882,1,0,0:0:0:0:
448,192,2882,1,0,0:0:0:0:
448,192,3037,1,0,0:0:0:0:
192,192,3037,1,0,0:0:0:0:
448,192,3193,1,0,0:0:0:0:
192,192,3193,1,0,0:0:0:0:
448,192,3348,1,0,0:0:0:0:
192,192,3348,1,0,0:0:0:0:
448,192,3504,1,0,0:0:0:0:
192,192,3504,1,0,0:0:0:0:
192,192,3659,1,0,0:0:0:0:
448,192,3659,1,0,0:0:0:0:
448,192,3815,1,0,0:0:0:0:
192,192,3815,1,0,0:0:0:0:
64,192,3970,1,0,0:0:0:0:
320,192,3970,1,0,0:0:0:0:
320,192,4126,1,0,0:0:0:0:
64,192,4126,1,0,0:0:0:0:
320,192,4281,1,0,0:0:0:0:
64,192,4281,1,0,0:0:0:0:
64,192,4436,1,0,0:0:0:0:
320,192,4436,1,0,0:0:0:0:
192,192,4592,1,0,0:0:0:0:
448,192,4592,1,0,0:0:0:0:
448,192,4747,1,0,0:0:0:0:
192,192,4747,1,0,0:0:0:0:
448,192,4903,1,0,0:0:0:0:
192,192,4903,1,0,0:0:0:0:
192,192,5058,1,0,0:0:0:0:
448,192,5058,1,0,0:0:0:0:
320,192,5214,1,0,0:0:0:0:
64,192,5214,1,0,0:0:0:0:
320,192,5369,1,0,0:0:0:0:
64,192,5369,1,0,0:0:0:0:
64,192,5524,1,0,0:0:0:0:
320,192,5524,1,0,0:0:0:0:
320,192,5680,1,0,0:0:0:0:
64,192,5680,1,0,0:0:0:0:
320,192,5835,1,0,0:0:0:0:
64,192,5835,1,0,0:0:0:0:
64,192,5991,1,0,0:0:0:0:
320,192,5991,1,0,0:0:0:0:
320,192,6146,1,0,0:0:0:0:
64,192,6146,1,0,0:0:0:0:
64,192,6302,1,0,0:0:0:0:
320,192,6302,1,0,0:0:0:0:
320,192,6457,1,0,0:0:0:0:
64,192,6457,1,0,0:0:0:0:
64,192,6613,1,0,0:0:0:0:
320,192,6613,1,0,0:0:0:0:
64,192,6768,1,0,0:0:0:0:
320,192,6768,1,0,0:0:0:0:
320,192,6923,1,0,0:0:0:0:
64,192,6923,1,0,0:0:0:0:
448,192,7079,1,0,0:0:0:0:
192,192,7079,1,0,0:0:0:0:
192,192,7234,1,0,0:0:0:0:
448,192,7234,1,0,0:0:0:0:
192,192,7390,1,0,0:0:0:0:
448,192,7390,1,0,0:0:0:0:
448,192,7545,1,0,0:0:0:0:
192,192,7545,1,0,0:0:0:0:
192,192,7701,1,0,0:0:0:0:
64,192,7701,1,0,0:0:0:0:
192,192,7856,1,0,0:0:0:0:
64,192,7856,1,0,0:0:0:0:
64,192,8012,1,0,0:0:0:0:
192,192,8012,1,0,0:0:0:0:
192,192,8167,1,0,0:0:0:0:
64,192,8167,1,0,0:0:0:0:
64,192,8322,1,0,0:0:0:0:
192,192,8322,1,0,0:0:0:0:
64,192,8478,1,0,0:0:0:0:
192,192,8478,1,0,0:0:0:0:
64,192,8633,1,0,0:0:0:0:
192,192,8633,1,0,0:0:0:0:
192,192,8789,1,0,0:0:0:0:
64,192,8789,1,0,0:0:0:0:
448,192,8944,1,0,0:0:0:0:
320,192,8944,1,0,0:0:0:0:
448,192,9100,1,0,0:0:0:0:
320,192,9100,1,0,0:0:0:0:
448,192,9255,1,0,0:0:0:0:
320,192,9255,1,0,0:0:0:0:
320,192,9410,1,0,0:0:0:0:
448,192,9410,1,0,0:0:0:0:
192,192,9566,1,0,0:0:0:0:
320,192,9566,1,0,0:0:0:0:
192,192,9721,1,0,0:0:0:0:
320,192,9721,1,0,0:0:0:0:
320,192,9877,1,0,0:0:0:0:
192,192,9877,1,0,0:0:0:0:
192,192,10032,1,0,0:0:0:0:
320,192,10032,1,0,0:0:0:0:
448,192,10188,128,0,10654:0:0:0:0:
64,192,10188,128,0,10265:0:0:0:0:
320,192,10188,128,0,10265:0:0:0:0:
64,192,10343,1,0,0:0:0:0:
320,192,10343,1,0,0:0:0:0:
320,192,10499,1,0,0:0:0:0:
64,192,10499,1,0,0:0:0:0:
320,192,10654,1,0,0:0:0:0:
192,192,10654,128,0,10965:0:0:0:0:
320,192,10809,1,0,0:0:0:0:
448,192,10809,1,0,0:0:0:0:
64,192,10965,128,0,11431:0:0:0:0:
448,192,10965,1,0,0:0:0:0:
192,192,11120,1,0,0:0:0:0:
448,192,11120,1,0,0:0:0:0:
448,192,11276,1,0,0:0:0:0:
192,192,11276,1,0,0:0:0:0:
448,192,11431,128,0,11898:0:0:0:0:
320,192,11431,128,0,11509:0:0:0:0:
192,192,11431,128,0,11509:0:0:0:0:
320,192,11587,1,0,0:0:0:0:
192,192,11587,1,0,0:0:0:0:
320,192,11742,1,0,0:0:0:0:
192,192,11742,1,0,0:0:0:0:
320,192,11898,128,0,12208:0:0:0:0:
192,192,11898,1,0,0:0:0:0:
64,192,11898,1,0,0:0:0:0:
192,192,12053,1,0,0:0:0:0:
64,192,12053,1,0,0:0:0:0:
192,192,12208,128,0,12675:0:0:0:0:
448,192,12208,1,0,0:0:0:0:
64,192,12208,1,0,0:0:0:0:
64,192,12364,1,0,0:0:0:0:
448,192,12364,1,0,0:0:0:0:
448,192,12519,1,0,0:0:0:0:
64,192,12519,1,0,0:0:0:0:
64,192,12675,128,0,12986:0:0:0:0:
448,192,12675,128,0,12752:0:0:0:0:
320,192,12675,128,0,12752:0:0:0:0:
320,192,12830,1,0,0:0:0:0:
448,192,12830,1,0,0:0:0:0:
448,192,12986,128,0,13296:0:0:0:0:
320,192,12986,1,0,0:0:0:0:
192,192,13141,1,0,0:0:0:0:
64,192,13141,1,0,0:0:0:0:
320,192,13296,128,0,13607:0:0:0:0:
192,192,13296,1,0,0:0:0:0:
64,192,13296,1,0,0:0:0:0:
192,192,13452,1,0,0:0:0:0:
64,192,13452,1,0,0:0:0:0:
192,192,13607,128,0,13763:0:0:0:0:
64,192,13607,1,0,0:0:0:0:
448,192,13763,128,0,13918:0:0:0:0:
320,192,13763,1,0,0:0:0:0:
64,192,13918,128,0,14229:0:0:0:0:
320,192,13918,128,0,13996:0:0:0:0:
192,192,13918,128,0,13996:0:0:0:0:
192,192,14074,1,0,0:0:0:0:
320,192,14074,1,0,0:0:0:0:
192,192,14229,1,0,0:0:0:0:
448,192,14229,128,0,14385:0:0:0:0:
320,192,14229,1,0,0:0:0:0:
320,192,14385,128,0,14540:0:0:0:0:
64,192,14385,1,0,0:0:0:0:
192,192,14540,128,0,14695:0:0:0:0:
448,192,14540,128,0,14618:0:0:0:0:
64,192,14540,128,0,14618:0:0:0:0:
320,192,14695,128,0,15006:0:0:0:0:
64,192,14695,1,0,0:0:0:0:
192,192,14851,1,0,0:0:0:0:
64,192,14851,1,0,0:0:0:0:
64,192,15006,128,0,17183:0:0:0:0:
448,192,15006,1,0,0:0:0:0:
192,192,15162,128,0,15239:0:0:0:0:
448,192,15162,128,0,15239:0:0:0:0:
448,192,15317,1,0,0:0:0:0:
192,192,15317,1,0,0:0:0:0:
192,192,15473,1,0,0:0:0:0:
448,192,15473,1,0,0:0:0:0:
448,192,15628,1,0,0:0:0:0:
192,192,15628,1,0,0:0:0:0:
448,192,15784,1,0,0:0:0:0:
192,192,15784,1,0,0:0:0:0:
192,192,15939,1,0,0:0:0:0:
448,192,15939,1,0,0:0:0:0:
448,192,16094,1,0,0:0:0:0:
192,192,16094,1,0,0:0:0:0:
448,192,16250,1,0,0:0:0:0:
192,192,16250,1,0,0:0:0:0:
320,192,16405,128,0,16483:0:0:0:0:
448,192,16405,128,0,16483:0:0:0:0:
448,192,16561,1,0,0:0:0:0:
320,192,16561,1,0,0:0:0:0:
320,192,16716,1,0,0:0:0:0:
448,192,16716,1,0,0:0:0:0:
320,192,16872,1,0,0:0:0:0:
448,192,16872,1,0,0:0:0:0:
448,192,17027,1,0,0:0:0:0:
320,192,17027,1,0,0:0:0:0:
320,192,17183,1,0,0:0:0:0:
448,192,17183,1,0,0:0:0:0:
192,192,17338,1,0,0:0:0:0:
64,192,17338,1,0,0:0:0:0:
64,192,17493,1,0,0:0:0:0:
192,192,17493,1,0,0:0:0:0:
448,192,17649,128,0,18892:0:0:0:0:
320,192,17649,128,0,17727:0:0:0:0:
64,192,17649,128,0,17727:0:0:0:0:
320,192,17804,1,0,0:0:0:0:
64,192,17804,1,0,0:0:0:0:
64,192,17960,1,0,0:0:0:0:
320,192,17960,1,0,0:0:0:0:
320,192,18115,1,0,0:0:0:0:
64,192,18115,1,0,0:0:0:0:
64,192,18271,1,0,0:0:0:0:
320,192,18271,1,0,0:0:0:0:
320,192,18426,1,0,0:0:0:0:
64,192,18426,1,0,0:0:0:0:
64,192,18581,1,0,0:0:0:0:
320,192,18581,1,0,0:0:0:0:
320,192,18737,1,0,0:0:0:0:
64,192,18737,1,0,0:0:0:0:
192,192,18892,128,0,20136:0:0:0:0:
320,192,18892,1,0,0:0:0:0:
64,192,18892,1,0,0:0:0:0:
64,192,20136,128,0,21069:0:0:0:0:
192,192,21069,128,0,22312:0:0:0:0:
64,192,21690,128,0,22312:0:0:0:0:
64,192,22623,1,0,0:0:0:0:
320,192,22623,1,0,0:0:0:0:
448,192,22623,1,0,0:0:0:0:
192,192,22623,1,0,0:0:0:0:
448,192,22778,1,0,0:0:0:0:
320,192,22778,1,0,0:0:0:0:
192,192,22934,1,0,0:0:0:0:
64,192,22934,1,0,0:0:0:0:
448,192,22934,1,0,0:0:0:0:
320,192,22934,1,0,0:0:0:0:
64,192,23089,1,0,0:0:0:0:
192,192,23089,1,0,0:0:0:0:
192,192,23245,1,0,0:0:0:0:
448,192,23245,1,0,0:0:0:0:
320,192,23245,1,0,0:0:0:0:
448,192,23400,1,0,0:0:0:0:
64,192,23400,1,0,0:0:0:0:
320,192,23556,1,0,0:0:0:0:
448,192,23556,1,0,0:0:0:0:
64,192,23556,1,0,0:0:0:0:
192,192,23556,1,0,0:0:0:0:
192,192,23711,1,0,0:0:0:0:
64,192,23711,1,0,0:0:0:0:
320,192,23866,1,0,0:0:0:0:
192,192,23866,1,0,0:0:0:0:
448,192,23866,1,0,0:0:0:0:
320,192,24022,1,0,0:0:0:0:
448,192,24022,1,0,0:0:0:0:
320,192,24177,1,0,0:0:0:0:
448,192,24177,1,0,0:0:0:0:
64,192,24177,1,0,0:0:0:0:
192,192,24177,1,0,0:0:0:0:
192,192,24333,1,0,0:0:0:0:
64,192,24333,1,0,0:0:0:0:
192,192,24488,1,0,0:0:0:0:
320,192,24488,1,0,0:0:0:0:
448,192,24488,1,0,0:0:0:0:
320,192,24644,1,0,0:0:0:0:
448,192,24644,1,0,0:0:0:0:
192,192,24799,1,0,0:0:0:0:
64,192,24799,1,0,0:0:0:0:
448,192,24799,1,0,0:0:0:0:
320,192,24799,1,0,0:0:0:0:
64,192,24955,1,0,0:0:0:0:
192,192,24955,1,0,0:0:0:0:
192,192,25110,1,0,0:0:0:0:
320,192,25110,1,0,0:0:0:0:
320,192,25265,1,0,0:0:0:0:
448,192,25265,1,0,0:0:0:0:
64,192,25265,1,0,0:0:0:0:
192,192,25421,1,0,0:0:0:0:
448,192,25421,1,0,0:0:0:0:
320,192,25576,1,0,0:0:0:0:
64,192,25576,1,0,0:0:0:0:
448,192,25576,1,0,0:0:0:0:
64,192,25732,1,0,0:0:0:0:
192,192,25732,1,0,0:0:0:0:
320,192,25732,1,0,0:0:0:0:
448,192,25732,1,0,0:0:0:0:
320,192,25887,1,0,0:0:0:0:
448,192,25887,1,0,0:0:0:0:
192,192,26043,1,0,0:0:0:0:
64,192,26043,1,0,0:0:0:0:
320,192,26043,1,0,0:0:0:0:
448,192,26043,1,0,0:0:0:0:
64,192,26198,1,0,0:0:0:0:
192,192,26198,1,0,0:0:0:0:
192,192,26353,1,0,0:0:0:0:
64,192,26353,1,0,0:0:0:0:
320,192,26353,1,0,0:0:0:0:
448,192,26509,1,0,0:0:0:0:
320,192,26509,1,0,0:0:0:0:
64,192,26664,1,0,0:0:0:0:
192,192,26664,1,0,0:0:0:0:
320,192,26664,1,0,0:0:0:0:
448,192,26664,1,0,0:0:0:0:
192,192,26820,1,0,0:0:0:0:
448,192,26820,1,0,0:0:0:0:
320,192,26975,1,0,0:0:0:0:
64,192,26975,1,0,0:0:0:0:
448,192,26975,1,0,0:0:0:0:
192,192,27131,1,0,0:0:0:0:
320,192,27131,1,0,0:0:0:0:
64,192,27286,1,0,0:0:0:0:
192,192,27286,1,0,0:0:0:0:
320,192,27286,1,0,0:0:0:0:
448,192,27286,1,0,0:0:0:0:
192,192,27442,1,0,0:0:0:0:
448,192,27442,1,0,0:0:0:0:
320,192,27597,1,0,0:0:0:0:
64,192,27597,1,0,0:0:0:0:
448,192,27597,1,0,0:0:0:0:
192,192,27752,1,0,0:0:0:0:
64,192,27752,1,0,0:0:0:0:
320,192,27908,1,0,0:0:0:0:
448,192,27908,1,0,0:0:0:0:
192,192,27908,1,0,0:0:0:0:
64,192,27908,1,0,0:0:0:0:
320,192,28063,1,0,0:0:0:0:
448,192,28063,1,0,0:0:0:0:
192,192,28219,1,0,0:0:0:0:
64,192,28219,1,0,0:0:0:0:
320,192,28219,1,0,0:0:0:0:
192,192,28374,1,0,0:0:0:0:
64,192,28374,1,0,0:0:0:0:
64,192,28530,1,0,0:0:0:0:
320,192,28530,1,0,0:0:0:0:
192,192,28530,1,0,0:0:0:0:
448,192,28530,1,0,0:0:0:0:
448,192,28685,1,0,0:0:0:0:
64,192,28685,1,0,0:0:0:0:
192,192,28841,1,0,0:0:0:0:
320,192,28841,1,0,0:0:0:0:
448,192,28841,1,0,0:0:0:0:
320,192,28996,1,0,0:0:0:0:
64,192,28996,1,0,0:0:0:0:
192,192,29151,1,0,0:0:0:0:
448,192,29151,1,0,0:0:0:0:
320,192,29151,1,0,0:0:0:0:
64,192,29151,1,0,0:0:0:0:
192,192,29307,1,0,0:0:0:0:
448,192,29307,1,0,0:0:0:0:
320,192,29462,1,0,0:0:0:0:
448,192,29462,1,0,0:0:0:0:
64,192,29462,1,0,0:0:0:0:
192,192,29618,1,0,0:0:0:0:
320,192,29618,1,0,0:0:0:0:
192,192,29773,1,0,0:0:0:0:
64,192,29773,1,0,0:0:0:0:
448,192,29773,1,0,0:0:0:0:
320,192,29773,1,0,0:0:0:0:
448,192,29929,1,0,0:0:0:0:
64,192,29929,1,0,0:0:0:0:
192,192,30084,1,0,0:0:0:0:
64,192,30084,1,0,0:0:0:0:
448,192,30239,1,0,0:0:0:0:
320,192,30239,1,0,0:0:0:0:
192,192,30239,1,0,0:0:0:0:
192,192,30395,1,0,0:0:0:0:
64,192,30395,1,0,0:0:0:0:
448,192,30550,1,0,0:0:0:0:
320,192,30550,1,0,0:0:0:0:
192,192,30550,1,0,0:0:0:0:
192,192,30706,1,0,0:0:0:0:
448,192,30706,1,0,0:0:0:0:
320,192,30706,1,0,0:0:0:0:
64,192,30706,1,0,0:0:0:0:
64,192,30861,1,0,0:0:0:0:
448,192,30861,1,0,0:0:0:0:
320,192,31017,1,0,0:0:0:0:
192,192,31017,1,0,0:0:0:0:
448,192,31172,1,0,0:0:0:0:
64,192,31172,1,0,0:0:0:0:
192,192,31328,1,0,0:0:0:0:
64,192,31328,1,0,0:0:0:0:
320,192,31483,1,0,0:0:0:0:
192,192,31483,1,0,0:0:0:0:
448,192,31483,1,0,0:0:0:0:
320,192,31638,1,0,0:0:0:0:
448,192,31638,1,0,0:0:0:0:
64,192,31638,1,0,0:0:0:0:
192,192,31638,1,0,0:0:0:0:
64,192,31794,1,0,0:0:0:0:
192,192,31794,1,0,0:0:0:0:
320,192,31794,1,0,0:0:0:0:
320,192,31949,1,0,0:0:0:0:
448,192,31949,1,0,0:0:0:0:
64,192,32027,1,0,0:0:0:0:
192,192,32027,1,0,0:0:0:0:
320,192,32105,1,0,0:0:0:0:
448,192,32105,1,0,0:0:0:0:
192,192,32183,1,0,0:0:0:0:
64,192,32183,1,0,0:0:0:0:
320,192,32260,1,0,0:0:0:0:
448,192,32260,1,0,0:0:0:0:
64,192,32260,1,0,0:0:0:0:
192,192,32338,1,0,0:0:0:0:
320,192,32416,1,0,0:0:0:0:
448,192,32416,1,0,0:0:0:0:
192,192,32493,1,0,0:0:0:0:
64,192,32493,1,0,0:0:0:0:
320,192,32571,1,0,0:0:0:0:
64,192,32571,1,0,0:0:0:0:
192,192,32571,1,0,0:0:0:0:
448,192,32571,128,0,35058:0:0:0:0:
64,192,33193,1,0,0:0:0:0:
320,192,33193,1,0,0:0:0:0:
192,192,33348,128,0,33504:0:0:0:0:
320,192,33504,128,0,33659:0:0:0:0:
192,192,33659,1,0,0:0:0:0:
64,192,33659,128,0,33815:0:0:0:0:
320,192,33815,128,0,33970:0:0:0:0:
192,192,33970,128,0,34126:0:0:0:0:
320,192,34126,1,0,0:0:0:0:
64,192,34126,128,0,34281:0:0:0:0:
192,192,34281,128,0,34436:0:0:0:0:
320,192,34436,1,0,0:0:0:0:
64,192,34436,1,0,0:0:0:0:
192,192,34592,128,0,34903:0:0:0:0:
320,192,34903,128,0,35058:0:0:0:0:
64,192,34903,1,0,0:0:0:0:
192,192,35058,128,0,37545:0:0:0:0:
64,192,35058,1,0,0:0:0:0:
320,192,35369,1,0,0:0:0:0:
448,192,35369,1,0,0:0:0:0:
64,192,35680,1,0,0:0:0:0:
320,192,35680,1,0,0:0:0:0:
64,192,35835,128,0,35991:0:0:0:0:
320,192,35991,128,0,36146:0:0:0:0:
64,192,36146,1,0,0:0:0:0:
448,192,36146,128,0,36302:0:0:0:0:
64,192,36302,128,0,36457:0:0:0:0:
448,192,36457,128,0,36613:0:0:0:0:
320,192,36613,128,0,36768:0:0:0:0:
64,192,36613,1,0,0:0:0:0:
64,192,36768,128,0,37079:0:0:0:0:
320,192,36923,1,0,0:0:0:0:
448,192,36923,1,0,0:0:0:0:
448,192,37079,128,0,37390:0:0:0:0:
320,192,37390,128,0,37545:0:0:0:0:
64,192,37390,1,0,0:0:0:0:
64,192,37545,128,0,40032:0:0:0:0:
448,192,37545,1,0,0:0:0:0:
320,192,37856,1,0,0:0:0:0:
192,192,37856,1,0,0:0:0:0:
448,192,38167,1,0,0:0:0:0:
192,192,38167,1,0,0:0:0:0:
320,192,38322,128,0,38478:0:0:0:0:
448,192,38478,128,0,38633:0:0:0:0:
192,192,38633,128,0,38789:0:0:0:0:
320,192,38633,1,0,0:0:0:0:
320,192,38789,128,0,38944:0:0:0:0:
448,192,38944,128,0,39100:0:0:0:0:
192,192,39100,128,0,39255:0:0:0:0:
320,192,39100,1,0,0:0:0:0:
448,192,39255,128,0,39566:0:0:0:0:
192,192,39410,1,0,0:0:0:0:
320,192,39410,1,0,0:0:0:0:
320,192,39566,128,0,39877:0:0:0:0:
192,192,39877,128,0,40032:0:0:0:0:
448,192,39877,1,0,0:0:0:0:
448,192,40032,128,0,42519:0:0:0:0:
320,192,40032,1,0,0:0:0:0:
192,192,40343,1,0,0:0:0:0:
64,192,40343,1,0,0:0:0:0:
320,192,40654,1,0,0:0:0:0:
64,192,40654,1,0,0:0:0:0:
192,192,40809,128,0,41120:0:0:0:0:
64,192,41120,128,0,41276:0:0:0:0:
320,192,41120,1,0,0:0:0:0:
320,192,41276,128,0,41431:0:0:0:0:
192,192,41431,128,0,41587:0:0:0:0:
64,192,41587,128,0,41742:0:0:0:0:
192,192,41742,1,0,0:0:0:0:
320,192,41742,128,0,42053:0:0:0:0:
192,192,42053,128,0,42208:0:0:0:0:
64,192,42208,128,0,42364:0:0:0:0:
320,192,42364,128,0,42519:0:0:0:0:
192,192,42519,1,0,0:0:0:0:
64,192,42519,1,0,0:0:0:0:
320,192,42675,1,0,0:0:0:0:
192,192,42675,1,0,0:0:0:0:
320,192,42830,1,0,0:0:0:0:
448,192,42830,1,0,0:0:0:0:
64,192,42830,1,0,0:0:0:0:
192,192,42986,1,0,0:0:0:0:
448,192,42986,1,0,0:0:0:0:
320,192,43141,1,0,0:0:0:0:
192,192,43141,1,0,0:0:0:0:
64,192,43141,1,0,0:0:0:0:
448,192,43296,1,0,0:0:0:0:
64,192,43296,1,0,0:0:0:0:
320,192,43452,1,0,0:0:0:0:
448,192,43452,1,0,0:0:0:0:
192,192,43452,1,0,0:0:0:0:
192,192,43607,1,0,0:0:0:0:
64,192,43607,1,0,0:0:0:0:
64,192,43763,1,0,0:0:0:0:
320,192,43763,1,0,0:0:0:0:
448,192,43763,1,0,0:0:0:0:
192,192,43918,1,0,0:0:0:0:
448,192,43918,1,0,0:0:0:0:
320,192,44074,1,0,0:0:0:0:
192,192,44074,1,0,0:0:0:0:
64,192,44074,1,0,0:0:0:0:
448,192,44229,1,0,0:0:0:0:
320,192,44229,1,0,0:0:0:0:
448,192,44385,1,0,0:0:0:0:
192,192,44385,1,0,0:0:0:0:
64,192,44385,1,0,0:0:0:0:
192,192,44540,1,0,0:0:0:0:
320,192,44540,1,0,0:0:0:0:
448,192,44695,1,0,0:0:0:0:
320,192,44695,1,0,0:0:0:0:
64,192,44695,1,0,0:0:0:0:
192,192,44851,1,0,0:0:0:0:
448,192,44851,1,0,0:0:0:0:
320,192,45006,1,0,0:0:0:0:
192,192,45006,1,0,0:0:0:0:
64,192,45006,1,0,0:0:0:0:
448,192,45006,1,0,0:0:0:0:
64,192,45162,1,0,0:0:0:0:
320,192,45162,1,0,0:0:0:0:
320,192,45317,1,0,0:0:0:0:
192,192,45317,1,0,0:0:0:0:
448,192,45317,1,0,0:0:0:0:
64,192,45473,1,0,0:0:0:0:
192,192,45473,1,0,0:0:0:0:
64,192,45628,1,0,0:0:0:0:
320,192,45628,1,0,0:0:0:0:
448,192,45628,1,0,0:0:0:0:
448,192,45784,1,0,0:0:0:0:
192,192,45784,1,0,0:0:0:0:
192,192,45939,1,0,0:0:0:0:
320,192,45939,1,0,0:0:0:0:
64,192,45939,1,0,0:0:0:0:
448,192,46094,1,0,0:0:0:0:
320,192,46094,1,0,0:0:0:0:
448,192,46250,1,0,0:0:0:0:
192,192,46250,1,0,0:0:0:0:
64,192,46250,1,0,0:0:0:0:
320,192,46405,1,0,0:0:0:0:
192,192,46405,1,0,0:0:0:0:
448,192,46561,1,0,0:0:0:0:
320,192,46561,1,0,0:0:0:0:
64,192,46561,1,0,0:0:0:0:
192,192,46716,1,0,0:0:0:0:
64,192,46716,1,0,0:0:0:0:
192,192,46872,1,0,0:0:0:0:
320,192,46872,1,0,0:0:0:0:
448,192,46872,1,0,0:0:0:0:
64,192,47027,1,0,0:0:0:0:
448,192,47027,1,0,0:0:0:0:
192,192,47183,1,0,0:0:0:0:
320,192,47183,1,0,0:0:0:0:
64,192,47183,1,0,0:0:0:0:
448,192,47338,1,0,0:0:0:0:
192,192,47338,1,0,0:0:0:0:
320,192,47493,1,0,0:0:0:0:
448,192,47493,1,0,0:0:0:0:
64,192,47493,1,0,0:0:0:0:
192,192,47493,1,0,0:0:0:0:
320,192,47649,1,0,0:0:0:0:
64,192,47649,1,0,0:0:0:0:
192,192,47804,1,0,0:0:0:0:
448,192,47804,1,0,0:0:0:0:
320,192,47804,1,0,0:0:0:0:
64,192,47960,1,0,0:0:0:0:
192,192,47960,1,0,0:0:0:0:
64,192,48115,1,0,0:0:0:0:
320,192,48115,1,0,0:0:0:0:
448,192,48115,1,0,0:0:0:0:
192,192,48271,1,0,0:0:0:0:
448,192,48271,1,0,0:0:0:0:
192,192,48426,1,0,0:0:0:0:
64,192,48426,1,0,0:0:0:0:
320,192,48426,1,0,0:0:0:0:
448,192,48581,1,0,0:0:0:0:
320,192,48581,1,0,0:0:0:0:
448,192,48737,1,0,0:0:0:0:
192,192,48737,1,0,0:0:0:0:
64,192,48737,1,0,0:0:0:0:
320,192,48892,1,0,0:0:0:0:
192,192,48892,1,0,0:0:0:0:
320,192,49048,1,0,0:0:0:0:
448,192,49048,1,0,0:0:0:0:
64,192,49048,1,0,0:0:0:0:
192,192,49203,1,0,0:0:0:0:
448,192,49203,1,0,0:0:0:0:
320,192,49359,1,0,0:0:0:0:
192,192,49359,1,0,0:0:0:0:
64,192,49359,1,0,0:0:0:0:
448,192,49514,1,0,0:0:0:0:
64,192,49514,1,0,0:0:0:0:
192,192,49670,1,0,0:0:0:0:
320,192,49670,1,0,0:0:0:0:
448,192,49670,1,0,0:0:0:0:
64,192,49825,1,0,0:0:0:0:
320,192,49825,1,0,0:0:0:0:
192,192,49980,1,0,0:0:0:0:
64,192,49980,1,0,0:0:0:0:
448,192,49980,1,0,0:0:0:0:
320,192,49980,1,0,0:0:0:0:
192,192,50136,1,0,0:0:0:0:
64,192,50136,1,0,0:0:0:0:
448,192,50136,1,0,0:0:0:0:
320,192,50214,1,0,0:0:0:0:
192,192,50291,1,0,0:0:0:0:
64,192,50291,1,0,0:0:0:0:
448,192,50291,1,0,0:0:0:0:
320,192,50447,1,0,0:0:0:0:
192,192,50447,1,0,0:0:0:0:
320,192,50602,1,0,0:0:0:0:
448,192,50602,1,0,0:0:0:0:
64,192,50602,1,0,0:0:0:0:
192,192,50602,1,0,0:0:0:0:
448,192,50758,1,0,0:0:0:0:
64,192,50758,1,0,0:0:0:0:
64,192,50913,1,0,0:0:0:0:
192,192,50913,1,0,0:0:0:0:
320,192,50913,1,0,0:0:0:0:
448,192,50913,1,0,0:0:0:0:
320,192,51069,1,0,0:0:0:0:
192,192,51069,1,0,0:0:0:0:
64,192,51224,1,0,0:0:0:0:
448,192,51224,1,0,0:0:0:0:
320,192,51302,1,0,0:0:0:0:
192,192,51302,1,0,0:0:0:0:
64,192,51379,1,0,0:0:0:0:
448,192,51379,1,0,0:0:0:0:
192,192,51457,1,0,0:0:0:0:
320,192,51535,1,0,0:0:0:0:
448,192,51535,1,0,0:0:0:0:
192,192,51613,1,0,0:0:0:0:
64,192,51613,1,0,0:0:0:0:
320,192,51690,1,0,0:0:0:0:
448,192,51690,1,0,0:0:0:0:
192,192,51768,1,0,0:0:0:0:
64,192,51768,1,0,0:0:0:0:
320,192,51846,1,0,0:0:0:0:
448,192,51846,1,0,0:0:0:0:
192,192,51923,1,0,0:0:0:0:
64,192,51923,1,0,0:0:0:0:
320,192,52001,1,0,0:0:0:0:
448,192,52001,1,0,0:0:0:0:
64,192,52001,1,0,0:0:0:0:
320,192,52157,1,0,0:0:0:0:
192,192,52157,1,0,0:0:0:0:
64,192,52312,1,0,0:0:0:0:
192,192,52312,1,0,0:0:0:0:
320,192,52312,1,0,0:0:0:0:
448,192,52312,1,0,0:0:0:0:
192,192,52467,1,0,0:0:0:0:
64,192,52467,1,0,0:0:0:0:
320,192,52623,1,0,0:0:0:0:
448,192,52623,1,0,0:0:0:0:
64,192,52623,1,0,0:0:0:0:
64,192,52778,1,0,0:0:0:0:
320,192,52778,1,0,0:0:0:0:
448,192,52778,1,0,0:0:0:0:
192,192,52778,1,0,0:0:0:0:
192,192,52934,1,0,0:0:0:0:
448,192,52934,1,0,0:0:0:0:
64,192,52934,1,0,0:0:0:0:
192,192,53089,1,0,0:0:0:0:
320,192,53089,1,0,0:0:0:0:
448,192,53089,1,0,0:0:0:0:
64,192,53245,1,0,0:0:0:0:
320,192,53245,1,0,0:0:0:0:
64,192,53400,1,0,0:0:0:0:
192,192,53400,1,0,0:0:0:0:
320,192,53400,1,0,0:0:0:0:
448,192,53400,1,0,0:0:0:0:
192,192,53556,1,0,0:0:0:0:
448,192,53556,1,0,0:0:0:0:
320,192,53556,1,0,0:0:0:0:
64,192,53711,1,0,0:0:0:0:
192,192,53711,1,0,0:0:0:0:
448,192,53711,1,0,0:0:0:0:
320,192,53866,1,0,0:0:0:0:
192,192,53866,1,0,0:0:0:0:
64,192,53866,1,0,0:0:0:0:
448,192,54022,1,0,0:0:0:0:
320,192,54022,1,0,0:0:0:0:
192,192,54022,1,0,0:0:0:0:
64,192,54022,1,0,0:0:0:0:
320,192,54177,1,0,0:0:0:0:
448,192,54177,1,0,0:0:0:0:
64,192,54177,1,0,0:0:0:0:
192,192,54333,1,0,0:0:0:0:
320,192,54333,1,0,0:0:0:0:
448,192,54333,1,0,0:0:0:0:
192,192,54488,1,0,0:0:0:0:
64,192,54488,1,0,0:0:0:0:
448,192,54488,1,0,0:0:0:0:
64,192,54644,1,0,0:0:0:0:
192,192,54644,1,0,0:0:0:0:
320,192,54644,1,0,0:0:0:0:
448,192,54644,1,0,0:0:0:0:
320,192,54799,1,0,0:0:0:0:
448,192,54799,1,0,0:0:0:0:
64,192,54799,1,0,0:0:0:0:
192,192,54955,1,0,0:0:0:0:
320,192,54955,1,0,0:0:0:0:
192,192,55110,1,0,0:0:0:0:
64,192,55110,1,0,0:0:0:0:
448,192,55110,1,0,0:0:0:0:
320,192,55265,1,0,0:0:0:0:
192,192,55265,1,0,0:0:0:0:
64,192,55265,1,0,0:0:0:0:
448,192,55265,1,0,0:0:0:0:
320,192,55421,1,0,0:0:0:0:
448,192,55421,1,0,0:0:0:0:
64,192,55421,1,0,0:0:0:0:
192,192,55576,1,0,0:0:0:0:
320,192,55576,1,0,0:0:0:0:
448,192,55576,1,0,0:0:0:0:
192,192,55732,1,0,0:0:0:0:
64,192,55732,1,0,0:0:0:0:
320,192,55887,1,0,0:0:0:0:
448,192,55887,1,0,0:0:0:0:
64,192,55887,1,0,0:0:0:0:
192,192,55887,1,0,0:0:0:0:
192,192,56043,1,0,0:0:0:0:
448,192,56043,1,0,0:0:0:0:
320,192,56043,1,0,0:0:0:0:
320,192,56198,1,0,0:0:0:0:
448,192,56198,1,0,0:0:0:0:
192,192,56276,1,0,0:0:0:0:
64,192,56276,1,0,0:0:0:0:
320,192,56353,1,0,0:0:0:0:
448,192,56353,1,0,0:0:0:0:
192,192,56431,1,0,0:0:0:0:
64,192,56431,1,0,0:0:0:0:
320,192,56509,1,0,0:0:0:0:
448,192,56509,1,0,0:0:0:0:
64,192,56509,1,0,0:0:0:0:
192,192,56664,1,0,0:0:0:0:
320,192,56664,1,0,0:0:0:0:
448,192,56664,1,0,0:0:0:0:
64,192,56742,1,0,0:0:0:0:
192,192,56820,1,0,0:0:0:0:
448,192,56820,1,0,0:0:0:0:
320,192,56820,1,0,0:0:0:0:
64,192,56975,1,0,0:0:0:0:
192,192,56975,1,0,0:0:0:0:
448,192,56975,1,0,0:0:0:0:
64,192,57131,1,0,0:0:0:0:
192,192,57131,1,0,0:0:0:0:
320,192,57131,1,0,0:0:0:0:
448,192,57131,1,0,0:0:0:0:
320,192,57286,1,0,0:0:0:0:
448,192,57286,1,0,0:0:0:0:
64,192,57286,1,0,0:0:0:0:
192,192,57442,1,0,0:0:0:0:
320,192,57442,1,0,0:0:0:0:
192,192,57597,1,0,0:0:0:0:
64,192,57597,1,0,0:0:0:0:
448,192,57597,1,0,0:0:0:0:
320,192,57752,1,0,0:0:0:0:
192,192,57752,1,0,0:0:0:0:
64,192,57752,1,0,0:0:0:0:
448,192,57752,1,0,0:0:0:0:
320,192,57908,1,0,0:0:0:0:
64,192,57908,1,0,0:0:0:0:
192,192,58063,1,0,0:0:0:0:
320,192,58063,1,0,0:0:0:0:
448,192,58063,1,0,0:0:0:0:
192,192,58219,1,0,0:0:0:0:
64,192,58219,1,0,0:0:0:0:
64,192,58374,1,0,0:0:0:0:
192,192,58374,1,0,0:0:0:0:
320,192,58374,1,0,0:0:0:0:
448,192,58374,1,0,0:0:0:0:
320,192,58530,1,0,0:0:0:0:
448,192,58530,1,0,0:0:0:0:
192,192,58685,1,0,0:0:0:0:
64,192,58685,1,0,0:0:0:0:
448,192,58685,1,0,0:0:0:0:
320,192,58841,1,0,0:0:0:0:
64,192,58841,1,0,0:0:0:0:
64,192,58996,1,0,0:0:0:0:
192,192,58996,1,0,0:0:0:0:
320,192,58996,1,0,0:0:0:0:
448,192,58996,1,0,0:0:0:0:
192,192,59151,1,0,0:0:0:0:
448,192,59151,1,0,0:0:0:0:
320,192,59307,1,0,0:0:0:0:
64,192,59307,1,0,0:0:0:0:
448,192,59307,1,0,0:0:0:0:
192,192,59462,1,0,0:0:0:0:
320,192,59462,1,0,0:0:0:0:
448,192,59462,1,0,0:0:0:0:
448,192,59618,1,0,0:0:0:0:
320,192,59618,1,0,0:0:0:0:
192,192,59618,1,0,0:0:0:0:
64,192,59618,1,0,0:0:0:0:
192,192,59773,1,0,0:0:0:0:
64,192,59773,1,0,0:0:0:0:
320,192,59773,1,0,0:0:0:0:
448,192,59929,1,0,0:0:0:0:
64,192,59929,1,0,0:0:0:0:
192,192,60084,1,0,0:0:0:0:
320,192,60084,1,0,0:0:0:0:
448,192,60084,1,0,0:0:0:0:
64,192,60239,1,0,0:0:0:0:
192,192,60239,1,0,0:0:0:0:
320,192,60239,1,0,0:0:0:0:
448,192,60239,1,0,0:0:0:0:
64,192,60395,1,0,0:0:0:0:
320,192,60395,1,0,0:0:0:0:
192,192,60550,1,0,0:0:0:0:
448,192,60550,1,0,0:0:0:0:
64,192,60550,1,0,0:0:0:0:
320,192,60706,1,0,0:0:0:0:
192,192,60706,1,0,0:0:0:0:
448,192,60706,1,0,0:0:0:0:
64,192,60861,1,0,0:0:0:0:
192,192,60861,1,0,0:0:0:0:
320,192,60861,1,0,0:0:0:0:
448,192,60861,1,0,0:0:0:0:
192,192,61017,1,0,0:0:0:0:
64,192,61017,1,0,0:0:0:0:
320,192,61017,1,0,0:0:0:0:
448,192,61172,1,0,0:0:0:0:
64,192,61172,1,0,0:0:0:0:
320,192,61328,1,0,0:0:0:0:
448,192,61328,1,0,0:0:0:0:
192,192,61405,1,0,0:0:0:0:
64,192,61405,1,0,0:0:0:0:
320,192,61561,1,0,0:0:0:0:
448,192,61561,1,0,0:0:0:0:
192,192,61638,1,0,0:0:0:0:
64,192,61638,1,0,0:0:0:0:
320,192,61794,1,0,0:0:0:0:
448,192,61794,1,0,0:0:0:0:
192,192,61872,1,0,0:0:0:0:
64,192,61872,1,0,0:0:0:0:
320,192,61949,1,0,0:0:0:0:
448,192,61949,1,0,0:0:0:0:
192,192,62027,1,0,0:0:0:0:
64,192,62027,1,0,0:0:0:0:
320,192,62105,1,0,0:0:0:0:
448,192,62105,1,0,0:0:0:0:
192,192,62183,1,0,0:0:0:0:
64,192,62183,1,0,0:0:0:0:
320,192,62260,1,0,0:0:0:0:
448,192,62260,1,0,0:0:0:0:
64,192,62260,1,0,0:0:0:0:
192,192,62416,1,0,0:0:0:0:
320,192,62416,1,0,0:0:0:0:
192,192,62571,1,0,0:0:0:0:
64,192,62571,1,0,0:0:0:0:
448,192,62571,1,0,0:0:0:0:
320,192,62727,1,0,0:0:0:0:
192,192,62727,1,0,0:0:0:0:
64,192,62727,1,0,0:0:0:0:
192,192,62882,1,0,0:0:0:0:
320,192,62882,1,0,0:0:0:0:
448,192,62882,1,0,0:0:0:0:
448,192,63037,1,0,0:0:0:0:
320,192,63037,1,0,0:0:0:0:
192,192,63037,1,0,0:0:0:0:
64,192,63037,1,0,0:0:0:0:
64,192,63193,1,0,0:0:0:0:
448,192,63193,1,0,0:0:0:0:
320,192,63348,1,0,0:0:0:0:
192,192,63348,1,0,0:0:0:0:
64,192,63348,1,0,0:0:0:0:
448,192,63348,1,0,0:0:0:0:
192,192,63504,1,0,0:0:0:0:
320,192,63504,1,0,0:0:0:0:
448,192,63504,1,0,0:0:0:0:
192,192,63659,1,0,0:0:0:0:
64,192,63659,1,0,0:0:0:0:
320,192,63659,1,0,0:0:0:0:
320,192,63815,1,0,0:0:0:0:
448,192,63815,1,0,0:0:0:0:
64,192,63815,1,0,0:0:0:0:
64,192,63970,1,0,0:0:0:0:
192,192,63970,1,0,0:0:0:0:
448,192,63970,1,0,0:0:0:0:
320,192,63970,1,0,0:0:0:0:
192,192,64126,1,0,0:0:0:0:
64,192,64126,1,0,0:0:0:0:
448,192,64126,1,0,0:0:0:0:
320,192,64281,1,0,0:0:0:0:
192,192,64281,1,0,0:0:0:0:
64,192,64281,1,0,0:0:0:0:
448,192,64436,1,0,0:0:0:0:
320,192,64436,1,0,0:0:0:0:
192,192,64436,1,0,0:0:0:0:
64,192,64592,1,0,0:0:0:0:
192,192,64592,1,0,0:0:0:0:
320,192,64592,1,0,0:0:0:0:
448,192,64592,1,0,0:0:0:0:
64,192,64747,1,0,0:0:0:0:
192,192,64747,1,0,0:0:0:0:
448,192,64747,1,0,0:0:0:0:
320,192,64903,1,0,0:0:0:0:
192,192,64903,1,0,0:0:0:0:
320,192,65058,1,0,0:0:0:0:
448,192,65058,1,0,0:0:0:0:
64,192,65058,1,0,0:0:0:0:
192,192,65214,1,0,0:0:0:0:
320,192,65214,1,0,0:0:0:0:
448,192,65214,1,0,0:0:0:0:
64,192,65214,1,0,0:0:0:0:
192,192,65369,1,0,0:0:0:0:
64,192,65369,1,0,0:0:0:0:
448,192,65369,1,0,0:0:0:0:
192,192,65524,1,0,0:0:0:0:
320,192,65524,1,0,0:0:0:0:
448,192,65524,1,0,0:0:0:0:
64,192,65680,1,0,0:0:0:0:
320,192,65680,1,0,0:0:0:0:
192,192,65835,1,0,0:0:0:0:
64,192,65835,1,0,0:0:0:0:
448,192,65835,1,0,0:0:0:0:
320,192,65835,1,0,0:0:0:0:
192,192,65991,1,0,0:0:0:0:
64,192,65991,1,0,0:0:0:0:
448,192,65991,1,0,0:0:0:0:
320,192,66146,1,0,0:0:0:0:
448,192,66146,1,0,0:0:0:0:
192,192,66224,1,0,0:0:0:0:
64,192,66224,1,0,0:0:0:0:
320,192,66302,1,0,0:0:0:0:
448,192,66302,1,0,0:0:0:0:
192,192,66379,1,0,0:0:0:0:
64,192,66379,1,0,0:0:0:0:
320,192,66457,1,0,0:0:0:0:
448,192,66457,1,0,0:0:0:0:
64,192,66457,1,0,0:0:0:0:
192,192,66613,1,0,0:0:0:0:
448,192,66613,1,0,0:0:0:0:
320,192,66690,1,0,0:0:0:0:
64,192,66690,1,0,0:0:0:0:
448,192,66768,1,0,0:0:0:0:
192,192,66768,1,0,0:0:0:0:
320,192,66923,1,0,0:0:0:0:
448,192,66923,1,0,0:0:0:0:
64,192,66923,1,0,0:0:0:0:
192,192,67079,1,0,0:0:0:0:
320,192,67079,1,0,0:0:0:0:
64,192,67079,1,0,0:0:0:0:
448,192,67079,1,0,0:0:0:0:
192,192,67234,1,0,0:0:0:0:
320,192,67234,1,0,0:0:0:0:
64,192,67234,1,0,0:0:0:0:
448,192,67390,1,0,0:0:0:0:
192,192,67390,1,0,0:0:0:0:
320,192,67545,1,0,0:0:0:0:
64,192,67545,1,0,0:0:0:0:
448,192,67545,1,0,0:0:0:0:
192,192,67701,1,0,0:0:0:0:
448,192,67701,1,0,0:0:0:0:
320,192,67701,1,0,0:0:0:0:
64,192,67701,1,0,0:0:0:0:
192,192,67856,1,0,0:0:0:0:
64,192,67856,1,0,0:0:0:0:
320,192,68012,1,0,0:0:0:0:
448,192,68012,1,0,0:0:0:0:
192,192,68012,1,0,0:0:0:0:
64,192,68167,1,0,0:0:0:0:
320,192,68167,1,0,0:0:0:0:
192,192,68322,1,0,0:0:0:0:
64,192,68322,1,0,0:0:0:0:
448,192,68322,1,0,0:0:0:0:
320,192,68322,1,0,0:0:0:0:
192,192,68478,1,0,0:0:0:0:
448,192,68478,1,0,0:0:0:0:
320,192,68633,1,0,0:0:0:0:
448,192,68633,1,0,0:0:0:0:
64,192,68633,1,0,0:0:0:0:
192,192,68789,1,0,0:0:0:0:
320,192,68789,1,0,0:0:0:0:
192,192,68944,1,0,0:0:0:0:
64,192,68944,1,0,0:0:0:0:
320,192,68944,1,0,0:0:0:0:
448,192,68944,1,0,0:0:0:0:
64,192,69100,1,0,0:0:0:0:
448,192,69100,1,0,0:0:0:0:
192,192,69255,1,0,0:0:0:0:
320,192,69255,1,0,0:0:0:0:
448,192,69255,1,0,0:0:0:0:
192,192,69410,1,0,0:0:0:0:
64,192,69410,1,0,0:0:0:0:
320,192,69410,1,0,0:0:0:0:
448,192,69566,1,0,0:0:0:0:
320,192,69566,1,0,0:0:0:0:
192,192,69566,1,0,0:0:0:0:
64,192,69566,1,0,0:0:0:0:
320,192,69721,1,0,0:0:0:0:
448,192,69721,1,0,0:0:0:0:
64,192,69721,1,0,0:0:0:0:
192,192,69877,1,0,0:0:0:0:
320,192,69877,1,0,0:0:0:0:
448,192,69877,1,0,0:0:0:0:
64,192,70032,1,0,0:0:0:0:
192,192,70032,1,0,0:0:0:0:
448,192,70032,1,0,0:0:0:0:
320,192,70188,1,0,0:0:0:0:
192,192,70188,1,0,0:0:0:0:
64,192,70188,1,0,0:0:0:0:
448,192,70188,1,0,0:0:0:0:
320,192,70343,1,0,0:0:0:0:
192,192,70343,1,0,0:0:0:0:
64,192,70499,1,0,0:0:0:0:
448,192,70499,1,0,0:0:0:0:
320,192,70499,1,0,0:0:0:0:
320,192,70654,1,0,0:0:0:0:
192,192,70654,1,0,0:0:0:0:
448,192,70654,1,0,0:0:0:0:
320,192,70809,1,0,0:0:0:0:
448,192,70809,1,0,0:0:0:0:
64,192,70809,1,0,0:0:0:0:
192,192,70809,1,0,0:0:0:0:
320,192,70965,1,0,0:0:0:0:
64,192,70965,1,0,0:0:0:0:
192,192,70965,1,0,0:0:0:0:
448,192,70965,1,0,0:0:0:0:
64,192,71276,1,0,0:0:0:0:
192,192,71276,1,0,0:0:0:0:
320,192,71276,1,0,0:0:0:0:
448,192,71276,1,0,0:0:0:0:
320,192,71509,1,0,0:0:0:0:
448,192,71509,1,0,0:0:0:0:
320,192,71587,1,0,0:0:0:0:
448,192,71587,1,0,0:0:0:0:
192,192,71587,1,0,0:0:0:0:
64,192,71587,1,0,0:0:0:0:
192,192,71742,1,0,0:0:0:0:
64,192,71742,1,0,0:0:0:0:
64,192,71898,1,0,0:0:0:0:
192,192,71898,1,0,0:0:0:0:
320,192,71898,1,0,0:0:0:0:
448,192,71898,1,0,0:0:0:0:
64,192,72208,1,0,0:0:0:0:
192,192,72208,1,0,0:0:0:0:
320,192,72208,1,0,0:0:0:0:
448,192,72208,1,0,0:0:0:0:
64,192,72519,1,0,0:0:0:0:
320,192,72519,1,0,0:0:0:0:
448,192,72519,1,0,0:0:0:0:
64,192,72675,1,0,0:0:0:0:
192,192,72675,1,0,0:0:0:0:
320,192,72675,1,0,0:0:0:0:
448,192,72675,1,0,0:0:0:0:
192,192,72830,1,0,0:0:0:0:
320,192,72830,1,0,0:0:0:0:
192,192,72986,1,0,0:0:0:0:
64,192,72986,1,0,0:0:0:0:
448,192,72986,1,0,0:0:0:0:
320,192,73141,1,0,0:0:0:0:
64,192,73141,1,0,0:0:0:0:
64,192,73296,1,0,0:0:0:0:
192,192,73296,1,0,0:0:0:0:
320,192,73296,1,0,0:0:0:0:
448,192,73296,1,0,0:0:0:0:
192,192,73452,1,0,0:0:0:0:
448,192,73452,1,0,0:0:0:0:
320,192,73452,1,0,0:0:0:0:
320,192,73607,1,0,0:0:0:0:
448,192,73607,1,0,0:0:0:0:
64,192,73607,1,0,0:0:0:0:
192,192,73763,1,0,0:0:0:0:
64,192,73763,1,0,0:0:0:0:
64,192,73918,1,0,0:0:0:0:
192,192,73918,1,0,0:0:0:0:
320,192,73918,1,0,0:0:0:0:
448,192,73918,1,0,0:0:0:0:
320,192,74074,1,0,0:0:0:0:
448,192,74074,1,0,0:0:0:0:
192,192,74229,1,0,0:0:0:0:
64,192,74229,1,0,0:0:0:0:
448,192,74229,1,0,0:0:0:0:
320,192,74385,1,0,0:0:0:0:
192,192,74385,1,0,0:0:0:0:
64,192,74385,1,0,0:0:0:0:
64,192,74540,1,0,0:0:0:0:
192,192,74540,1,0,0:0:0:0:
320,192,74540,1,0,0:0:0:0:
448,192,74540,1,0,0:0:0:0:
320,192,74695,1,0,0:0:0:0:
448,192,74695,1,0,0:0:0:0:
64,192,74695,1,0,0:0:0:0:
192,192,74851,1,0,0:0:0:0:
320,192,74851,1,0,0:0:0:0:
448,192,74851,1,0,0:0:0:0:
192,192,75006,1,0,0:0:0:0:
64,192,75006,1,0,0:0:0:0:
448,192,75006,1,0,0:0:0:0:
64,192,75162,1,0,0:0:0:0:
192,192,75162,1,0,0:0:0:0:
320,192,75162,1,0,0:0:0:0:
448,192,75162,1,0,0:0:0:0:
320,192,75317,1,0,0:0:0:0:
64,192,75317,1,0,0:0:0:0:
192,192,75473,1,0,0:0:0:0:
448,192,75473,1,0,0:0:0:0:
320,192,75473,1,0,0:0:0:0:
64,192,75628,1,0,0:0:0:0:
448,192,75628,1,0,0:0:0:0:
64,192,75784,1,0,0:0:0:0:
192,192,75784,1,0,0:0:0:0:
320,192,75784,1,0,0:0:0:0:
448,192,75784,1,0,0:0:0:0:
192,192,75939,1,0,0:0:0:0:
320,192,75939,1,0,0:0:0:0:
320,192,76094,1,0,0:0:0:0:
448,192,76094,1,0,0:0:0:0:
192,192,76172,1,0,0:0:0:0:
64,192,76172,1,0,0:0:0:0:
320,192,76250,1,0,0:0:0:0:
448,192,76250,1,0,0:0:0:0:
64,192,76405,1,0,0:0:0:0:
192,192,76405,1,0,0:0:0:0:
448,192,76405,1,0,0:0:0:0:
320,192,76561,1,0,0:0:0:0:
64,192,76561,1,0,0:0:0:0:
192,192,76638,1,0,0:0:0:0:
448,192,76638,1,0,0:0:0:0:
320,192,76716,1,0,0:0:0:0:
64,192,76716,1,0,0:0:0:0:
192,192,76872,1,0,0:0:0:0:
320,192,76872,1,0,0:0:0:0:
448,192,76872,1,0,0:0:0:0:
64,192,77027,1,0,0:0:0:0:
320,192,77027,1,0,0:0:0:0:
448,192,77027,1,0,0:0:0:0:
192,192,77027,1,0,0:0:0:0:
192,192,77183,1,0,0:0:0:0:
64,192,77183,1,0,0:0:0:0:
448,192,77183,1,0,0:0:0:0:
320,192,77338,1,0,0:0:0:0:
192,192,77338,1,0,0:0:0:0:
320,192,77493,1,0,0:0:0:0:
448,192,77493,1,0,0:0:0:0:
64,192,77493,1,0,0:0:0:0:
64,192,77649,1,0,0:0:0:0:
192,192,77649,1,0,0:0:0:0:
320,192,77649,1,0,0:0:0:0:
448,192,77649,1,0,0:0:0:0:
192,192,77804,1,0,0:0:0:0:
448,192,77804,1,0,0:0:0:0:
320,192,77960,1,0,0:0:0:0:
192,192,77960,1,0,0:0:0:0:
64,192,77960,1,0,0:0:0:0:
448,192,78115,1,0,0:0:0:0:
64,192,78115,1,0,0:0:0:0:
320,192,78115,1,0,0:0:0:0:
192,192,78271,1,0,0:0:0:0:
64,192,78271,1,0,0:0:0:0:
448,192,78271,1,0,0:0:0:0:
320,192,78271,1,0,0:0:0:0:
64,192,78426,128,0,79203:0:0:0:0:
192,192,78426,128,0,79048:0:0:0:0:
448,192,78426,128,0,79203:0:0:0:0:
320,192,78426,128,0,79048:0:0:0:0:
192,192,79514,1,0,0:0:0:0:
64,192,79514,1,0,0:0:0:0:
320,192,79670,1,0,0:0:0:0:
448,192,79670,1,0,0:0:0:0:
448,192,79825,1,0,0:0:0:0:
192,192,79825,1,0,0:0:0:0:
64,192,79825,1,0,0:0:0:0:
320,192,79825,1,0,0:0:0:0:
192,192,79980,1,0,0:0:0:0:
64,192,79980,1,0,0:0:0:0:
320,192,80136,1,0,0:0:0:0:
448,192,80136,1,0,0:0:0:0:
64,192,80136,1,0,0:0:0:0:
192,192,80291,1,0,0:0:0:0:
320,192,80291,1,0,0:0:0:0:
192,192,80447,1,0,0:0:0:0:
64,192,80447,1,0,0:0:0:0:
448,192,80447,1,0,0:0:0:0:
320,192,80602,1,0,0:0:0:0:
64,192,80602,1,0,0:0:0:0:
448,192,80602,1,0,0:0:0:0:
192,192,80758,1,0,0:0:0:0:
320,192,80758,1,0,0:0:0:0:
448,192,80758,1,0,0:0:0:0:
64,192,80758,1,0,0:0:0:0:
192,192,80913,1,0,0:0:0:0:
64,192,80913,1,0,0:0:0:0:
320,192,80913,1,0,0:0:0:0:
448,192,81069,1,0,0:0:0:0:
192,192,81069,1,0,0:0:0:0:
320,192,81069,1,0,0:0:0:0:
64,192,81224,1,0,0:0:0:0:
192,192,81224,1,0,0:0:0:0:
448,192,81224,1,0,0:0:0:0:
64,192,81379,1,0,0:0:0:0:
192,192,81379,1,0,0:0:0:0:
320,192,81379,1,0,0:0:0:0:
448,192,81379,1,0,0:0:0:0:
320,192,81535,1,0,0:0:0:0:
64,192,81535,1,0,0:0:0:0:
192,192,81690,1,0,0:0:0:0:
320,192,81690,1,0,0:0:0:0:
448,192,81690,1,0,0:0:0:0:
64,192,81846,1,0,0:0:0:0:
448,192,81846,1,0,0:0:0:0:
192,192,81846,1,0,0:0:0:0:
192,192,82001,1,0,0:0:0:0:
64,192,82001,1,0,0:0:0:0:
320,192,82001,1,0,0:0:0:0:
448,192,82001,1,0,0:0:0:0:
320,192,82157,1,0,0:0:0:0:
448,192,82157,1,0,0:0:0:0:
64,192,82157,1,0,0:0:0:0:
192,192,82312,1,0,0:0:0:0:
320,192,82312,1,0,0:0:0:0:
448,192,82312,1,0,0:0:0:0:
192,192,82467,1,0,0:0:0:0:
64,192,82467,1,0,0:0:0:0:
448,192,82467,1,0,0:0:0:0:
320,192,82623,1,0,0:0:0:0:
192,192,82623,1,0,0:0:0:0:
448,192,82778,1,0,0:0:0:0:
192,192,82778,1,0,0:0:0:0:
64,192,82778,1,0,0:0:0:0:
64,192,82934,1,0,0:0:0:0:
192,192,82934,1,0,0:0:0:0:
320,192,82934,1,0,0:0:0:0:
448,192,82934,1,0,0:0:0:0:
320,192,83089,1,0,0:0:0:0:
448,192,83089,1,0,0:0:0:0:
64,192,83089,1,0,0:0:0:0:
192,192,83245,1,0,0:0:0:0:
320,192,83245,1,0,0:0:0:0:
448,192,83245,1,0,0:0:0:0:
64,192,83245,1,0,0:0:0:0:
192,192,83400,1,0,0:0:0:0:
320,192,83400,1,0,0:0:0:0:
192,192,83556,1,0,0:0:0:0:
64,192,83556,1,0,0:0:0:0:
448,192,83556,1,0,0:0:0:0:
320,192,83711,1,0,0:0:0:0:
448,192,83711,1,0,0:0:0:0:
64,192,83711,1,0,0:0:0:0:
64,192,83866,1,0,0:0:0:0:
192,192,83866,1,0,0:0:0:0:
320,192,83866,1,0,0:0:0:0:
448,192,83866,1,0,0:0:0:0:
192,192,84022,1,0,0:0:0:0:
64,192,84022,1,0,0:0:0:0:
320,192,84022,1,0,0:0:0:0:
448,192,84177,1,0,0:0:0:0:
192,192,84177,1,0,0:0:0:0:
64,192,84177,1,0,0:0:0:0:
320,192,84333,1,0,0:0:0:0:
448,192,84333,1,0,0:0:0:0:
64,192,84333,1,0,0:0:0:0:
64,192,84488,1,0,0:0:0:0:
192,192,84488,1,0,0:0:0:0:
320,192,84488,1,0,0:0:0:0:
448,192,84488,1,0,0:0:0:0:
192,192,84644,1,0,0:0:0:0:
320,192,84644,1,0,0:0:0:0:
448,192,84799,1,0,0:0:0:0:
192,192,84799,1,0,0:0:0:0:
64,192,84799,1,0,0:0:0:0:
320,192,84955,1,0,0:0:0:0:
448,192,84955,1,0,0:0:0:0:
64,192,84955,1,0,0:0:0:0:
192,192,85110,1,0,0:0:0:0:
320,192,85110,1,0,0:0:0:0:
448,192,85110,1,0,0:0:0:0:
64,192,85110,1,0,0:0:0:0:
192,192,85265,1,0,0:0:0:0:
320,192,85265,1,0,0:0:0:0:
192,192,85421,1,0,0:0:0:0:
64,192,85421,1,0,0:0:0:0:
448,192,85421,1,0,0:0:0:0:
320,192,85576,1,0,0:0:0:0:
448,192,85576,1,0,0:0:0:0:
192,192,85576,1,0,0:0:0:0:
64,192,85732,1,0,0:0:0:0:
192,192,85732,1,0,0:0:0:0:
320,192,85732,1,0,0:0:0:0:
448,192,85732,1,0,0:0:0:0:
64,192,85887,1,0,0:0:0:0:
320,192,85887,1,0,0:0:0:0:
192,192,86043,1,0,0:0:0:0:
448,192,86043,1,0,0:0:0:0:
64,192,86043,1,0,0:0:0:0:
320,192,86198,1,0,0:0:0:0:
448,192,86198,1,0,0:0:0:0:
64,192,86353,1,0,0:0:0:0:
192,192,86353,1,0,0:0:0:0:
320,192,86353,1,0,0:0:0:0:
448,192,86353,1,0,0:0:0:0:
64,192,86509,1,0,0:0:0:0:
192,192,86509,1,0,0:0:0:0:
320,192,86664,1,0,0:0:0:0:
448,192,86664,1,0,0:0:0:0:
192,192,86664,1,0,0:0:0:0:
64,192,86820,1,0,0:0:0:0:
320,192,86820,1,0,0:0:0:0:
448,192,86820,1,0,0:0:0:0:
192,192,86975,1,0,0:0:0:0:
64,192,86975,1,0,0:0:0:0:
320,192,86975,1,0,0:0:0:0:
448,192,86975,1,0,0:0:0:0:
192,192,87131,1,0,0:0:0:0:
320,192,87131,1,0,0:0:0:0:
64,192,87131,1,0,0:0:0:0:
448,192,87286,1,0,0:0:0:0:
192,192,87286,1,0,0:0:0:0:
320,192,87442,1,0,0:0:0:0:
64,192,87442,1,0,0:0:0:0:
448,192,87442,1,0,0:0:0:0:
192,192,87597,1,0,0:0:0:0:
320,192,87597,1,0,0:0:0:0:
448,192,87597,1,0,0:0:0:0:
64,192,87597,1,0,0:0:0:0:
192,192,87752,1,0,0:0:0:0:
64,192,87752,1,0,0:0:0:0:
320,192,87908,1,0,0:0:0:0:
192,192,87908,1,0,0:0:0:0:
448,192,87908,1,0,0:0:0:0:
64,192,88063,1,0,0:0:0:0:
448,192,88063,1,0,0:0:0:0:
320,192,88219,1,0,0:0:0:0:
192,192,88219,1,0,0:0:0:0:
64,192,88219,1,0,0:0:0:0:
448,192,88374,1,0,0:0:0:0:
320,192,88374,1,0,0:0:0:0:
64,192,88530,1,0,0:0:0:0:
192,192,88530,1,0,0:0:0:0:
320,192,88530,1,0,0:0:0:0:
448,192,88530,1,0,0:0:0:0:
192,192,88685,1,0,0:0:0:0:
64,192,88685,1,0,0:0:0:0:
320,192,88841,1,0,0:0:0:0:
448,192,88841,1,0,0:0:0:0:
192,192,88918,1,0,0:0:0:0:
64,192,88918,1,0,0:0:0:0:
320,192,88996,1,0,0:0:0:0:
448,192,88996,1,0,0:0:0:0:
448,192,89151,1,0,0:0:0:0:
64,192,89151,1,0,0:0:0:0:
192,192,89229,1,0,0:0:0:0:
320,192,89229,1,0,0:0:0:0:
64,192,89307,1,0,0:0:0:0:
448,192,89307,1,0,0:0:0:0:
320,192,89385,1,0,0:0:0:0:
192,192,89462,1,0,0:0:0:0:
64,192,89462,1,0,0:0:0:0:
320,192,89540,1,0,0:0:0:0:
448,192,89540,1,0,0:0:0:0:
192,192,89618,1,0,0:0:0:0:
64,192,89618,1,0,0:0:0:0:
320,192,89695,1,0,0:0:0:0:
448,192,89695,1,0,0:0:0:0:
192,192,89773,1,0,0:0:0:0:
64,192,89773,1,0,0:0:0:0:
