osu file format v14

[General]
AudioFilename: Dear You.mp3
AudioLeadIn: 0
PreviewTime: 88258
Countdown: 0
SampleSet: Normal
StackLeniency: 0.7
Mode: 3
LetterboxInBreaks: 0
SpecialStyle: 0
WidescreenStoryboard: 1

[Editor]
Bookmarks: 75852,82744
DistanceSpacing: 0.8
BeatDivisor: 4
GridSize: 4
TimelineZoom: 2.5

[Metadata]
Title:Envory's 4K Practice Pack
TitleUnicode:Envory's 4K Practice Pack
Artist:Various Artist
ArtistUnicode:Various Artist
Creator:Envory
Version:DJ Genericname - Dear You [WhiteLotus' Full Density LN]
Source:
Tags:
BeatmapID:1786869
BeatmapSetID:855110

[Difficulty]
HPDrainRate:8
CircleSize:4
OverallDifficulty:6
ApproachRate:5
SliderMultiplier:1.4
SliderTickRate:1

[Events]
//Background and Video events
0,0,"Dear You.jpg",0,0
//Break Periods
//Storyboard Layer 0 (Background)
//Storyboard Layer 1 (Fail)
//Storyboard Layer 2 (Pass)
//Storyboard Layer 3 (Foreground)
//Storyboard Sound Samples

[TimingPoints]
38,344.609729481362,4,1,0,35,1,0
10721,-58.8235294117647,4,1,0,30,0,0
10807,-333.333333333333,4,1,0,30,0,0
10979,-125,4,1,0,30,0,0
11065,-100,4,1,0,35,0,0
32775,-58.8235294117647,4,1,0,35,0,0
32862,-333.333333333333,4,1,0,30,0,0
33034,-125,4,1,0,30,0,0
33120,-100,4,1,0,35,0,0
66203,-125,4,1,0,35,0,0
67926,-117.647058823529,4,1,0,35,0,0
76885,-333.333333333333,4,1,0,35,0,0
77058,-83.3333333333333,4,1,0,35,0,0
77230,-100,4,1,0,35,0,0
83088,-20,4,1,0,35,0,0
83132,-200,4,1,0,35,0,0
83433,-83.3333333333333,4,1,0,35,0,0
83605,-100,4,1,0,35,0,0
84467,-20,4,1,0,35,0,0
84510,-200,4,1,0,35,0,0
84811,-83.3333333333333,4,1,0,35,0,0
84984,-100,4,1,0,35,0,0
88258,-100,4,1,0,35,0,1
110313,-100,4,1,0,35,0,0

[HitObjects]
64,192,38,128,0,1416:0:0:0:0:
448,192,38,128,0,210:0:0:0:0:
320,192,38,128,0,210:0:0:0:0:
192,192,210,128,0,382:0:0:0:0:
448,192,382,128,0,554:0:0:0:0:
320,192,554,128,0,727:0:0:0:0:
192,192,727,128,0,899:0:0:0:0:
448,192,899,128,0,1071:0:0:0:0:
192,192,1071,128,0,1244:0:0:0:0:
320,192,1244,128,0,1416:0:0:0:0:
192,192,1416,128,0,2794:0:0:0:0:
448,192,1416,128,0,1588:0:0:0:0:
64,192,1588,128,0,1761:0:0:0:0:
320,192,1761,128,0,1933:0:0:0:0:
448,192,1933,128,0,2105:0:0:0:0:
320,192,2105,128,0,2277:0:0:0:0:
64,192,2277,128,0,2450:0:0:0:0:
448,192,2450,128,0,2622:0:0:0:0:
64,192,2622,128,0,2794:0:0:0:0:
320,192,2794,128,0,3484:0:0:0:0:
448,192,2794,128,0,2967:0:0:0:0:
192,192,2967,128,0,3139:0:0:0:0:
64,192,3139,128,0,3311:0:0:0:0:
448,192,3311,128,0,3484:0:0:0:0:
192,192,3484,128,0,3828:0:0:0:0:
64,192,3484,128,0,3656:0:0:0:0:
320,192,3656,128,0,3828:0:0:0:0:
448,192,3828,128,0,4173:0:0:0:0:
64,192,3828,128,0,4001:0:0:0:0:
192,192,4001,128,0,4173:0:0:0:0:
64,192,4173,128,0,5207:0:0:0:0:
320,192,4173,128,0,4345:0:0:0:0:
192,192,4345,128,0,4517:0:0:0:0:
448,192,4517,128,0,4862:0:0:0:0:
320,192,4690,128,0,4862:0:0:0:0:
192,192,4862,128,0,5207:0:0:0:0:
448,192,5034,128,0,5207:0:0:0:0:
320,192,5207,128,0,5379:0:0:0:0:
64,192,5379,128,0,5551:0:0:0:0:
192,192,5551,128,0,6585:0:0:0:0:
320,192,5551,128,0,6240:0:0:0:0:
448,192,5551,128,0,5724:0:0:0:0:
64,192,5724,128,0,5896:0:0:0:0:
448,192,5896,128,0,6068:0:0:0:0:
64,192,6068,128,0,6240:0:0:0:0:
448,192,6240,128,0,6413:0:0:0:0:
320,192,6413,128,0,6585:0:0:0:0:
64,192,6585,128,0,6930:0:0:0:0:
448,192,6585,128,0,6757:0:0:0:0:
448,192,6930,128,0,8136:0:0:0:0:
320,192,6930,128,0,7274:0:0:0:0:
192,192,6930,128,0,7102:0:0:0:0:
64,192,7102,128,0,7274:0:0:0:0:
192,192,7274,128,0,7447:0:0:0:0:
320,192,7447,128,0,7619:0:0:0:0:
64,192,7619,128,0,7791:0:0:0:0:
192,192,7791,128,0,7964:0:0:0:0:
64,192,7964,128,0,8136:0:0:0:0:
320,192,8136,128,0,8308:0:0:0:0:
192,192,8308,128,0,9687:0:0:0:0:
64,192,8308,128,0,8653:0:0:0:0:
448,192,8308,128,0,8480:0:0:0:0:
320,192,8480,128,0,8653:0:0:0:0:
448,192,8653,128,0,8825:0:0:0:0:
64,192,8825,128,0,8997:0:0:0:0:
320,192,8997,128,0,9170:0:0:0:0:
448,192,9170,128,0,9342:0:0:0:0:
64,192,9342,128,0,9514:0:0:0:0:
320,192,9514,128,0,9687:0:0:0:0:
64,192,9687,128,0,10720:0:0:0:0:
448,192,9687,128,0,9859:0:0:0:0:
192,192,9859,128,0,10031:0:0:0:0:
448,192,10031,128,0,10203:0:0:0:0:
320,192,10203,128,0,10376:0:0:0:0:
192,192,10376,128,0,10548:0:0:0:0:
320,192,10548,128,0,10720:0:0:0:0:
192,192,10720,128,0,11065:0:0:0:0:
448,192,10720,1,0,0:0:0:0:
448,192,11065,128,0,11754:0:0:0:0:
64,192,11065,128,0,11237:0:0:0:0:
320,192,11065,128,0,11151:0:0:0:0:
192,192,11151,128,0,11237:0:0:0:0:
320,192,11237,128,0,11323:0:0:0:0:
64,192,11323,128,0,11410:0:0:0:0:
320,192,11410,128,0,11582:0:0:0:0:
192,192,11410,128,0,11496:0:0:0:0:
64,192,11496,128,0,11582:0:0:0:0:
192,192,11582,128,0,11668:0:0:0:0:
320,192,11668,128,0,11754:0:0:0:0:
64,192,11754,128,0,11927:0:0:0:0:
192,192,11754,128,0,11840:0:0:0:0:
448,192,11840,128,0,11927:0:0:0:0:
192,192,11927,128,0,12099:0:0:0:0:
320,192,11927,128,0,12013:0:0:0:0:
64,192,12013,128,0,12099:0:0:0:0:
320,192,12099,128,0,12271:0:0:0:0:
448,192,12099,128,0,12185:0:0:0:0:
192,192,12185,128,0,12271:0:0:0:0:
64,192,12271,128,0,12357:0:0:0:0:
320,192,12357,128,0,12443:0:0:0:0:
448,192,12443,128,0,13133:0:0:0:0:
192,192,12443,128,0,12616:0:0:0:0:
64,192,12530,128,0,12616:0:0:0:0:
320,192,12616,128,0,12702:0:0:0:0:
192,192,12702,128,0,12788:0:0:0:0:
64,192,12788,128,0,12960:0:0:0:0:
320,192,12788,128,0,12874:0:0:0:0:
192,192,12874,128,0,12960:0:0:0:0:
320,192,12960,128,0,13047:0:0:0:0:
192,192,13047,128,0,13133:0:0:0:0:
320,192,13133,128,0,13305:0:0:0:0:
64,192,13133,128,0,13219:0:0:0:0:
448,192,13219,128,0,13305:0:0:0:0:
192,192,13305,128,0,13477:0:0:0:0:
64,192,13305,128,0,13391:0:0:0:0:
320,192,13391,128,0,13477:0:0:0:0:
64,192,13477,128,0,13650:0:0:0:0:
448,192,13477,128,0,13563:0:0:0:0:
192,192,13563,128,0,13650:0:0:0:0:
320,192,13650,128,0,13736:0:0:0:0:
448,192,13736,128,0,13822:0:0:0:0:
192,192,13822,128,0,14511:0:0:0:0:
320,192,13822,128,0,13994:0:0:0:0:
64,192,13908,128,0,13994:0:0:0:0:
448,192,13994,128,0,14080:0:0:0:0:
320,192,14080,128,0,14166:0:0:0:0:
448,192,14166,128,0,14339:0:0:0:0:
64,192,14166,128,0,14253:0:0:0:0:
320,192,14253,128,0,14339:0:0:0:0:
64,192,14339,128,0,14425:0:0:0:0:
448,192,14425,128,0,14511:0:0:0:0:
320,192,14511,128,0,14683:0:0:0:0:
64,192,14511,128,0,14597:0:0:0:0:
448,192,14597,128,0,14683:0:0:0:0:
192,192,14683,128,0,14856:0:0:0:0:
64,192,14683,128,0,14770:0:0:0:0:
320,192,14770,128,0,14856:0:0:0:0:
64,192,14856,128,0,15028:0:0:0:0:
448,192,14856,128,0,14942:0:0:0:0:
192,192,14942,128,0,15028:0:0:0:0:
320,192,15028,128,0,15114:0:0:0:0:
448,192,15114,128,0,15200:0:0:0:0:
64,192,15200,128,0,15545:0:0:0:0:
192,192,15200,128,0,15373:0:0:0:0:
320,192,15200,128,0,15286:0:0:0:0:
320,192,15373,128,0,15545:0:0:0:0:
448,192,15373,128,0,15459:0:0:0:0:
192,192,15545,128,0,15890:0:0:0:0:
448,192,15545,128,0,15717:0:0:0:0:
64,192,15631,128,0,15717:0:0:0:0:
320,192,15717,128,0,15803:0:0:0:0:
64,192,15803,128,0,15890:0:0:0:0:
320,192,15890,128,0,16234:0:0:0:0:
448,192,15890,128,0,15976:0:0:0:0:
192,192,15976,128,0,16062:0:0:0:0:
64,192,16062,128,0,16234:0:0:0:0:
448,192,16148,128,0,16234:0:0:0:0:
192,192,16234,128,0,16406:0:0:0:0:
320,192,16320,128,0,16406:0:0:0:0:
64,192,16406,128,0,16493:0:0:0:0:
448,192,16493,128,0,16579:0:0:0:0:
320,192,16579,128,0,17268:0:0:0:0:
192,192,16579,128,0,16751:0:0:0:0:
64,192,16665,128,0,16751:0:0:0:0:
448,192,16751,128,0,16837:0:0:0:0:
192,192,16837,128,0,16923:0:0:0:0:
64,192,16923,128,0,17096:0:0:0:0:
192,192,17010,128,0,17096:0:0:0:0:
448,192,17096,128,0,17182:0:0:0:0:
64,192,17182,128,0,17268:0:0:0:0:
192,192,17268,128,0,17440:0:0:0:0:
448,192,17268,128,0,17354:0:0:0:0:
320,192,17354,128,0,17440:0:0:0:0:
448,192,17440,128,0,17613:0:0:0:0:
64,192,17440,128,0,17526:0:0:0:0:
320,192,17526,128,0,17613:0:0:0:0:
64,192,17613,128,0,17785:0:0:0:0:
192,192,17613,128,0,17699:0:0:0:0:
448,192,17699,128,0,17785:0:0:0:0:
320,192,17785,128,0,17871:0:0:0:0:
192,192,17871,128,0,17957:0:0:0:0:
320,192,17957,128,0,18646:0:0:0:0:
448,192,17957,128,0,18130:0:0:0:0:
64,192,17957,128,0,18043:0:0:0:0:
192,192,18043,128,0,18130:0:0:0:0:
64,192,18130,128,0,18216:0:0:0:0:
448,192,18216,128,0,18302:0:0:0:0:
192,192,18302,128,0,18474:0:0:0:0:
64,192,18302,128,0,18388:0:0:0:0:
448,192,18388,128,0,18474:0:0:0:0:
64,192,18474,128,0,18560:0:0:0:0:
192,192,18560,128,0,18646:0:0:0:0:
64,192,18646,128,0,18819:0:0:0:0:
448,192,18646,128,0,18733:0:0:0:0:
320,192,18733,128,0,18819:0:0:0:0:
192,192,18819,128,0,18991:0:0:0:0:
448,192,18819,128,0,18905:0:0:0:0:
64,192,18905,128,0,18991:0:0:0:0:
448,192,18991,128,0,19163:0:0:0:0:
320,192,18991,128,0,19077:0:0:0:0:
192,192,19077,128,0,19163:0:0:0:0:
64,192,19163,128,0,19249:0:0:0:0:
320,192,19249,128,0,19336:0:0:0:0:
64,192,19336,128,0,20025:0:0:0:0:
192,192,19336,128,0,19508:0:0:0:0:
448,192,19336,128,0,19422:0:0:0:0:
320,192,19422,128,0,19508:0:0:0:0:
448,192,19508,128,0,19594:0:0:0:0:
192,192,19594,128,0,19680:0:0:0:0:
448,192,19680,128,0,19853:0:0:0:0:
320,192,19680,128,0,19766:0:0:0:0:
192,192,19766,128,0,19853:0:0:0:0:
320,192,19853,128,0,19939:0:0:0:0:
448,192,19939,128,0,20025:0:0:0:0:
192,192,20025,128,0,20197:0:0:0:0:
320,192,20025,128,0,20111:0:0:0:0:
64,192,20111,128,0,20197:0:0:0:0:
320,192,20197,128,0,20369:0:0:0:0:
448,192,20197,128,0,20283:0:0:0:0:
64,192,20283,128,0,20369:0:0:0:0:
192,192,20369,128,0,20456:0:0:0:0:
448,192,20369,128,0,20542:0:0:0:0:
320,192,20456,128,0,20542:0:0:0:0:
64,192,20542,128,0,20628:0:0:0:0:
448,192,20628,128,0,20714:0:0:0:0:
64,192,20714,128,0,21403:0:0:0:0:
320,192,20714,128,0,20886:0:0:0:0:
192,192,20714,128,0,20800:0:0:0:0:
448,192,20800,128,0,20886:0:0:0:0:
192,192,20886,128,0,21059:0:0:0:0:
320,192,20973,128,0,21059:0:0:0:0:
448,192,21059,128,0,21231:0:0:0:0:
192,192,21145,128,0,21231:0:0:0:0:
320,192,21231,128,0,21317:0:0:0:0:
448,192,21317,128,0,21403:0:0:0:0:
192,192,21403,128,0,21576:0:0:0:0:
320,192,21403,128,0,21489:0:0:0:0:
64,192,21489,128,0,21576:0:0:0:0:
448,192,21576,128,0,21748:0:0:0:0:
320,192,21576,128,0,21662:0:0:0:0:
192,192,21662,128,0,21748:0:0:0:0:
320,192,21748,128,0,21920:0:0:0:0:
64,192,21748,128,0,21834:0:0:0:0:
192,192,21834,128,0,21920:0:0:0:0:
448,192,21920,128,0,22006:0:0:0:0:
64,192,22006,128,0,22093:0:0:0:0:
192,192,22093,128,0,22782:0:0:0:0:
320,192,22093,128,0,22265:0:0:0:0:
448,192,22093,128,0,22179:0:0:0:0:
64,192,22179,128,0,22265:0:0:0:0:
448,192,22265,128,0,22351:0:0:0:0:
320,192,22351,128,0,22437:0:0:0:0:
448,192,22437,128,0,22609:0:0:0:0:
64,192,22437,128,0,22523:0:0:0:0:
320,192,22523,128,0,22609:0:0:0:0:
64,192,22609,128,0,22696:0:0:0:0:
448,192,22696,128,0,22782:0:0:0:0:
320,192,22782,128,0,22954:0:0:0:0:
64,192,22782,128,0,22868:0:0:0:0:
448,192,22868,128,0,22954:0:0:0:0:
192,192,22954,128,0,23126:0:0:0:0:
64,192,22954,128,0,23040:0:0:0:0:
320,192,23040,128,0,23126:0:0:0:0:
64,192,23126,128,0,23299:0:0:0:0:
448,192,23126,128,0,23213:0:0:0:0:
192,192,23213,128,0,23299:0:0:0:0:
320,192,23299,128,0,23385:0:0:0:0:
448,192,23385,128,0,23471:0:0:0:0:
192,192,23471,128,0,24160:0:0:0:0:
64,192,23471,128,0,23643:0:0:0:0:
320,192,23471,128,0,23557:0:0:0:0:
448,192,23557,128,0,23643:0:0:0:0:
320,192,23643,128,0,23729:0:0:0:0:
64,192,23729,128,0,23816:0:0:0:0:
448,192,23816,128,0,23988:0:0:0:0:
320,192,23816,128,0,23902:0:0:0:0:
64,192,23902,128,0,23988:0:0:0:0:
320,192,23988,128,0,24074:0:0:0:0:
448,192,24074,128,0,24160:0:0:0:0:
64,192,24160,128,0,24332:0:0:0:0:
320,192,24160,128,0,24246:0:0:0:0:
192,192,24246,128,0,24332:0:0:0:0:
320,192,24332,128,0,24505:0:0:0:0:
448,192,24332,128,0,24419:0:0:0:0:
64,192,24419,128,0,24505:0:0:0:0:
192,192,24505,128,0,24677:0:0:0:0:
448,192,24505,128,0,24591:0:0:0:0:
320,192,24591,128,0,24677:0:0:0:0:
64,192,24677,128,0,24763:0:0:0:0:
192,192,24763,128,0,24849:0:0:0:0:
448,192,24849,128,0,25539:0:0:0:0:
320,192,24849,128,0,25022:0:0:0:0:
64,192,24849,128,0,24936:0:0:0:0:
192,192,24936,128,0,25022:0:0:0:0:
64,192,25022,128,0,25108:0:0:0:0:
320,192,25108,128,0,25194:0:0:0:0:
192,192,25194,128,0,25366:0:0:0:0:
64,192,25194,128,0,25280:0:0:0:0:
320,192,25280,128,0,25366:0:0:0:0:
64,192,25366,128,0,25452:0:0:0:0:
192,192,25452,128,0,25539:0:0:0:0:
320,192,25539,128,0,25711:0:0:0:0:
64,192,25539,128,0,25625:0:0:0:0:
448,192,25625,128,0,25711:0:0:0:0:
64,192,25711,128,0,25883:0:0:0:0:
192,192,25711,128,0,25797:0:0:0:0:
320,192,25797,128,0,25883:0:0:0:0:
192,192,25883,128,0,26056:0:0:0:0:
448,192,25883,128,0,25969:0:0:0:0:
64,192,25969,128,0,26056:0:0:0:0:
320,192,26056,128,0,26142:0:0:0:0:
192,192,26142,128,0,26228:0:0:0:0:
448,192,26228,128,0,26917:0:0:0:0:
64,192,26228,128,0,26400:0:0:0:0:
320,192,26228,128,0,26314:0:0:0:0:
192,192,26314,128,0,26400:0:0:0:0:
320,192,26400,128,0,26572:0:0:0:0:
64,192,26486,128,0,26572:0:0:0:0:
192,192,26572,128,0,26745:0:0:0:0:
320,192,26659,128,0,26745:0:0:0:0:
64,192,26745,128,0,26831:0:0:0:0:
192,192,26831,128,0,26917:0:0:0:0:
320,192,26917,128,0,27003:0:0:0:0:
448,192,27003,128,0,27089:0:0:0:0:
64,192,27089,128,0,27262:0:0:0:0:
192,192,27089,128,0,27176:0:0:0:0:
320,192,27176,128,0,27262:0:0:0:0:
448,192,27262,128,0,27434:0:0:0:0:
192,192,27262,128,0,27348:0:0:0:0:
320,192,27348,128,0,27434:0:0:0:0:
64,192,27434,128,0,27520:0:0:0:0:
192,192,27520,128,0,27606:0:0:0:0:
320,192,27606,128,0,28295:0:0:0:0:
448,192,27606,128,0,27779:0:0:0:0:
64,192,27692,128,0,27779:0:0:0:0:
192,192,27779,128,0,27865:0:0:0:0:
448,192,27865,128,0,27951:0:0:0:0:
64,192,27951,128,0,28123:0:0:0:0:
192,192,27951,128,0,28037:0:0:0:0:
448,192,28037,128,0,28123:0:0:0:0:
192,192,28123,128,0,28209:0:0:0:0:
64,192,28209,128,0,28295:0:0:0:0:
448,192,28295,128,0,28468:0:0:0:0:
192,192,28295,128,0,28382:0:0:0:0:
320,192,28382,128,0,28468:0:0:0:0:
192,192,28468,128,0,28640:0:0:0:0:
64,192,28468,128,0,28554:0:0:0:0:
448,192,28554,128,0,28640:0:0:0:0:
64,192,28640,128,0,28812:0:0:0:0:
320,192,28640,128,0,28726:0:0:0:0:
192,192,28726,128,0,28812:0:0:0:0:
448,192,28812,128,0,28899:0:0:0:0:
192,192,28899,128,0,28985:0:0:0:0:
320,192,28985,128,0,29674:0:0:0:0:
64,192,28985,128,0,29157:0:0:0:0:
448,192,28985,128,0,29071:0:0:0:0:
192,192,29071,128,0,29157:0:0:0:0:
448,192,29157,128,0,29243:0:0:0:0:
64,192,29243,128,0,29329:0:0:0:0:
192,192,29329,128,0,29502:0:0:0:0:
448,192,29329,128,0,29415:0:0:0:0:
64,192,29415,128,0,29502:0:0:0:0:
448,192,29502,128,0,29588:0:0:0:0:
192,192,29588,128,0,29674:0:0:0:0:
448,192,29674,128,0,29846:0:0:0:0:
64,192,29674,128,0,29760:0:0:0:0:
320,192,29760,128,0,29846:0:0:0:0:
64,192,29846,128,0,30019:0:0:0:0:
192,192,29846,128,0,29932:0:0:0:0:
448,192,29932,128,0,30019:0:0:0:0:
320,192,30019,128,0,30191:0:0:0:0:
192,192,30019,128,0,30105:0:0:0:0:
448,192,30105,128,0,30191:0:0:0:0:
192,192,30191,128,0,30277:0:0:0:0:
320,192,30277,128,0,30363:0:0:0:0:
64,192,30363,128,0,31052:0:0:0:0:
448,192,30363,128,0,30535:0:0:0:0:
192,192,30363,128,0,30449:0:0:0:0:
320,192,30449,128,0,30535:0:0:0:0:
192,192,30535,128,0,30622:0:0:0:0:
448,192,30622,128,0,30708:0:0:0:0:
320,192,30708,128,0,30880:0:0:0:0:
192,192,30708,128,0,30794:0:0:0:0:
448,192,30794,128,0,30880:0:0:0:0:
192,192,30880,128,0,30966:0:0:0:0:
320,192,30966,128,0,31052:0:0:0:0:
448,192,31052,128,0,31225:0:0:0:0:
192,192,31052,128,0,31139:0:0:0:0:
320,192,31139,128,0,31225:0:0:0:0:
192,192,31225,128,0,31397:0:0:0:0:
64,192,31225,128,0,31311:0:0:0:0:
448,192,31311,128,0,31397:0:0:0:0:
64,192,31397,128,0,32086:0:0:0:0:
320,192,31397,128,0,31569:0:0:0:0:
192,192,31483,128,0,31569:0:0:0:0:
448,192,31569,128,0,31655:0:0:0:0:
320,192,31655,128,0,31742:0:0:0:0:
192,192,31742,128,0,31914:0:0:0:0:
448,192,31742,128,0,31828:0:0:0:0:
320,192,31828,128,0,31914:0:0:0:0:
448,192,31914,128,0,32086:0:0:0:0:
192,192,32000,128,0,32086:0:0:0:0:
320,192,32086,128,0,32259:0:0:0:0:
448,192,32172,128,0,32259:0:0:0:0:
64,192,32259,128,0,32345:0:0:0:0:
192,192,32345,128,0,32431:0:0:0:0:
320,192,32431,128,0,32775:0:0:0:0:
448,192,32431,128,0,32517:0:0:0:0:
64,192,32517,128,0,32603:0:0:0:0:
192,192,32603,128,0,32775:0:0:0:0:
448,192,32603,128,0,32689:0:0:0:0:
448,192,32775,128,0,33120:0:0:0:0:
64,192,32775,1,0,0:0:0:0:
64,192,33120,128,0,33809:0:0:0:0:
192,192,33120,128,0,33292:0:0:0:0:
320,192,33120,128,0,33206:0:0:0:0:
448,192,33206,128,0,33292:0:0:0:0:
320,192,33292,128,0,33378:0:0:0:0:
192,192,33378,128,0,33465:0:0:0:0:
448,192,33465,128,0,33637:0:0:0:0:
320,192,33465,128,0,33551:0:0:0:0:
192,192,33551,128,0,33637:0:0:0:0:
320,192,33637,128,0,33723:0:0:0:0:
448,192,33723,128,0,33809:0:0:0:0:
192,192,33809,128,0,33982:0:0:0:0:
320,192,33809,128,0,33895:0:0:0:0:
64,192,33895,128,0,33982:0:0:0:0:
320,192,33982,128,0,34154:0:0:0:0:
448,192,33982,128,0,34068:0:0:0:0:
192,192,34068,128,0,34154:0:0:0:0:
448,192,34154,128,0,34498:0:0:0:0:
64,192,34154,128,0,34326:0:0:0:0:
192,192,34240,128,0,34326:0:0:0:0:
320,192,34326,128,0,34412:0:0:0:0:
64,192,34412,128,0,34498:0:0:0:0:
192,192,34498,128,0,34843:0:0:0:0:
320,192,34498,128,0,34585:0:0:0:0:
448,192,34585,128,0,34671:0:0:0:0:
64,192,34671,128,0,34757:0:0:0:0:
320,192,34757,128,0,34843:0:0:0:0:
64,192,34843,128,0,35015:0:0:0:0:
448,192,34843,128,0,34929:0:0:0:0:
192,192,34929,128,0,35015:0:0:0:0:
320,192,35015,128,0,35102:0:0:0:0:
448,192,35102,128,0,35188:0:0:0:0:
320,192,35188,128,0,35360:0:0:0:0:
64,192,35188,128,0,35274:0:0:0:0:
192,192,35274,128,0,35360:0:0:0:0:
448,192,35360,128,0,35532:0:0:0:0:
64,192,35360,128,0,35446:0:0:0:0:
320,192,35446,128,0,35532:0:0:0:0:
64,192,35532,128,0,35705:0:0:0:0:
192,192,35532,128,0,35618:0:0:0:0:
448,192,35618,128,0,35705:0:0:0:0:
192,192,35705,128,0,35877:0:0:0:0:
320,192,35705,128,0,35791:0:0:0:0:
64,192,35791,128,0,35877:0:0:0:0:
448,192,35877,128,0,36222:0:0:0:0:
320,192,35877,128,0,36049:0:0:0:0:
192,192,35963,128,0,36049:0:0:0:0:
64,192,36049,128,0,36135:0:0:0:0:
320,192,36135,128,0,36222:0:0:0:0:
192,192,36222,128,0,36394:0:0:0:0:
64,192,36222,128,0,36308:0:0:0:0:
448,192,36308,128,0,36394:0:0:0:0:
320,192,36394,128,0,36566:0:0:0:0:
64,192,36394,128,0,36480:0:0:0:0:
192,192,36480,128,0,36566:0:0:0:0:
448,192,36566,128,0,36652:0:0:0:0:
64,192,36566,128,0,36738:0:0:0:0:
320,192,36652,128,0,36738:0:0:0:0:
192,192,36738,128,0,36911:0:0:0:0:
320,192,36825,128,0,36911:0:0:0:0:
448,192,36911,128,0,37255:0:0:0:0:
64,192,36911,128,0,37083:0:0:0:0:
320,192,36997,128,0,37083:0:0:0:0:
192,192,37083,128,0,37169:0:0:0:0:
320,192,37169,128,0,37255:0:0:0:0:
192,192,37255,128,0,37600:0:0:0:0:
64,192,37255,128,0,37342:0:0:0:0:
320,192,37342,128,0,37428:0:0:0:0:
448,192,37428,128,0,37600:0:0:0:0:
64,192,37428,128,0,37514:0:0:0:0:
64,192,37600,128,0,37945:0:0:0:0:
320,192,37600,128,0,37772:0:0:0:0:
192,192,37686,128,0,37772:0:0:0:0:
448,192,37772,128,0,37858:0:0:0:0:
192,192,37858,128,0,37945:0:0:0:0:
320,192,37945,128,0,38289:0:0:0:0:
448,192,37945,128,0,38031:0:0:0:0:
64,192,38031,128,0,38117:0:0:0:0:
192,192,38117,128,0,38203:0:0:0:0:
448,192,38203,128,0,38289:0:0:0:0:
64,192,38289,128,0,38634:0:0:0:0:
192,192,38289,128,0,38461:0:0:0:0:
320,192,38375,128,0,38461:0:0:0:0:
448,192,38461,128,0,38548:0:0:0:0:
192,192,38548,128,0,38634:0:0:0:0:
320,192,38634,128,0,39323:0:0:0:0:
448,192,38634,128,0,38720:0:0:0:0:
64,192,38720,128,0,38806:0:0:0:0:
448,192,38806,128,0,38892:0:0:0:0:
192,192,38892,128,0,38978:0:0:0:0:
448,192,38978,128,0,39151:0:0:0:0:
64,192,38978,128,0,39065:0:0:0:0:
192,192,39065,128,0,39151:0:0:0:0:
64,192,39151,128,0,39237:0:0:0:0:
448,192,39237,128,0,39323:0:0:0:0:
192,192,39323,128,0,39495:0:0:0:0:
64,192,39323,128,0,39409:0:0:0:0:
320,192,39409,128,0,39495:0:0:0:0:
64,192,39495,128,0,39668:0:0:0:0:
448,192,39495,128,0,39581:0:0:0:0:
192,192,39581,128,0,39668:0:0:0:0:
320,192,39668,128,0,39840:0:0:0:0:
448,192,39668,128,0,39754:0:0:0:0:
64,192,39754,128,0,39840:0:0:0:0:
192,192,39840,128,0,40012:0:0:0:0:
448,192,39840,128,0,39926:0:0:0:0:
320,192,39926,128,0,40012:0:0:0:0:
448,192,40012,128,0,40357:0:0:0:0:
64,192,40012,128,0,40098:0:0:0:0:
320,192,40098,128,0,40185:0:0:0:0:
64,192,40185,128,0,40271:0:0:0:0:
192,192,40271,128,0,40357:0:0:0:0:
320,192,40357,128,0,40443:0:0:0:0:
64,192,40357,128,0,40529:0:0:0:0:
192,192,40443,128,0,40529:0:0:0:0:
448,192,40529,128,0,40615:0:0:0:0:
64,192,40615,128,0,40701:0:0:0:0:
320,192,40701,128,0,40874:0:0:0:0:
192,192,40701,128,0,40788:0:0:0:0:
448,192,40788,128,0,40874:0:0:0:0:
64,192,40874,128,0,41046:0:0:0:0:
192,192,40874,128,0,40960:0:0:0:0:
448,192,40960,128,0,41046:0:0:0:0:
192,192,41046,128,0,41391:0:0:0:0:
320,192,41046,128,0,41218:0:0:0:0:
448,192,41132,128,0,41218:0:0:0:0:
64,192,41218,128,0,41305:0:0:0:0:
320,192,41305,128,0,41391:0:0:0:0:
64,192,41391,128,0,42080:0:0:0:0:
448,192,41391,128,0,41563:0:0:0:0:
320,192,41477,128,0,41563:0:0:0:0:
192,192,41563,128,0,41649:0:0:0:0:
448,192,41649,128,0,41735:0:0:0:0:
192,192,41735,128,0,41908:0:0:0:0:
320,192,41735,128,0,41821:0:0:0:0:
448,192,41821,128,0,41908:0:0:0:0:
320,192,41908,128,0,41994:0:0:0:0:
192,192,41994,128,0,42080:0:0:0:0:
320,192,42080,128,0,42252:0:0:0:0:
448,192,42080,128,0,42166:0:0:0:0:
64,192,42166,128,0,42252:0:0:0:0:
192,192,42252,128,0,42769:0:0:0:0:
448,192,42252,128,0,42338:0:0:0:0:
64,192,42338,128,0,42424:0:0:0:0:
320,192,42424,128,0,42597:0:0:0:0:
448,192,42424,128,0,42511:0:0:0:0:
64,192,42511,128,0,42597:0:0:0:0:
448,192,42597,128,0,42683:0:0:0:0:
64,192,42683,128,0,42769:0:0:0:0:
448,192,42769,128,0,43114:0:0:0:0:
320,192,42769,128,0,42941:0:0:0:0:
192,192,42855,128,0,42941:0:0:0:0:
64,192,42941,128,0,43028:0:0:0:0:
320,192,43028,128,0,43114:0:0:0:0:
192,192,43114,128,0,43286:0:0:0:0:
64,192,43114,128,0,43200:0:0:0:0:
320,192,43200,128,0,43286:0:0:0:0:
448,192,43286,128,0,43372:0:0:0:0:
64,192,43372,128,0,43458:0:0:0:0:
192,192,43458,128,0,43544:0:0:0:0:
320,192,43458,128,0,43803:0:0:0:0:
448,192,43544,128,0,43631:0:0:0:0:
64,192,43631,128,0,43717:0:0:0:0:
192,192,43717,128,0,43803:0:0:0:0:
448,192,43803,128,0,43975:0:0:0:0:
64,192,43803,128,0,43889:0:0:0:0:
320,192,43889,128,0,43975:0:0:0:0:
192,192,43975,128,0,44061:0:0:0:0:
64,192,44061,128,0,44148:0:0:0:0:
448,192,44148,128,0,44320:0:0:0:0:
192,192,44148,128,0,44234:0:0:0:0:
320,192,44148,128,0,44837:0:0:0:0:
64,192,44234,128,0,44320:0:0:0:0:
192,192,44320,128,0,44406:0:0:0:0:
448,192,44406,128,0,44492:0:0:0:0:
64,192,44492,128,0,44664:0:0:0:0:
192,192,44492,128,0,44578:0:0:0:0:
448,192,44578,128,0,44664:0:0:0:0:
192,192,44664,128,0,44751:0:0:0:0:
64,192,44751,128,0,44837:0:0:0:0:
192,192,44837,128,0,45009:0:0:0:0:
448,192,44837,128,0,44923:0:0:0:0:
64,192,44923,128,0,45009:0:0:0:0:
320,192,45009,128,0,45181:0:0:0:0:
448,192,45009,128,0,45095:0:0:0:0:
192,192,45095,128,0,45181:0:0:0:0:
448,192,45181,128,0,45354:0:0:0:0:
64,192,45181,128,0,45354:0:0:0:0:
192,192,45268,128,0,45354:0:0:0:0:
320,192,45354,128,0,45526:0:0:0:0:
192,192,45440,128,0,45526:0:0:0:0:
64,192,45526,128,0,45871:0:0:0:0:
448,192,45526,128,0,45698:0:0:0:0:
320,192,45612,128,0,45698:0:0:0:0:
192,192,45698,128,0,45784:0:0:0:0:
448,192,45784,128,0,45871:0:0:0:0:
320,192,45871,128,0,46043:0:0:0:0:
192,192,45871,128,0,45957:0:0:0:0:
448,192,45957,128,0,46043:0:0:0:0:
64,192,46043,128,0,46129:0:0:0:0:
320,192,46129,128,0,46215:0:0:0:0:
192,192,46215,128,0,46388:0:0:0:0:
448,192,46215,128,0,46301:0:0:0:0:
64,192,46301,128,0,46388:0:0:0:0:
320,192,46388,128,0,46560:0:0:0:0:
448,192,46388,128,0,46474:0:0:0:0:
192,192,46560,128,0,46732:0:0:0:0:
64,192,46560,128,0,46646:0:0:0:0:
448,192,46560,128,0,46904:0:0:0:0:
64,192,46732,128,0,46904:0:0:0:0:
320,192,46732,128,0,46818:0:0:0:0:
192,192,46904,128,0,47249:0:0:0:0:
320,192,46904,128,0,47077:0:0:0:0:
448,192,46991,128,0,47077:0:0:0:0:
64,192,47077,128,0,47163:0:0:0:0:
320,192,47163,128,0,47249:0:0:0:0:
448,192,47249,128,0,47421:0:0:0:0:
64,192,47249,128,0,47335:0:0:0:0:
320,192,47335,128,0,47421:0:0:0:0:
192,192,47421,128,0,47507:0:0:0:0:
448,192,47507,128,0,47594:0:0:0:0:
64,192,47594,128,0,47766:0:0:0:0:
320,192,47594,128,0,47680:0:0:0:0:
192,192,47766,128,0,47938:0:0:0:0:
448,192,47766,128,0,47852:0:0:0:0:
64,192,47852,128,0,47938:0:0:0:0:
320,192,47938,128,0,48111:0:0:0:0:
448,192,47938,128,0,48111:0:0:0:0:
192,192,48024,128,0,48111:0:0:0:0:
64,192,48111,128,0,48197:0:0:0:0:
192,192,48197,128,0,48283:0:0:0:0:
448,192,48283,128,0,48455:0:0:0:0:
320,192,48283,128,0,48369:0:0:0:0:
320,192,48455,128,0,48627:0:0:0:0:
192,192,48455,128,0,48541:0:0:0:0:
64,192,48627,128,0,48972:0:0:0:0:
192,192,48627,128,0,48800:0:0:0:0:
320,192,48714,128,0,48800:0:0:0:0:
448,192,48800,128,0,48886:0:0:0:0:
192,192,48886,128,0,48972:0:0:0:0:
320,192,48972,128,0,49317:0:0:0:0:
448,192,48972,128,0,49058:0:0:0:0:
64,192,49058,128,0,49144:0:0:0:0:
192,192,49144,128,0,49231:0:0:0:0:
448,192,49231,128,0,49317:0:0:0:0:
64,192,49317,128,0,49489:0:0:0:0:
192,192,49317,128,0,49403:0:0:0:0:
448,192,49403,128,0,49489:0:0:0:0:
192,192,49489,128,0,49575:0:0:0:0:
320,192,49575,128,0,49661:0:0:0:0:
448,192,49661,128,0,50351:0:0:0:0:
64,192,49661,128,0,49834:0:0:0:0:
192,192,49661,128,0,49747:0:0:0:0:
320,192,49747,128,0,49834:0:0:0:0:
192,192,49834,128,0,49920:0:0:0:0:
64,192,49920,128,0,50006:0:0:0:0:
320,192,50006,128,0,50178:0:0:0:0:
192,192,50006,128,0,50092:0:0:0:0:
192,192,50178,128,0,50264:0:0:0:0:
320,192,50264,128,0,50351:0:0:0:0:
64,192,50351,128,0,50523:0:0:0:0:
192,192,50351,128,0,50437:0:0:0:0:
448,192,50437,128,0,50523:0:0:0:0:
192,192,50523,128,0,50695:0:0:0:0:
320,192,50523,128,0,50609:0:0:0:0:
64,192,50609,128,0,50695:0:0:0:0:
320,192,50695,128,0,51040:0:0:0:0:
448,192,50695,128,0,50867:0:0:0:0:
192,192,50781,128,0,50867:0:0:0:0:
64,192,50867,128,0,51040:0:0:0:0:
192,192,51040,128,0,51384:0:0:0:0:
448,192,51040,128,0,51212:0:0:0:0:
320,192,51126,128,0,51212:0:0:0:0:
64,192,51212,128,0,51298:0:0:0:0:
320,192,51298,128,0,51384:0:0:0:0:
64,192,51384,128,0,51471:0:0:0:0:
448,192,51384,128,0,51557:0:0:0:0:
320,192,51471,128,0,51557:0:0:0:0:
192,192,51557,128,0,51643:0:0:0:0:
64,192,51643,128,0,51729:0:0:0:0:
448,192,51729,128,0,51901:0:0:0:0:
320,192,51729,128,0,51815:0:0:0:0:
64,192,51815,128,0,51901:0:0:0:0:
320,192,51901,128,0,52074:0:0:0:0:
192,192,51901,128,0,51987:0:0:0:0:
448,192,51987,128,0,52074:0:0:0:0:
64,192,52074,128,0,52246:0:0:0:0:
192,192,52074,128,0,52246:0:0:0:0:
448,192,52160,128,0,52246:0:0:0:0:
320,192,52246,128,0,52418:0:0:0:0:
64,192,52418,128,0,52504:0:0:0:0:
448,192,52418,1,0,0:0:0:0:
192,192,52418,1,0,0:0:0:0:
320,192,52504,128,0,52590:0:0:0:0:
64,192,52590,128,0,52677:0:0:0:0:
192,192,52590,1,0,0:0:0:0:
448,192,52677,128,0,52763:0:0:0:0:
64,192,52763,128,0,52849:0:0:0:0:
192,192,52763,1,0,0:0:0:0:
320,192,52849,128,0,52935:0:0:0:0:
64,192,52935,128,0,53021:0:0:0:0:
192,192,52935,1,0,0:0:0:0:
448,192,53021,128,0,53107:0:0:0:0:
64,192,53107,128,0,53194:0:0:0:0:
192,192,53107,1,0,0:0:0:0:
320,192,53194,128,0,53280:0:0:0:0:
64,192,53280,128,0,53366:0:0:0:0:
192,192,53280,1,0,0:0:0:0:
448,192,53366,128,0,53452:0:0:0:0:
64,192,53452,128,0,53538:0:0:0:0:
192,192,53452,1,0,0:0:0:0:
320,192,53538,128,0,53624:0:0:0:0:
64,192,53624,128,0,53710:0:0:0:0:
192,192,53624,1,0,0:0:0:0:
448,192,53710,128,0,53797:0:0:0:0:
320,192,53797,128,0,53840:0:0:0:0:
64,192,53797,128,0,53840:0:0:0:0:
192,192,53883,128,0,53926:0:0:0:0:
448,192,53883,128,0,53926:0:0:0:0:
320,192,53969,128,0,54012:0:0:0:0:
64,192,53969,128,0,54012:0:0:0:0:
192,192,54055,128,0,54098:0:0:0:0:
448,192,54055,128,0,54098:0:0:0:0:
320,192,54141,128,0,54184:0:0:0:0:
64,192,54141,128,0,54184:0:0:0:0:
192,192,54227,128,0,54270:0:0:0:0:
448,192,54227,128,0,54270:0:0:0:0:
320,192,54314,128,0,54357:0:0:0:0:
64,192,54314,128,0,54357:0:0:0:0:
192,192,54400,128,0,54443:0:0:0:0:
448,192,54486,128,0,54529:0:0:0:0:
64,192,54486,128,0,54529:0:0:0:0:
320,192,54572,128,0,54615:0:0:0:0:
192,192,54572,128,0,54615:0:0:0:0:
448,192,54658,128,0,54701:0:0:0:0:
64,192,54658,128,0,54701:0:0:0:0:
320,192,54744,128,0,54787:0:0:0:0:
192,192,54744,128,0,54787:0:0:0:0:
64,192,54830,128,0,54874:0:0:0:0:
448,192,54830,128,0,54874:0:0:0:0:
320,192,54917,128,0,54960:0:0:0:0:
192,192,54917,128,0,54960:0:0:0:0:
64,192,55003,128,0,55046:0:0:0:0:
448,192,55003,128,0,55046:0:0:0:0:
320,192,55089,128,0,55132:0:0:0:0:
192,192,55089,128,0,55132:0:0:0:0:
448,192,55175,1,0,0:0:0:0:
320,192,55175,1,0,0:0:0:0:
64,192,55175,128,0,55520:0:0:0:0:
320,192,55347,128,0,55692:0:0:0:0:
448,192,55520,128,0,55864:0:0:0:0:
192,192,55520,1,0,0:0:0:0:
192,192,55692,128,0,56037:0:0:0:0:
320,192,55864,128,0,56209:0:0:0:0:
448,192,56037,128,0,56381:0:0:0:0:
64,192,56037,1,0,0:0:0:0:
64,192,56209,128,0,56553:0:0:0:0:
192,192,56209,1,0,0:0:0:0:
192,192,56381,128,0,56726:0:0:0:0:
320,192,56381,1,0,0:0:0:0:
320,192,56553,128,0,56898:0:0:0:0:
448,192,56553,1,0,0:0:0:0:
64,192,56726,128,0,57070:0:0:0:0:
448,192,56726,1,0,0:0:0:0:
192,192,56898,128,0,57243:0:0:0:0:
448,192,56898,1,0,0:0:0:0:
320,192,57070,128,0,57415:0:0:0:0:
448,192,57243,128,0,57587:0:0:0:0:
192,192,57415,128,0,57760:0:0:0:0:
64,192,57415,1,0,0:0:0:0:
320,192,57587,128,0,57932:0:0:0:0:
64,192,57587,1,0,0:0:0:0:
448,192,57760,128,0,58104:0:0:0:0:
64,192,57760,1,0,0:0:0:0:
192,192,57932,128,0,58277:0:0:0:0:
64,192,57932,1,0,0:0:0:0:
320,192,58104,128,0,58449:0:0:0:0:
64,192,58104,1,0,0:0:0:0:
448,192,58277,128,0,58621:0:0:0:0:
64,192,58277,1,0,0:0:0:0:
192,192,58449,128,0,58793:0:0:0:0:
64,192,58621,128,0,58966:0:0:0:0:
320,192,58793,128,0,59138:0:0:0:0:
448,192,58793,1,0,0:0:0:0:
192,192,58966,128,0,59310:0:0:0:0:
448,192,58966,1,0,0:0:0:0:
64,192,59138,128,0,59483:0:0:0:0:
448,192,59138,1,0,0:0:0:0:
320,192,59310,128,0,59655:0:0:0:0:
448,192,59310,1,0,0:0:0:0:
192,192,59483,128,0,59827:0:0:0:0:
448,192,59483,1,0,0:0:0:0:
64,192,59655,128,0,60000:0:0:0:0:
448,192,59655,1,0,0:0:0:0:
320,192,59827,128,0,60172:0:0:0:0:
448,192,60000,128,0,60344:0:0:0:0:
192,192,60172,128,0,60517:0:0:0:0:
64,192,60172,1,0,0:0:0:0:
320,192,60344,128,0,60689:0:0:0:0:
64,192,60344,1,0,0:0:0:0:
448,192,60517,128,0,60861:0:0:0:0:
64,192,60689,128,0,61033:0:0:0:0:
192,192,60689,1,0,0:0:0:0:
192,192,60861,128,0,61206:0:0:0:0:
320,192,60861,1,0,0:0:0:0:
320,192,61033,128,0,61378:0:0:0:0:
448,192,61033,1,0,0:0:0:0:
64,192,61206,128,0,61550:0:0:0:0:
192,192,61378,128,0,61723:0:0:0:0:
320,192,61550,128,0,61895:0:0:0:0:
448,192,61550,1,0,0:0:0:0:
64,192,61723,128,0,62067:0:0:0:0:
448,192,61723,1,0,0:0:0:0:
192,192,61895,128,0,62240:0:0:0:0:
448,192,61895,1,0,0:0:0:0:
320,192,62067,128,0,62412:0:0:0:0:
448,192,62067,1,0,0:0:0:0:
64,192,62240,128,0,62584:0:0:0:0:
448,192,62240,1,0,0:0:0:0:
448,192,62412,128,0,62756:0:0:0:0:
192,192,62412,1,0,0:0:0:0:
192,192,62584,128,0,62929:0:0:0:0:
320,192,62756,128,0,63101:0:0:0:0:
448,192,62929,128,0,63273:0:0:0:0:
64,192,62929,1,0,0:0:0:0:
192,192,63101,128,0,63446:0:0:0:0:
64,192,63101,1,0,0:0:0:0:
320,192,63273,128,0,63618:0:0:0:0:
64,192,63273,1,0,0:0:0:0:
448,192,63446,128,0,63790:0:0:0:0:
64,192,63446,1,0,0:0:0:0:
64,192,63618,128,0,63963:0:0:0:0:
192,192,63618,1,0,0:0:0:0:
192,192,63790,128,0,64135:0:0:0:0:
320,192,63790,1,0,0:0:0:0:
320,192,63963,128,0,64307:0:0:0:0:
64,192,64135,128,0,64480:0:0:0:0:
192,192,64307,128,0,64652:0:0:0:0:
448,192,64307,1,0,0:0:0:0:
320,192,64480,128,0,64824:0:0:0:0:
448,192,64480,1,0,0:0:0:0:
448,192,64652,128,0,64996:0:0:0:0:
64,192,64652,1,0,0:0:0:0:
64,192,64824,128,0,65169:0:0:0:0:
192,192,64824,1,0,0:0:0:0:
192,192,64996,128,0,65341:0:0:0:0:
320,192,64996,1,0,0:0:0:0:
320,192,65169,128,0,65513:0:0:0:0:
448,192,65169,1,0,0:0:0:0:
64,192,65341,128,0,65686:0:0:0:0:
192,192,65513,128,0,65858:0:0:0:0:
320,192,65686,128,0,66030:0:0:0:0:
448,192,65686,1,0,0:0:0:0:
64,192,65858,128,0,66203:0:0:0:0:
448,192,65858,1,0,0:0:0:0:
192,192,66030,128,0,66203:0:0:0:0:
448,192,66203,128,0,66547:0:0:0:0:
320,192,66203,128,0,66289:0:0:0:0:
192,192,66289,128,0,66461:0:0:0:0:
320,192,66375,128,0,66547:0:0:0:0:
64,192,66461,128,0,66633:0:0:0:0:
192,192,66547,128,0,66719:0:0:0:0:
320,192,66633,128,0,66719:0:0:0:0:
64,192,66719,128,0,66892:0:0:0:0:
448,192,66719,128,0,66806:0:0:0:0:
320,192,66806,128,0,66978:0:0:0:0:
448,192,66892,128,0,67064:0:0:0:0:
192,192,66892,128,0,66978:0:0:0:0:
64,192,66978,128,0,67150:0:0:0:0:
192,192,67064,128,0,67236:0:0:0:0:
320,192,67064,128,0,67150:0:0:0:0:
320,192,67236,128,0,67409:0:0:0:0:
448,192,67236,128,0,67323:0:0:0:0:
192,192,67323,128,0,67495:0:0:0:0:
448,192,67409,128,0,67581:0:0:0:0:
64,192,67409,128,0,67495:0:0:0:0:
64,192,67581,128,0,67753:0:0:0:0:
320,192,67581,128,0,67667:0:0:0:0:
192,192,67667,128,0,67839:0:0:0:0:
320,192,67753,128,0,67926:0:0:0:0:
448,192,67753,128,0,67839:0:0:0:0:
448,192,67926,128,0,68098:0:0:0:0:
64,192,67926,128,0,68012:0:0:0:0:
192,192,68012,128,0,68184:0:0:0:0:
64,192,68098,128,0,68270:0:0:0:0:
320,192,68098,128,0,68184:0:0:0:0:
320,192,68270,128,0,68443:0:0:0:0:
192,192,68270,128,0,68356:0:0:0:0:
448,192,68356,128,0,68529:0:0:0:0:
192,192,68443,128,0,68615:0:0:0:0:
64,192,68443,128,0,68529:0:0:0:0:
64,192,68615,128,0,68787:0:0:0:0:
448,192,68615,128,0,68701:0:0:0:0:
192,192,68701,128,0,68873:0:0:0:0:
448,192,68787,128,0,68959:0:0:0:0:
320,192,68787,128,0,68873:0:0:0:0:
320,192,68959,128,0,69132:0:0:0:0:
64,192,68959,128,0,69046:0:0:0:0:
192,192,69046,128,0,69218:0:0:0:0:
64,192,69132,128,0,69304:0:0:0:0:
448,192,69132,128,0,69218:0:0:0:0:
448,192,69304,128,0,69476:0:0:0:0:
192,192,69304,128,0,69390:0:0:0:0:
320,192,69390,128,0,69563:0:0:0:0:
192,192,69476,128,0,69649:0:0:0:0:
64,192,69476,128,0,69563:0:0:0:0:
64,192,69649,128,0,69821:0:0:0:0:
448,192,69649,128,0,69735:0:0:0:0:
320,192,69735,128,0,69907:0:0:0:0:
448,192,69821,128,0,69993:0:0:0:0:
192,192,69821,128,0,69907:0:0:0:0:
64,192,69993,128,0,70166:0:0:0:0:
320,192,69993,128,0,70079:0:0:0:0:
192,192,70079,128,0,70252:0:0:0:0:
320,192,70166,128,0,70338:0:0:0:0:
448,192,70166,128,0,70252:0:0:0:0:
448,192,70338,128,0,70510:0:0:0:0:
192,192,70338,128,0,70424:0:0:0:0:
64,192,70424,128,0,70596:0:0:0:0:
192,192,70510,128,0,70682:0:0:0:0:
320,192,70510,128,0,70596:0:0:0:0:
320,192,70682,128,0,70855:0:0:0:0:
448,192,70682,128,0,70769:0:0:0:0:
192,192,70769,128,0,70941:0:0:0:0:
448,192,70855,128,0,71027:0:0:0:0:
64,192,70855,128,0,70941:0:0:0:0:
64,192,71027,128,0,71199:0:0:0:0:
192,192,71027,128,0,71113:0:0:0:0:
320,192,71113,128,0,71286:0:0:0:0:
448,192,71199,128,0,71372:0:0:0:0:
192,192,71199,128,0,71286:0:0:0:0:
192,192,71372,128,0,71544:0:0:0:0:
320,192,71372,128,0,71458:0:0:0:0:
64,192,71458,128,0,71630:0:0:0:0:
448,192,71544,128,0,71716:0:0:0:0:
320,192,71544,128,0,71630:0:0:0:0:
320,192,71716,128,0,71889:0:0:0:0:
64,192,71716,128,0,71802:0:0:0:0:
192,192,71802,128,0,71975:0:0:0:0:
64,192,71889,128,0,72061:0:0:0:0:
448,192,71889,128,0,71975:0:0:0:0:
448,192,72061,128,0,72233:0:0:0:0:
320,192,72061,128,0,72147:0:0:0:0:
192,192,72147,128,0,72319:0:0:0:0:
320,192,72233,128,0,72406:0:0:0:0:
64,192,72233,128,0,72319:0:0:0:0:
64,192,72406,128,0,72578:0:0:0:0:
448,192,72406,128,0,72492:0:0:0:0:
192,192,72492,128,0,72664:0:0:0:0:
448,192,72578,128,0,72750:0:0:0:0:
320,192,72578,128,0,72664:0:0:0:0:
320,192,72750,128,0,72922:0:0:0:0:
192,192,72750,128,0,72836:0:0:0:0:
64,192,72836,128,0,73009:0:0:0:0:
192,192,72922,128,0,73095:0:0:0:0:
448,192,72922,128,0,73009:0:0:0:0:
448,192,73095,128,0,73267:0:0:0:0:
320,192,73095,128,0,73181:0:0:0:0:
64,192,73181,128,0,73353:0:0:0:0:
320,192,73267,128,0,73439:0:0:0:0:
192,192,73267,128,0,73353:0:0:0:0:
192,192,73439,128,0,73612:0:0:0:0:
64,192,73439,128,0,73526:0:0:0:0:
448,192,73526,128,0,73698:0:0:0:0:
64,192,73612,128,0,73784:0:0:0:0:
320,192,73612,128,0,73698:0:0:0:0:
320,192,73784,128,0,73956:0:0:0:0:
448,192,73784,128,0,73870:0:0:0:0:
192,192,73870,128,0,74042:0:0:0:0:
64,192,73956,128,0,74129:0:0:0:0:
448,192,73956,128,0,74042:0:0:0:0:
448,192,74129,128,0,74301:0:0:0:0:
192,192,74129,128,0,74215:0:0:0:0:
64,192,74215,128,0,74387:0:0:0:0:
192,192,74301,128,0,74473:0:0:0:0:
320,192,74301,128,0,74387:0:0:0:0:
448,192,74473,128,0,74646:0:0:0:0:
320,192,74473,128,0,74559:0:0:0:0:
64,192,74559,128,0,74732:0:0:0:0:
320,192,74646,128,0,74818:0:0:0:0:
192,192,74646,128,0,74732:0:0:0:0:
192,192,74818,128,0,74990:0:0:0:0:
64,192,74818,128,0,74904:0:0:0:0:
320,192,74904,128,0,75076:0:0:0:0:
448,192,74990,128,0,75162:0:0:0:0:
64,192,74990,128,0,75076:0:0:0:0:
64,192,75162,128,0,75335:0:0:0:0:
192,192,75162,128,0,75249:0:0:0:0:
320,192,75249,128,0,75421:0:0:0:0:
192,192,75335,128,0,75507:0:0:0:0:
448,192,75335,128,0,75421:0:0:0:0:
448,192,75507,128,0,75679:0:0:0:0:
320,192,75507,128,0,75593:0:0:0:0:
192,192,75593,128,0,75765:0:0:0:0:
64,192,75679,128,0,75852:0:0:0:0:
320,192,75679,128,0,75765:0:0:0:0:
320,192,75852,128,0,76024:0:0:0:0:
192,192,75852,128,0,75938:0:0:0:0:
64,192,75938,128,0,76110:0:0:0:0:
192,192,76024,128,0,76110:0:0:0:0:
448,192,76024,128,0,76196:0:0:0:0:
320,192,76110,128,0,76282:0:0:0:0:
192,192,76196,128,0,76369:0:0:0:0:
64,192,76196,128,0,76282:0:0:0:0:
448,192,76282,128,0,76455:0:0:0:0:
64,192,76369,128,0,76541:0:0:0:0:
320,192,76369,128,0,76455:0:0:0:0:
192,192,76455,128,0,76627:0:0:0:0:
320,192,76541,128,0,76713:0:0:0:0:
448,192,76541,128,0,76627:0:0:0:0:
64,192,76627,128,0,76799:0:0:0:0:
448,192,76713,128,0,76885:0:0:0:0:
192,192,76713,128,0,76799:0:0:0:0:
320,192,76799,128,0,76885:0:0:0:0:
192,192,76885,1,0,0:0:0:0:
64,192,76885,1,0,0:0:0:0:
448,192,77230,128,0,77575:0:0:0:0:
320,192,77230,128,0,77402:0:0:0:0:
64,192,77230,128,0,77316:0:0:0:0:
192,192,77316,128,0,77402:0:0:0:0:
64,192,77402,128,0,77489:0:0:0:0:
320,192,77489,128,0,77575:0:0:0:0:
192,192,77575,128,0,77919:0:0:0:0:
64,192,77575,128,0,77747:0:0:0:0:
448,192,77661,128,0,77747:0:0:0:0:
320,192,77747,128,0,77833:0:0:0:0:
64,192,77833,128,0,77919:0:0:0:0:
320,192,77919,128,0,78264:0:0:0:0:
448,192,77919,128,0,78005:0:0:0:0:
192,192,78005,128,0,78092:0:0:0:0:
64,192,78092,128,0,78178:0:0:0:0:
192,192,78178,128,0,78264:0:0:0:0:
448,192,78264,128,0,78609:0:0:0:0:
64,192,78264,128,0,78436:0:0:0:0:
320,192,78350,128,0,78436:0:0:0:0:
192,192,78436,128,0,78522:0:0:0:0:
320,192,78522,128,0,78609:0:0:0:0:
64,192,78609,128,0,78953:0:0:0:0:
192,192,78609,128,0,78695:0:0:0:0:
448,192,78695,128,0,78781:0:0:0:0:
192,192,78781,128,0,78867:0:0:0:0:
320,192,78867,128,0,78953:0:0:0:0:
192,192,78953,128,0,79298:0:0:0:0:
448,192,78953,128,0,79125:0:0:0:0:
320,192,79039,128,0,79125:0:0:0:0:
64,192,79125,128,0,79212:0:0:0:0:
320,192,79212,128,0,79298:0:0:0:0:
448,192,79298,128,0,79642:0:0:0:0:
64,192,79298,128,0,79384:0:0:0:0:
320,192,79384,128,0,79470:0:0:0:0:
192,192,79470,128,0,79556:0:0:0:0:
64,192,79556,128,0,79642:0:0:0:0:
320,192,79642,128,0,79987:0:0:0:0:
192,192,79642,128,0,79815:0:0:0:0:
448,192,79728,128,0,79815:0:0:0:0:
64,192,79815,128,0,79901:0:0:0:0:
448,192,79901,128,0,79987:0:0:0:0:
64,192,79987,128,0,80332:0:0:0:0:
192,192,79987,128,0,80073:0:0:0:0:
448,192,80073,128,0,80159:0:0:0:0:
192,192,80159,128,0,80245:0:0:0:0:
448,192,80245,128,0,80332:0:0:0:0:
192,192,80332,128,0,80676:0:0:0:0:
320,192,80332,128,0,80504:0:0:0:0:
64,192,80418,128,0,80504:0:0:0:0:
448,192,80504,128,0,80590:0:0:0:0:
64,192,80590,128,0,80676:0:0:0:0:
320,192,80676,128,0,81021:0:0:0:0:
448,192,80676,128,0,80762:0:0:0:0:
192,192,80762,128,0,80848:0:0:0:0:
64,192,80848,128,0,80935:0:0:0:0:
192,192,80935,128,0,81021:0:0:0:0:
448,192,81021,128,0,81365:0:0:0:0:
64,192,81021,128,0,81193:0:0:0:0:
320,192,81107,128,0,81193:0:0:0:0:
192,192,81193,128,0,81279:0:0:0:0:
320,192,81279,128,0,81365:0:0:0:0:
64,192,81365,128,0,81538:0:0:0:0:
192,192,81365,128,0,81452:0:0:0:0:
448,192,81538,128,0,81710:0:0:0:0:
320,192,81538,128,0,81624:0:0:0:0:
192,192,81710,128,0,82055:0:0:0:0:
64,192,81710,128,0,81882:0:0:0:0:
320,192,81710,128,0,81796:0:0:0:0:
320,192,81882,128,0,81968:0:0:0:0:
64,192,81968,128,0,82055:0:0:0:0:
448,192,82055,1,0,0:0:0:0:
320,192,82141,1,0,0:0:0:0:
192,192,82227,1,0,0:0:0:0:
64,192,82227,1,0,0:0:0:0:
320,192,82399,1,0,0:0:0:0:
448,192,82399,1,0,0:0:0:0:
64,192,82399,1,0,0:0:0:0:
192,192,82572,1,0,0:0:0:0:
64,192,82658,1,0,0:0:0:0:
192,192,82744,1,0,0:0:0:0:
448,192,82744,1,0,0:0:0:0:
320,192,82830,1,0,0:0:0:0:
64,192,82916,1,0,0:0:0:0:
192,192,83002,1,0,0:0:0:0:
320,192,83088,1,0,0:0:0:0:
448,192,83088,1,0,0:0:0:0:
64,192,83088,1,0,0:0:0:0:
192,192,83605,1,0,0:0:0:0:
448,192,83605,1,0,0:0:0:0:
320,192,83778,1,0,0:0:0:0:
448,192,83778,1,0,0:0:0:0:
64,192,83778,1,0,0:0:0:0:
192,192,83950,1,0,0:0:0:0:
320,192,84036,1,0,0:0:0:0:
448,192,84122,1,0,0:0:0:0:
64,192,84122,1,0,0:0:0:0:
192,192,84208,1,0,0:0:0:0:
448,192,84295,1,0,0:0:0:0:
320,192,84381,1,0,0:0:0:0:
192,192,84467,1,0,0:0:0:0:
64,192,84467,1,0,0:0:0:0:
448,192,84467,1,0,0:0:0:0:
448,192,84984,5,0,0:0:0:0:
320,192,84984,1,0,0:0:0:0:
192,192,85156,1,0,0:0:0:0:
448,192,85156,1,0,0:0:0:0:
64,192,85156,1,0,0:0:0:0:
320,192,85328,1,0,0:0:0:0:
448,192,85415,1,0,0:0:0:0:
320,192,85501,1,0,0:0:0:0:
64,192,85501,128,0,85587:0:0:0:0:
192,192,85501,1,0,0:0:0:0:
448,192,85587,128,0,85673:0:0:0:0:
64,192,85673,128,0,85759:0:0:0:0:
320,192,85759,128,0,85845:0:0:0:0:
64,192,85845,128,0,85931:0:0:0:0:
192,192,85845,1,0,0:0:0:0:
448,192,85931,128,0,86018:0:0:0:0:
64,192,86018,128,0,86104:0:0:0:0:
192,192,86018,1,0,0:0:0:0:
320,192,86104,128,0,86190:0:0:0:0:
64,192,86190,128,0,86276:0:0:0:0:
192,192,86190,1,0,0:0:0:0:
448,192,86276,128,0,86362:0:0:0:0:
64,192,86362,128,0,86448:0:0:0:0:
192,192,86362,1,0,0:0:0:0:
320,192,86448,128,0,86535:0:0:0:0:
64,192,86535,128,0,86621:0:0:0:0:
192,192,86535,1,0,0:0:0:0:
448,192,86621,128,0,86707:0:0:0:0:
64,192,86707,128,0,86793:0:0:0:0:
192,192,86707,1,0,0:0:0:0:
320,192,86793,128,0,86879:0:0:0:0:
64,192,86879,128,0,86922:0:0:0:0:
448,192,86879,128,0,86922:0:0:0:0:
320,192,86965,128,0,87008:0:0:0:0:
192,192,86965,128,0,87008:0:0:0:0:
448,192,87051,128,0,87095:0:0:0:0:
64,192,87051,128,0,87095:0:0:0:0:
320,192,87138,128,0,87181:0:0:0:0:
192,192,87138,128,0,87181:0:0:0:0:
448,192,87224,128,0,87267:0:0:0:0:
64,192,87224,128,0,87267:0:0:0:0:
320,192,87310,128,0,87353:0:0:0:0:
192,192,87310,128,0,87353:0:0:0:0:
64,192,87396,128,0,87439:0:0:0:0:
448,192,87396,128,0,87439:0:0:0:0:
192,192,87482,128,0,87525:0:0:0:0:
320,192,87568,128,0,87611:0:0:0:0:
448,192,87568,128,0,87611:0:0:0:0:
64,192,87655,128,0,87698:0:0:0:0:
192,192,87655,128,0,87698:0:0:0:0:
320,192,87741,128,0,87784:0:0:0:0:
448,192,87741,128,0,87784:0:0:0:0:
192,192,87827,128,0,87870:0:0:0:0:
64,192,87827,128,0,87870:0:0:0:0:
320,192,87913,128,0,87956:0:0:0:0:
448,192,87913,128,0,87956:0:0:0:0:
192,192,87999,128,0,88042:0:0:0:0:
64,192,87999,128,0,88042:0:0:0:0:
320,192,88085,128,0,88128:0:0:0:0:
448,192,88085,128,0,88128:0:0:0:0:
192,192,88171,128,0,88215:0:0:0:0:
64,192,88171,128,0,88215:0:0:0:0:
64,192,88258,1,0,0:0:0:0:
192,192,88258,1,0,0:0:0:0:
320,192,88258,128,0,88430:0:0:0:0:
448,192,88258,128,0,88602:0:0:0:0:
192,192,88344,128,0,88430:0:0:0:0:
64,192,88430,128,0,88516:0:0:0:0:
320,192,88516,128,0,88602:0:0:0:0:
64,192,88602,128,0,88775:0:0:0:0:
192,192,88602,128,0,88688:0:0:0:0:
320,192,88688,128,0,88775:0:0:0:0:
448,192,88775,128,0,88861:0:0:0:0:
192,192,88861,128,0,88947:0:0:0:0:
64,192,88947,128,0,89291:0:0:0:0:
448,192,88947,128,0,89119:0:0:0:0:
320,192,89033,128,0,89119:0:0:0:0:
192,192,89119,128,0,89464:0:0:0:0:
448,192,89205,128,0,89291:0:0:0:0:
320,192,89291,128,0,89636:0:0:0:0:
64,192,89378,128,0,89464:0:0:0:0:
448,192,89464,128,0,89550:0:0:0:0:
192,192,89550,128,0,89636:0:0:0:0:
64,192,89636,128,0,89981:0:0:0:0:
448,192,89636,128,0,89808:0:0:0:0:
192,192,89722,128,0,89808:0:0:0:0:
320,192,89808,128,0,89894:0:0:0:0:
448,192,89894,128,0,89981:0:0:0:0:
192,192,89981,128,0,90153:0:0:0:0:
320,192,89981,128,0,90067:0:0:0:0:
448,192,90067,128,0,90153:0:0:0:0:
64,192,90067,128,0,90153:0:0:0:0:
320,192,90153,128,0,90325:0:0:0:0:
192,192,90239,128,0,90325:0:0:0:0:
64,192,90325,128,0,90670:0:0:0:0:
448,192,90325,128,0,90411:0:0:0:0:
320,192,90411,128,0,90498:0:0:0:0:
192,192,90498,128,0,90842:0:0:0:0:
448,192,90498,128,0,90584:0:0:0:0:
320,192,90670,128,0,91014:0:0:0:0:
448,192,90670,128,0,90842:0:0:0:0:
64,192,90842,128,0,91359:0:0:0:0:
192,192,91014,128,0,91704:0:0:0:0:
448,192,91014,128,0,91187:0:0:0:0:
320,192,91101,128,0,91187:0:0:0:0:
448,192,91273,128,0,91359:0:0:0:0:
320,192,91359,128,0,91531:0:0:0:0:
448,192,91445,128,0,91531:0:0:0:0:
64,192,91531,128,0,91618:0:0:0:0:
448,192,91618,128,0,91704:0:0:0:0:
320,192,91704,128,0,92048:0:0:0:0:
64,192,91704,128,0,91790:0:0:0:0:
448,192,91790,128,0,91876:0:0:0:0:
64,192,91876,128,0,92393:0:0:0:0:
192,192,91876,128,0,91962:0:0:0:0:
192,192,92048,128,0,92221:0:0:0:0:
448,192,92048,128,0,92134:0:0:0:0:
320,192,92134,128,0,92221:0:0:0:0:
448,192,92221,128,0,92393:0:0:0:0:
320,192,92307,128,0,92393:0:0:0:0:
192,192,92393,128,0,92738:0:0:0:0:
64,192,92565,128,0,92738:0:0:0:0:
320,192,92565,128,0,92651:0:0:0:0:
448,192,92738,128,0,93082:0:0:0:0:
320,192,92738,128,0,92910:0:0:0:0:
192,192,92910,128,0,93082:0:0:0:0:
64,192,92996,128,0,93082:0:0:0:0:
320,192,93082,128,0,93427:0:0:0:0:
64,192,93254,128,0,93427:0:0:0:0:
192,192,93341,128,0,93427:0:0:0:0:
448,192,93427,128,0,93599:0:0:0:0:
320,192,93513,128,0,93599:0:0:0:0:
64,192,93599,128,0,93685:0:0:0:0:
192,192,93685,128,0,93771:0:0:0:0:
448,192,93771,128,0,94461:0:0:0:0:
320,192,93771,128,0,93944:0:0:0:0:
64,192,93771,128,0,93944:0:0:0:0:
192,192,93944,128,0,94030:0:0:0:0:
320,192,94030,128,0,94116:0:0:0:0:
192,192,94116,128,0,94288:0:0:0:0:
64,192,94116,128,0,94202:0:0:0:0:
320,192,94202,128,0,94288:0:0:0:0:
64,192,94288,128,0,94374:0:0:0:0:
192,192,94374,128,0,94461:0:0:0:0:
320,192,94461,128,0,94805:0:0:0:0:
64,192,94461,128,0,94547:0:0:0:0:
448,192,94547,128,0,94633:0:0:0:0:
192,192,94633,128,0,94977:0:0:0:0:
64,192,94633,128,0,94719:0:0:0:0:
448,192,94719,128,0,94805:0:0:0:0:
64,192,94805,128,0,95150:0:0:0:0:
320,192,94891,128,0,94977:0:0:0:0:
448,192,94977,128,0,95064:0:0:0:0:
192,192,95150,128,0,95236:0:0:0:0:
448,192,95150,128,0,95494:0:0:0:0:
320,192,95150,128,0,95322:0:0:0:0:
64,192,95236,128,0,95322:0:0:0:0:
192,192,95322,128,0,95408:0:0:0:0:
64,192,95408,128,0,95494:0:0:0:0:
320,192,95408,128,0,95494:0:0:0:0:
192,192,95494,128,0,95667:0:0:0:0:
64,192,95581,128,0,95667:0:0:0:0:
320,192,95667,128,0,95753:0:0:0:0:
192,192,95753,128,0,95839:0:0:0:0:
448,192,95839,128,0,96184:0:0:0:0:
320,192,95839,128,0,95925:0:0:0:0:
64,192,95925,128,0,96011:0:0:0:0:
320,192,96011,128,0,96356:0:0:0:0:
192,192,96011,128,0,96097:0:0:0:0:
64,192,96184,128,0,96528:0:0:0:0:
192,192,96184,128,0,96356:0:0:0:0:
448,192,96270,128,0,96356:0:0:0:0:
448,192,96528,128,0,97217:0:0:0:0:
320,192,96528,128,0,96701:0:0:0:0:
192,192,96614,128,0,96701:0:0:0:0:
64,192,96701,128,0,96787:0:0:0:0:
320,192,96787,128,0,96873:0:0:0:0:
192,192,96873,128,0,97045:0:0:0:0:
64,192,96873,128,0,96959:0:0:0:0:
320,192,96959,128,0,97045:0:0:0:0:
64,192,97045,128,0,97390:0:0:0:0:
192,192,97217,128,0,97562:0:0:0:0:
320,192,97217,128,0,97304:0:0:0:0:
448,192,97304,128,0,97390:0:0:0:0:
320,192,97390,128,0,97734:0:0:0:0:
64,192,97476,128,0,97562:0:0:0:0:
448,192,97562,128,0,97907:0:0:0:0:
192,192,97648,128,0,97734:0:0:0:0:
64,192,97734,128,0,97821:0:0:0:0:
320,192,97821,128,0,97907:0:0:0:0:
64,192,97907,128,0,98596:0:0:0:0:
192,192,97907,128,0,98079:0:0:0:0:
448,192,97993,128,0,98079:0:0:0:0:
320,192,98079,128,0,98165:0:0:0:0:
192,192,98165,128,0,98251:0:0:0:0:
448,192,98251,128,0,98424:0:0:0:0:
320,192,98251,128,0,98337:0:0:0:0:
192,192,98337,128,0,98424:0:0:0:0:
320,192,98424,128,0,98510:0:0:0:0:
448,192,98510,128,0,98596:0:0:0:0:
192,192,98596,128,0,99285:0:0:0:0:
320,192,98596,128,0,98768:0:0:0:0:
64,192,98682,128,0,98768:0:0:0:0:
448,192,98768,128,0,98854:0:0:0:0:
320,192,98854,128,0,98940:0:0:0:0:
64,192,98940,128,0,99113:0:0:0:0:
448,192,98940,128,0,99027:0:0:0:0:
320,192,99027,128,0,99113:0:0:0:0:
448,192,99113,128,0,99199:0:0:0:0:
64,192,99199,128,0,99285:0:0:0:0:
448,192,99285,128,0,99974:0:0:0:0:
320,192,99285,128,0,99630:0:0:0:0:
192,192,99371,128,0,99457:0:0:0:0:
64,192,99457,128,0,99544:0:0:0:0:
192,192,99544,128,0,99630:0:0:0:0:
64,192,99630,128,0,99802:0:0:0:0:
320,192,99716,128,0,99802:0:0:0:0:
192,192,99802,128,0,99888:0:0:0:0:
64,192,99888,128,0,99974:0:0:0:0:
320,192,99974,128,0,100319:0:0:0:0:
192,192,99974,128,0,100060:0:0:0:0:
64,192,100060,128,0,100147:0:0:0:0:
192,192,100147,128,0,100491:0:0:0:0:
448,192,100147,128,0,100233:0:0:0:0:
64,192,100319,128,0,100664:0:0:0:0:
448,192,100319,128,0,100405:0:0:0:0:
320,192,100405,128,0,100491:0:0:0:0:
448,192,100491,128,0,100577:0:0:0:0:
192,192,100577,128,0,100664:0:0:0:0:
320,192,100664,128,0,101008:0:0:0:0:
448,192,100664,128,0,100836:0:0:0:0:
64,192,100750,128,0,100836:0:0:0:0:
192,192,100836,128,0,100922:0:0:0:0:
448,192,100922,128,0,101008:0:0:0:0:
64,192,101008,128,0,101180:0:0:0:0:
192,192,101008,128,0,101094:0:0:0:0:
320,192,101094,128,0,101180:0:0:0:0:
448,192,101180,128,0,101267:0:0:0:0:
64,192,101267,128,0,101353:0:0:0:0:
192,192,101353,128,0,101697:0:0:0:0:
320,192,101353,128,0,101439:0:0:0:0:
448,192,101439,128,0,101525:0:0:0:0:
64,192,101525,128,0,101870:0:0:0:0:
320,192,101525,128,0,101611:0:0:0:0:
448,192,101611,128,0,101697:0:0:0:0:
320,192,101697,128,0,102042:0:0:0:0:
192,192,101784,128,0,101870:0:0:0:0:
448,192,101870,128,0,101956:0:0:0:0:
64,192,101956,128,0,102042:0:0:0:0:
192,192,102042,128,0,102731:0:0:0:0:
448,192,102042,128,0,102214:0:0:0:0:
320,192,102128,128,0,102214:0:0:0:0:
64,192,102214,128,0,102300:0:0:0:0:
448,192,102300,128,0,102387:0:0:0:0:
64,192,102387,128,0,102731:0:0:0:0:
320,192,102387,128,0,102559:0:0:0:0:
448,192,102473,128,0,102559:0:0:0:0:
448,192,102731,128,0,103076:0:0:0:0:
320,192,102731,128,0,102817:0:0:0:0:
192,192,102817,128,0,102904:0:0:0:0:
320,192,102904,128,0,103162:0:0:0:0:
64,192,102904,128,0,102990:0:0:0:0:
192,192,102990,128,0,103076:0:0:0:0:
64,192,103076,128,0,103248:0:0:0:0:
448,192,103162,128,0,103248:0:0:0:0:
192,192,103248,128,0,103420:0:0:0:0:
320,192,103334,128,0,103420:0:0:0:0:
448,192,103420,128,0,103765:0:0:0:0:
64,192,103420,128,0,103593:0:0:0:0:
320,192,103593,128,0,103765:0:0:0:0:
192,192,103593,128,0,103679:0:0:0:0:
64,192,103765,128,0,104110:0:0:0:0:
192,192,103765,128,0,103937:0:0:0:0:
320,192,103851,128,0,103937:0:0:0:0:
448,192,103937,128,0,104023:0:0:0:0:
192,192,104023,128,0,104110:0:0:0:0:
320,192,104110,128,0,104454:0:0:0:0:
448,192,104110,128,0,104196:0:0:0:0:
64,192,104196,128,0,104282:0:0:0:0:
192,192,104282,128,0,104454:0:0:0:0:
64,192,104454,128,0,104799:0:0:0:0:
448,192,104454,128,0,104627:0:0:0:0:
320,192,104540,128,0,104627:0:0:0:0:
192,192,104627,128,0,104799:0:0:0:0:
320,192,104799,128,0,104971:0:0:0:0:
448,192,104799,128,0,105660:0:0:0:0:
64,192,104885,128,0,104971:0:0:0:0:
192,192,104971,128,0,105057:0:0:0:0:
320,192,105057,128,0,105143:0:0:0:0:
64,192,105057,128,0,105143:0:0:0:0:
192,192,105143,128,0,105316:0:0:0:0:
320,192,105230,128,0,105316:0:0:0:0:
64,192,105316,128,0,105402:0:0:0:0:
192,192,105402,128,0,105488:0:0:0:0:
320,192,105488,128,0,105833:0:0:0:0:
64,192,105488,128,0,105574:0:0:0:0:
64,192,105660,128,0,106005:0:0:0:0:
192,192,105660,128,0,105747:0:0:0:0:
192,192,105833,128,0,106177:0:0:0:0:
448,192,105833,128,0,106005:0:0:0:0:
320,192,106005,128,0,106091:0:0:0:0:
64,192,106091,128,0,106177:0:0:0:0:
448,192,106177,128,0,106522:0:0:0:0:
320,192,106177,128,0,106350:0:0:0:0:
192,192,106263,128,0,106350:0:0:0:0:
64,192,106350,128,0,106436:0:0:0:0:
320,192,106436,128,0,106522:0:0:0:0:
192,192,106522,128,0,106867:0:0:0:0:
64,192,106522,128,0,106694:0:0:0:0:
320,192,106608,128,0,106694:0:0:0:0:
448,192,106694,128,0,106780:0:0:0:0:
64,192,106780,128,0,106867:0:0:0:0:
320,192,106867,128,0,107211:0:0:0:0:
448,192,106867,128,0,106953:0:0:0:0:
192,192,106953,128,0,107039:0:0:0:0:
448,192,107039,128,0,107383:0:0:0:0:
64,192,107039,128,0,107211:0:0:0:0:
192,192,107211,128,0,107556:0:0:0:0:
320,192,107297,128,0,107383:0:0:0:0:
64,192,107383,128,0,107728:0:0:0:0:
448,192,107556,128,0,107900:0:0:0:0:
320,192,107556,128,0,107728:0:0:0:0:
192,192,107642,128,0,107728:0:0:0:0:
320,192,107814,128,0,107900:0:0:0:0:
192,192,107900,128,0,108245:0:0:0:0:
64,192,107900,128,0,108073:0:0:0:0:
320,192,108073,128,0,108245:0:0:0:0:
64,192,108159,128,0,108245:0:0:0:0:
448,192,108245,128,0,108590:0:0:0:0:
192,192,108331,128,0,108417:0:0:0:0:
320,192,108417,128,0,108762:0:0:0:0:
64,192,108417,128,0,108503:0:0:0:0:
192,192,108590,128,0,108934:0:0:0:0:
64,192,108590,128,0,108762:0:0:0:0:
448,192,108762,128,0,109106:0:0:0:0:
64,192,108934,128,0,109279:0:0:0:0:
320,192,108934,128,0,109020:0:0:0:0:
192,192,109106,128,0,109279:0:0:0:0:
320,192,109106,128,0,109193:0:0:0:0:
320,192,109279,128,0,109451:0:0:0:0:
448,192,109279,128,0,109623:0:0:0:0:
192,192,109365,128,0,109451:0:0:0:0:
64,192,109451,128,0,109537:0:0:0:0:
320,192,109537,128,0,109623:0:0:0:0:
192,192,109623,128,0,110313:0:0:0:0:
64,192,109623,128,0,109796:0:0:0:0:
448,192,109710,128,0,109796:0:0:0:0:
320,192,109796,128,0,109968:0:0:0:0:
448,192,109968,128,0,110140:0:0:0:0:
64,192,109968,128,0,110054:0:0:0:0:
320,192,110054,128,0,110140:0:0:0:0:
64,192,110140,128,0,110313:0:0:0:0:
320,192,110226,128,0,110313:0:0:0:0:
448,192,110313,1,0,0:0:0:0:
320,192,110485,1,0,0:0:0:0:
448,192,110657,1,0,0:0:0:0:
448,192,110830,1,0,0:0:0:0:
192,192,111174,1,0,0:0:0:0:
320,192,111346,1,0,0:0:0:0:
320,192,111519,1,0,0:0:0:0:
64,192,111863,1,0,0:0:0:0:
192,192,112036,1,0,0:0:0:0:
192,192,112208,1,0,0:0:0:0:
320,192,112553,1,0,0:0:0:0:
64,192,112725,1,0,0:0:0:0:
64,192,112897,1,0,0:0:0:0:
320,192,113242,1,0,0:0:0:0:
448,192,113414,1,0,0:0:0:0:
448,192,113586,1,0,0:0:0:0:
