osu file format v14

[General]
AudioFilename: audio.mp3
AudioLeadIn: 0
PreviewTime: 38742
Countdown: 0
SampleSet: Soft
StackLeniency: 0.7
Mode: 3
LetterboxInBreaks: 0
SpecialStyle: 0
WidescreenStoryboard: 1

[Editor]
DistanceSpacing: 1.1
BeatDivisor: 2
GridSize: 8
TimelineZoom: 0.8

[Metadata]
Title:Emperor 10th Chordjack 2nd Training
TitleUnicode:Emperor 10th Chordjack 2nd Training
Artist:Various Artist
ArtistUnicode:Various Artist
Creator:Crystalys-
Version:Poparzeni Kawa Trzy-Bylas dla mnie wszystkim
Source:
Tags:emperor of time
BeatmapID:2272757
BeatmapSetID:1086850

[Difficulty]
HPDrainRate:8
CircleSize:4
OverallDifficulty:8
ApproachRate:5
SliderMultiplier:1.4
SliderTickRate:1

[Events]
//Background and Video events
0,0,"Anime-Girl-Wallpapers-High-Resolution.jpg",0,0
//Break Periods
//Storyboard Layer 0 (Background)
//Storyboard Layer 1 (Fail)
//Storyboard Layer 2 (Pass)
//Storyboard Layer 3 (Foreground)
//Storyboard Layer 4 (Overlay)
//Storyboard Sound Samples

[TimingPoints]
4844,338.983050847458,4,2,0,30,1,0
38742,-100,4,2,0,30,0,1
49081,-100,4,2,0,30,0,0
49589,-100,4,2,0,30,0,1
60437,-100,4,2,0,30,0,0
83488,-100,4,2,0,30,0,1
93996,-100,4,2,0,30,0,0
94335,-100,4,2,0,30,0,1
105182,-100,4,2,0,30,0,0
137725,-100,4,2,0,30,0,1
148572,-100,4,2,0,30,0,0
160776,-100,4,2,0,30,0,1
170267,-100,4,2,0,30,0,0
171623,-100,4,2,0,30,0,1
181284,-100,4,2,0,30,0,0
182386,-100,4,2,0,30,0,1
190606,-100,4,2,0,30,0,0

[HitObjects]
64,192,4844,128,0,5013:0:0:0:0:
64,192,5352,128,0,5521:0:0:0:0:
64,192,5860,128,0,6369:0:0:0:0:
64,192,6538,128,0,6708:0:0:0:0:
64,192,6877,128,0,7047:0:0:0:0:
64,192,7216,128,0,7386:0:0:0:0:
64,192,7555,128,0,7725:0:0:0:0:
64,192,8064,128,0,8233:0:0:0:0:
64,192,8572,128,0,9250:0:0:0:0:
192,192,9250,128,0,9420:0:0:0:0:
192,192,9589,128,0,9759:0:0:0:0:
320,192,10267,128,0,10437:0:0:0:0:
320,192,10776,128,0,10945:0:0:0:0:
320,192,11284,128,0,11962:0:0:0:0:
448,192,11962,128,0,12132:0:0:0:0:
448,192,12301,128,0,12471:0:0:0:0:
448,192,12640,128,0,13149:0:0:0:0:
320,192,12979,128,0,13149:0:0:0:0:
320,192,13488,128,0,13657:0:0:0:0:
320,192,13996,128,0,14844:0:0:0:0:
192,192,14674,128,0,14844:0:0:0:0:
192,192,15013,128,0,15182:0:0:0:0:
64,192,15352,1,0,0:0:0:0:
320,192,15352,1,0,0:0:0:0:
448,192,15352,1,0,0:0:0:0:
448,192,15691,1,0,0:0:0:0:
320,192,15691,1,0,0:0:0:0:
64,192,15691,1,0,0:0:0:0:
192,192,15691,1,0,0:0:0:0:
320,192,15860,1,0,0:0:0:0:
64,192,15860,1,0,0:0:0:0:
64,192,16030,1,0,0:0:0:0:
192,192,16030,1,0,0:0:0:0:
448,192,16030,1,0,0:0:0:0:
448,192,16199,1,0,0:0:0:0:
320,192,16199,1,0,0:0:0:0:
192,192,16369,1,0,0:0:0:0:
320,192,16369,1,0,0:0:0:0:
192,192,16538,1,0,0:0:0:0:
64,192,16538,1,0,0:0:0:0:
64,192,16708,1,0,0:0:0:0:
320,192,16708,1,0,0:0:0:0:
448,192,16708,1,0,0:0:0:0:
320,192,16877,1,0,0:0:0:0:
192,192,16877,1,0,0:0:0:0:
192,192,17047,1,0,0:0:0:0:
448,192,17047,1,0,0:0:0:0:
64,192,17216,1,0,0:0:0:0:
320,192,17216,1,0,0:0:0:0:
192,192,17386,1,0,0:0:0:0:
448,192,17386,1,0,0:0:0:0:
320,192,17386,1,0,0:0:0:0:
320,192,17555,1,0,0:0:0:0:
448,192,17555,1,0,0:0:0:0:
192,192,17725,1,0,0:0:0:0:
64,192,17725,1,0,0:0:0:0:
64,192,17894,1,0,0:0:0:0:
448,192,17894,1,0,0:0:0:0:
192,192,18064,1,0,0:0:0:0:
320,192,18064,1,0,0:0:0:0:
448,192,18064,1,0,0:0:0:0:
320,192,18233,1,0,0:0:0:0:
64,192,18233,1,0,0:0:0:0:
192,192,18403,1,0,0:0:0:0:
448,192,18403,1,0,0:0:0:0:
448,192,18572,1,0,0:0:0:0:
64,192,18572,1,0,0:0:0:0:
320,192,18742,1,0,0:0:0:0:
192,192,18742,1,0,0:0:0:0:
64,192,18742,1,0,0:0:0:0:
64,192,18911,1,0,0:0:0:0:
448,192,18911,1,0,0:0:0:0:
192,192,19081,1,0,0:0:0:0:
320,192,19081,1,0,0:0:0:0:
192,192,19250,1,0,0:0:0:0:
448,192,19250,1,0,0:0:0:0:
64,192,19420,1,0,0:0:0:0:
320,192,19420,1,0,0:0:0:0:
448,192,19420,1,0,0:0:0:0:
448,192,19589,1,0,0:0:0:0:
64,192,19589,1,0,0:0:0:0:
320,192,19759,1,0,0:0:0:0:
192,192,19759,1,0,0:0:0:0:
192,192,19928,1,0,0:0:0:0:
64,192,19928,1,0,0:0:0:0:
64,192,20098,1,0,0:0:0:0:
320,192,20098,1,0,0:0:0:0:
448,192,20098,1,0,0:0:0:0:
320,192,20267,1,0,0:0:0:0:
192,192,20267,1,0,0:0:0:0:
192,192,20437,1,0,0:0:0:0:
448,192,20437,1,0,0:0:0:0:
448,192,20606,1,0,0:0:0:0:
64,192,20606,1,0,0:0:0:0:
64,192,20776,1,0,0:0:0:0:
192,192,20776,1,0,0:0:0:0:
320,192,20776,1,0,0:0:0:0:
192,192,20945,1,0,0:0:0:0:
320,192,20945,1,0,0:0:0:0:
64,192,21115,1,0,0:0:0:0:
448,192,21115,1,0,0:0:0:0:
320,192,21284,1,0,0:0:0:0:
192,192,21284,1,0,0:0:0:0:
192,192,21454,1,0,0:0:0:0:
320,192,21454,1,0,0:0:0:0:
448,192,21454,1,0,0:0:0:0:
64,192,21623,1,0,0:0:0:0:
448,192,21623,1,0,0:0:0:0:
320,192,21793,1,0,0:0:0:0:
192,192,21793,1,0,0:0:0:0:
320,192,21962,1,0,0:0:0:0:
448,192,21962,1,0,0:0:0:0:
448,192,22132,1,0,0:0:0:0:
192,192,22132,1,0,0:0:0:0:
64,192,22132,1,0,0:0:0:0:
192,192,22301,1,0,0:0:0:0:
320,192,22301,1,0,0:0:0:0:
320,192,22471,1,0,0:0:0:0:
64,192,22471,1,0,0:0:0:0:
448,192,22640,1,0,0:0:0:0:
192,192,22640,1,0,0:0:0:0:
320,192,22810,1,0,0:0:0:0:
64,192,22810,1,0,0:0:0:0:
192,192,22810,1,0,0:0:0:0:
64,192,22979,1,0,0:0:0:0:
448,192,22979,1,0,0:0:0:0:
320,192,23149,1,0,0:0:0:0:
448,192,23149,1,0,0:0:0:0:
448,192,23318,1,0,0:0:0:0:
192,192,23318,1,0,0:0:0:0:
320,192,23488,1,0,0:0:0:0:
192,192,23488,1,0,0:0:0:0:
64,192,23488,1,0,0:0:0:0:
192,192,23657,1,0,0:0:0:0:
448,192,23657,1,0,0:0:0:0:
320,192,23827,1,0,0:0:0:0:
64,192,23827,1,0,0:0:0:0:
64,192,23996,1,0,0:0:0:0:
448,192,23996,1,0,0:0:0:0:
192,192,24166,1,0,0:0:0:0:
320,192,24166,1,0,0:0:0:0:
448,192,24166,1,0,0:0:0:0:
448,192,24335,1,0,0:0:0:0:
64,192,24335,1,0,0:0:0:0:
320,192,24505,1,0,0:0:0:0:
192,192,24505,1,0,0:0:0:0:
320,192,24674,1,0,0:0:0:0:
448,192,24674,1,0,0:0:0:0:
448,192,24844,1,0,0:0:0:0:
192,192,24844,1,0,0:0:0:0:
64,192,24844,1,0,0:0:0:0:
64,192,25013,1,0,0:0:0:0:
320,192,25013,1,0,0:0:0:0:
192,192,25182,1,0,0:0:0:0:
320,192,25182,1,0,0:0:0:0:
320,192,25352,1,0,0:0:0:0:
448,192,25352,1,0,0:0:0:0:
64,192,25352,1,0,0:0:0:0:
448,192,25521,1,0,0:0:0:0:
64,192,25521,1,0,0:0:0:0:
320,192,25521,1,0,0:0:0:0:
64,192,25691,1,0,0:0:0:0:
320,192,25691,1,0,0:0:0:0:
448,192,25691,1,0,0:0:0:0:
320,192,25860,1,0,0:0:0:0:
64,192,25860,1,0,0:0:0:0:
448,192,25860,1,0,0:0:0:0:
64,192,26030,1,0,0:0:0:0:
192,192,26030,1,0,0:0:0:0:
320,192,26030,1,0,0:0:0:0:
320,192,26199,1,0,0:0:0:0:
192,192,26199,1,0,0:0:0:0:
64,192,26199,1,0,0:0:0:0:
320,192,26369,1,0,0:0:0:0:
192,192,26369,1,0,0:0:0:0:
64,192,26369,1,0,0:0:0:0:
64,192,26538,1,0,0:0:0:0:
192,192,26538,1,0,0:0:0:0:
320,192,26538,1,0,0:0:0:0:
448,192,26538,1,0,0:0:0:0:
192,192,26708,1,0,0:0:0:0:
192,192,26877,1,0,0:0:0:0:
448,192,26877,1,0,0:0:0:0:
448,192,27047,1,0,0:0:0:0:
64,192,27216,1,0,0:0:0:0:
192,192,27216,1,0,0:0:0:0:
320,192,27216,1,0,0:0:0:0:
64,192,27386,1,0,0:0:0:0:
320,192,27555,1,0,0:0:0:0:
320,192,27725,1,0,0:0:0:0:
192,192,27894,1,0,0:0:0:0:
448,192,27894,1,0,0:0:0:0:
192,192,28064,1,0,0:0:0:0:
192,192,28233,1,0,0:0:0:0:
448,192,28233,1,0,0:0:0:0:
320,192,28403,1,0,0:0:0:0:
192,192,28572,1,0,0:0:0:0:
64,192,28572,1,0,0:0:0:0:
448,192,28572,1,0,0:0:0:0:
64,192,28742,1,0,0:0:0:0:
64,192,28911,1,0,0:0:0:0:
192,192,29081,1,0,0:0:0:0:
64,192,29250,1,0,0:0:0:0:
448,192,29250,1,0,0:0:0:0:
448,192,29420,1,0,0:0:0:0:
320,192,29589,1,0,0:0:0:0:
192,192,29589,1,0,0:0:0:0:
192,192,29759,1,0,0:0:0:0:
64,192,29928,1,0,0:0:0:0:
320,192,29928,1,0,0:0:0:0:
448,192,29928,1,0,0:0:0:0:
320,192,30098,1,0,0:0:0:0:
64,192,30267,1,0,0:0:0:0:
192,192,30267,1,0,0:0:0:0:
320,192,30437,1,0,0:0:0:0:
320,192,30606,1,0,0:0:0:0:
448,192,30606,1,0,0:0:0:0:
192,192,30776,1,0,0:0:0:0:
64,192,30945,1,0,0:0:0:0:
192,192,30945,1,0,0:0:0:0:
320,192,31115,1,0,0:0:0:0:
192,192,31284,1,0,0:0:0:0:
320,192,31284,1,0,0:0:0:0:
448,192,31284,1,0,0:0:0:0:
192,192,31454,1,0,0:0:0:0:
192,192,31623,1,0,0:0:0:0:
320,192,31793,1,0,0:0:0:0:
64,192,31962,1,0,0:0:0:0:
320,192,31962,1,0,0:0:0:0:
192,192,32132,1,0,0:0:0:0:
320,192,32301,1,0,0:0:0:0:
64,192,32301,1,0,0:0:0:0:
448,192,32471,1,0,0:0:0:0:
192,192,32640,1,0,0:0:0:0:
64,192,32640,1,0,0:0:0:0:
448,192,32640,1,0,0:0:0:0:
192,192,32810,1,0,0:0:0:0:
320,192,32979,1,0,0:0:0:0:
192,192,33149,1,0,0:0:0:0:
64,192,33318,1,0,0:0:0:0:
320,192,33318,1,0,0:0:0:0:
320,192,33488,1,0,0:0:0:0:
64,192,33657,1,0,0:0:0:0:
448,192,33657,1,0,0:0:0:0:
448,192,33827,1,0,0:0:0:0:
448,192,33996,1,0,0:0:0:0:
192,192,33996,1,0,0:0:0:0:
64,192,33996,1,0,0:0:0:0:
192,192,34166,1,0,0:0:0:0:
64,192,34335,1,0,0:0:0:0:
320,192,34505,1,0,0:0:0:0:
192,192,34674,1,0,0:0:0:0:
320,192,34674,1,0,0:0:0:0:
192,192,34844,1,0,0:0:0:0:
64,192,35013,1,0,0:0:0:0:
448,192,35013,1,0,0:0:0:0:
64,192,35182,1,0,0:0:0:0:
192,192,35352,1,0,0:0:0:0:
320,192,35352,1,0,0:0:0:0:
448,192,35352,1,0,0:0:0:0:
320,192,35521,1,0,0:0:0:0:
192,192,35691,1,0,0:0:0:0:
320,192,35691,1,0,0:0:0:0:
448,192,35860,1,0,0:0:0:0:
64,192,36030,1,0,0:0:0:0:
192,192,36030,1,0,0:0:0:0:
448,192,36030,1,0,0:0:0:0:
192,192,36199,1,0,0:0:0:0:
192,192,36369,1,0,0:0:0:0:
192,192,36538,1,0,0:0:0:0:
320,192,36708,128,0,36877:0:0:0:0:
320,192,37047,128,0,37216:0:0:0:0:
64,192,37386,128,0,37894:0:0:0:0:
192,192,37555,128,0,37894:0:0:0:0:
320,192,37725,128,0,37894:0:0:0:0:
320,192,38064,128,0,38233:0:0:0:0:
320,192,38403,128,0,38572:0:0:0:0:
64,192,38403,1,0,0:0:0:0:
192,192,38403,1,0,0:0:0:0:
192,192,38572,1,0,0:0:0:0:
448,192,38572,1,0,0:0:0:0:
64,192,38742,1,0,0:0:0:0:
320,192,38742,1,0,0:0:0:0:
448,192,38742,1,0,0:0:0:0:
192,192,38742,1,0,0:0:0:0:
64,192,38911,1,0,0:0:0:0:
448,192,38911,1,0,0:0:0:0:
192,192,39081,1,0,0:0:0:0:
320,192,39081,1,0,0:0:0:0:
64,192,39081,1,0,0:0:0:0:
320,192,39250,1,0,0:0:0:0:
448,192,39250,1,0,0:0:0:0:
192,192,39420,1,0,0:0:0:0:
64,192,39420,1,0,0:0:0:0:
320,192,39589,1,0,0:0:0:0:
192,192,39589,1,0,0:0:0:0:
64,192,39759,1,0,0:0:0:0:
320,192,39759,1,0,0:0:0:0:
448,192,39759,1,0,0:0:0:0:
192,192,39928,1,0,0:0:0:0:
64,192,39928,1,0,0:0:0:0:
192,192,40098,1,0,0:0:0:0:
448,192,40098,1,0,0:0:0:0:
320,192,40267,1,0,0:0:0:0:
448,192,40267,1,0,0:0:0:0:
64,192,40437,1,0,0:0:0:0:
192,192,40437,1,0,0:0:0:0:
320,192,40437,1,0,0:0:0:0:
192,192,40606,1,0,0:0:0:0:
448,192,40606,1,0,0:0:0:0:
320,192,40776,1,0,0:0:0:0:
448,192,40776,1,0,0:0:0:0:
192,192,40945,1,0,0:0:0:0:
320,192,40945,1,0,0:0:0:0:
64,192,41115,1,0,0:0:0:0:
192,192,41115,1,0,0:0:0:0:
448,192,41115,1,0,0:0:0:0:
320,192,41284,1,0,0:0:0:0:
64,192,41284,1,0,0:0:0:0:
192,192,41454,1,0,0:0:0:0:
448,192,41454,1,0,0:0:0:0:
320,192,41623,1,0,0:0:0:0:
64,192,41623,1,0,0:0:0:0:
64,192,41793,1,0,0:0:0:0:
192,192,41793,1,0,0:0:0:0:
448,192,41793,1,0,0:0:0:0:
320,192,41962,1,0,0:0:0:0:
192,192,41962,1,0,0:0:0:0:
64,192,42132,1,0,0:0:0:0:
320,192,42132,1,0,0:0:0:0:
192,192,42301,1,0,0:0:0:0:
320,192,42301,1,0,0:0:0:0:
64,192,42471,1,0,0:0:0:0:
192,192,42471,1,0,0:0:0:0:
448,192,42471,1,0,0:0:0:0:
64,192,42640,1,0,0:0:0:0:
320,192,42640,1,0,0:0:0:0:
448,192,42810,1,0,0:0:0:0:
192,192,42810,128,0,42979:0:0:0:0:
320,192,42979,1,0,0:0:0:0:
448,192,42979,1,0,0:0:0:0:
64,192,43149,1,0,0:0:0:0:
192,192,43149,1,0,0:0:0:0:
448,192,43149,128,0,43318:0:0:0:0:
64,192,43318,1,0,0:0:0:0:
320,192,43318,1,0,0:0:0:0:
192,192,43488,1,0,0:0:0:0:
320,192,43488,128,0,43657:0:0:0:0:
192,192,43657,1,0,0:0:0:0:
448,192,43657,1,0,0:0:0:0:
64,192,43827,1,0,0:0:0:0:
320,192,43827,1,0,0:0:0:0:
192,192,43827,128,0,43996:0:0:0:0:
64,192,43996,1,0,0:0:0:0:
448,192,43996,1,0,0:0:0:0:
448,192,44166,1,0,0:0:0:0:
192,192,44166,128,0,44335:0:0:0:0:
320,192,44335,1,0,0:0:0:0:
448,192,44335,1,0,0:0:0:0:
64,192,44505,1,0,0:0:0:0:
192,192,44505,1,0,0:0:0:0:
448,192,44505,1,0,0:0:0:0:
320,192,44674,1,0,0:0:0:0:
64,192,44674,1,0,0:0:0:0:
64,192,44844,1,0,0:0:0:0:
192,192,44844,1,0,0:0:0:0:
192,192,45013,1,0,0:0:0:0:
320,192,45013,1,0,0:0:0:0:
64,192,45182,1,0,0:0:0:0:
320,192,45182,1,0,0:0:0:0:
448,192,45182,1,0,0:0:0:0:
64,192,45352,1,0,0:0:0:0:
192,192,45352,1,0,0:0:0:0:
192,192,45521,1,0,0:0:0:0:
320,192,45521,1,0,0:0:0:0:
448,192,45691,1,0,0:0:0:0:
192,192,45691,1,0,0:0:0:0:
64,192,45860,1,0,0:0:0:0:
320,192,45860,1,0,0:0:0:0:
448,192,45860,1,0,0:0:0:0:
192,192,46030,1,0,0:0:0:0:
64,192,46030,1,0,0:0:0:0:
320,192,46199,1,0,0:0:0:0:
448,192,46199,1,0,0:0:0:0:
320,192,46369,1,0,0:0:0:0:
448,192,46369,1,0,0:0:0:0:
64,192,46538,1,0,0:0:0:0:
192,192,46538,1,0,0:0:0:0:
448,192,46538,1,0,0:0:0:0:
64,192,46708,1,0,0:0:0:0:
192,192,46708,1,0,0:0:0:0:
64,192,46877,1,0,0:0:0:0:
320,192,46877,1,0,0:0:0:0:
192,192,47047,1,0,0:0:0:0:
448,192,47047,1,0,0:0:0:0:
320,192,47216,1,0,0:0:0:0:
64,192,47216,1,0,0:0:0:0:
192,192,47216,1,0,0:0:0:0:
320,192,47386,1,0,0:0:0:0:
448,192,47386,1,0,0:0:0:0:
192,192,47555,1,0,0:0:0:0:
320,192,47555,1,0,0:0:0:0:
64,192,47725,1,0,0:0:0:0:
192,192,47725,1,0,0:0:0:0:
64,192,47894,1,0,0:0:0:0:
320,192,47894,1,0,0:0:0:0:
448,192,47894,1,0,0:0:0:0:
192,192,48064,1,0,0:0:0:0:
320,192,48064,1,0,0:0:0:0:
320,192,48233,1,0,0:0:0:0:
64,192,48233,128,0,48403:0:0:0:0:
192,192,48403,1,0,0:0:0:0:
448,192,48403,1,0,0:0:0:0:
64,192,48572,1,0,0:0:0:0:
448,192,48572,1,0,0:0:0:0:
320,192,48572,128,0,48742:0:0:0:0:
192,192,48742,1,0,0:0:0:0:
64,192,48742,1,0,0:0:0:0:
448,192,48911,1,0,0:0:0:0:
320,192,48911,128,0,49081:0:0:0:0:
64,192,49081,1,0,0:0:0:0:
192,192,49081,1,0,0:0:0:0:
448,192,49081,1,0,0:0:0:0:
64,192,49250,1,0,0:0:0:0:
192,192,49250,1,0,0:0:0:0:
320,192,49250,128,0,49420:0:0:0:0:
448,192,49420,1,0,0:0:0:0:
192,192,49420,1,0,0:0:0:0:
64,192,49420,1,0,0:0:0:0:
64,192,49589,1,0,0:0:0:0:
192,192,49589,1,0,0:0:0:0:
320,192,49589,1,0,0:0:0:0:
448,192,49589,1,0,0:0:0:0:
448,192,49759,1,0,0:0:0:0:
320,192,49759,1,0,0:0:0:0:
320,192,49928,1,0,0:0:0:0:
192,192,49928,1,0,0:0:0:0:
64,192,49928,1,0,0:0:0:0:
448,192,50098,1,0,0:0:0:0:
192,192,50098,1,0,0:0:0:0:
320,192,50267,1,0,0:0:0:0:
448,192,50267,1,0,0:0:0:0:
192,192,50437,1,0,0:0:0:0:
320,192,50437,1,0,0:0:0:0:
448,192,50606,1,0,0:0:0:0:
192,192,50606,1,0,0:0:0:0:
64,192,50606,1,0,0:0:0:0:
320,192,50776,1,0,0:0:0:0:
448,192,50776,1,0,0:0:0:0:
320,192,50945,1,0,0:0:0:0:
64,192,50945,1,0,0:0:0:0:
192,192,51115,1,0,0:0:0:0:
64,192,51115,1,0,0:0:0:0:
448,192,51284,1,0,0:0:0:0:
320,192,51284,1,0,0:0:0:0:
192,192,51284,1,0,0:0:0:0:
320,192,51454,1,0,0:0:0:0:
64,192,51454,1,0,0:0:0:0:
192,192,51623,1,0,0:0:0:0:
64,192,51623,1,0,0:0:0:0:
320,192,51793,1,0,0:0:0:0:
192,192,51793,1,0,0:0:0:0:
448,192,51962,1,0,0:0:0:0:
320,192,51962,1,0,0:0:0:0:
64,192,51962,1,0,0:0:0:0:
192,192,52132,1,0,0:0:0:0:
448,192,52132,1,0,0:0:0:0:
320,192,52301,1,0,0:0:0:0:
64,192,52301,1,0,0:0:0:0:
192,192,52471,1,0,0:0:0:0:
448,192,52471,1,0,0:0:0:0:
448,192,52640,1,0,0:0:0:0:
320,192,52640,1,0,0:0:0:0:
64,192,52640,1,0,0:0:0:0:
192,192,52810,1,0,0:0:0:0:
320,192,52810,1,0,0:0:0:0:
448,192,52979,1,0,0:0:0:0:
192,192,52979,1,0,0:0:0:0:
320,192,53149,1,0,0:0:0:0:
192,192,53149,1,0,0:0:0:0:
448,192,53318,1,0,0:0:0:0:
320,192,53318,1,0,0:0:0:0:
64,192,53318,1,0,0:0:0:0:
448,192,53488,1,0,0:0:0:0:
192,192,53488,1,0,0:0:0:0:
64,192,53657,1,0,0:0:0:0:
320,192,53657,128,0,53827:0:0:0:0:
192,192,53827,1,0,0:0:0:0:
64,192,53827,1,0,0:0:0:0:
448,192,53996,1,0,0:0:0:0:
64,192,53996,1,0,0:0:0:0:
320,192,53996,128,0,54166:0:0:0:0:
448,192,54166,1,0,0:0:0:0:
192,192,54166,1,0,0:0:0:0:
320,192,54335,1,0,0:0:0:0:
192,192,54335,128,0,54505:0:0:0:0:
320,192,54505,1,0,0:0:0:0:
64,192,54505,1,0,0:0:0:0:
448,192,54674,1,0,0:0:0:0:
320,192,54674,1,0,0:0:0:0:
192,192,54674,128,0,54844:0:0:0:0:
448,192,54844,1,0,0:0:0:0:
64,192,54844,1,0,0:0:0:0:
320,192,55013,1,0,0:0:0:0:
64,192,55013,1,0,0:0:0:0:
192,192,55182,1,0,0:0:0:0:
64,192,55182,1,0,0:0:0:0:
448,192,55352,1,0,0:0:0:0:
320,192,55352,1,0,0:0:0:0:
64,192,55352,1,0,0:0:0:0:
192,192,55521,1,0,0:0:0:0:
448,192,55521,1,0,0:0:0:0:
448,192,55691,1,0,0:0:0:0:
320,192,55691,1,0,0:0:0:0:
320,192,55860,1,0,0:0:0:0:
192,192,55860,1,0,0:0:0:0:
448,192,56030,1,0,0:0:0:0:
192,192,56030,1,0,0:0:0:0:
64,192,56030,1,0,0:0:0:0:
448,192,56199,1,0,0:0:0:0:
320,192,56199,1,0,0:0:0:0:
320,192,56369,1,0,0:0:0:0:
192,192,56369,1,0,0:0:0:0:
64,192,56538,1,0,0:0:0:0:
320,192,56538,1,0,0:0:0:0:
448,192,56708,1,0,0:0:0:0:
192,192,56708,1,0,0:0:0:0:
64,192,56708,1,0,0:0:0:0:
320,192,56877,1,0,0:0:0:0:
448,192,56877,1,0,0:0:0:0:
192,192,57047,1,0,0:0:0:0:
64,192,57047,1,0,0:0:0:0:
192,192,57216,1,0,0:0:0:0:
64,192,57216,1,0,0:0:0:0:
448,192,57386,1,0,0:0:0:0:
320,192,57386,1,0,0:0:0:0:
64,192,57386,1,0,0:0:0:0:
448,192,57555,1,0,0:0:0:0:
320,192,57555,1,0,0:0:0:0:
448,192,57725,1,0,0:0:0:0:
192,192,57725,1,0,0:0:0:0:
320,192,57894,1,0,0:0:0:0:
64,192,57894,1,0,0:0:0:0:
192,192,58064,1,0,0:0:0:0:
448,192,58064,1,0,0:0:0:0:
320,192,58064,1,0,0:0:0:0:
192,192,58233,1,0,0:0:0:0:
64,192,58233,1,0,0:0:0:0:
320,192,58403,1,0,0:0:0:0:
192,192,58403,1,0,0:0:0:0:
448,192,58572,1,0,0:0:0:0:
320,192,58572,1,0,0:0:0:0:
448,192,58742,1,0,0:0:0:0:
192,192,58742,1,0,0:0:0:0:
64,192,58742,1,0,0:0:0:0:
320,192,58911,1,0,0:0:0:0:
192,192,58911,1,0,0:0:0:0:
192,192,59081,1,0,0:0:0:0:
448,192,59081,1,0,0:0:0:0:
320,192,59250,1,0,0:0:0:0:
64,192,59250,1,0,0:0:0:0:
448,192,59250,1,0,0:0:0:0:
448,192,59420,1,0,0:0:0:0:
64,192,59420,1,0,0:0:0:0:
320,192,59420,1,0,0:0:0:0:
320,192,59589,1,0,0:0:0:0:
448,192,59589,1,0,0:0:0:0:
64,192,59589,1,0,0:0:0:0:
192,192,59674,1,0,0:0:0:0:
320,192,59759,1,0,0:0:0:0:
192,192,59844,1,0,0:0:0:0:
64,192,59844,1,0,0:0:0:0:
64,192,59928,1,0,0:0:0:0:
192,192,59928,1,0,0:0:0:0:
448,192,60013,1,0,0:0:0:0:
320,192,60013,1,0,0:0:0:0:
192,192,60098,1,0,0:0:0:0:
64,192,60098,1,0,0:0:0:0:
320,192,60182,1,0,0:0:0:0:
448,192,60182,1,0,0:0:0:0:
320,192,60267,1,0,0:0:0:0:
448,192,60267,1,0,0:0:0:0:
64,192,60352,1,0,0:0:0:0:
192,192,60352,1,0,0:0:0:0:
448,192,60437,1,0,0:0:0:0:
320,192,60437,1,0,0:0:0:0:
64,192,60437,1,0,0:0:0:0:
192,192,60606,1,0,0:0:0:0:
320,192,60606,1,0,0:0:0:0:
64,192,60776,1,0,0:0:0:0:
320,192,60776,1,0,0:0:0:0:
448,192,60776,1,0,0:0:0:0:
64,192,60945,1,0,0:0:0:0:
192,192,60945,1,0,0:0:0:0:
320,192,61115,1,0,0:0:0:0:
192,192,61115,1,0,0:0:0:0:
64,192,61284,1,0,0:0:0:0:
448,192,61284,1,0,0:0:0:0:
320,192,61454,1,0,0:0:0:0:
192,192,61454,1,0,0:0:0:0:
448,192,61454,1,0,0:0:0:0:
64,192,61623,1,0,0:0:0:0:
320,192,61623,1,0,0:0:0:0:
192,192,61793,1,0,0:0:0:0:
448,192,61793,1,0,0:0:0:0:
320,192,61962,1,0,0:0:0:0:
448,192,61962,1,0,0:0:0:0:
64,192,62132,1,0,0:0:0:0:
192,192,62132,1,0,0:0:0:0:
320,192,62132,1,0,0:0:0:0:
64,192,62301,1,0,0:0:0:0:
448,192,62301,1,0,0:0:0:0:
192,192,62471,1,0,0:0:0:0:
64,192,62471,1,0,0:0:0:0:
192,192,62640,1,0,0:0:0:0:
448,192,62640,1,0,0:0:0:0:
320,192,62810,1,0,0:0:0:0:
448,192,62810,1,0,0:0:0:0:
64,192,62810,1,0,0:0:0:0:
192,192,62979,1,0,0:0:0:0:
64,192,62979,1,0,0:0:0:0:
192,192,63149,1,0,0:0:0:0:
448,192,63149,1,0,0:0:0:0:
320,192,63318,1,0,0:0:0:0:
192,192,63318,1,0,0:0:0:0:
448,192,63488,1,0,0:0:0:0:
64,192,63488,1,0,0:0:0:0:
320,192,63488,1,0,0:0:0:0:
64,192,63657,1,0,0:0:0:0:
192,192,63657,1,0,0:0:0:0:
192,192,63827,1,0,0:0:0:0:
448,192,63827,1,0,0:0:0:0:
448,192,63996,1,0,0:0:0:0:
64,192,63996,1,0,0:0:0:0:
64,192,64166,1,0,0:0:0:0:
192,192,64166,1,0,0:0:0:0:
320,192,64166,1,0,0:0:0:0:
320,192,64335,1,0,0:0:0:0:
448,192,64335,1,0,0:0:0:0:
192,192,64505,1,0,0:0:0:0:
320,192,64505,1,0,0:0:0:0:
64,192,64674,1,0,0:0:0:0:
192,192,64674,1,0,0:0:0:0:
64,192,64844,1,0,0:0:0:0:
448,192,64844,1,0,0:0:0:0:
320,192,64844,1,0,0:0:0:0:
192,192,65013,1,0,0:0:0:0:
320,192,65013,1,0,0:0:0:0:
64,192,65182,1,0,0:0:0:0:
448,192,65182,1,0,0:0:0:0:
64,192,65352,1,0,0:0:0:0:
448,192,65352,1,0,0:0:0:0:
192,192,65521,1,0,0:0:0:0:
320,192,65521,1,0,0:0:0:0:
448,192,65521,1,0,0:0:0:0:
64,192,65691,1,0,0:0:0:0:
320,192,65691,1,0,0:0:0:0:
192,192,65860,1,0,0:0:0:0:
64,192,65860,1,0,0:0:0:0:
192,192,66030,1,0,0:0:0:0:
448,192,66030,1,0,0:0:0:0:
320,192,66199,1,0,0:0:0:0:
448,192,66199,1,0,0:0:0:0:
64,192,66199,1,0,0:0:0:0:
192,192,66369,1,0,0:0:0:0:
64,192,66369,1,0,0:0:0:0:
192,192,66538,1,0,0:0:0:0:
448,192,66538,1,0,0:0:0:0:
320,192,66708,1,0,0:0:0:0:
192,192,66708,1,0,0:0:0:0:
64,192,66877,1,0,0:0:0:0:
320,192,66877,1,0,0:0:0:0:
448,192,66877,1,0,0:0:0:0:
64,192,67047,1,0,0:0:0:0:
192,192,67047,1,0,0:0:0:0:
192,192,67216,1,0,0:0:0:0:
320,192,67216,1,0,0:0:0:0:
320,192,67386,1,0,0:0:0:0:
448,192,67386,1,0,0:0:0:0:
64,192,67555,1,0,0:0:0:0:
448,192,67555,1,0,0:0:0:0:
192,192,67555,1,0,0:0:0:0:
192,192,67725,1,0,0:0:0:0:
320,192,67725,1,0,0:0:0:0:
320,192,67894,1,0,0:0:0:0:
64,192,67894,1,0,0:0:0:0:
192,192,68064,1,0,0:0:0:0:
448,192,68064,1,0,0:0:0:0:
320,192,68233,1,0,0:0:0:0:
64,192,68233,1,0,0:0:0:0:
448,192,68233,1,0,0:0:0:0:
64,192,68403,1,0,0:0:0:0:
192,192,68403,1,0,0:0:0:0:
192,192,68572,1,0,0:0:0:0:
320,192,68572,1,0,0:0:0:0:
64,192,68742,1,0,0:0:0:0:
320,192,68742,1,0,0:0:0:0:
192,192,68911,1,0,0:0:0:0:
320,192,68911,1,0,0:0:0:0:
448,192,68911,1,0,0:0:0:0:
64,192,69081,1,0,0:0:0:0:
192,192,69081,1,0,0:0:0:0:
64,192,69250,1,0,0:0:0:0:
320,192,69250,1,0,0:0:0:0:
192,192,69420,1,0,0:0:0:0:
320,192,69420,1,0,0:0:0:0:
320,192,69589,1,0,0:0:0:0:
448,192,69589,1,0,0:0:0:0:
64,192,69589,1,0,0:0:0:0:
192,192,69759,1,0,0:0:0:0:
64,192,69759,1,0,0:0:0:0:
192,192,69928,1,0,0:0:0:0:
320,192,69928,1,0,0:0:0:0:
64,192,70098,1,0,0:0:0:0:
320,192,70098,1,0,0:0:0:0:
192,192,70267,1,0,0:0:0:0:
64,192,70267,1,0,0:0:0:0:
448,192,70267,1,0,0:0:0:0:
64,192,70437,1,0,0:0:0:0:
320,192,70437,1,0,0:0:0:0:
320,192,70606,1,0,0:0:0:0:
448,192,70606,1,0,0:0:0:0:
192,192,70776,1,0,0:0:0:0:
64,192,70776,1,0,0:0:0:0:
192,192,70945,1,0,0:0:0:0:
320,192,70945,1,0,0:0:0:0:
320,192,71115,1,0,0:0:0:0:
448,192,71115,1,0,0:0:0:0:
320,192,71284,1,0,0:0:0:0:
448,192,71284,1,0,0:0:0:0:
64,192,71284,1,0,0:0:0:0:
192,192,71284,1,0,0:0:0:0:
192,192,71454,1,0,0:0:0:0:
192,192,71623,1,0,0:0:0:0:
64,192,71623,1,0,0:0:0:0:
320,192,71793,1,0,0:0:0:0:
448,192,71962,1,0,0:0:0:0:
320,192,71962,1,0,0:0:0:0:
192,192,71962,1,0,0:0:0:0:
448,192,72132,1,0,0:0:0:0:
192,192,72301,1,0,0:0:0:0:
192,192,72471,1,0,0:0:0:0:
320,192,72640,1,0,0:0:0:0:
64,192,72640,1,0,0:0:0:0:
320,192,72810,1,0,0:0:0:0:
320,192,72979,1,0,0:0:0:0:
64,192,72979,1,0,0:0:0:0:
192,192,73149,1,0,0:0:0:0:
320,192,73318,1,0,0:0:0:0:
448,192,73318,1,0,0:0:0:0:
64,192,73318,1,0,0:0:0:0:
448,192,73488,1,0,0:0:0:0:
448,192,73657,1,0,0:0:0:0:
320,192,73827,1,0,0:0:0:0:
448,192,73996,1,0,0:0:0:0:
64,192,73996,1,0,0:0:0:0:
64,192,74166,1,0,0:0:0:0:
192,192,74335,1,0,0:0:0:0:
320,192,74335,1,0,0:0:0:0:
320,192,74505,1,0,0:0:0:0:
448,192,74674,1,0,0:0:0:0:
192,192,74674,1,0,0:0:0:0:
64,192,74674,1,0,0:0:0:0:
192,192,74844,1,0,0:0:0:0:
448,192,75013,1,0,0:0:0:0:
320,192,75013,1,0,0:0:0:0:
192,192,75182,1,0,0:0:0:0:
192,192,75352,1,0,0:0:0:0:
64,192,75352,1,0,0:0:0:0:
320,192,75521,1,0,0:0:0:0:
448,192,75691,1,0,0:0:0:0:
320,192,75691,1,0,0:0:0:0:
192,192,75860,1,0,0:0:0:0:
320,192,76030,1,0,0:0:0:0:
192,192,76030,1,0,0:0:0:0:
64,192,76030,1,0,0:0:0:0:
320,192,76199,1,0,0:0:0:0:
320,192,76369,1,0,0:0:0:0:
64,192,76369,128,0,76708:0:0:0:0:
192,192,76538,1,0,0:0:0:0:
448,192,76708,1,0,0:0:0:0:
192,192,76708,1,0,0:0:0:0:
320,192,76877,1,0,0:0:0:0:
192,192,77047,1,0,0:0:0:0:
448,192,77047,1,0,0:0:0:0:
64,192,77216,1,0,0:0:0:0:
320,192,77386,1,0,0:0:0:0:
448,192,77386,1,0,0:0:0:0:
64,192,77386,1,0,0:0:0:0:
320,192,77555,1,0,0:0:0:0:
192,192,77725,1,0,0:0:0:0:
320,192,77894,1,0,0:0:0:0:
448,192,78064,1,0,0:0:0:0:
192,192,78064,1,0,0:0:0:0:
192,192,78233,1,0,0:0:0:0:
448,192,78403,1,0,0:0:0:0:
64,192,78403,1,0,0:0:0:0:
64,192,78572,1,0,0:0:0:0:
64,192,78742,1,0,0:0:0:0:
320,192,78742,1,0,0:0:0:0:
448,192,78742,1,0,0:0:0:0:
320,192,78911,1,0,0:0:0:0:
448,192,79081,1,0,0:0:0:0:
192,192,79250,1,0,0:0:0:0:
320,192,79420,1,0,0:0:0:0:
192,192,79420,1,0,0:0:0:0:
320,192,79589,1,0,0:0:0:0:
448,192,79759,1,0,0:0:0:0:
64,192,79759,1,0,0:0:0:0:
448,192,79928,1,0,0:0:0:0:
320,192,80098,1,0,0:0:0:0:
192,192,80098,1,0,0:0:0:0:
64,192,80098,1,0,0:0:0:0:
192,192,80267,1,0,0:0:0:0:
320,192,80437,1,0,0:0:0:0:
192,192,80437,1,0,0:0:0:0:
64,192,80606,1,0,0:0:0:0:
448,192,80776,1,0,0:0:0:0:
320,192,80776,1,0,0:0:0:0:
64,192,80776,1,0,0:0:0:0:
320,192,80945,1,0,0:0:0:0:
320,192,81115,1,0,0:0:0:0:
320,192,81284,1,0,0:0:0:0:
192,192,81454,128,0,81623:0:0:0:0:
192,192,81793,128,0,81962:0:0:0:0:
448,192,82132,128,0,82640:0:0:0:0:
64,192,82301,128,0,82640:0:0:0:0:
192,192,82471,128,0,82640:0:0:0:0:
192,192,82810,128,0,82979:0:0:0:0:
192,192,83149,128,0,83318:0:0:0:0:
448,192,83149,1,0,0:0:0:0:
320,192,83149,1,0,0:0:0:0:
320,192,83318,1,0,0:0:0:0:
64,192,83318,1,0,0:0:0:0:
448,192,83488,1,0,0:0:0:0:
192,192,83488,1,0,0:0:0:0:
64,192,83488,1,0,0:0:0:0:
320,192,83488,1,0,0:0:0:0:
448,192,83657,1,0,0:0:0:0:
64,192,83657,1,0,0:0:0:0:
320,192,83827,1,0,0:0:0:0:
192,192,83827,1,0,0:0:0:0:
448,192,83827,1,0,0:0:0:0:
192,192,83996,1,0,0:0:0:0:
64,192,83996,1,0,0:0:0:0:
320,192,84166,1,0,0:0:0:0:
448,192,84166,1,0,0:0:0:0:
192,192,84335,1,0,0:0:0:0:
320,192,84335,1,0,0:0:0:0:
448,192,84505,1,0,0:0:0:0:
192,192,84505,1,0,0:0:0:0:
64,192,84505,1,0,0:0:0:0:
320,192,84674,1,0,0:0:0:0:
448,192,84674,1,0,0:0:0:0:
320,192,84844,1,0,0:0:0:0:
64,192,84844,1,0,0:0:0:0:
192,192,85013,1,0,0:0:0:0:
64,192,85013,1,0,0:0:0:0:
448,192,85182,1,0,0:0:0:0:
320,192,85182,1,0,0:0:0:0:
192,192,85182,1,0,0:0:0:0:
320,192,85352,1,0,0:0:0:0:
64,192,85352,1,0,0:0:0:0:
192,192,85521,1,0,0:0:0:0:
64,192,85521,1,0,0:0:0:0:
320,192,85691,1,0,0:0:0:0:
192,192,85691,1,0,0:0:0:0:
448,192,85860,1,0,0:0:0:0:
320,192,85860,1,0,0:0:0:0:
64,192,85860,1,0,0:0:0:0:
192,192,86030,1,0,0:0:0:0:
448,192,86030,1,0,0:0:0:0:
320,192,86199,1,0,0:0:0:0:
64,192,86199,1,0,0:0:0:0:
192,192,86369,1,0,0:0:0:0:
448,192,86369,1,0,0:0:0:0:
448,192,86538,1,0,0:0:0:0:
320,192,86538,1,0,0:0:0:0:
64,192,86538,1,0,0:0:0:0:
64,192,86708,1,0,0:0:0:0:
320,192,86708,1,0,0:0:0:0:
448,192,86877,1,0,0:0:0:0:
64,192,86877,1,0,0:0:0:0:
320,192,87047,1,0,0:0:0:0:
192,192,87047,1,0,0:0:0:0:
448,192,87216,1,0,0:0:0:0:
320,192,87216,1,0,0:0:0:0:
64,192,87216,1,0,0:0:0:0:
448,192,87386,1,0,0:0:0:0:
192,192,87386,1,0,0:0:0:0:
64,192,87555,1,0,0:0:0:0:
320,192,87555,128,0,87725:0:0:0:0:
192,192,87725,1,0,0:0:0:0:
64,192,87725,1,0,0:0:0:0:
448,192,87894,1,0,0:0:0:0:
320,192,87894,1,0,0:0:0:0:
64,192,87894,128,0,88064:0:0:0:0:
448,192,88064,1,0,0:0:0:0:
192,192,88064,1,0,0:0:0:0:
320,192,88233,1,0,0:0:0:0:
192,192,88233,128,0,88403:0:0:0:0:
320,192,88403,1,0,0:0:0:0:
64,192,88403,1,0,0:0:0:0:
448,192,88572,1,0,0:0:0:0:
192,192,88572,1,0,0:0:0:0:
320,192,88572,128,0,88742:0:0:0:0:
448,192,88742,1,0,0:0:0:0:
64,192,88742,1,0,0:0:0:0:
64,192,88911,1,0,0:0:0:0:
320,192,88911,128,0,89081:0:0:0:0:
192,192,89081,1,0,0:0:0:0:
64,192,89081,1,0,0:0:0:0:
448,192,89250,1,0,0:0:0:0:
320,192,89250,1,0,0:0:0:0:
64,192,89250,1,0,0:0:0:0:
192,192,89420,1,0,0:0:0:0:
448,192,89420,1,0,0:0:0:0:
448,192,89589,1,0,0:0:0:0:
320,192,89589,1,0,0:0:0:0:
320,192,89759,1,0,0:0:0:0:
192,192,89759,1,0,0:0:0:0:
448,192,89928,1,0,0:0:0:0:
192,192,89928,1,0,0:0:0:0:
64,192,89928,1,0,0:0:0:0:
448,192,90098,1,0,0:0:0:0:
320,192,90098,1,0,0:0:0:0:
320,192,90267,1,0,0:0:0:0:
192,192,90267,1,0,0:0:0:0:
64,192,90437,1,0,0:0:0:0:
320,192,90437,1,0,0:0:0:0:
448,192,90606,1,0,0:0:0:0:
192,192,90606,1,0,0:0:0:0:
64,192,90606,1,0,0:0:0:0:
320,192,90776,1,0,0:0:0:0:
448,192,90776,1,0,0:0:0:0:
192,192,90945,1,0,0:0:0:0:
64,192,90945,1,0,0:0:0:0:
192,192,91115,1,0,0:0:0:0:
64,192,91115,1,0,0:0:0:0:
448,192,91284,1,0,0:0:0:0:
320,192,91284,1,0,0:0:0:0:
64,192,91284,1,0,0:0:0:0:
448,192,91454,1,0,0:0:0:0:
320,192,91454,1,0,0:0:0:0:
448,192,91623,1,0,0:0:0:0:
192,192,91623,1,0,0:0:0:0:
320,192,91793,1,0,0:0:0:0:
64,192,91793,1,0,0:0:0:0:
192,192,91962,1,0,0:0:0:0:
448,192,91962,1,0,0:0:0:0:
320,192,91962,1,0,0:0:0:0:
192,192,92132,1,0,0:0:0:0:
64,192,92132,1,0,0:0:0:0:
320,192,92301,1,0,0:0:0:0:
192,192,92301,1,0,0:0:0:0:
448,192,92471,1,0,0:0:0:0:
320,192,92471,1,0,0:0:0:0:
448,192,92640,1,0,0:0:0:0:
192,192,92640,1,0,0:0:0:0:
64,192,92640,1,0,0:0:0:0:
320,192,92810,1,0,0:0:0:0:
192,192,92810,1,0,0:0:0:0:
192,192,92979,1,0,0:0:0:0:
448,192,92979,128,0,93149:0:0:0:0:
320,192,93149,1,0,0:0:0:0:
64,192,93149,1,0,0:0:0:0:
448,192,93318,1,0,0:0:0:0:
64,192,93318,1,0,0:0:0:0:
192,192,93318,128,0,93488:0:0:0:0:
320,192,93488,1,0,0:0:0:0:
448,192,93488,1,0,0:0:0:0:
64,192,93657,1,0,0:0:0:0:
192,192,93657,128,0,93827:0:0:0:0:
448,192,93827,1,0,0:0:0:0:
320,192,93827,1,0,0:0:0:0:
64,192,93827,1,0,0:0:0:0:
448,192,93996,1,0,0:0:0:0:
320,192,93996,1,0,0:0:0:0:
192,192,93996,128,0,94166:0:0:0:0:
64,192,94166,1,0,0:0:0:0:
320,192,94166,1,0,0:0:0:0:
448,192,94166,1,0,0:0:0:0:
448,192,94335,1,0,0:0:0:0:
320,192,94335,1,0,0:0:0:0:
192,192,94335,1,0,0:0:0:0:
64,192,94335,1,0,0:0:0:0:
64,192,94505,1,0,0:0:0:0:
192,192,94505,1,0,0:0:0:0:
192,192,94674,1,0,0:0:0:0:
320,192,94674,1,0,0:0:0:0:
448,192,94674,1,0,0:0:0:0:
64,192,94844,1,0,0:0:0:0:
320,192,94844,1,0,0:0:0:0:
192,192,95013,1,0,0:0:0:0:
64,192,95013,1,0,0:0:0:0:
320,192,95182,1,0,0:0:0:0:
192,192,95182,1,0,0:0:0:0:
64,192,95352,1,0,0:0:0:0:
320,192,95352,1,0,0:0:0:0:
448,192,95352,1,0,0:0:0:0:
192,192,95521,1,0,0:0:0:0:
64,192,95521,1,0,0:0:0:0:
192,192,95691,1,0,0:0:0:0:
448,192,95691,1,0,0:0:0:0:
320,192,95860,1,0,0:0:0:0:
448,192,95860,1,0,0:0:0:0:
64,192,96030,1,0,0:0:0:0:
192,192,96030,1,0,0:0:0:0:
320,192,96030,1,0,0:0:0:0:
192,192,96199,1,0,0:0:0:0:
448,192,96199,1,0,0:0:0:0:
320,192,96369,1,0,0:0:0:0:
448,192,96369,1,0,0:0:0:0:
192,192,96538,1,0,0:0:0:0:
320,192,96538,1,0,0:0:0:0:
64,192,96708,1,0,0:0:0:0:
192,192,96708,1,0,0:0:0:0:
448,192,96708,1,0,0:0:0:0:
320,192,96877,1,0,0:0:0:0:
64,192,96877,1,0,0:0:0:0:
192,192,97047,1,0,0:0:0:0:
448,192,97047,1,0,0:0:0:0:
320,192,97216,1,0,0:0:0:0:
64,192,97216,1,0,0:0:0:0:
64,192,97386,1,0,0:0:0:0:
192,192,97386,1,0,0:0:0:0:
448,192,97386,1,0,0:0:0:0:
320,192,97555,1,0,0:0:0:0:
192,192,97555,1,0,0:0:0:0:
64,192,97725,1,0,0:0:0:0:
320,192,97725,1,0,0:0:0:0:
192,192,97894,1,0,0:0:0:0:
320,192,97894,1,0,0:0:0:0:
64,192,98064,1,0,0:0:0:0:
192,192,98064,1,0,0:0:0:0:
448,192,98064,1,0,0:0:0:0:
64,192,98233,1,0,0:0:0:0:
320,192,98233,1,0,0:0:0:0:
448,192,98403,1,0,0:0:0:0:
192,192,98403,128,0,98572:0:0:0:0:
320,192,98572,1,0,0:0:0:0:
448,192,98572,1,0,0:0:0:0:
64,192,98742,1,0,0:0:0:0:
448,192,98742,1,0,0:0:0:0:
192,192,98742,128,0,98911:0:0:0:0:
64,192,98911,1,0,0:0:0:0:
320,192,98911,1,0,0:0:0:0:
192,192,99081,1,0,0:0:0:0:
320,192,99081,128,0,99250:0:0:0:0:
192,192,99250,1,0,0:0:0:0:
448,192,99250,1,0,0:0:0:0:
64,192,99420,1,0,0:0:0:0:
192,192,99420,1,0,0:0:0:0:
320,192,99420,128,0,99589:0:0:0:0:
64,192,99589,1,0,0:0:0:0:
448,192,99589,1,0,0:0:0:0:
192,192,99759,1,0,0:0:0:0:
448,192,99759,1,0,0:0:0:0:
320,192,99928,1,0,0:0:0:0:
448,192,99928,1,0,0:0:0:0:
64,192,100098,1,0,0:0:0:0:
192,192,100098,1,0,0:0:0:0:
448,192,100098,1,0,0:0:0:0:
320,192,100267,1,0,0:0:0:0:
64,192,100267,1,0,0:0:0:0:
64,192,100437,1,0,0:0:0:0:
192,192,100437,1,0,0:0:0:0:
192,192,100606,1,0,0:0:0:0:
320,192,100606,1,0,0:0:0:0:
64,192,100776,1,0,0:0:0:0:
320,192,100776,1,0,0:0:0:0:
448,192,100776,1,0,0:0:0:0:
64,192,100945,1,0,0:0:0:0:
192,192,100945,1,0,0:0:0:0:
192,192,101115,1,0,0:0:0:0:
320,192,101115,1,0,0:0:0:0:
448,192,101284,1,0,0:0:0:0:
192,192,101284,1,0,0:0:0:0:
64,192,101454,1,0,0:0:0:0:
320,192,101454,1,0,0:0:0:0:
448,192,101454,1,0,0:0:0:0:
192,192,101623,1,0,0:0:0:0:
64,192,101623,1,0,0:0:0:0:
320,192,101793,1,0,0:0:0:0:
448,192,101793,1,0,0:0:0:0:
320,192,101962,1,0,0:0:0:0:
448,192,101962,1,0,0:0:0:0:
64,192,102132,1,0,0:0:0:0:
192,192,102132,1,0,0:0:0:0:
448,192,102132,1,0,0:0:0:0:
64,192,102301,1,0,0:0:0:0:
192,192,102301,1,0,0:0:0:0:
64,192,102471,1,0,0:0:0:0:
320,192,102471,1,0,0:0:0:0:
192,192,102640,1,0,0:0:0:0:
448,192,102640,1,0,0:0:0:0:
320,192,102810,1,0,0:0:0:0:
64,192,102810,1,0,0:0:0:0:
192,192,102810,1,0,0:0:0:0:
320,192,102979,1,0,0:0:0:0:
448,192,102979,1,0,0:0:0:0:
192,192,103149,1,0,0:0:0:0:
320,192,103149,1,0,0:0:0:0:
64,192,103318,1,0,0:0:0:0:
192,192,103318,1,0,0:0:0:0:
64,192,103488,1,0,0:0:0:0:
320,192,103488,1,0,0:0:0:0:
448,192,103488,1,0,0:0:0:0:
192,192,103657,1,0,0:0:0:0:
320,192,103657,1,0,0:0:0:0:
320,192,103827,1,0,0:0:0:0:
64,192,103827,1,0,0:0:0:0:
192,192,103996,1,0,0:0:0:0:
448,192,103996,1,0,0:0:0:0:
64,192,103996,1,0,0:0:0:0:
64,192,104166,1,0,0:0:0:0:
448,192,104166,1,0,0:0:0:0:
192,192,104166,1,0,0:0:0:0:
192,192,104335,1,0,0:0:0:0:
64,192,104335,1,0,0:0:0:0:
448,192,104335,1,0,0:0:0:0:
320,192,104420,1,0,0:0:0:0:
192,192,104505,1,0,0:0:0:0:
320,192,104589,1,0,0:0:0:0:
448,192,104589,1,0,0:0:0:0:
448,192,104674,1,0,0:0:0:0:
320,192,104674,1,0,0:0:0:0:
64,192,104759,1,0,0:0:0:0:
192,192,104759,1,0,0:0:0:0:
320,192,104844,1,0,0:0:0:0:
448,192,104844,1,0,0:0:0:0:
192,192,104928,1,0,0:0:0:0:
64,192,104928,1,0,0:0:0:0:
192,192,105013,1,0,0:0:0:0:
64,192,105013,1,0,0:0:0:0:
448,192,105098,1,0,0:0:0:0:
320,192,105098,1,0,0:0:0:0:
64,192,105182,1,0,0:0:0:0:
192,192,105182,1,0,0:0:0:0:
448,192,105182,1,0,0:0:0:0:
320,192,105182,1,0,0:0:0:0:
192,192,105352,1,0,0:0:0:0:
64,192,105521,1,0,0:0:0:0:
320,192,105521,1,0,0:0:0:0:
320,192,105691,1,0,0:0:0:0:
64,192,105860,1,0,0:0:0:0:
192,192,105860,1,0,0:0:0:0:
448,192,105860,1,0,0:0:0:0:
448,192,106030,1,0,0:0:0:0:
192,192,106199,1,0,0:0:0:0:
320,192,106199,1,0,0:0:0:0:
320,192,106369,1,0,0:0:0:0:
64,192,106538,1,0,0:0:0:0:
448,192,106538,1,0,0:0:0:0:
192,192,106708,1,0,0:0:0:0:
64,192,106877,1,0,0:0:0:0:
320,192,106877,1,0,0:0:0:0:
320,192,107047,1,0,0:0:0:0:
64,192,107216,1,0,0:0:0:0:
192,192,107216,1,0,0:0:0:0:
448,192,107216,1,0,0:0:0:0:
192,192,107386,1,0,0:0:0:0:
448,192,107555,1,0,0:0:0:0:
64,192,107555,1,0,0:0:0:0:
448,192,107725,1,0,0:0:0:0:
64,192,107894,1,0,0:0:0:0:
192,192,107894,1,0,0:0:0:0:
192,192,108064,1,0,0:0:0:0:
192,192,108233,1,0,0:0:0:0:
448,192,108403,1,0,0:0:0:0:
64,192,108572,1,0,0:0:0:0:
320,192,108572,1,0,0:0:0:0:
448,192,108572,1,0,0:0:0:0:
320,192,108742,1,0,0:0:0:0:
320,192,108911,1,0,0:0:0:0:
64,192,109081,1,0,0:0:0:0:
64,192,109250,1,0,0:0:0:0:
192,192,109250,1,0,0:0:0:0:
320,192,109420,1,0,0:0:0:0:
192,192,109589,1,0,0:0:0:0:
320,192,109589,1,0,0:0:0:0:
448,192,109759,1,0,0:0:0:0:
64,192,109928,1,0,0:0:0:0:
320,192,109928,1,0,0:0:0:0:
448,192,109928,1,0,0:0:0:0:
192,192,110098,1,0,0:0:0:0:
64,192,110267,1,0,0:0:0:0:
448,192,110267,1,0,0:0:0:0:
320,192,110267,1,0,0:0:0:0:
64,192,110437,1,0,0:0:0:0:
320,192,110437,1,0,0:0:0:0:
448,192,110437,1,0,0:0:0:0:
64,192,110606,1,0,0:0:0:0:
192,192,110606,1,0,0:0:0:0:
320,192,110606,1,0,0:0:0:0:
448,192,110606,1,0,0:0:0:0:
192,192,110776,1,0,0:0:0:0:
64,192,110945,1,0,0:0:0:0:
320,192,110945,1,0,0:0:0:0:
320,192,111115,1,0,0:0:0:0:
192,192,111284,1,0,0:0:0:0:
448,192,111284,1,0,0:0:0:0:
64,192,111284,1,0,0:0:0:0:
64,192,111454,1,0,0:0:0:0:
64,192,111623,1,0,0:0:0:0:
192,192,111793,1,0,0:0:0:0:
64,192,111962,1,0,0:0:0:0:
320,192,111962,1,0,0:0:0:0:
320,192,112132,1,0,0:0:0:0:
320,192,112301,1,0,0:0:0:0:
448,192,112471,1,0,0:0:0:0:
320,192,112640,1,0,0:0:0:0:
192,192,112640,1,0,0:0:0:0:
64,192,112640,1,0,0:0:0:0:
64,192,112810,1,0,0:0:0:0:
320,192,112979,1,0,0:0:0:0:
64,192,112979,1,0,0:0:0:0:
320,192,113149,1,0,0:0:0:0:
192,192,113318,1,0,0:0:0:0:
448,192,113318,1,0,0:0:0:0:
64,192,113318,1,0,0:0:0:0:
64,192,113827,1,0,0:0:0:0:
192,192,113827,1,0,0:0:0:0:
448,192,113827,1,0,0:0:0:0:
64,192,114335,1,0,0:0:0:0:
320,192,114335,1,0,0:0:0:0:
448,192,114335,1,0,0:0:0:0:
64,192,115013,1,0,0:0:0:0:
192,192,115013,1,0,0:0:0:0:
320,192,115013,1,0,0:0:0:0:
64,192,115352,1,0,0:0:0:0:
320,192,115352,1,0,0:0:0:0:
448,192,115352,1,0,0:0:0:0:
64,192,115521,1,0,0:0:0:0:
320,192,115521,1,0,0:0:0:0:
448,192,115521,1,0,0:0:0:0:
64,192,115691,1,0,0:0:0:0:
320,192,115691,1,0,0:0:0:0:
448,192,115691,1,0,0:0:0:0:
64,192,115860,1,0,0:0:0:0:
320,192,115860,1,0,0:0:0:0:
448,192,115860,1,0,0:0:0:0:
64,192,116030,1,0,0:0:0:0:
192,192,116030,1,0,0:0:0:0:
320,192,116030,1,0,0:0:0:0:
448,192,116030,1,0,0:0:0:0:
192,192,116199,1,0,0:0:0:0:
320,192,116199,1,0,0:0:0:0:
64,192,116369,1,0,0:0:0:0:
320,192,116369,1,0,0:0:0:0:
448,192,116369,1,0,0:0:0:0:
64,192,116538,1,0,0:0:0:0:
192,192,116538,1,0,0:0:0:0:
192,192,116708,1,0,0:0:0:0:
320,192,116708,1,0,0:0:0:0:
64,192,116877,1,0,0:0:0:0:
320,192,116877,1,0,0:0:0:0:
64,192,117047,1,0,0:0:0:0:
448,192,117047,1,0,0:0:0:0:
192,192,117047,1,0,0:0:0:0:
320,192,117216,1,0,0:0:0:0:
192,192,117216,1,0,0:0:0:0:
64,192,117386,1,0,0:0:0:0:
320,192,117386,1,0,0:0:0:0:
448,192,117386,1,0,0:0:0:0:
192,192,117555,1,0,0:0:0:0:
64,192,117555,1,0,0:0:0:0:
192,192,117725,1,0,0:0:0:0:
320,192,117725,1,0,0:0:0:0:
448,192,117725,1,0,0:0:0:0:
320,192,117894,1,0,0:0:0:0:
448,192,117894,1,0,0:0:0:0:
64,192,118064,1,0,0:0:0:0:
192,192,118064,1,0,0:0:0:0:
448,192,118064,1,0,0:0:0:0:
320,192,118233,1,0,0:0:0:0:
64,192,118233,1,0,0:0:0:0:
192,192,118403,1,0,0:0:0:0:
448,192,118403,1,0,0:0:0:0:
320,192,118403,1,0,0:0:0:0:
64,192,118572,1,0,0:0:0:0:
448,192,118572,1,0,0:0:0:0:
192,192,118742,1,0,0:0:0:0:
320,192,118742,1,0,0:0:0:0:
64,192,118911,1,0,0:0:0:0:
192,192,118911,1,0,0:0:0:0:
64,192,119081,1,0,0:0:0:0:
320,192,119081,1,0,0:0:0:0:
448,192,119081,1,0,0:0:0:0:
192,192,119250,1,0,0:0:0:0:
320,192,119250,1,0,0:0:0:0:
192,192,119420,1,0,0:0:0:0:
448,192,119420,1,0,0:0:0:0:
64,192,119589,1,0,0:0:0:0:
320,192,119589,1,0,0:0:0:0:
192,192,119759,1,0,0:0:0:0:
64,192,119759,1,0,0:0:0:0:
448,192,119759,1,0,0:0:0:0:
320,192,119928,1,0,0:0:0:0:
448,192,119928,1,0,0:0:0:0:
192,192,120098,1,0,0:0:0:0:
320,192,120098,1,0,0:0:0:0:
64,192,120267,1,0,0:0:0:0:
448,192,120267,1,0,0:0:0:0:
192,192,120437,1,0,0:0:0:0:
64,192,120437,1,0,0:0:0:0:
448,192,120437,1,0,0:0:0:0:
320,192,120606,1,0,0:0:0:0:
192,192,120606,1,0,0:0:0:0:
64,192,120776,1,0,0:0:0:0:
320,192,120776,1,0,0:0:0:0:
192,192,120945,1,0,0:0:0:0:
64,192,120945,1,0,0:0:0:0:
192,192,121115,1,0,0:0:0:0:
320,192,121115,1,0,0:0:0:0:
448,192,121115,1,0,0:0:0:0:
64,192,121284,1,0,0:0:0:0:
448,192,121284,1,0,0:0:0:0:
64,192,121454,1,0,0:0:0:0:
320,192,121454,1,0,0:0:0:0:
448,192,121454,1,0,0:0:0:0:
192,192,121454,1,0,0:0:0:0:
64,192,121793,1,0,0:0:0:0:
192,192,121793,1,0,0:0:0:0:
64,192,121962,1,0,0:0:0:0:
192,192,121962,1,0,0:0:0:0:
192,192,122132,1,0,0:0:0:0:
320,192,122132,1,0,0:0:0:0:
448,192,122132,1,0,0:0:0:0:
192,192,122471,1,0,0:0:0:0:
320,192,122471,1,0,0:0:0:0:
192,192,122640,1,0,0:0:0:0:
320,192,122640,1,0,0:0:0:0:
64,192,122810,1,0,0:0:0:0:
320,192,122810,1,0,0:0:0:0:
448,192,122810,1,0,0:0:0:0:
192,192,123149,1,0,0:0:0:0:
448,192,123149,1,0,0:0:0:0:
320,192,123318,1,0,0:0:0:0:
192,192,123318,1,0,0:0:0:0:
64,192,123488,1,0,0:0:0:0:
320,192,123488,1,0,0:0:0:0:
448,192,123488,1,0,0:0:0:0:
64,192,123827,1,0,0:0:0:0:
192,192,123827,1,0,0:0:0:0:
192,192,123996,1,0,0:0:0:0:
320,192,123996,1,0,0:0:0:0:
64,192,124166,1,0,0:0:0:0:
320,192,124166,1,0,0:0:0:0:
448,192,124166,1,0,0:0:0:0:
64,192,124505,1,0,0:0:0:0:
320,192,124505,1,0,0:0:0:0:
448,192,124505,1,0,0:0:0:0:
64,192,124844,1,0,0:0:0:0:
320,192,124844,1,0,0:0:0:0:
448,192,124844,1,0,0:0:0:0:
64,192,125182,1,0,0:0:0:0:
448,192,125182,1,0,0:0:0:0:
320,192,125182,1,0,0:0:0:0:
64,192,125521,1,0,0:0:0:0:
320,192,125521,1,0,0:0:0:0:
448,192,125521,1,0,0:0:0:0:
192,192,126877,128,0,127047:0:0:0:0:
192,192,127555,128,0,127725:0:0:0:0:
192,192,128064,128,0,129166:0:0:0:0:
64,192,129589,128,0,129844:0:0:0:0:
64,192,130267,128,0,130521:0:0:0:0:
320,192,130437,1,0,0:0:0:0:
64,192,130776,128,0,131115:0:0:0:0:
192,192,131115,128,0,131284:0:0:0:0:
192,192,131623,128,0,131962:0:0:0:0:
448,192,132301,128,0,132471:0:0:0:0:
448,192,132640,1,0,0:0:0:0:
448,192,132810,1,0,0:0:0:0:
448,192,132979,128,0,133233:0:0:0:0:
320,192,133572,128,0,134589:0:0:0:0:
64,192,135013,128,0,135182:0:0:0:0:
64,192,135352,1,0,0:0:0:0:
64,192,135521,1,0,0:0:0:0:
64,192,135691,128,0,135860:0:0:0:0:
192,192,136030,128,0,136199:0:0:0:0:
320,192,136199,128,0,136369:0:0:0:0:
64,192,136369,128,0,137047:0:0:0:0:
448,192,136369,128,0,136708:0:0:0:0:
192,192,136708,128,0,137047:0:0:0:0:
320,192,136708,128,0,137047:0:0:0:0:
448,192,137047,128,0,137725:0:0:0:0:
64,192,137386,1,0,0:0:0:0:
192,192,137386,1,0,0:0:0:0:
320,192,137386,128,0,137725:0:0:0:0:
192,192,137725,1,0,0:0:0:0:
64,192,137725,1,0,0:0:0:0:
64,192,137894,1,0,0:0:0:0:
192,192,137894,1,0,0:0:0:0:
448,192,138064,1,0,0:0:0:0:
320,192,138064,1,0,0:0:0:0:
64,192,138064,1,0,0:0:0:0:
192,192,138233,1,0,0:0:0:0:
320,192,138233,1,0,0:0:0:0:
448,192,138403,1,0,0:0:0:0:
64,192,138403,1,0,0:0:0:0:
320,192,138572,1,0,0:0:0:0:
192,192,138572,1,0,0:0:0:0:
64,192,138742,1,0,0:0:0:0:
192,192,138742,1,0,0:0:0:0:
448,192,138742,1,0,0:0:0:0:
448,192,138911,1,0,0:0:0:0:
320,192,138911,1,0,0:0:0:0:
64,192,139081,1,0,0:0:0:0:
320,192,139081,1,0,0:0:0:0:
64,192,139250,1,0,0:0:0:0:
192,192,139250,1,0,0:0:0:0:
192,192,139420,1,0,0:0:0:0:
320,192,139420,1,0,0:0:0:0:
448,192,139420,1,0,0:0:0:0:
64,192,139589,1,0,0:0:0:0:
320,192,139589,1,0,0:0:0:0:
64,192,139759,1,0,0:0:0:0:
192,192,139759,1,0,0:0:0:0:
192,192,139928,1,0,0:0:0:0:
320,192,139928,1,0,0:0:0:0:
64,192,140098,1,0,0:0:0:0:
320,192,140098,1,0,0:0:0:0:
448,192,140098,1,0,0:0:0:0:
448,192,140267,1,0,0:0:0:0:
192,192,140267,1,0,0:0:0:0:
64,192,140437,1,0,0:0:0:0:
320,192,140437,1,0,0:0:0:0:
448,192,140606,1,0,0:0:0:0:
192,192,140606,1,0,0:0:0:0:
64,192,140776,1,0,0:0:0:0:
320,192,140776,1,0,0:0:0:0:
448,192,140776,1,0,0:0:0:0:
320,192,140945,1,0,0:0:0:0:
192,192,140945,1,0,0:0:0:0:
192,192,141115,1,0,0:0:0:0:
448,192,141115,1,0,0:0:0:0:
192,192,141284,1,0,0:0:0:0:
320,192,141284,1,0,0:0:0:0:
64,192,141454,1,0,0:0:0:0:
320,192,141454,1,0,0:0:0:0:
448,192,141454,1,0,0:0:0:0:
192,192,141623,1,0,0:0:0:0:
448,192,141623,1,0,0:0:0:0:
320,192,141793,128,0,141962:0:0:0:0:
64,192,141793,1,0,0:0:0:0:
64,192,141962,1,0,0:0:0:0:
192,192,141962,1,0,0:0:0:0:
64,192,142132,128,0,142301:0:0:0:0:
320,192,142132,1,0,0:0:0:0:
448,192,142132,1,0,0:0:0:0:
192,192,142301,1,0,0:0:0:0:
448,192,142301,1,0,0:0:0:0:
192,192,142471,128,0,142640:0:0:0:0:
320,192,142471,1,0,0:0:0:0:
64,192,142640,1,0,0:0:0:0:
320,192,142640,1,0,0:0:0:0:
320,192,142810,128,0,142979:0:0:0:0:
192,192,142810,1,0,0:0:0:0:
448,192,142810,1,0,0:0:0:0:
64,192,142979,1,0,0:0:0:0:
448,192,142979,1,0,0:0:0:0:
320,192,143149,128,0,143318:0:0:0:0:
64,192,143149,1,0,0:0:0:0:
64,192,143318,1,0,0:0:0:0:
192,192,143318,1,0,0:0:0:0:
64,192,143488,1,0,0:0:0:0:
320,192,143488,1,0,0:0:0:0:
448,192,143488,1,0,0:0:0:0:
448,192,143657,1,0,0:0:0:0:
192,192,143657,1,0,0:0:0:0:
320,192,143827,1,0,0:0:0:0:
448,192,143827,1,0,0:0:0:0:
192,192,143996,1,0,0:0:0:0:
320,192,143996,1,0,0:0:0:0:
64,192,144166,1,0,0:0:0:0:
192,192,144166,1,0,0:0:0:0:
448,192,144166,1,0,0:0:0:0:
320,192,144335,1,0,0:0:0:0:
448,192,144335,1,0,0:0:0:0:
192,192,144505,1,0,0:0:0:0:
320,192,144505,1,0,0:0:0:0:
320,192,144674,1,0,0:0:0:0:
64,192,144674,1,0,0:0:0:0:
64,192,144844,1,0,0:0:0:0:
192,192,144844,1,0,0:0:0:0:
448,192,144844,1,0,0:0:0:0:
448,192,145013,1,0,0:0:0:0:
320,192,145013,1,0,0:0:0:0:
64,192,145182,1,0,0:0:0:0:
192,192,145182,1,0,0:0:0:0:
64,192,145352,1,0,0:0:0:0:
192,192,145352,1,0,0:0:0:0:
64,192,145521,1,0,0:0:0:0:
320,192,145521,1,0,0:0:0:0:
448,192,145521,1,0,0:0:0:0:
320,192,145691,1,0,0:0:0:0:
448,192,145691,1,0,0:0:0:0:
192,192,145860,1,0,0:0:0:0:
448,192,145860,1,0,0:0:0:0:
64,192,146030,1,0,0:0:0:0:
320,192,146030,1,0,0:0:0:0:
320,192,146199,1,0,0:0:0:0:
448,192,146199,1,0,0:0:0:0:
192,192,146199,1,0,0:0:0:0:
64,192,146369,1,0,0:0:0:0:
192,192,146369,1,0,0:0:0:0:
192,192,146538,1,0,0:0:0:0:
320,192,146538,1,0,0:0:0:0:
320,192,146708,1,0,0:0:0:0:
448,192,146708,1,0,0:0:0:0:
64,192,146877,1,0,0:0:0:0:
192,192,146877,1,0,0:0:0:0:
448,192,146877,1,0,0:0:0:0:
192,192,147047,1,0,0:0:0:0:
320,192,147047,1,0,0:0:0:0:
448,192,147216,128,0,147386:0:0:0:0:
192,192,147216,1,0,0:0:0:0:
64,192,147386,1,0,0:0:0:0:
320,192,147386,1,0,0:0:0:0:
192,192,147555,128,0,147725:0:0:0:0:
64,192,147555,1,0,0:0:0:0:
448,192,147555,1,0,0:0:0:0:
448,192,147725,1,0,0:0:0:0:
320,192,147725,1,0,0:0:0:0:
192,192,147894,1,0,0:0:0:0:
320,192,147894,128,0,148064:0:0:0:0:
64,192,148064,1,0,0:0:0:0:
192,192,148064,1,0,0:0:0:0:
448,192,148233,1,0,0:0:0:0:
64,192,148233,128,0,148403:0:0:0:0:
320,192,148403,1,0,0:0:0:0:
448,192,148403,1,0,0:0:0:0:
64,192,148572,1,0,0:0:0:0:
192,192,148572,1,0,0:0:0:0:
320,192,148572,1,0,0:0:0:0:
448,192,148572,1,0,0:0:0:0:
320,192,148742,1,0,0:0:0:0:
320,192,148911,1,0,0:0:0:0:
448,192,148911,1,0,0:0:0:0:
192,192,149081,1,0,0:0:0:0:
64,192,149250,1,0,0:0:0:0:
192,192,149250,1,0,0:0:0:0:
320,192,149250,1,0,0:0:0:0:
64,192,149420,1,0,0:0:0:0:
320,192,149589,1,0,0:0:0:0:
320,192,149759,1,0,0:0:0:0:
192,192,149928,1,0,0:0:0:0:
448,192,149928,1,0,0:0:0:0:
192,192,150098,1,0,0:0:0:0:
192,192,150267,1,0,0:0:0:0:
448,192,150267,1,0,0:0:0:0:
320,192,150437,1,0,0:0:0:0:
192,192,150606,1,0,0:0:0:0:
64,192,150606,1,0,0:0:0:0:
448,192,150606,1,0,0:0:0:0:
64,192,150776,1,0,0:0:0:0:
64,192,150945,1,0,0:0:0:0:
192,192,151115,1,0,0:0:0:0:
64,192,151284,1,0,0:0:0:0:
448,192,151284,1,0,0:0:0:0:
448,192,151454,1,0,0:0:0:0:
320,192,151623,1,0,0:0:0:0:
192,192,151623,1,0,0:0:0:0:
192,192,151793,1,0,0:0:0:0:
64,192,151962,1,0,0:0:0:0:
320,192,151962,1,0,0:0:0:0:
448,192,151962,1,0,0:0:0:0:
320,192,152132,1,0,0:0:0:0:
64,192,152301,1,0,0:0:0:0:
192,192,152301,1,0,0:0:0:0:
320,192,152471,1,0,0:0:0:0:
320,192,152640,1,0,0:0:0:0:
448,192,152640,1,0,0:0:0:0:
192,192,152810,1,0,0:0:0:0:
64,192,152979,1,0,0:0:0:0:
192,192,152979,1,0,0:0:0:0:
320,192,153149,1,0,0:0:0:0:
192,192,153318,1,0,0:0:0:0:
320,192,153318,1,0,0:0:0:0:
448,192,153318,1,0,0:0:0:0:
192,192,153488,1,0,0:0:0:0:
192,192,153657,1,0,0:0:0:0:
448,192,153657,128,0,153996:0:0:0:0:
320,192,153827,1,0,0:0:0:0:
64,192,153996,1,0,0:0:0:0:
320,192,153996,1,0,0:0:0:0:
192,192,154166,1,0,0:0:0:0:
320,192,154335,1,0,0:0:0:0:
64,192,154335,1,0,0:0:0:0:
448,192,154505,1,0,0:0:0:0:
192,192,154674,1,0,0:0:0:0:
64,192,154674,1,0,0:0:0:0:
448,192,154674,1,0,0:0:0:0:
192,192,154844,1,0,0:0:0:0:
320,192,155013,1,0,0:0:0:0:
192,192,155182,1,0,0:0:0:0:
64,192,155352,1,0,0:0:0:0:
320,192,155352,1,0,0:0:0:0:
320,192,155521,1,0,0:0:0:0:
64,192,155691,1,0,0:0:0:0:
448,192,155691,1,0,0:0:0:0:
448,192,155860,1,0,0:0:0:0:
448,192,156030,1,0,0:0:0:0:
192,192,156030,1,0,0:0:0:0:
64,192,156030,1,0,0:0:0:0:
192,192,156199,1,0,0:0:0:0:
64,192,156369,1,0,0:0:0:0:
320,192,156538,1,0,0:0:0:0:
192,192,156708,1,0,0:0:0:0:
320,192,156708,1,0,0:0:0:0:
64,192,156708,1,0,0:0:0:0:
448,192,156708,1,0,0:0:0:0:
192,192,156877,1,0,0:0:0:0:
64,192,157047,1,0,0:0:0:0:
64,192,157216,1,0,0:0:0:0:
192,192,157386,1,0,0:0:0:0:
320,192,157555,1,0,0:0:0:0:
320,192,157725,1,0,0:0:0:0:
448,192,157894,1,0,0:0:0:0:
64,192,158064,1,0,0:0:0:0:
448,192,158064,1,0,0:0:0:0:
192,192,158233,1,0,0:0:0:0:
192,192,158403,1,0,0:0:0:0:
192,192,158572,1,0,0:0:0:0:
320,192,158742,128,0,158911:0:0:0:0:
320,192,159081,128,0,159250:0:0:0:0:
320,192,159420,128,0,159589:0:0:0:0:
64,192,159420,1,0,0:0:0:0:
192,192,159420,1,0,0:0:0:0:
448,192,159589,128,0,159759:0:0:0:0:
192,192,159589,1,0,0:0:0:0:
64,192,159589,1,0,0:0:0:0:
320,192,159759,128,0,159928:0:0:0:0:
64,192,159759,1,0,0:0:0:0:
192,192,159759,1,0,0:0:0:0:
192,192,159928,1,0,0:0:0:0:
448,192,159928,1,0,0:0:0:0:
64,192,160098,128,0,160267:0:0:0:0:
320,192,160098,1,0,0:0:0:0:
448,192,160098,1,0,0:0:0:0:
448,192,160267,1,0,0:0:0:0:
320,192,160267,1,0,0:0:0:0:
320,192,160437,128,0,160606:0:0:0:0:
64,192,160437,1,0,0:0:0:0:
192,192,160437,1,0,0:0:0:0:
192,192,160606,1,0,0:0:0:0:
448,192,160606,1,0,0:0:0:0:
64,192,160776,1,0,0:0:0:0:
320,192,160776,1,0,0:0:0:0:
448,192,160776,1,0,0:0:0:0:
192,192,160776,1,0,0:0:0:0:
64,192,160945,1,0,0:0:0:0:
448,192,160945,1,0,0:0:0:0:
192,192,161115,1,0,0:0:0:0:
320,192,161115,1,0,0:0:0:0:
64,192,161115,1,0,0:0:0:0:
320,192,161284,1,0,0:0:0:0:
448,192,161284,1,0,0:0:0:0:
192,192,161454,1,0,0:0:0:0:
64,192,161454,1,0,0:0:0:0:
320,192,161623,1,0,0:0:0:0:
192,192,161623,1,0,0:0:0:0:
64,192,161793,1,0,0:0:0:0:
320,192,161793,1,0,0:0:0:0:
448,192,161793,1,0,0:0:0:0:
192,192,161962,1,0,0:0:0:0:
64,192,161962,1,0,0:0:0:0:
192,192,162132,1,0,0:0:0:0:
448,192,162132,1,0,0:0:0:0:
320,192,162301,1,0,0:0:0:0:
448,192,162301,1,0,0:0:0:0:
64,192,162471,1,0,0:0:0:0:
192,192,162471,1,0,0:0:0:0:
320,192,162471,1,0,0:0:0:0:
192,192,162640,1,0,0:0:0:0:
448,192,162640,1,0,0:0:0:0:
320,192,162810,1,0,0:0:0:0:
448,192,162810,1,0,0:0:0:0:
192,192,162979,1,0,0:0:0:0:
320,192,162979,1,0,0:0:0:0:
64,192,163149,1,0,0:0:0:0:
192,192,163149,1,0,0:0:0:0:
448,192,163149,1,0,0:0:0:0:
320,192,163318,1,0,0:0:0:0:
64,192,163318,1,0,0:0:0:0:
192,192,163488,1,0,0:0:0:0:
448,192,163488,1,0,0:0:0:0:
320,192,163657,1,0,0:0:0:0:
64,192,163657,1,0,0:0:0:0:
64,192,163827,1,0,0:0:0:0:
192,192,163827,1,0,0:0:0:0:
448,192,163827,1,0,0:0:0:0:
448,192,163996,1,0,0:0:0:0:
192,192,163996,1,0,0:0:0:0:
64,192,164166,1,0,0:0:0:0:
448,192,164166,1,0,0:0:0:0:
192,192,164335,1,0,0:0:0:0:
320,192,164335,1,0,0:0:0:0:
64,192,164505,1,0,0:0:0:0:
192,192,164505,1,0,0:0:0:0:
448,192,164505,1,0,0:0:0:0:
64,192,164674,1,0,0:0:0:0:
320,192,164674,1,0,0:0:0:0:
448,192,164844,1,0,0:0:0:0:
192,192,164844,128,0,165013:0:0:0:0:
320,192,165013,1,0,0:0:0:0:
448,192,165013,1,0,0:0:0:0:
64,192,165182,1,0,0:0:0:0:
192,192,165182,1,0,0:0:0:0:
448,192,165182,128,0,165352:0:0:0:0:
64,192,165352,1,0,0:0:0:0:
320,192,165352,1,0,0:0:0:0:
192,192,165521,1,0,0:0:0:0:
320,192,165521,128,0,165691:0:0:0:0:
192,192,165691,1,0,0:0:0:0:
448,192,165691,1,0,0:0:0:0:
64,192,165860,1,0,0:0:0:0:
320,192,165860,1,0,0:0:0:0:
192,192,165860,128,0,166030:0:0:0:0:
64,192,166030,1,0,0:0:0:0:
448,192,166030,1,0,0:0:0:0:
448,192,166199,1,0,0:0:0:0:
192,192,166199,1,0,0:0:0:0:
320,192,166369,1,0,0:0:0:0:
448,192,166369,1,0,0:0:0:0:
64,192,166538,1,0,0:0:0:0:
192,192,166538,1,0,0:0:0:0:
448,192,166538,1,0,0:0:0:0:
320,192,166708,1,0,0:0:0:0:
64,192,166708,1,0,0:0:0:0:
64,192,166877,1,0,0:0:0:0:
192,192,166877,1,0,0:0:0:0:
192,192,167047,1,0,0:0:0:0:
320,192,167047,1,0,0:0:0:0:
64,192,167216,1,0,0:0:0:0:
320,192,167216,1,0,0:0:0:0:
448,192,167216,1,0,0:0:0:0:
64,192,167386,1,0,0:0:0:0:
192,192,167386,1,0,0:0:0:0:
192,192,167555,1,0,0:0:0:0:
320,192,167555,1,0,0:0:0:0:
448,192,167725,1,0,0:0:0:0:
192,192,167725,1,0,0:0:0:0:
64,192,167894,1,0,0:0:0:0:
320,192,167894,1,0,0:0:0:0:
448,192,167894,1,0,0:0:0:0:
192,192,168064,1,0,0:0:0:0:
64,192,168064,1,0,0:0:0:0:
320,192,168233,1,0,0:0:0:0:
448,192,168233,1,0,0:0:0:0:
320,192,168403,1,0,0:0:0:0:
448,192,168403,1,0,0:0:0:0:
64,192,168572,1,0,0:0:0:0:
192,192,168572,1,0,0:0:0:0:
448,192,168572,1,0,0:0:0:0:
64,192,168742,1,0,0:0:0:0:
192,192,168742,1,0,0:0:0:0:
64,192,168911,1,0,0:0:0:0:
320,192,168911,1,0,0:0:0:0:
192,192,169081,1,0,0:0:0:0:
448,192,169081,1,0,0:0:0:0:
320,192,169250,1,0,0:0:0:0:
64,192,169250,1,0,0:0:0:0:
192,192,169250,1,0,0:0:0:0:
320,192,169420,1,0,0:0:0:0:
448,192,169420,1,0,0:0:0:0:
192,192,169589,1,0,0:0:0:0:
320,192,169589,1,0,0:0:0:0:
64,192,169759,1,0,0:0:0:0:
192,192,169759,1,0,0:0:0:0:
64,192,169928,1,0,0:0:0:0:
320,192,169928,1,0,0:0:0:0:
448,192,169928,1,0,0:0:0:0:
192,192,170098,1,0,0:0:0:0:
320,192,170098,1,0,0:0:0:0:
320,192,170267,1,0,0:0:0:0:
64,192,170267,128,0,170437:0:0:0:0:
192,192,170437,1,0,0:0:0:0:
448,192,170437,1,0,0:0:0:0:
64,192,170606,1,0,0:0:0:0:
448,192,170606,1,0,0:0:0:0:
320,192,170606,128,0,170776:0:0:0:0:
192,192,170776,1,0,0:0:0:0:
64,192,170776,1,0,0:0:0:0:
448,192,170945,1,0,0:0:0:0:
320,192,170945,128,0,171115:0:0:0:0:
64,192,171115,1,0,0:0:0:0:
448,192,171115,1,0,0:0:0:0:
64,192,171284,1,0,0:0:0:0:
192,192,171284,1,0,0:0:0:0:
320,192,171284,128,0,171454:0:0:0:0:
192,192,171454,1,0,0:0:0:0:
448,192,171454,1,0,0:0:0:0:
320,192,171538,1,0,0:0:0:0:
64,192,171538,1,0,0:0:0:0:
448,192,171623,1,0,0:0:0:0:
192,192,171623,1,0,0:0:0:0:
64,192,171793,1,0,0:0:0:0:
448,192,171793,1,0,0:0:0:0:
192,192,171962,1,0,0:0:0:0:
320,192,171962,1,0,0:0:0:0:
64,192,171962,1,0,0:0:0:0:
320,192,172132,1,0,0:0:0:0:
448,192,172132,1,0,0:0:0:0:
192,192,172301,1,0,0:0:0:0:
64,192,172301,1,0,0:0:0:0:
320,192,172471,1,0,0:0:0:0:
192,192,172471,1,0,0:0:0:0:
64,192,172640,1,0,0:0:0:0:
320,192,172640,1,0,0:0:0:0:
448,192,172640,1,0,0:0:0:0:
192,192,172810,1,0,0:0:0:0:
64,192,172810,1,0,0:0:0:0:
192,192,172979,1,0,0:0:0:0:
448,192,172979,1,0,0:0:0:0:
320,192,173149,1,0,0:0:0:0:
448,192,173149,1,0,0:0:0:0:
64,192,173318,1,0,0:0:0:0:
192,192,173318,1,0,0:0:0:0:
320,192,173318,1,0,0:0:0:0:
192,192,173488,1,0,0:0:0:0:
448,192,173488,1,0,0:0:0:0:
320,192,173657,1,0,0:0:0:0:
448,192,173657,1,0,0:0:0:0:
192,192,173827,1,0,0:0:0:0:
320,192,173827,1,0,0:0:0:0:
64,192,173996,1,0,0:0:0:0:
192,192,173996,1,0,0:0:0:0:
448,192,173996,1,0,0:0:0:0:
320,192,174166,1,0,0:0:0:0:
64,192,174166,1,0,0:0:0:0:
192,192,174335,1,0,0:0:0:0:
448,192,174335,1,0,0:0:0:0:
320,192,174505,1,0,0:0:0:0:
64,192,174505,1,0,0:0:0:0:
64,192,174674,1,0,0:0:0:0:
192,192,174674,1,0,0:0:0:0:
448,192,174674,1,0,0:0:0:0:
448,192,174844,1,0,0:0:0:0:
192,192,174844,1,0,0:0:0:0:
64,192,175013,1,0,0:0:0:0:
448,192,175013,1,0,0:0:0:0:
192,192,175182,1,0,0:0:0:0:
320,192,175182,1,0,0:0:0:0:
64,192,175352,1,0,0:0:0:0:
192,192,175352,1,0,0:0:0:0:
448,192,175352,1,0,0:0:0:0:
64,192,175521,1,0,0:0:0:0:
320,192,175521,1,0,0:0:0:0:
448,192,175691,1,0,0:0:0:0:
192,192,175691,1,0,0:0:0:0:
320,192,175860,1,0,0:0:0:0:
448,192,175860,1,0,0:0:0:0:
64,192,176030,1,0,0:0:0:0:
192,192,176030,1,0,0:0:0:0:
448,192,176030,1,0,0:0:0:0:
64,192,176199,1,0,0:0:0:0:
320,192,176199,1,0,0:0:0:0:
192,192,176369,1,0,0:0:0:0:
320,192,176369,1,0,0:0:0:0:
192,192,176538,1,0,0:0:0:0:
448,192,176538,1,0,0:0:0:0:
64,192,176708,1,0,0:0:0:0:
320,192,176708,1,0,0:0:0:0:
192,192,176708,1,0,0:0:0:0:
64,192,176877,1,0,0:0:0:0:
448,192,176877,1,0,0:0:0:0:
448,192,177047,1,0,0:0:0:0:
192,192,177047,1,0,0:0:0:0:
320,192,177216,1,0,0:0:0:0:
448,192,177216,1,0,0:0:0:0:
64,192,177386,1,0,0:0:0:0:
192,192,177386,1,0,0:0:0:0:
448,192,177386,1,0,0:0:0:0:
320,192,177555,1,0,0:0:0:0:
64,192,177555,1,0,0:0:0:0:
64,192,177725,1,0,0:0:0:0:
192,192,177725,1,0,0:0:0:0:
192,192,177894,1,0,0:0:0:0:
320,192,177894,1,0,0:0:0:0:
64,192,178064,1,0,0:0:0:0:
320,192,178064,1,0,0:0:0:0:
448,192,178064,1,0,0:0:0:0:
64,192,178233,1,0,0:0:0:0:
192,192,178233,1,0,0:0:0:0:
192,192,178403,1,0,0:0:0:0:
320,192,178403,1,0,0:0:0:0:
448,192,178572,1,0,0:0:0:0:
192,192,178572,1,0,0:0:0:0:
64,192,178742,1,0,0:0:0:0:
320,192,178742,1,0,0:0:0:0:
448,192,178742,1,0,0:0:0:0:
192,192,178911,1,0,0:0:0:0:
64,192,178911,1,0,0:0:0:0:
320,192,179081,1,0,0:0:0:0:
448,192,179081,1,0,0:0:0:0:
320,192,179250,1,0,0:0:0:0:
448,192,179250,1,0,0:0:0:0:
64,192,179420,1,0,0:0:0:0:
192,192,179420,1,0,0:0:0:0:
448,192,179420,1,0,0:0:0:0:
64,192,179589,1,0,0:0:0:0:
192,192,179589,1,0,0:0:0:0:
64,192,179759,1,0,0:0:0:0:
320,192,179759,1,0,0:0:0:0:
192,192,179928,1,0,0:0:0:0:
448,192,179928,1,0,0:0:0:0:
320,192,180098,1,0,0:0:0:0:
64,192,180098,1,0,0:0:0:0:
192,192,180098,1,0,0:0:0:0:
320,192,180267,1,0,0:0:0:0:
448,192,180267,1,0,0:0:0:0:
192,192,180437,1,0,0:0:0:0:
320,192,180437,1,0,0:0:0:0:
64,192,180606,1,0,0:0:0:0:
192,192,180606,1,0,0:0:0:0:
64,192,180776,1,0,0:0:0:0:
320,192,180776,1,0,0:0:0:0:
448,192,180776,1,0,0:0:0:0:
192,192,180945,1,0,0:0:0:0:
320,192,180945,1,0,0:0:0:0:
64,192,181115,1,0,0:0:0:0:
448,192,181115,1,0,0:0:0:0:
448,192,181284,1,0,0:0:0:0:
320,192,181284,1,0,0:0:0:0:
448,192,181454,1,0,0:0:0:0:
320,192,181454,1,0,0:0:0:0:
192,192,181623,1,0,0:0:0:0:
64,192,181623,1,0,0:0:0:0:
320,192,181708,1,0,0:0:0:0:
448,192,181708,1,0,0:0:0:0:
192,192,181793,1,0,0:0:0:0:
64,192,181877,1,0,0:0:0:0:
320,192,181962,1,0,0:0:0:0:
448,192,181962,1,0,0:0:0:0:
192,192,182047,1,0,0:0:0:0:
64,192,182132,1,0,0:0:0:0:
448,192,182132,1,0,0:0:0:0:
320,192,182216,1,0,0:0:0:0:
192,192,182301,1,0,0:0:0:0:
64,192,182301,1,0,0:0:0:0:
320,192,182386,1,0,0:0:0:0:
448,192,182386,1,0,0:0:0:0:
192,192,182471,1,0,0:0:0:0:
64,192,182471,1,0,0:0:0:0:
448,192,182640,1,0,0:0:0:0:
320,192,182640,1,0,0:0:0:0:
64,192,182810,1,0,0:0:0:0:
320,192,182810,1,0,0:0:0:0:
192,192,182810,1,0,0:0:0:0:
448,192,182979,1,0,0:0:0:0:
64,192,182979,1,0,0:0:0:0:
320,192,183149,1,0,0:0:0:0:
192,192,183149,1,0,0:0:0:0:
192,192,183318,1,0,0:0:0:0:
320,192,183318,1,0,0:0:0:0:
448,192,183488,1,0,0:0:0:0:
320,192,183488,1,0,0:0:0:0:
64,192,183488,1,0,0:0:0:0:
64,192,183657,1,0,0:0:0:0:
192,192,183657,1,0,0:0:0:0:
448,192,183827,1,0,0:0:0:0:
192,192,183827,1,0,0:0:0:0:
448,192,183996,1,0,0:0:0:0:
320,192,183996,1,0,0:0:0:0:
320,192,184166,1,0,0:0:0:0:
192,192,184166,1,0,0:0:0:0:
64,192,184166,1,0,0:0:0:0:
448,192,184335,1,0,0:0:0:0:
192,192,184335,1,0,0:0:0:0:
448,192,184505,1,0,0:0:0:0:
320,192,184505,1,0,0:0:0:0:
320,192,184674,1,0,0:0:0:0:
192,192,184674,1,0,0:0:0:0:
448,192,184844,1,0,0:0:0:0:
192,192,184844,1,0,0:0:0:0:
64,192,184844,1,0,0:0:0:0:
64,192,185013,1,0,0:0:0:0:
320,192,185013,1,0,0:0:0:0:
448,192,185182,1,0,0:0:0:0:
192,192,185182,1,0,0:0:0:0:
64,192,185352,1,0,0:0:0:0:
320,192,185352,1,0,0:0:0:0:
448,192,185521,1,0,0:0:0:0:
192,192,185521,1,0,0:0:0:0:
64,192,185521,1,0,0:0:0:0:
192,192,185691,1,0,0:0:0:0:
448,192,185691,1,0,0:0:0:0:
448,192,185860,1,0,0:0:0:0:
64,192,185860,1,0,0:0:0:0:
320,192,186030,1,0,0:0:0:0:
192,192,186030,1,0,0:0:0:0:
448,192,186199,1,0,0:0:0:0:
192,192,186199,1,0,0:0:0:0:
64,192,186199,1,0,0:0:0:0:
320,192,186369,1,0,0:0:0:0:
64,192,186369,1,0,0:0:0:0:
448,192,186538,1,0,0:0:0:0:
192,192,186538,1,0,0:0:0:0:
448,192,186708,1,0,0:0:0:0:
320,192,186708,1,0,0:0:0:0:
192,192,186877,1,0,0:0:0:0:
64,192,186877,1,0,0:0:0:0:
320,192,186877,1,0,0:0:0:0:
320,192,187047,1,0,0:0:0:0:
64,192,187047,1,0,0:0:0:0:
192,192,187216,1,0,0:0:0:0:
448,192,187216,1,0,0:0:0:0:
448,192,187386,1,0,0:0:0:0:
320,192,187386,1,0,0:0:0:0:
320,192,187555,1,0,0:0:0:0:
64,192,187555,1,0,0:0:0:0:
192,192,187555,1,0,0:0:0:0:
448,192,187725,1,0,0:0:0:0:
64,192,187725,1,0,0:0:0:0:
192,192,187894,1,0,0:0:0:0:
448,192,187894,1,0,0:0:0:0:
448,192,188064,1,0,0:0:0:0:
320,192,188064,1,0,0:0:0:0:
448,192,188233,1,0,0:0:0:0:
192,192,188233,1,0,0:0:0:0:
64,192,188233,1,0,0:0:0:0:
64,192,188403,1,0,0:0:0:0:
320,192,188403,1,0,0:0:0:0:
192,192,188572,1,0,0:0:0:0:
64,192,188572,1,0,0:0:0:0:
320,192,188742,1,0,0:0:0:0:
192,192,188742,1,0,0:0:0:0:
448,192,188911,1,0,0:0:0:0:
320,192,188911,1,0,0:0:0:0:
64,192,188911,1,0,0:0:0:0:
192,192,189081,1,0,0:0:0:0:
64,192,189081,1,0,0:0:0:0:
320,192,189250,1,0,0:0:0:0:
192,192,189250,1,0,0:0:0:0:
192,192,189420,1,0,0:0:0:0:
448,192,189420,1,0,0:0:0:0:
448,192,189589,1,0,0:0:0:0:
320,192,189589,1,0,0:0:0:0:
64,192,189589,1,0,0:0:0:0:
64,192,189759,1,0,0:0:0:0:
192,192,189759,1,0,0:0:0:0:
448,192,189928,1,0,0:0:0:0:
320,192,189928,1,0,0:0:0:0:
448,192,190098,1,0,0:0:0:0:
320,192,190098,1,0,0:0:0:0:
448,192,190267,1,0,0:0:0:0:
192,192,190267,1,0,0:0:0:0:
64,192,190267,1,0,0:0:0:0:
192,192,190437,1,0,0:0:0:0:
64,192,190437,1,0,0:0:0:0:
320,192,190606,1,0,0:0:0:0:
64,192,190606,1,0,0:0:0:0:
448,192,190606,1,0,0:0:0:0:
192,192,190606,1,0,0:0:0:0:
64,192,190945,128,0,191115:0:0:0:0:
192,192,191115,128,0,191284:0:0:0:0:
192,192,191454,128,0,191623:0:0:0:0:
320,192,191793,128,0,191962:0:0:0:0:
448,192,192132,128,0,192640:0:0:0:0:
