osu file format v14

[General]
AudioFilename: dadadadadadadadadada.mp3
AudioLeadIn: 0
PreviewTime: 74520
Countdown: 0
SampleSet: Soft
StackLeniency: 0.7
Mode: 3
LetterboxInBreaks: 0
SpecialStyle: 0
WidescreenStoryboard: 1

[Editor]
DistanceSpacing: 1.1
BeatDivisor: 4
GridSize: 8
TimelineZoom: 1.2

[Metadata]
Title:Emperor 10th Chordjack 2nd Training
TitleUnicode:Emperor 10th Chordjack 2nd Training
Artist:Various Artist
ArtistUnicode:Various Artist
Creator:Crystalys-
Version:Hige Driver join. SELEN-Dadadadadadadadadada
Source:REFLEC BEAT groovin'!!
Tags:emperor of time
BeatmapID:2272760
BeatmapSetID:1086850

[Difficulty]
HPDrainRate:8
CircleSize:4
OverallDifficulty:8
ApproachRate:5
SliderMultiplier:1.4
SliderTickRate:1

[Events]
//Background and Video events
0,0,"BG.jpg",0,0
//Break Periods
//Storyboard Layer 0 (Background)
//Storyboard Layer 1 (Fail)
//Storyboard Layer 2 (Pass)
//Storyboard Layer 3 (Foreground)
//Storyboard Layer 4 (Overlay)
//Storyboard Sound Samples

[TimingPoints]
8463,384.615384615385,4,2,0,30,1,0
74616,-100,4,2,0,30,0,1
90001,-100,4,2,0,30,0,0

[HitObjects]
64,192,8463,5,0,0:0:0:0:
192,192,8463,1,0,0:0:0:0:
448,192,8463,1,0,0:0:0:0:
192,192,8591,1,0,0:0:0:0:
320,192,8591,1,0,0:0:0:0:
448,192,8591,1,0,0:0:0:0:
64,192,8719,1,0,0:0:0:0:
320,192,8719,1,0,0:0:0:0:
448,192,8719,1,0,0:0:0:0:
64,192,8847,1,0,0:0:0:0:
192,192,8847,1,0,0:0:0:0:
320,192,8847,1,0,0:0:0:0:
64,192,8975,1,0,0:0:0:0:
192,192,8975,1,0,0:0:0:0:
448,192,8975,1,0,0:0:0:0:
192,192,9104,1,0,0:0:0:0:
320,192,9104,1,0,0:0:0:0:
448,192,9104,1,0,0:0:0:0:
448,192,9232,1,0,0:0:0:0:
320,192,9232,1,0,0:0:0:0:
64,192,9232,1,0,0:0:0:0:
64,192,9360,1,0,0:0:0:0:
192,192,9360,1,0,0:0:0:0:
320,192,9360,1,0,0:0:0:0:
64,192,9488,1,0,0:0:0:0:
192,192,9488,1,0,0:0:0:0:
448,192,9488,1,0,0:0:0:0:
192,192,9616,1,0,0:0:0:0:
320,192,9616,1,0,0:0:0:0:
448,192,9616,1,0,0:0:0:0:
64,192,9745,1,0,0:0:0:0:
448,192,9745,1,0,0:0:0:0:
192,192,9873,1,0,0:0:0:0:
320,192,9873,1,0,0:0:0:0:
448,192,10001,1,0,0:0:0:0:
64,192,10001,1,0,0:0:0:0:
192,192,10001,1,0,0:0:0:0:
320,192,10001,1,0,0:0:0:0:
448,192,10097,1,0,0:0:0:0:
192,192,10193,1,0,0:0:0:0:
320,192,10193,1,0,0:0:0:0:
64,192,10289,1,0,0:0:0:0:
64,192,10386,1,0,0:0:0:0:
192,192,10386,1,0,0:0:0:0:
448,192,10386,1,0,0:0:0:0:
192,192,10482,1,0,0:0:0:0:
448,192,10578,1,0,0:0:0:0:
320,192,10578,1,0,0:0:0:0:
64,192,10674,1,0,0:0:0:0:
64,192,10770,1,0,0:0:0:0:
320,192,10770,1,0,0:0:0:0:
320,192,10866,1,0,0:0:0:0:
448,192,10963,1,0,0:0:0:0:
192,192,10963,1,0,0:0:0:0:
192,192,11059,1,0,0:0:0:0:
64,192,11155,1,0,0:0:0:0:
448,192,11155,1,0,0:0:0:0:
320,192,11155,1,0,0:0:0:0:
320,192,11251,1,0,0:0:0:0:
64,192,11347,1,0,0:0:0:0:
192,192,11347,1,0,0:0:0:0:
448,192,11443,1,0,0:0:0:0:
320,192,11539,1,0,0:0:0:0:
448,192,11539,1,0,0:0:0:0:
192,192,11539,1,0,0:0:0:0:
192,192,11636,1,0,0:0:0:0:
64,192,11732,1,0,0:0:0:0:
320,192,11732,1,0,0:0:0:0:
448,192,11828,1,0,0:0:0:0:
192,192,11924,1,0,0:0:0:0:
64,192,11924,1,0,0:0:0:0:
448,192,11924,1,0,0:0:0:0:
64,192,12020,1,0,0:0:0:0:
320,192,12116,1,0,0:0:0:0:
448,192,12116,1,0,0:0:0:0:
192,192,12213,1,0,0:0:0:0:
64,192,12309,1,0,0:0:0:0:
192,192,12309,1,0,0:0:0:0:
320,192,12309,1,0,0:0:0:0:
320,192,12405,1,0,0:0:0:0:
64,192,12501,1,0,0:0:0:0:
448,192,12501,1,0,0:0:0:0:
64,192,12597,1,0,0:0:0:0:
192,192,12693,1,0,0:0:0:0:
448,192,12693,1,0,0:0:0:0:
320,192,12693,1,0,0:0:0:0:
448,192,12789,1,0,0:0:0:0:
64,192,12886,1,0,0:0:0:0:
192,192,12886,1,0,0:0:0:0:
320,192,12982,1,0,0:0:0:0:
448,192,12982,1,0,0:0:0:0:
64,192,13078,1,0,0:0:0:0:
192,192,13078,1,0,0:0:0:0:
448,192,13078,1,0,0:0:0:0:
192,192,13174,1,0,0:0:0:0:
64,192,13270,1,0,0:0:0:0:
320,192,13270,1,0,0:0:0:0:
64,192,13366,1,0,0:0:0:0:
192,192,13463,1,0,0:0:0:0:
320,192,13463,1,0,0:0:0:0:
448,192,13463,1,0,0:0:0:0:
192,192,13559,1,0,0:0:0:0:
64,192,13655,1,0,0:0:0:0:
448,192,13655,1,0,0:0:0:0:
448,192,13751,1,0,0:0:0:0:
192,192,13847,1,0,0:0:0:0:
64,192,13847,1,0,0:0:0:0:
320,192,13847,1,0,0:0:0:0:
64,192,13943,1,0,0:0:0:0:
192,192,14039,1,0,0:0:0:0:
448,192,14039,1,0,0:0:0:0:
320,192,14136,1,0,0:0:0:0:
448,192,14232,1,0,0:0:0:0:
320,192,14232,1,0,0:0:0:0:
64,192,14232,1,0,0:0:0:0:
192,192,14328,1,0,0:0:0:0:
64,192,14424,1,0,0:0:0:0:
192,192,14424,1,0,0:0:0:0:
320,192,14520,1,0,0:0:0:0:
192,192,14616,1,0,0:0:0:0:
320,192,14616,1,0,0:0:0:0:
448,192,14616,1,0,0:0:0:0:
64,192,14713,1,0,0:0:0:0:
64,192,14809,1,0,0:0:0:0:
448,192,14809,1,0,0:0:0:0:
320,192,14905,1,0,0:0:0:0:
320,192,15001,1,0,0:0:0:0:
192,192,15001,1,0,0:0:0:0:
64,192,15001,1,0,0:0:0:0:
64,192,15097,1,0,0:0:0:0:
192,192,15193,1,0,0:0:0:0:
448,192,15193,1,0,0:0:0:0:
192,192,15289,1,0,0:0:0:0:
320,192,15386,1,0,0:0:0:0:
448,192,15386,1,0,0:0:0:0:
64,192,15386,1,0,0:0:0:0:
192,192,15482,1,0,0:0:0:0:
64,192,15482,1,0,0:0:0:0:
320,192,15578,1,0,0:0:0:0:
448,192,15578,1,0,0:0:0:0:
192,192,15674,1,0,0:0:0:0:
64,192,15674,1,0,0:0:0:0:
320,192,15770,1,0,0:0:0:0:
448,192,15770,1,0,0:0:0:0:
64,192,15866,1,0,0:0:0:0:
192,192,15866,1,0,0:0:0:0:
320,192,15963,1,0,0:0:0:0:
448,192,15963,1,0,0:0:0:0:
192,192,16059,1,0,0:0:0:0:
64,192,16059,1,0,0:0:0:0:
64,192,16155,1,0,0:0:0:0:
320,192,16155,1,0,0:0:0:0:
448,192,16155,1,0,0:0:0:0:
192,192,16155,1,0,0:0:0:0:
448,192,16251,1,0,0:0:0:0:
320,192,16347,1,0,0:0:0:0:
192,192,16347,1,0,0:0:0:0:
192,192,16443,1,0,0:0:0:0:
448,192,16539,1,0,0:0:0:0:
320,192,16539,1,0,0:0:0:0:
64,192,16539,1,0,0:0:0:0:
320,192,16636,1,0,0:0:0:0:
64,192,16732,1,0,0:0:0:0:
192,192,16732,1,0,0:0:0:0:
448,192,16828,1,0,0:0:0:0:
448,192,16924,1,0,0:0:0:0:
192,192,16924,1,0,0:0:0:0:
192,192,17020,1,0,0:0:0:0:
64,192,17116,1,0,0:0:0:0:
320,192,17116,1,0,0:0:0:0:
320,192,17213,1,0,0:0:0:0:
448,192,17309,1,0,0:0:0:0:
64,192,17309,1,0,0:0:0:0:
192,192,17309,1,0,0:0:0:0:
192,192,17405,1,0,0:0:0:0:
448,192,17501,1,0,0:0:0:0:
320,192,17501,1,0,0:0:0:0:
64,192,17597,1,0,0:0:0:0:
192,192,17693,1,0,0:0:0:0:
64,192,17693,1,0,0:0:0:0:
320,192,17693,1,0,0:0:0:0:
320,192,17789,1,0,0:0:0:0:
448,192,17886,1,0,0:0:0:0:
192,192,17886,1,0,0:0:0:0:
64,192,17982,1,0,0:0:0:0:
320,192,18078,1,0,0:0:0:0:
448,192,18078,1,0,0:0:0:0:
64,192,18078,1,0,0:0:0:0:
448,192,18174,1,0,0:0:0:0:
192,192,18270,1,0,0:0:0:0:
64,192,18270,1,0,0:0:0:0:
320,192,18366,1,0,0:0:0:0:
448,192,18463,1,0,0:0:0:0:
320,192,18463,1,0,0:0:0:0:
192,192,18463,1,0,0:0:0:0:
192,192,18559,1,0,0:0:0:0:
448,192,18655,1,0,0:0:0:0:
64,192,18655,1,0,0:0:0:0:
448,192,18751,1,0,0:0:0:0:
320,192,18847,1,0,0:0:0:0:
64,192,18847,1,0,0:0:0:0:
192,192,18847,1,0,0:0:0:0:
64,192,18943,1,0,0:0:0:0:
448,192,19039,1,0,0:0:0:0:
320,192,19039,1,0,0:0:0:0:
192,192,19136,1,0,0:0:0:0:
64,192,19136,1,0,0:0:0:0:
448,192,19232,1,0,0:0:0:0:
320,192,19232,1,0,0:0:0:0:
64,192,19232,1,0,0:0:0:0:
320,192,19328,1,0,0:0:0:0:
448,192,19424,1,0,0:0:0:0:
192,192,19424,1,0,0:0:0:0:
448,192,19520,1,0,0:0:0:0:
320,192,19616,1,0,0:0:0:0:
192,192,19616,1,0,0:0:0:0:
64,192,19616,1,0,0:0:0:0:
320,192,19713,1,0,0:0:0:0:
448,192,19809,1,0,0:0:0:0:
64,192,19809,1,0,0:0:0:0:
64,192,19905,1,0,0:0:0:0:
320,192,20001,1,0,0:0:0:0:
448,192,20001,1,0,0:0:0:0:
192,192,20001,1,0,0:0:0:0:
448,192,20097,1,0,0:0:0:0:
320,192,20193,1,0,0:0:0:0:
64,192,20193,1,0,0:0:0:0:
192,192,20289,1,0,0:0:0:0:
64,192,20386,1,0,0:0:0:0:
192,192,20386,1,0,0:0:0:0:
448,192,20386,1,0,0:0:0:0:
320,192,20482,1,0,0:0:0:0:
448,192,20578,1,0,0:0:0:0:
320,192,20578,1,0,0:0:0:0:
192,192,20674,1,0,0:0:0:0:
320,192,20770,1,0,0:0:0:0:
192,192,20770,1,0,0:0:0:0:
64,192,20770,1,0,0:0:0:0:
448,192,20866,1,0,0:0:0:0:
448,192,20963,1,0,0:0:0:0:
64,192,20963,1,0,0:0:0:0:
192,192,21059,1,0,0:0:0:0:
192,192,21155,1,0,0:0:0:0:
320,192,21155,1,0,0:0:0:0:
448,192,21155,1,0,0:0:0:0:
448,192,21251,1,0,0:0:0:0:
320,192,21347,1,0,0:0:0:0:
64,192,21347,1,0,0:0:0:0:
320,192,21443,1,0,0:0:0:0:
192,192,21539,1,0,0:0:0:0:
64,192,21539,1,0,0:0:0:0:
448,192,21539,1,0,0:0:0:0:
320,192,21636,1,0,0:0:0:0:
448,192,21636,1,0,0:0:0:0:
192,192,21732,1,0,0:0:0:0:
64,192,21732,1,0,0:0:0:0:
320,192,21828,1,0,0:0:0:0:
448,192,21828,1,0,0:0:0:0:
192,192,21924,1,0,0:0:0:0:
64,192,21924,1,0,0:0:0:0:
448,192,22020,1,0,0:0:0:0:
320,192,22020,1,0,0:0:0:0:
192,192,22116,1,0,0:0:0:0:
64,192,22116,1,0,0:0:0:0:
320,192,22213,1,0,0:0:0:0:
448,192,22213,1,0,0:0:0:0:
448,192,22309,1,0,0:0:0:0:
192,192,22309,1,0,0:0:0:0:
64,192,22309,1,0,0:0:0:0:
320,192,22309,1,0,0:0:0:0:
192,192,22693,1,0,0:0:0:0:
64,192,22693,1,0,0:0:0:0:
64,192,23078,1,0,0:0:0:0:
192,192,23078,1,0,0:0:0:0:
192,192,23463,1,0,0:0:0:0:
64,192,23463,1,0,0:0:0:0:
320,192,23847,1,0,0:0:0:0:
64,192,23847,1,0,0:0:0:0:
192,192,23847,1,0,0:0:0:0:
320,192,23943,1,0,0:0:0:0:
448,192,24039,1,0,0:0:0:0:
448,192,24136,1,0,0:0:0:0:
320,192,24232,1,0,0:0:0:0:
192,192,24232,1,0,0:0:0:0:
64,192,24232,1,0,0:0:0:0:
320,192,24328,1,0,0:0:0:0:
448,192,24424,1,0,0:0:0:0:
448,192,24520,1,0,0:0:0:0:
320,192,24616,1,0,0:0:0:0:
64,192,24616,1,0,0:0:0:0:
192,192,24616,1,0,0:0:0:0:
320,192,24713,1,0,0:0:0:0:
448,192,24809,1,0,0:0:0:0:
448,192,24905,1,0,0:0:0:0:
320,192,25001,1,0,0:0:0:0:
192,192,25001,1,0,0:0:0:0:
64,192,25001,1,0,0:0:0:0:
448,192,25193,1,0,0:0:0:0:
320,192,25193,1,0,0:0:0:0:
64,192,25289,1,0,0:0:0:0:
192,192,25289,1,0,0:0:0:0:
64,192,25386,1,0,0:0:0:0:
448,192,25386,1,0,0:0:0:0:
320,192,25386,1,0,0:0:0:0:
320,192,25578,1,0,0:0:0:0:
192,192,25578,1,0,0:0:0:0:
448,192,25770,1,0,0:0:0:0:
192,192,25770,1,0,0:0:0:0:
64,192,25770,1,0,0:0:0:0:
448,192,25963,1,0,0:0:0:0:
320,192,25963,1,0,0:0:0:0:
320,192,26155,1,0,0:0:0:0:
192,192,26155,1,0,0:0:0:0:
64,192,26155,1,0,0:0:0:0:
448,192,26347,1,0,0:0:0:0:
64,192,26347,1,0,0:0:0:0:
448,192,26539,1,0,0:0:0:0:
320,192,26539,1,0,0:0:0:0:
192,192,26539,1,0,0:0:0:0:
320,192,26732,1,0,0:0:0:0:
64,192,26732,1,0,0:0:0:0:
448,192,26924,1,0,0:0:0:0:
192,192,26924,1,0,0:0:0:0:
64,192,26924,1,0,0:0:0:0:
320,192,27116,1,0,0:0:0:0:
192,192,27116,1,0,0:0:0:0:
320,192,27309,1,0,0:0:0:0:
448,192,27309,1,0,0:0:0:0:
64,192,27309,1,0,0:0:0:0:
448,192,27501,1,0,0:0:0:0:
192,192,27501,1,0,0:0:0:0:
192,192,27693,1,0,0:0:0:0:
64,192,27693,1,0,0:0:0:0:
448,192,27789,1,0,0:0:0:0:
320,192,27789,1,0,0:0:0:0:
192,192,27886,1,0,0:0:0:0:
64,192,27886,1,0,0:0:0:0:
448,192,27982,1,0,0:0:0:0:
320,192,27982,1,0,0:0:0:0:
64,192,28078,1,0,0:0:0:0:
192,192,28078,1,0,0:0:0:0:
448,192,28174,1,0,0:0:0:0:
320,192,28174,1,0,0:0:0:0:
64,192,28270,1,0,0:0:0:0:
192,192,28270,1,0,0:0:0:0:
448,192,28366,1,0,0:0:0:0:
320,192,28366,1,0,0:0:0:0:
192,192,28463,1,0,0:0:0:0:
64,192,28463,1,0,0:0:0:0:
448,192,28463,1,0,0:0:0:0:
320,192,28847,1,0,0:0:0:0:
448,192,28847,1,0,0:0:0:0:
448,192,29232,1,0,0:0:0:0:
320,192,29232,1,0,0:0:0:0:
320,192,29616,1,0,0:0:0:0:
448,192,29616,1,0,0:0:0:0:
64,192,30001,1,0,0:0:0:0:
448,192,30001,1,0,0:0:0:0:
320,192,30001,1,0,0:0:0:0:
64,192,30097,1,0,0:0:0:0:
192,192,30193,1,0,0:0:0:0:
192,192,30289,1,0,0:0:0:0:
64,192,30386,1,0,0:0:0:0:
320,192,30386,1,0,0:0:0:0:
448,192,30386,1,0,0:0:0:0:
64,192,30482,1,0,0:0:0:0:
192,192,30578,1,0,0:0:0:0:
192,192,30674,1,0,0:0:0:0:
64,192,30770,1,0,0:0:0:0:
448,192,30770,1,0,0:0:0:0:
320,192,30770,1,0,0:0:0:0:
192,192,30866,1,0,0:0:0:0:
64,192,30963,1,0,0:0:0:0:
64,192,31059,1,0,0:0:0:0:
192,192,31155,1,0,0:0:0:0:
320,192,31155,1,0,0:0:0:0:
448,192,31155,1,0,0:0:0:0:
64,192,31347,1,0,0:0:0:0:
192,192,31347,1,0,0:0:0:0:
448,192,31443,1,0,0:0:0:0:
320,192,31443,1,0,0:0:0:0:
448,192,31539,1,0,0:0:0:0:
64,192,31539,1,0,0:0:0:0:
192,192,31539,1,0,0:0:0:0:
192,192,31732,1,0,0:0:0:0:
320,192,31732,1,0,0:0:0:0:
64,192,31924,1,0,0:0:0:0:
320,192,31924,1,0,0:0:0:0:
448,192,31924,1,0,0:0:0:0:
64,192,32116,1,0,0:0:0:0:
192,192,32116,1,0,0:0:0:0:
192,192,32309,1,0,0:0:0:0:
320,192,32309,1,0,0:0:0:0:
448,192,32309,1,0,0:0:0:0:
64,192,32501,1,0,0:0:0:0:
448,192,32501,1,0,0:0:0:0:
64,192,32693,1,0,0:0:0:0:
192,192,32693,1,0,0:0:0:0:
320,192,32693,1,0,0:0:0:0:
192,192,32886,1,0,0:0:0:0:
448,192,32886,1,0,0:0:0:0:
64,192,33078,1,0,0:0:0:0:
320,192,33078,1,0,0:0:0:0:
448,192,33078,1,0,0:0:0:0:
192,192,33270,1,0,0:0:0:0:
320,192,33270,1,0,0:0:0:0:
192,192,33463,5,0,0:0:0:0:
64,192,33463,1,0,0:0:0:0:
448,192,33463,1,0,0:0:0:0:
64,192,33655,1,0,0:0:0:0:
320,192,33655,1,0,0:0:0:0:
320,192,33847,1,0,0:0:0:0:
448,192,33847,1,0,0:0:0:0:
64,192,33943,1,0,0:0:0:0:
192,192,33943,1,0,0:0:0:0:
320,192,34039,1,0,0:0:0:0:
448,192,34039,1,0,0:0:0:0:
64,192,34136,1,0,0:0:0:0:
192,192,34136,1,0,0:0:0:0:
448,192,34232,1,0,0:0:0:0:
320,192,34232,1,0,0:0:0:0:
64,192,34328,1,0,0:0:0:0:
192,192,34328,1,0,0:0:0:0:
448,192,34424,1,0,0:0:0:0:
320,192,34424,1,0,0:0:0:0:
64,192,34520,1,0,0:0:0:0:
192,192,34520,1,0,0:0:0:0:
64,192,34616,1,0,0:0:0:0:
448,192,34616,1,0,0:0:0:0:
320,192,34616,1,0,0:0:0:0:
192,192,34713,1,0,0:0:0:0:
192,192,34809,1,0,0:0:0:0:
320,192,34905,1,0,0:0:0:0:
448,192,34905,1,0,0:0:0:0:
192,192,35193,1,0,0:0:0:0:
448,192,35193,1,0,0:0:0:0:
64,192,35193,1,0,0:0:0:0:
192,192,35386,1,0,0:0:0:0:
320,192,35386,1,0,0:0:0:0:
64,192,35674,1,0,0:0:0:0:
320,192,35674,1,0,0:0:0:0:
192,192,35963,1,0,0:0:0:0:
448,192,35963,1,0,0:0:0:0:
192,192,36155,1,0,0:0:0:0:
320,192,36155,1,0,0:0:0:0:
320,192,36347,1,0,0:0:0:0:
448,192,36347,1,0,0:0:0:0:
64,192,36443,1,0,0:0:0:0:
192,192,36443,1,0,0:0:0:0:
64,192,36732,1,0,0:0:0:0:
320,192,36732,1,0,0:0:0:0:
448,192,36732,1,0,0:0:0:0:
64,192,36924,1,0,0:0:0:0:
192,192,36924,1,0,0:0:0:0:
192,192,37116,1,0,0:0:0:0:
320,192,37116,1,0,0:0:0:0:
320,192,37309,1,0,0:0:0:0:
448,192,37309,1,0,0:0:0:0:
64,192,37309,1,0,0:0:0:0:
64,192,37501,1,0,0:0:0:0:
192,192,37501,1,0,0:0:0:0:
192,192,37597,1,0,0:0:0:0:
64,192,37597,1,0,0:0:0:0:
320,192,37693,1,0,0:0:0:0:
448,192,37693,1,0,0:0:0:0:
64,192,37693,1,0,0:0:0:0:
192,192,37789,1,0,0:0:0:0:
192,192,37982,1,0,0:0:0:0:
320,192,37982,1,0,0:0:0:0:
64,192,38174,1,0,0:0:0:0:
64,192,38270,1,0,0:0:0:0:
448,192,38270,1,0,0:0:0:0:
192,192,38463,1,0,0:0:0:0:
448,192,38463,1,0,0:0:0:0:
64,192,38751,1,0,0:0:0:0:
192,192,38751,1,0,0:0:0:0:
192,192,39039,1,0,0:0:0:0:
320,192,39039,1,0,0:0:0:0:
448,192,39039,1,0,0:0:0:0:
64,192,39232,1,0,0:0:0:0:
192,192,39232,1,0,0:0:0:0:
448,192,39232,1,0,0:0:0:0:
320,192,39424,1,0,0:0:0:0:
64,192,39520,1,0,0:0:0:0:
320,192,39520,1,0,0:0:0:0:
192,192,39713,1,0,0:0:0:0:
320,192,39809,1,0,0:0:0:0:
448,192,39809,1,0,0:0:0:0:
64,192,39809,1,0,0:0:0:0:
192,192,40001,1,0,0:0:0:0:
320,192,40001,1,0,0:0:0:0:
192,192,40193,1,0,0:0:0:0:
320,192,40193,1,0,0:0:0:0:
320,192,40386,1,0,0:0:0:0:
64,192,40386,1,0,0:0:0:0:
448,192,40386,1,0,0:0:0:0:
192,192,40578,1,0,0:0:0:0:
448,192,40578,1,0,0:0:0:0:
192,192,40770,1,0,0:0:0:0:
64,192,40770,1,0,0:0:0:0:
320,192,40770,1,0,0:0:0:0:
448,192,40770,1,0,0:0:0:0:
192,192,40866,1,0,0:0:0:0:
64,192,40963,1,0,0:0:0:0:
320,192,40963,1,0,0:0:0:0:
448,192,41059,1,0,0:0:0:0:
192,192,41155,1,0,0:0:0:0:
64,192,41155,1,0,0:0:0:0:
448,192,41155,1,0,0:0:0:0:
64,192,41251,1,0,0:0:0:0:
320,192,41347,1,0,0:0:0:0:
192,192,41347,1,0,0:0:0:0:
192,192,41443,1,0,0:0:0:0:
64,192,41539,1,0,0:0:0:0:
320,192,41539,1,0,0:0:0:0:
448,192,41539,1,0,0:0:0:0:
320,192,41636,1,0,0:0:0:0:
192,192,41732,1,0,0:0:0:0:
64,192,41732,1,0,0:0:0:0:
64,192,41828,1,0,0:0:0:0:
192,192,41924,1,0,0:0:0:0:
320,192,41924,1,0,0:0:0:0:
448,192,41924,1,0,0:0:0:0:
448,192,42020,1,0,0:0:0:0:
320,192,42116,1,0,0:0:0:0:
64,192,42116,1,0,0:0:0:0:
320,192,42213,1,0,0:0:0:0:
64,192,42309,1,0,0:0:0:0:
192,192,42309,1,0,0:0:0:0:
448,192,42309,1,0,0:0:0:0:
64,192,42405,1,0,0:0:0:0:
192,192,42501,1,0,0:0:0:0:
320,192,42501,1,0,0:0:0:0:
192,192,42597,1,0,0:0:0:0:
64,192,42693,1,0,0:0:0:0:
320,192,42693,1,0,0:0:0:0:
448,192,42693,1,0,0:0:0:0:
192,192,42789,1,0,0:0:0:0:
64,192,42886,1,0,0:0:0:0:
448,192,42886,1,0,0:0:0:0:
320,192,42982,1,0,0:0:0:0:
192,192,43078,1,0,0:0:0:0:
320,192,43078,1,0,0:0:0:0:
448,192,43078,1,0,0:0:0:0:
64,192,43174,1,0,0:0:0:0:
64,192,43270,1,0,0:0:0:0:
320,192,43270,1,0,0:0:0:0:
448,192,43366,1,0,0:0:0:0:
192,192,43463,1,0,0:0:0:0:
64,192,43463,1,0,0:0:0:0:
448,192,43463,1,0,0:0:0:0:
320,192,43559,1,0,0:0:0:0:
192,192,43655,1,0,0:0:0:0:
320,192,43655,1,0,0:0:0:0:
192,192,43751,1,0,0:0:0:0:
64,192,43847,1,0,0:0:0:0:
320,192,43847,1,0,0:0:0:0:
448,192,43847,1,0,0:0:0:0:
320,192,43943,1,0,0:0:0:0:
192,192,44039,1,0,0:0:0:0:
448,192,44039,1,0,0:0:0:0:
64,192,44136,1,0,0:0:0:0:
320,192,44232,1,0,0:0:0:0:
192,192,44232,1,0,0:0:0:0:
64,192,44232,1,0,0:0:0:0:
448,192,44328,1,0,0:0:0:0:
64,192,44424,1,0,0:0:0:0:
320,192,44424,1,0,0:0:0:0:
192,192,44520,1,0,0:0:0:0:
192,192,44616,1,0,0:0:0:0:
320,192,44616,1,0,0:0:0:0:
448,192,44616,1,0,0:0:0:0:
64,192,44713,1,0,0:0:0:0:
64,192,44809,1,0,0:0:0:0:
448,192,44809,1,0,0:0:0:0:
320,192,44905,1,0,0:0:0:0:
320,192,45001,5,0,0:0:0:0:
192,192,45001,1,0,0:0:0:0:
64,192,45001,1,0,0:0:0:0:
64,192,45097,1,0,0:0:0:0:
192,192,45193,1,0,0:0:0:0:
448,192,45193,1,0,0:0:0:0:
64,192,45386,1,0,0:0:0:0:
320,192,45386,1,0,0:0:0:0:
448,192,45386,1,0,0:0:0:0:
192,192,45482,1,0,0:0:0:0:
64,192,45482,1,0,0:0:0:0:
320,192,45578,1,0,0:0:0:0:
448,192,45578,1,0,0:0:0:0:
192,192,45674,1,0,0:0:0:0:
64,192,45674,1,0,0:0:0:0:
320,192,45770,1,0,0:0:0:0:
448,192,45770,1,0,0:0:0:0:
192,192,45866,1,0,0:0:0:0:
320,192,45963,1,0,0:0:0:0:
448,192,46059,1,0,0:0:0:0:
64,192,46155,5,0,0:0:0:0:
192,192,46155,1,0,0:0:0:0:
448,192,46251,1,0,0:0:0:0:
320,192,46251,1,0,0:0:0:0:
64,192,46347,1,0,0:0:0:0:
192,192,46347,1,0,0:0:0:0:
448,192,46443,1,0,0:0:0:0:
320,192,46443,1,0,0:0:0:0:
192,192,46539,1,0,0:0:0:0:
320,192,46636,1,0,0:0:0:0:
192,192,46732,1,0,0:0:0:0:
320,192,46828,1,0,0:0:0:0:
448,192,46924,1,0,0:0:0:0:
64,192,46924,1,0,0:0:0:0:
192,192,46924,1,0,0:0:0:0:
64,192,47309,1,0,0:0:0:0:
192,192,47309,1,0,0:0:0:0:
192,192,47693,1,0,0:0:0:0:
64,192,47693,1,0,0:0:0:0:
64,192,48078,1,0,0:0:0:0:
192,192,48078,1,0,0:0:0:0:
192,192,48463,1,0,0:0:0:0:
64,192,48463,1,0,0:0:0:0:
320,192,48463,1,0,0:0:0:0:
320,192,48559,1,0,0:0:0:0:
448,192,48655,1,0,0:0:0:0:
448,192,48751,1,0,0:0:0:0:
64,192,48847,1,0,0:0:0:0:
192,192,48847,1,0,0:0:0:0:
320,192,48847,1,0,0:0:0:0:
320,192,48943,1,0,0:0:0:0:
448,192,49039,1,0,0:0:0:0:
448,192,49136,1,0,0:0:0:0:
192,192,49232,1,0,0:0:0:0:
64,192,49232,1,0,0:0:0:0:
320,192,49232,1,0,0:0:0:0:
320,192,49328,1,0,0:0:0:0:
448,192,49424,1,0,0:0:0:0:
448,192,49520,1,0,0:0:0:0:
64,192,49616,1,0,0:0:0:0:
192,192,49616,1,0,0:0:0:0:
320,192,49616,1,0,0:0:0:0:
320,192,49809,1,0,0:0:0:0:
448,192,49809,1,0,0:0:0:0:
192,192,49905,1,0,0:0:0:0:
64,192,49905,1,0,0:0:0:0:
320,192,50001,1,0,0:0:0:0:
448,192,50001,1,0,0:0:0:0:
64,192,50001,1,0,0:0:0:0:
192,192,50193,1,0,0:0:0:0:
320,192,50193,1,0,0:0:0:0:
64,192,50386,1,0,0:0:0:0:
192,192,50386,1,0,0:0:0:0:
448,192,50386,1,0,0:0:0:0:
320,192,50578,1,0,0:0:0:0:
448,192,50578,1,0,0:0:0:0:
64,192,50770,1,0,0:0:0:0:
192,192,50770,1,0,0:0:0:0:
320,192,50770,1,0,0:0:0:0:
64,192,50963,1,0,0:0:0:0:
448,192,50963,1,0,0:0:0:0:
192,192,51155,1,0,0:0:0:0:
320,192,51155,1,0,0:0:0:0:
448,192,51155,1,0,0:0:0:0:
64,192,51347,1,0,0:0:0:0:
320,192,51347,1,0,0:0:0:0:
64,192,51539,1,0,0:0:0:0:
192,192,51539,1,0,0:0:0:0:
448,192,51539,1,0,0:0:0:0:
192,192,51732,1,0,0:0:0:0:
320,192,51732,1,0,0:0:0:0:
64,192,51924,1,0,0:0:0:0:
448,192,51924,1,0,0:0:0:0:
320,192,51924,1,0,0:0:0:0:
192,192,52116,1,0,0:0:0:0:
448,192,52116,1,0,0:0:0:0:
64,192,52309,1,0,0:0:0:0:
192,192,52309,1,0,0:0:0:0:
320,192,52405,1,0,0:0:0:0:
448,192,52405,1,0,0:0:0:0:
64,192,52501,1,0,0:0:0:0:
192,192,52501,1,0,0:0:0:0:
320,192,52597,1,0,0:0:0:0:
448,192,52597,1,0,0:0:0:0:
192,192,52693,1,0,0:0:0:0:
64,192,52693,1,0,0:0:0:0:
320,192,52789,1,0,0:0:0:0:
448,192,52789,1,0,0:0:0:0:
192,192,52886,1,0,0:0:0:0:
64,192,52886,1,0,0:0:0:0:
320,192,52982,1,0,0:0:0:0:
448,192,52982,1,0,0:0:0:0:
448,192,53078,1,0,0:0:0:0:
64,192,53078,1,0,0:0:0:0:
192,192,53078,1,0,0:0:0:0:
448,192,53463,1,0,0:0:0:0:
320,192,53463,1,0,0:0:0:0:
320,192,53847,1,0,0:0:0:0:
448,192,53847,1,0,0:0:0:0:
448,192,54232,1,0,0:0:0:0:
320,192,54232,1,0,0:0:0:0:
320,192,54616,1,0,0:0:0:0:
448,192,54616,1,0,0:0:0:0:
64,192,54616,1,0,0:0:0:0:
64,192,54713,1,0,0:0:0:0:
192,192,54809,1,0,0:0:0:0:
192,192,54905,1,0,0:0:0:0:
448,192,55001,1,0,0:0:0:0:
320,192,55001,1,0,0:0:0:0:
64,192,55001,1,0,0:0:0:0:
64,192,55097,1,0,0:0:0:0:
192,192,55193,1,0,0:0:0:0:
192,192,55289,1,0,0:0:0:0:
320,192,55386,1,0,0:0:0:0:
448,192,55386,1,0,0:0:0:0:
64,192,55386,1,0,0:0:0:0:
192,192,55482,1,0,0:0:0:0:
64,192,55578,1,0,0:0:0:0:
64,192,55674,1,0,0:0:0:0:
448,192,55770,1,0,0:0:0:0:
320,192,55770,1,0,0:0:0:0:
192,192,55770,1,0,0:0:0:0:
192,192,55963,1,0,0:0:0:0:
64,192,55963,1,0,0:0:0:0:
320,192,56059,1,0,0:0:0:0:
448,192,56059,1,0,0:0:0:0:
192,192,56155,1,0,0:0:0:0:
64,192,56155,1,0,0:0:0:0:
448,192,56155,1,0,0:0:0:0:
320,192,56347,1,0,0:0:0:0:
192,192,56347,1,0,0:0:0:0:
448,192,56539,1,0,0:0:0:0:
320,192,56539,1,0,0:0:0:0:
64,192,56539,1,0,0:0:0:0:
192,192,56732,1,0,0:0:0:0:
64,192,56732,1,0,0:0:0:0:
448,192,56924,1,0,0:0:0:0:
320,192,56924,1,0,0:0:0:0:
192,192,56924,1,0,0:0:0:0:
448,192,57116,1,0,0:0:0:0:
64,192,57116,1,0,0:0:0:0:
320,192,57309,1,0,0:0:0:0:
192,192,57309,1,0,0:0:0:0:
64,192,57309,1,0,0:0:0:0:
448,192,57501,1,0,0:0:0:0:
192,192,57501,1,0,0:0:0:0:
448,192,57693,1,0,0:0:0:0:
320,192,57693,1,0,0:0:0:0:
64,192,57693,1,0,0:0:0:0:
320,192,57886,1,0,0:0:0:0:
192,192,57886,1,0,0:0:0:0:
192,192,58078,5,0,0:0:0:0:
448,192,58078,1,0,0:0:0:0:
64,192,58078,1,0,0:0:0:0:
320,192,58270,1,0,0:0:0:0:
64,192,58270,1,0,0:0:0:0:
448,192,58463,1,0,0:0:0:0:
320,192,58463,1,0,0:0:0:0:
192,192,58559,1,0,0:0:0:0:
64,192,58559,1,0,0:0:0:0:
448,192,58655,1,0,0:0:0:0:
320,192,58655,1,0,0:0:0:0:
192,192,58751,1,0,0:0:0:0:
64,192,58751,1,0,0:0:0:0:
320,192,58847,1,0,0:0:0:0:
448,192,58847,1,0,0:0:0:0:
192,192,58943,1,0,0:0:0:0:
64,192,58943,1,0,0:0:0:0:
320,192,59039,1,0,0:0:0:0:
448,192,59039,1,0,0:0:0:0:
192,192,59136,1,0,0:0:0:0:
64,192,59136,1,0,0:0:0:0:
192,192,59232,5,0,0:0:0:0:
320,192,59232,1,0,0:0:0:0:
448,192,59232,1,0,0:0:0:0:
64,192,59232,1,0,0:0:0:0:
64,192,59424,1,0,0:0:0:0:
320,192,59424,1,0,0:0:0:0:
448,192,59424,1,0,0:0:0:0:
192,192,59616,1,0,0:0:0:0:
448,192,59616,1,0,0:0:0:0:
320,192,59809,1,0,0:0:0:0:
64,192,59809,1,0,0:0:0:0:
192,192,59809,1,0,0:0:0:0:
64,192,60001,1,0,0:0:0:0:
448,192,60001,1,0,0:0:0:0:
192,192,60193,1,0,0:0:0:0:
320,192,60193,1,0,0:0:0:0:
448,192,60193,1,0,0:0:0:0:
320,192,60386,1,0,0:0:0:0:
64,192,60386,1,0,0:0:0:0:
64,192,60578,1,0,0:0:0:0:
192,192,60578,1,0,0:0:0:0:
448,192,60578,1,0,0:0:0:0:
192,192,60770,1,0,0:0:0:0:
320,192,60770,1,0,0:0:0:0:
64,192,60963,1,0,0:0:0:0:
320,192,60963,1,0,0:0:0:0:
448,192,60963,1,0,0:0:0:0:
192,192,61155,1,0,0:0:0:0:
448,192,61155,1,0,0:0:0:0:
192,192,61347,1,0,0:0:0:0:
64,192,61347,1,0,0:0:0:0:
320,192,61347,1,0,0:0:0:0:
448,192,61539,1,0,0:0:0:0:
320,192,61539,1,0,0:0:0:0:
448,192,61732,1,0,0:0:0:0:
64,192,61732,1,0,0:0:0:0:
192,192,61732,1,0,0:0:0:0:
192,192,61924,1,0,0:0:0:0:
320,192,61924,1,0,0:0:0:0:
320,192,62116,1,0,0:0:0:0:
64,192,62116,1,0,0:0:0:0:
448,192,62116,1,0,0:0:0:0:
192,192,62309,1,0,0:0:0:0:
320,192,62309,1,0,0:0:0:0:
64,192,62501,1,0,0:0:0:0:
448,192,62501,1,0,0:0:0:0:
192,192,62501,1,0,0:0:0:0:
320,192,62693,1,0,0:0:0:0:
64,192,62693,1,0,0:0:0:0:
192,192,62886,1,0,0:0:0:0:
320,192,62886,1,0,0:0:0:0:
448,192,62886,1,0,0:0:0:0:
64,192,63078,1,0,0:0:0:0:
448,192,63078,1,0,0:0:0:0:
192,192,63270,1,0,0:0:0:0:
64,192,63270,1,0,0:0:0:0:
320,192,63270,1,0,0:0:0:0:
192,192,63463,1,0,0:0:0:0:
448,192,63463,1,0,0:0:0:0:
64,192,63655,1,0,0:0:0:0:
320,192,63655,1,0,0:0:0:0:
448,192,63655,1,0,0:0:0:0:
192,192,63847,1,0,0:0:0:0:
64,192,63847,1,0,0:0:0:0:
192,192,64039,1,0,0:0:0:0:
320,192,64039,1,0,0:0:0:0:
448,192,64039,1,0,0:0:0:0:
64,192,64232,1,0,0:0:0:0:
320,192,64232,1,0,0:0:0:0:
192,192,64424,1,0,0:0:0:0:
64,192,64424,1,0,0:0:0:0:
448,192,64424,1,0,0:0:0:0:
448,192,64616,1,0,0:0:0:0:
320,192,64616,1,0,0:0:0:0:
192,192,64713,1,0,0:0:0:0:
64,192,64713,1,0,0:0:0:0:
448,192,64809,1,0,0:0:0:0:
320,192,64809,1,0,0:0:0:0:
192,192,64905,1,0,0:0:0:0:
64,192,64905,1,0,0:0:0:0:
320,192,65001,1,0,0:0:0:0:
448,192,65001,1,0,0:0:0:0:
192,192,65193,1,0,0:0:0:0:
320,192,65193,1,0,0:0:0:0:
64,192,65386,1,0,0:0:0:0:
192,192,65386,1,0,0:0:0:0:
320,192,65386,1,0,0:0:0:0:
448,192,65386,1,0,0:0:0:0:
64,192,65578,1,0,0:0:0:0:
192,192,65578,1,0,0:0:0:0:
448,192,65578,1,0,0:0:0:0:
448,192,65770,1,0,0:0:0:0:
64,192,65770,1,0,0:0:0:0:
192,192,65963,1,0,0:0:0:0:
320,192,65963,1,0,0:0:0:0:
448,192,65963,1,0,0:0:0:0:
64,192,66155,1,0,0:0:0:0:
320,192,66155,1,0,0:0:0:0:
192,192,66347,1,0,0:0:0:0:
64,192,66347,1,0,0:0:0:0:
448,192,66347,1,0,0:0:0:0:
192,192,66539,1,0,0:0:0:0:
320,192,66539,1,0,0:0:0:0:
64,192,66732,1,0,0:0:0:0:
192,192,66732,1,0,0:0:0:0:
448,192,66732,1,0,0:0:0:0:
320,192,66924,1,0,0:0:0:0:
448,192,66924,1,0,0:0:0:0:
64,192,67116,1,0,0:0:0:0:
192,192,67116,1,0,0:0:0:0:
320,192,67116,1,0,0:0:0:0:
64,192,67309,1,0,0:0:0:0:
448,192,67309,1,0,0:0:0:0:
320,192,67501,1,0,0:0:0:0:
448,192,67501,1,0,0:0:0:0:
192,192,67501,1,0,0:0:0:0:
64,192,67693,1,0,0:0:0:0:
320,192,67693,1,0,0:0:0:0:
192,192,67886,1,0,0:0:0:0:
64,192,67886,1,0,0:0:0:0:
448,192,67886,1,0,0:0:0:0:
320,192,68078,1,0,0:0:0:0:
64,192,68078,1,0,0:0:0:0:
192,192,68270,1,0,0:0:0:0:
320,192,68270,1,0,0:0:0:0:
448,192,68270,1,0,0:0:0:0:
64,192,68463,1,0,0:0:0:0:
448,192,68463,1,0,0:0:0:0:
192,192,68463,1,0,0:0:0:0:
64,192,68655,1,0,0:0:0:0:
320,192,68655,1,0,0:0:0:0:
192,192,68847,1,0,0:0:0:0:
320,192,68847,1,0,0:0:0:0:
448,192,68847,1,0,0:0:0:0:
192,192,69039,1,0,0:0:0:0:
64,192,69039,1,0,0:0:0:0:
64,192,69232,1,0,0:0:0:0:
320,192,69232,1,0,0:0:0:0:
448,192,69232,1,0,0:0:0:0:
320,192,69424,1,0,0:0:0:0:
192,192,69424,1,0,0:0:0:0:
64,192,69616,1,0,0:0:0:0:
192,192,69616,1,0,0:0:0:0:
448,192,69616,1,0,0:0:0:0:
320,192,69809,1,0,0:0:0:0:
448,192,69809,1,0,0:0:0:0:
64,192,70001,1,0,0:0:0:0:
192,192,70001,1,0,0:0:0:0:
320,192,70001,1,0,0:0:0:0:
192,192,70193,1,0,0:0:0:0:
64,192,70193,1,0,0:0:0:0:
448,192,70193,1,0,0:0:0:0:
448,192,70386,1,0,0:0:0:0:
320,192,70386,1,0,0:0:0:0:
192,192,70386,1,0,0:0:0:0:
64,192,70578,1,0,0:0:0:0:
320,192,70578,1,0,0:0:0:0:
448,192,70578,1,0,0:0:0:0:
64,192,70770,1,0,0:0:0:0:
192,192,70770,1,0,0:0:0:0:
320,192,70770,1,0,0:0:0:0:
64,192,70963,1,0,0:0:0:0:
192,192,70963,1,0,0:0:0:0:
448,192,70963,1,0,0:0:0:0:
192,192,71155,1,0,0:0:0:0:
320,192,71155,1,0,0:0:0:0:
448,192,71155,1,0,0:0:0:0:
64,192,71347,1,0,0:0:0:0:
320,192,71347,1,0,0:0:0:0:
448,192,71347,1,0,0:0:0:0:
64,192,71539,1,0,0:0:0:0:
192,192,71539,1,0,0:0:0:0:
320,192,71636,1,0,0:0:0:0:
448,192,71636,1,0,0:0:0:0:
192,192,71732,1,0,0:0:0:0:
64,192,71732,1,0,0:0:0:0:
64,192,71828,1,0,0:0:0:0:
192,192,71828,1,0,0:0:0:0:
320,192,71924,1,0,0:0:0:0:
448,192,71924,1,0,0:0:0:0:
448,192,72020,1,0,0:0:0:0:
320,192,72020,1,0,0:0:0:0:
64,192,72116,1,0,0:0:0:0:
192,192,72116,1,0,0:0:0:0:
320,192,72213,1,0,0:0:0:0:
448,192,72213,1,0,0:0:0:0:
192,192,72309,1,0,0:0:0:0:
64,192,72309,1,0,0:0:0:0:
320,192,72405,1,0,0:0:0:0:
448,192,72405,1,0,0:0:0:0:
448,192,72501,1,0,0:0:0:0:
320,192,72501,1,0,0:0:0:0:
192,192,72597,1,0,0:0:0:0:
64,192,72597,1,0,0:0:0:0:
320,192,72693,1,0,0:0:0:0:
448,192,72693,1,0,0:0:0:0:
192,192,72789,1,0,0:0:0:0:
64,192,72789,1,0,0:0:0:0:
192,192,72886,1,0,0:0:0:0:
320,192,72886,1,0,0:0:0:0:
320,192,72982,1,0,0:0:0:0:
448,192,72982,1,0,0:0:0:0:
64,192,73078,1,0,0:0:0:0:
192,192,73078,1,0,0:0:0:0:
448,192,73126,1,0,0:0:0:0:
320,192,73174,1,0,0:0:0:0:
64,192,73222,1,0,0:0:0:0:
192,192,73270,1,0,0:0:0:0:
448,192,73318,1,0,0:0:0:0:
320,192,73366,1,0,0:0:0:0:
192,192,73414,1,0,0:0:0:0:
64,192,73463,1,0,0:0:0:0:
448,192,73511,1,0,0:0:0:0:
320,192,73559,1,0,0:0:0:0:
64,192,73607,1,0,0:0:0:0:
192,192,73655,1,0,0:0:0:0:
448,192,73703,1,0,0:0:0:0:
320,192,73751,1,0,0:0:0:0:
192,192,73799,1,0,0:0:0:0:
320,192,73847,1,0,0:0:0:0:
448,192,73847,1,0,0:0:0:0:
64,192,73847,1,0,0:0:0:0:
192,192,74232,1,0,0:0:0:0:
320,192,74232,1,0,0:0:0:0:
64,192,74616,1,0,0:0:0:0:
192,192,74616,1,0,0:0:0:0:
448,192,74616,1,0,0:0:0:0:
64,192,74745,1,0,0:0:0:0:
320,192,74745,1,0,0:0:0:0:
448,192,74745,1,0,0:0:0:0:
320,192,74873,1,0,0:0:0:0:
192,192,74873,1,0,0:0:0:0:
64,192,74873,1,0,0:0:0:0:
192,192,75001,1,0,0:0:0:0:
320,192,75001,1,0,0:0:0:0:
448,192,75001,1,0,0:0:0:0:
64,192,75129,1,0,0:0:0:0:
192,192,75129,1,0,0:0:0:0:
448,192,75129,1,0,0:0:0:0:
320,192,75257,1,0,0:0:0:0:
64,192,75257,1,0,0:0:0:0:
448,192,75257,1,0,0:0:0:0:
64,192,75386,1,0,0:0:0:0:
192,192,75386,1,0,0:0:0:0:
320,192,75386,1,0,0:0:0:0:
320,192,75514,1,0,0:0:0:0:
448,192,75514,1,0,0:0:0:0:
192,192,75514,1,0,0:0:0:0:
192,192,75642,1,0,0:0:0:0:
448,192,75642,1,0,0:0:0:0:
64,192,75642,1,0,0:0:0:0:
320,192,75770,1,0,0:0:0:0:
448,192,75770,1,0,0:0:0:0:
64,192,75770,1,0,0:0:0:0:
448,192,76155,1,0,0:0:0:0:
64,192,76155,1,0,0:0:0:0:
320,192,76155,1,0,0:0:0:0:
64,192,76283,1,0,0:0:0:0:
448,192,76283,1,0,0:0:0:0:
192,192,76283,1,0,0:0:0:0:
448,192,76411,1,0,0:0:0:0:
320,192,76411,1,0,0:0:0:0:
192,192,76411,1,0,0:0:0:0:
320,192,76539,1,0,0:0:0:0:
192,192,76539,1,0,0:0:0:0:
64,192,76539,1,0,0:0:0:0:
320,192,76668,1,0,0:0:0:0:
448,192,76668,1,0,0:0:0:0:
64,192,76668,1,0,0:0:0:0:
448,192,76796,1,0,0:0:0:0:
64,192,76796,1,0,0:0:0:0:
192,192,76796,1,0,0:0:0:0:
192,192,76924,1,0,0:0:0:0:
448,192,76924,1,0,0:0:0:0:
320,192,76924,1,0,0:0:0:0:
192,192,77052,1,0,0:0:0:0:
320,192,77052,1,0,0:0:0:0:
64,192,77052,1,0,0:0:0:0:
320,192,77180,1,0,0:0:0:0:
448,192,77180,1,0,0:0:0:0:
64,192,77180,1,0,0:0:0:0:
192,192,77309,1,0,0:0:0:0:
448,192,77309,1,0,0:0:0:0:
64,192,77309,1,0,0:0:0:0:
320,192,77693,1,0,0:0:0:0:
64,192,77693,1,0,0:0:0:0:
448,192,77693,1,0,0:0:0:0:
192,192,77821,1,0,0:0:0:0:
448,192,77821,1,0,0:0:0:0:
64,192,77821,1,0,0:0:0:0:
192,192,77950,1,0,0:0:0:0:
320,192,77950,1,0,0:0:0:0:
448,192,77950,1,0,0:0:0:0:
64,192,78078,1,0,0:0:0:0:
192,192,78078,1,0,0:0:0:0:
320,192,78078,1,0,0:0:0:0:
64,192,78206,1,0,0:0:0:0:
448,192,78206,1,0,0:0:0:0:
320,192,78206,1,0,0:0:0:0:
192,192,78334,1,0,0:0:0:0:
64,192,78334,1,0,0:0:0:0:
448,192,78334,1,0,0:0:0:0:
320,192,78463,1,0,0:0:0:0:
448,192,78463,1,0,0:0:0:0:
192,192,78463,1,0,0:0:0:0:
64,192,78591,1,0,0:0:0:0:
320,192,78591,1,0,0:0:0:0:
192,192,78591,1,0,0:0:0:0:
64,192,78719,1,0,0:0:0:0:
448,192,78719,1,0,0:0:0:0:
320,192,78719,1,0,0:0:0:0:
64,192,78847,1,0,0:0:0:0:
448,192,78847,1,0,0:0:0:0:
192,192,78847,1,0,0:0:0:0:
320,192,78975,1,0,0:0:0:0:
448,192,78975,1,0,0:0:0:0:
192,192,78975,1,0,0:0:0:0:
192,192,79104,1,0,0:0:0:0:
64,192,79104,1,0,0:0:0:0:
320,192,79104,1,0,0:0:0:0:
64,192,79232,1,0,0:0:0:0:
448,192,79232,1,0,0:0:0:0:
320,192,79232,1,0,0:0:0:0:
192,192,79360,1,0,0:0:0:0:
64,192,79360,1,0,0:0:0:0:
448,192,79360,1,0,0:0:0:0:
192,192,79488,1,0,0:0:0:0:
448,192,79488,1,0,0:0:0:0:
320,192,79488,1,0,0:0:0:0:
64,192,79616,1,0,0:0:0:0:
320,192,79616,1,0,0:0:0:0:
192,192,79616,1,0,0:0:0:0:
320,192,79745,1,0,0:0:0:0:
64,192,79745,1,0,0:0:0:0:
448,192,79745,1,0,0:0:0:0:
64,192,79873,1,0,0:0:0:0:
192,192,79873,1,0,0:0:0:0:
448,192,79873,1,0,0:0:0:0:
192,192,80001,1,0,0:0:0:0:
448,192,80001,1,0,0:0:0:0:
320,192,80001,1,0,0:0:0:0:
64,192,80386,1,0,0:0:0:0:
192,192,80386,1,0,0:0:0:0:
320,192,80386,1,0,0:0:0:0:
448,192,80386,1,0,0:0:0:0:
64,192,80770,1,0,0:0:0:0:
192,192,80770,1,0,0:0:0:0:
320,192,80770,1,0,0:0:0:0:
448,192,80770,1,0,0:0:0:0:
192,192,80898,1,0,0:0:0:0:
448,192,80898,1,0,0:0:0:0:
320,192,81027,1,0,0:0:0:0:
448,192,81027,1,0,0:0:0:0:
64,192,81155,1,0,0:0:0:0:
192,192,81155,1,0,0:0:0:0:
320,192,81155,1,0,0:0:0:0:
64,192,81283,1,0,0:0:0:0:
448,192,81283,1,0,0:0:0:0:
192,192,81411,1,0,0:0:0:0:
448,192,81411,1,0,0:0:0:0:
320,192,81539,1,0,0:0:0:0:
192,192,81539,1,0,0:0:0:0:
64,192,81668,1,0,0:0:0:0:
320,192,81668,1,0,0:0:0:0:
192,192,81796,1,0,0:0:0:0:
448,192,81796,1,0,0:0:0:0:
64,192,81924,1,0,0:0:0:0:
448,192,81924,1,0,0:0:0:0:
320,192,81924,1,0,0:0:0:0:
192,192,82052,1,0,0:0:0:0:
64,192,82052,1,0,0:0:0:0:
192,192,82180,1,0,0:0:0:0:
320,192,82180,1,0,0:0:0:0:
320,192,82309,1,0,0:0:0:0:
448,192,82309,1,0,0:0:0:0:
192,192,82437,1,0,0:0:0:0:
448,192,82437,1,0,0:0:0:0:
64,192,82565,1,0,0:0:0:0:
320,192,82565,1,0,0:0:0:0:
64,192,82693,1,0,0:0:0:0:
192,192,82693,1,0,0:0:0:0:
448,192,82693,1,0,0:0:0:0:
320,192,82821,1,0,0:0:0:0:
192,192,82821,1,0,0:0:0:0:
64,192,82950,1,0,0:0:0:0:
320,192,82950,1,0,0:0:0:0:
192,192,83078,1,0,0:0:0:0:
448,192,83078,1,0,0:0:0:0:
320,192,83206,1,0,0:0:0:0:
448,192,83206,1,0,0:0:0:0:
192,192,83334,1,0,0:0:0:0:
320,192,83334,1,0,0:0:0:0:
64,192,83463,1,0,0:0:0:0:
192,192,83463,1,0,0:0:0:0:
448,192,83463,1,0,0:0:0:0:
64,192,83591,1,0,0:0:0:0:
320,192,83591,1,0,0:0:0:0:
192,192,83719,1,0,0:0:0:0:
448,192,83719,1,0,0:0:0:0:
448,192,83847,1,0,0:0:0:0:
320,192,83847,1,0,0:0:0:0:
64,192,83847,1,0,0:0:0:0:
192,192,83847,1,0,0:0:0:0:
64,192,83975,1,0,0:0:0:0:
320,192,83975,1,0,0:0:0:0:
192,192,84104,1,0,0:0:0:0:
448,192,84104,1,0,0:0:0:0:
320,192,84232,1,0,0:0:0:0:
448,192,84232,1,0,0:0:0:0:
64,192,84232,1,0,0:0:0:0:
64,192,84360,1,0,0:0:0:0:
192,192,84360,1,0,0:0:0:0:
192,192,84488,1,0,0:0:0:0:
448,192,84488,1,0,0:0:0:0:
320,192,84616,1,0,0:0:0:0:
448,192,84616,1,0,0:0:0:0:
320,192,84745,1,0,0:0:0:0:
64,192,84745,1,0,0:0:0:0:
64,192,84873,1,0,0:0:0:0:
192,192,84873,1,0,0:0:0:0:
192,192,85001,1,0,0:0:0:0:
320,192,85001,1,0,0:0:0:0:
448,192,85001,1,0,0:0:0:0:
64,192,85129,1,0,0:0:0:0:
320,192,85129,1,0,0:0:0:0:
192,192,85257,1,0,0:0:0:0:
64,192,85257,1,0,0:0:0:0:
448,192,85257,1,0,0:0:0:0:
192,192,85386,1,0,0:0:0:0:
320,192,85386,1,0,0:0:0:0:
320,192,85514,1,0,0:0:0:0:
448,192,85514,1,0,0:0:0:0:
192,192,85642,1,0,0:0:0:0:
448,192,85642,1,0,0:0:0:0:
320,192,85770,5,0,0:0:0:0:
64,192,85770,1,0,0:0:0:0:
192,192,85770,1,0,0:0:0:0:
64,192,85898,1,0,0:0:0:0:
448,192,85898,1,0,0:0:0:0:
192,192,86027,1,0,0:0:0:0:
448,192,86027,1,0,0:0:0:0:
320,192,86155,1,0,0:0:0:0:
64,192,86155,1,0,0:0:0:0:
192,192,86155,1,0,0:0:0:0:
64,192,86539,1,0,0:0:0:0:
448,192,86539,1,0,0:0:0:0:
320,192,86539,1,0,0:0:0:0:
64,192,86924,5,0,0:0:0:0:
192,192,86924,1,0,0:0:0:0:
448,192,86924,1,0,0:0:0:0:
192,192,87052,1,0,0:0:0:0:
320,192,87052,1,0,0:0:0:0:
320,192,87180,1,0,0:0:0:0:
192,192,87180,1,0,0:0:0:0:
320,192,87309,1,0,0:0:0:0:
448,192,87309,1,0,0:0:0:0:
192,192,87693,1,0,0:0:0:0:
448,192,87693,1,0,0:0:0:0:
64,192,87693,1,0,0:0:0:0:
192,192,87821,1,0,0:0:0:0:
448,192,87821,1,0,0:0:0:0:
320,192,87950,1,0,0:0:0:0:
64,192,87950,1,0,0:0:0:0:
64,192,88078,1,0,0:0:0:0:
320,192,88078,1,0,0:0:0:0:
64,192,88463,1,0,0:0:0:0:
320,192,88463,1,0,0:0:0:0:
448,192,88463,1,0,0:0:0:0:
192,192,88591,1,0,0:0:0:0:
448,192,88591,1,0,0:0:0:0:
448,192,88719,1,0,0:0:0:0:
192,192,88719,1,0,0:0:0:0:
320,192,88847,1,0,0:0:0:0:
64,192,88847,1,0,0:0:0:0:
64,192,88975,1,0,0:0:0:0:
192,192,88975,1,0,0:0:0:0:
448,192,89039,1,0,0:0:0:0:
320,192,89104,1,0,0:0:0:0:
192,192,89168,1,0,0:0:0:0:
448,192,89232,1,0,0:0:0:0:
320,192,89232,1,0,0:0:0:0:
64,192,89232,1,0,0:0:0:0:
64,192,89616,1,0,0:0:0:0:
448,192,89616,1,0,0:0:0:0:
192,192,89616,1,0,0:0:0:0:
64,192,90001,1,0,0:0:0:0:
320,192,90001,1,0,0:0:0:0:
448,192,90001,1,0,0:0:0:0:
192,192,90001,1,0,0:0:0:0:
448,192,90097,1,0,0:0:0:0:
192,192,90193,1,0,0:0:0:0:
320,192,90193,1,0,0:0:0:0:
64,192,90289,1,0,0:0:0:0:
64,192,90386,1,0,0:0:0:0:
192,192,90386,1,0,0:0:0:0:
448,192,90386,1,0,0:0:0:0:
192,192,90482,1,0,0:0:0:0:
448,192,90578,1,0,0:0:0:0:
320,192,90578,1,0,0:0:0:0:
64,192,90674,1,0,0:0:0:0:
64,192,90770,1,0,0:0:0:0:
320,192,90770,1,0,0:0:0:0:
320,192,90866,1,0,0:0:0:0:
448,192,90963,1,0,0:0:0:0:
192,192,90963,1,0,0:0:0:0:
192,192,91059,1,0,0:0:0:0:
64,192,91155,1,0,0:0:0:0:
448,192,91155,1,0,0:0:0:0:
320,192,91155,1,0,0:0:0:0:
320,192,91251,1,0,0:0:0:0:
64,192,91347,1,0,0:0:0:0:
192,192,91347,1,0,0:0:0:0:
448,192,91443,1,0,0:0:0:0:
320,192,91539,1,0,0:0:0:0:
448,192,91539,1,0,0:0:0:0:
192,192,91539,1,0,0:0:0:0:
192,192,91636,1,0,0:0:0:0:
64,192,91732,1,0,0:0:0:0:
320,192,91732,1,0,0:0:0:0:
448,192,91828,1,0,0:0:0:0:
192,192,91924,1,0,0:0:0:0:
64,192,91924,1,0,0:0:0:0:
448,192,91924,1,0,0:0:0:0:
64,192,92020,1,0,0:0:0:0:
320,192,92116,1,0,0:0:0:0:
448,192,92116,1,0,0:0:0:0:
192,192,92213,1,0,0:0:0:0:
64,192,92309,1,0,0:0:0:0:
192,192,92309,1,0,0:0:0:0:
320,192,92309,1,0,0:0:0:0:
320,192,92405,1,0,0:0:0:0:
64,192,92501,1,0,0:0:0:0:
448,192,92501,1,0,0:0:0:0:
64,192,92597,1,0,0:0:0:0:
192,192,92693,1,0,0:0:0:0:
448,192,92693,1,0,0:0:0:0:
320,192,92693,1,0,0:0:0:0:
448,192,92789,1,0,0:0:0:0:
64,192,92886,1,0,0:0:0:0:
192,192,92886,1,0,0:0:0:0:
320,192,92982,1,0,0:0:0:0:
448,192,92982,1,0,0:0:0:0:
64,192,93078,1,0,0:0:0:0:
192,192,93078,1,0,0:0:0:0:
448,192,93078,1,0,0:0:0:0:
192,192,93174,1,0,0:0:0:0:
64,192,93270,1,0,0:0:0:0:
320,192,93270,1,0,0:0:0:0:
64,192,93366,1,0,0:0:0:0:
192,192,93463,1,0,0:0:0:0:
320,192,93463,1,0,0:0:0:0:
448,192,93463,1,0,0:0:0:0:
192,192,93559,1,0,0:0:0:0:
64,192,93655,1,0,0:0:0:0:
448,192,93655,1,0,0:0:0:0:
448,192,93751,1,0,0:0:0:0:
192,192,93847,1,0,0:0:0:0:
64,192,93847,1,0,0:0:0:0:
320,192,93847,1,0,0:0:0:0:
64,192,93943,1,0,0:0:0:0:
192,192,94039,1,0,0:0:0:0:
448,192,94039,1,0,0:0:0:0:
320,192,94136,1,0,0:0:0:0:
448,192,94232,1,0,0:0:0:0:
320,192,94232,1,0,0:0:0:0:
64,192,94232,1,0,0:0:0:0:
192,192,94328,1,0,0:0:0:0:
64,192,94424,1,0,0:0:0:0:
192,192,94424,1,0,0:0:0:0:
320,192,94520,1,0,0:0:0:0:
192,192,94616,1,0,0:0:0:0:
320,192,94616,1,0,0:0:0:0:
448,192,94616,1,0,0:0:0:0:
64,192,94713,1,0,0:0:0:0:
64,192,94809,1,0,0:0:0:0:
448,192,94809,1,0,0:0:0:0:
320,192,94905,1,0,0:0:0:0:
320,192,95001,1,0,0:0:0:0:
192,192,95001,1,0,0:0:0:0:
64,192,95001,1,0,0:0:0:0:
64,192,95097,1,0,0:0:0:0:
192,192,95193,1,0,0:0:0:0:
448,192,95193,1,0,0:0:0:0:
192,192,95289,1,0,0:0:0:0:
320,192,95386,1,0,0:0:0:0:
448,192,95386,1,0,0:0:0:0:
64,192,95386,1,0,0:0:0:0:
192,192,95482,1,0,0:0:0:0:
64,192,95482,1,0,0:0:0:0:
320,192,95578,1,0,0:0:0:0:
448,192,95578,1,0,0:0:0:0:
192,192,95674,1,0,0:0:0:0:
64,192,95674,1,0,0:0:0:0:
320,192,95770,1,0,0:0:0:0:
448,192,95770,1,0,0:0:0:0:
64,192,95866,1,0,0:0:0:0:
192,192,95866,1,0,0:0:0:0:
320,192,95963,1,0,0:0:0:0:
448,192,95963,1,0,0:0:0:0:
192,192,96059,1,0,0:0:0:0:
64,192,96059,1,0,0:0:0:0:
64,192,96155,1,0,0:0:0:0:
320,192,96155,1,0,0:0:0:0:
448,192,96155,1,0,0:0:0:0:
192,192,96155,1,0,0:0:0:0:
448,192,96251,1,0,0:0:0:0:
320,192,96347,1,0,0:0:0:0:
192,192,96347,1,0,0:0:0:0:
192,192,96443,1,0,0:0:0:0:
448,192,96539,1,0,0:0:0:0:
320,192,96539,1,0,0:0:0:0:
64,192,96539,1,0,0:0:0:0:
320,192,96636,1,0,0:0:0:0:
64,192,96732,1,0,0:0:0:0:
192,192,96732,1,0,0:0:0:0:
448,192,96828,1,0,0:0:0:0:
448,192,96924,1,0,0:0:0:0:
192,192,96924,1,0,0:0:0:0:
192,192,97020,1,0,0:0:0:0:
64,192,97116,1,0,0:0:0:0:
320,192,97116,1,0,0:0:0:0:
320,192,97213,1,0,0:0:0:0:
448,192,97309,1,0,0:0:0:0:
64,192,97309,1,0,0:0:0:0:
192,192,97309,1,0,0:0:0:0:
192,192,97405,1,0,0:0:0:0:
448,192,97501,1,0,0:0:0:0:
320,192,97501,1,0,0:0:0:0:
64,192,97597,1,0,0:0:0:0:
192,192,97693,1,0,0:0:0:0:
64,192,97693,1,0,0:0:0:0:
320,192,97693,1,0,0:0:0:0:
320,192,97789,1,0,0:0:0:0:
448,192,97886,1,0,0:0:0:0:
192,192,97886,1,0,0:0:0:0:
64,192,97982,1,0,0:0:0:0:
320,192,98078,1,0,0:0:0:0:
448,192,98078,1,0,0:0:0:0:
64,192,98078,1,0,0:0:0:0:
448,192,98174,1,0,0:0:0:0:
192,192,98270,1,0,0:0:0:0:
64,192,98270,1,0,0:0:0:0:
320,192,98366,1,0,0:0:0:0:
448,192,98463,1,0,0:0:0:0:
320,192,98463,1,0,0:0:0:0:
192,192,98463,1,0,0:0:0:0:
192,192,98559,1,0,0:0:0:0:
448,192,98655,1,0,0:0:0:0:
64,192,98655,1,0,0:0:0:0:
448,192,98751,1,0,0:0:0:0:
320,192,98847,1,0,0:0:0:0:
64,192,98847,1,0,0:0:0:0:
192,192,98847,1,0,0:0:0:0:
64,192,98943,1,0,0:0:0:0:
448,192,99039,1,0,0:0:0:0:
320,192,99039,1,0,0:0:0:0:
192,192,99136,1,0,0:0:0:0:
64,192,99136,1,0,0:0:0:0:
448,192,99232,1,0,0:0:0:0:
320,192,99232,1,0,0:0:0:0:
64,192,99232,1,0,0:0:0:0:
320,192,99328,1,0,0:0:0:0:
448,192,99424,1,0,0:0:0:0:
192,192,99424,1,0,0:0:0:0:
448,192,99520,1,0,0:0:0:0:
320,192,99616,1,0,0:0:0:0:
192,192,99616,1,0,0:0:0:0:
64,192,99616,1,0,0:0:0:0:
320,192,99713,1,0,0:0:0:0:
448,192,99809,1,0,0:0:0:0:
64,192,99809,1,0,0:0:0:0:
64,192,99905,1,0,0:0:0:0:
320,192,100001,1,0,0:0:0:0:
448,192,100001,1,0,0:0:0:0:
192,192,100001,1,0,0:0:0:0:
448,192,100097,1,0,0:0:0:0:
320,192,100193,1,0,0:0:0:0:
64,192,100193,1,0,0:0:0:0:
192,192,100289,1,0,0:0:0:0:
64,192,100386,1,0,0:0:0:0:
192,192,100386,1,0,0:0:0:0:
448,192,100386,1,0,0:0:0:0:
320,192,100482,1,0,0:0:0:0:
448,192,100578,1,0,0:0:0:0:
320,192,100578,1,0,0:0:0:0:
192,192,100674,1,0,0:0:0:0:
320,192,100770,1,0,0:0:0:0:
192,192,100770,1,0,0:0:0:0:
64,192,100770,1,0,0:0:0:0:
448,192,100866,1,0,0:0:0:0:
448,192,100963,1,0,0:0:0:0:
64,192,100963,1,0,0:0:0:0:
192,192,101059,1,0,0:0:0:0:
192,192,101155,1,0,0:0:0:0:
320,192,101155,1,0,0:0:0:0:
448,192,101155,1,0,0:0:0:0:
448,192,101251,1,0,0:0:0:0:
320,192,101347,1,0,0:0:0:0:
64,192,101347,1,0,0:0:0:0:
192,192,101443,1,0,0:0:0:0:
192,192,101539,1,0,0:0:0:0:
64,192,101539,1,0,0:0:0:0:
448,192,101539,1,0,0:0:0:0:
320,192,101539,1,0,0:0:0:0:
192,192,101732,1,0,0:0:0:0:
64,192,101732,1,0,0:0:0:0:
320,192,101732,1,0,0:0:0:0:
448,192,101732,1,0,0:0:0:0:
192,192,101924,1,0,0:0:0:0:
448,192,101924,1,0,0:0:0:0:
320,192,101924,1,0,0:0:0:0:
64,192,101924,1,0,0:0:0:0:
