osu file format v14

[General]
AudioFilename: hope.mp3
AudioLeadIn: 0
PreviewTime: 13744
Countdown: 0
SampleSet: Soft
StackLeniency: 0.7
Mode: 3
LetterboxInBreaks: 0
SpecialStyle: 0
WidescreenStoryboard: 1

[Editor]
DistanceSpacing: 1.1
BeatDivisor: 4
GridSize: 8
TimelineZoom: 0.9999999

[Metadata]
Title:Emperor 10th Chordjack 2nd Training
TitleUnicode:Emperor 10th Chordjack 2nd Training
Artist:Various Artist
ArtistUnicode:Various Artist
Creator:Crystalys-
Version:Blue Encount-Hope (NSV)
Source:
Tags:emperor of time Mobile Suit Gundam IRON-BLOODED ORPHANS 機動戦士ガンダム 鉄血のオルフェンズ mikazuki augus orga itsuka
BeatmapID:2272773
BeatmapSetID:1086850

[Difficulty]
HPDrainRate:8
CircleSize:4
OverallDifficulty:8
ApproachRate:5
SliderMultiplier:1.4
SliderTickRate:1

[Events]
//Background and Video events
0,0,"743390.jpg",0,0
//Break Periods
//Storyboard Layer 0 (Background)
//Storyboard Layer 1 (Fail)
//Storyboard Layer 2 (Pass)
//Storyboard Layer 3 (Foreground)
//Storyboard Layer 4 (Overlay)
//Storyboard Sound Samples

[TimingPoints]
287,280.373831775701,4,2,0,30,1,0
45146,-100,4,2,0,30,0,1
63090,-100,4,2,0,30,0,0
123651,-100,4,2,0,30,0,1
140473,-100,4,2,0,30,0,0
141595,-100,4,2,0,30,0,1
161782,-100,4,2,0,30,0,0

[HitObjects]
448,192,287,5,0,0:0:0:0:
192,192,287,128,0,427:0:0:0:0:
64,192,287,128,0,427:0:0:0:0:
320,192,427,128,0,567:0:0:0:0:
448,192,427,128,0,567:0:0:0:0:
192,192,567,1,0,0:0:0:0:
64,192,567,1,0,0:0:0:0:
64,192,847,1,0,0:0:0:0:
320,192,847,1,0,0:0:0:0:
192,192,1128,128,0,1268:0:0:0:0:
448,192,1128,128,0,1268:0:0:0:0:
320,192,1268,128,0,1408:0:0:0:0:
64,192,1268,128,0,1408:0:0:0:0:
192,192,1408,1,0,0:0:0:0:
448,192,1408,1,0,0:0:0:0:
64,192,1688,1,0,0:0:0:0:
192,192,1688,1,0,0:0:0:0:
320,192,1969,128,0,2249:0:0:0:0:
448,192,1969,128,0,2249:0:0:0:0:
192,192,2249,1,0,0:0:0:0:
64,192,2249,1,0,0:0:0:0:
64,192,2529,128,0,2670:0:0:0:0:
448,192,2529,128,0,2670:0:0:0:0:
192,192,2670,128,0,2810:0:0:0:0:
320,192,2670,128,0,2810:0:0:0:0:
448,192,2810,1,0,0:0:0:0:
64,192,2810,1,0,0:0:0:0:
64,192,3090,1,0,0:0:0:0:
320,192,3090,1,0,0:0:0:0:
192,192,3371,128,0,3511:0:0:0:0:
448,192,3371,128,0,3511:0:0:0:0:
64,192,3511,128,0,3651:0:0:0:0:
192,192,3651,1,0,0:0:0:0:
448,192,3651,1,0,0:0:0:0:
320,192,3651,1,0,0:0:0:0:
64,192,3931,1,0,0:0:0:0:
192,192,3931,1,0,0:0:0:0:
448,192,3931,1,0,0:0:0:0:
448,192,4212,1,0,0:0:0:0:
320,192,4212,1,0,0:0:0:0:
192,192,4282,1,0,0:0:0:0:
64,192,4282,1,0,0:0:0:0:
320,192,4352,1,0,0:0:0:0:
448,192,4352,1,0,0:0:0:0:
192,192,4422,1,0,0:0:0:0:
64,192,4422,1,0,0:0:0:0:
320,192,4492,1,0,0:0:0:0:
448,192,4492,1,0,0:0:0:0:
64,192,4772,1,0,0:0:0:0:
448,192,4772,1,0,0:0:0:0:
192,192,4772,128,0,4913:0:0:0:0:
320,192,4772,1,0,0:0:0:0:
320,192,4913,128,0,5053:0:0:0:0:
448,192,5053,1,0,0:0:0:0:
64,192,5053,1,0,0:0:0:0:
192,192,5193,1,0,0:0:0:0:
192,192,5333,1,0,0:0:0:0:
320,192,5333,1,0,0:0:0:0:
64,192,5473,1,0,0:0:0:0:
192,192,5614,1,0,0:0:0:0:
320,192,5614,1,0,0:0:0:0:
448,192,5614,1,0,0:0:0:0:
320,192,5754,1,0,0:0:0:0:
64,192,5894,1,0,0:0:0:0:
320,192,5894,1,0,0:0:0:0:
192,192,6034,1,0,0:0:0:0:
64,192,6174,1,0,0:0:0:0:
448,192,6174,1,0,0:0:0:0:
320,192,6174,1,0,0:0:0:0:
64,192,6315,1,0,0:0:0:0:
192,192,6455,1,0,0:0:0:0:
320,192,6455,1,0,0:0:0:0:
320,192,6595,1,0,0:0:0:0:
64,192,6735,1,0,0:0:0:0:
192,192,6735,1,0,0:0:0:0:
448,192,6735,1,0,0:0:0:0:
64,192,6875,1,0,0:0:0:0:
192,192,7015,1,0,0:0:0:0:
320,192,7015,128,0,7156:0:0:0:0:
64,192,7156,128,0,7296:0:0:0:0:
448,192,7156,1,0,0:0:0:0:
448,192,7296,128,0,7436:0:0:0:0:
192,192,7296,1,0,0:0:0:0:
320,192,7296,1,0,0:0:0:0:
64,192,7436,1,0,0:0:0:0:
192,192,7576,1,0,0:0:0:0:
64,192,7576,1,0,0:0:0:0:
320,192,7716,1,0,0:0:0:0:
192,192,7857,1,0,0:0:0:0:
448,192,7857,1,0,0:0:0:0:
64,192,7857,1,0,0:0:0:0:
192,192,7997,1,0,0:0:0:0:
64,192,8137,1,0,0:0:0:0:
320,192,8137,1,0,0:0:0:0:
320,192,8277,1,0,0:0:0:0:
64,192,8417,1,0,0:0:0:0:
192,192,8417,1,0,0:0:0:0:
448,192,8417,1,0,0:0:0:0:
64,192,8558,1,0,0:0:0:0:
192,192,8698,1,0,0:0:0:0:
320,192,8698,1,0,0:0:0:0:
192,192,8838,1,0,0:0:0:0:
64,192,8978,1,0,0:0:0:0:
320,192,8978,1,0,0:0:0:0:
448,192,8978,1,0,0:0:0:0:
192,192,9118,1,0,0:0:0:0:
320,192,9258,1,0,0:0:0:0:
448,192,9258,1,0,0:0:0:0:
64,192,9258,128,0,9399:0:0:0:0:
192,192,9258,1,0,0:0:0:0:
320,192,9399,128,0,9539:0:0:0:0:
192,192,9539,128,0,9679:0:0:0:0:
448,192,9539,1,0,0:0:0:0:
64,192,9679,1,0,0:0:0:0:
320,192,9819,1,0,0:0:0:0:
448,192,9819,1,0,0:0:0:0:
320,192,9959,1,0,0:0:0:0:
64,192,10100,1,0,0:0:0:0:
192,192,10100,1,0,0:0:0:0:
448,192,10100,1,0,0:0:0:0:
64,192,10240,1,0,0:0:0:0:
192,192,10380,1,0,0:0:0:0:
320,192,10380,1,0,0:0:0:0:
320,192,10520,1,0,0:0:0:0:
64,192,10660,1,0,0:0:0:0:
192,192,10660,1,0,0:0:0:0:
448,192,10660,1,0,0:0:0:0:
64,192,10801,1,0,0:0:0:0:
64,192,10941,1,0,0:0:0:0:
320,192,10941,1,0,0:0:0:0:
192,192,11081,1,0,0:0:0:0:
64,192,11221,1,0,0:0:0:0:
320,192,11221,1,0,0:0:0:0:
448,192,11221,1,0,0:0:0:0:
448,192,11361,1,0,0:0:0:0:
320,192,11501,1,0,0:0:0:0:
192,192,11501,1,0,0:0:0:0:
192,192,11642,1,0,0:0:0:0:
64,192,11782,1,0,0:0:0:0:
320,192,11782,1,0,0:0:0:0:
448,192,11782,1,0,0:0:0:0:
320,192,11922,1,0,0:0:0:0:
192,192,12062,1,0,0:0:0:0:
64,192,12062,1,0,0:0:0:0:
320,192,12202,1,0,0:0:0:0:
64,192,12202,1,0,0:0:0:0:
448,192,12202,1,0,0:0:0:0:
192,192,12343,1,0,0:0:0:0:
64,192,12483,1,0,0:0:0:0:
320,192,12483,1,0,0:0:0:0:
192,192,12623,1,0,0:0:0:0:
320,192,12623,1,0,0:0:0:0:
448,192,12623,1,0,0:0:0:0:
64,192,12763,1,0,0:0:0:0:
192,192,12833,1,0,0:0:0:0:
320,192,12903,1,0,0:0:0:0:
448,192,12903,1,0,0:0:0:0:
64,192,13044,1,0,0:0:0:0:
192,192,13114,1,0,0:0:0:0:
320,192,13184,1,0,0:0:0:0:
448,192,13184,1,0,0:0:0:0:
192,192,13324,1,0,0:0:0:0:
64,192,13394,1,0,0:0:0:0:
320,192,13464,1,0,0:0:0:0:
448,192,13464,1,0,0:0:0:0:
192,192,13534,1,0,0:0:0:0:
320,192,13604,1,0,0:0:0:0:
192,192,13674,1,0,0:0:0:0:
64,192,13744,1,0,0:0:0:0:
320,192,13744,1,0,0:0:0:0:
448,192,13744,1,0,0:0:0:0:
64,192,14025,1,0,0:0:0:0:
192,192,14025,1,0,0:0:0:0:
320,192,14095,1,0,0:0:0:0:
192,192,14165,1,0,0:0:0:0:
64,192,14235,1,0,0:0:0:0:
320,192,14305,1,0,0:0:0:0:
448,192,14305,1,0,0:0:0:0:
192,192,14375,1,0,0:0:0:0:
320,192,14445,1,0,0:0:0:0:
448,192,14515,1,0,0:0:0:0:
192,192,14586,1,0,0:0:0:0:
64,192,14586,1,0,0:0:0:0:
320,192,14656,1,0,0:0:0:0:
192,192,14726,1,0,0:0:0:0:
320,192,14796,1,0,0:0:0:0:
64,192,14866,1,0,0:0:0:0:
192,192,14866,1,0,0:0:0:0:
448,192,14936,1,0,0:0:0:0:
320,192,15006,1,0,0:0:0:0:
192,192,15076,1,0,0:0:0:0:
64,192,15146,1,0,0:0:0:0:
448,192,15146,1,0,0:0:0:0:
320,192,15216,1,0,0:0:0:0:
192,192,15287,1,0,0:0:0:0:
64,192,15357,1,0,0:0:0:0:
320,192,15427,1,0,0:0:0:0:
448,192,15427,1,0,0:0:0:0:
64,192,15497,1,0,0:0:0:0:
192,192,15567,1,0,0:0:0:0:
320,192,15637,1,0,0:0:0:0:
448,192,15707,1,0,0:0:0:0:
64,192,15707,1,0,0:0:0:0:
192,192,15777,1,0,0:0:0:0:
320,192,15847,1,0,0:0:0:0:
192,192,15917,1,0,0:0:0:0:
64,192,15987,1,0,0:0:0:0:
448,192,15987,1,0,0:0:0:0:
320,192,16058,1,0,0:0:0:0:
192,192,16128,1,0,0:0:0:0:
64,192,16198,1,0,0:0:0:0:
320,192,16268,1,0,0:0:0:0:
448,192,16268,1,0,0:0:0:0:
192,192,16338,1,0,0:0:0:0:
448,192,16408,1,0,0:0:0:0:
320,192,16478,1,0,0:0:0:0:
192,192,16548,1,0,0:0:0:0:
64,192,16548,1,0,0:0:0:0:
448,192,16618,1,0,0:0:0:0:
320,192,16688,1,0,0:0:0:0:
192,192,16758,1,0,0:0:0:0:
64,192,16829,1,0,0:0:0:0:
448,192,16829,128,0,17109:0:0:0:0:
64,192,17109,1,0,0:0:0:0:
192,192,17109,1,0,0:0:0:0:
320,192,17179,1,0,0:0:0:0:
448,192,17179,1,0,0:0:0:0:
192,192,17249,1,0,0:0:0:0:
64,192,17249,1,0,0:0:0:0:
320,192,17319,1,0,0:0:0:0:
448,192,17319,1,0,0:0:0:0:
192,192,17389,1,0,0:0:0:0:
64,192,17389,1,0,0:0:0:0:
320,192,17459,1,0,0:0:0:0:
448,192,17459,1,0,0:0:0:0:
64,192,17529,1,0,0:0:0:0:
192,192,17529,1,0,0:0:0:0:
320,192,17600,1,0,0:0:0:0:
448,192,17600,1,0,0:0:0:0:
192,192,17670,1,0,0:0:0:0:
64,192,17670,1,0,0:0:0:0:
64,192,18230,1,0,0:0:0:0:
320,192,18230,1,0,0:0:0:0:
448,192,18230,1,0,0:0:0:0:
192,192,18230,1,0,0:0:0:0:
192,192,18371,1,0,0:0:0:0:
64,192,18371,1,0,0:0:0:0:
448,192,18371,1,0,0:0:0:0:
320,192,18511,1,0,0:0:0:0:
64,192,18651,1,0,0:0:0:0:
192,192,18651,1,0,0:0:0:0:
448,192,18651,1,0,0:0:0:0:
64,192,18791,1,0,0:0:0:0:
192,192,18931,1,0,0:0:0:0:
320,192,18931,1,0,0:0:0:0:
448,192,18931,1,0,0:0:0:0:
192,192,19072,1,0,0:0:0:0:
64,192,19212,1,0,0:0:0:0:
320,192,19212,1,0,0:0:0:0:
448,192,19212,1,0,0:0:0:0:
320,192,19352,1,0,0:0:0:0:
64,192,19492,1,0,0:0:0:0:
192,192,19492,1,0,0:0:0:0:
448,192,19492,1,0,0:0:0:0:
192,192,19632,1,0,0:0:0:0:
64,192,19772,1,0,0:0:0:0:
320,192,19772,1,0,0:0:0:0:
448,192,19772,1,0,0:0:0:0:
192,192,19913,1,0,0:0:0:0:
64,192,20053,1,0,0:0:0:0:
320,192,20053,1,0,0:0:0:0:
448,192,20053,1,0,0:0:0:0:
448,192,20193,1,0,0:0:0:0:
320,192,20263,1,0,0:0:0:0:
192,192,20333,1,0,0:0:0:0:
64,192,20333,1,0,0:0:0:0:
448,192,20333,1,0,0:0:0:0:
192,192,20473,1,0,0:0:0:0:
64,192,20614,1,0,0:0:0:0:
320,192,20614,1,0,0:0:0:0:
448,192,20614,1,0,0:0:0:0:
192,192,20754,1,0,0:0:0:0:
64,192,20894,1,0,0:0:0:0:
320,192,20894,1,0,0:0:0:0:
448,192,20894,1,0,0:0:0:0:
320,192,21034,1,0,0:0:0:0:
64,192,21174,1,0,0:0:0:0:
192,192,21174,1,0,0:0:0:0:
448,192,21174,1,0,0:0:0:0:
64,192,21315,1,0,0:0:0:0:
320,192,21385,1,0,0:0:0:0:
192,192,21455,1,0,0:0:0:0:
448,192,21455,1,0,0:0:0:0:
64,192,21455,1,0,0:0:0:0:
320,192,21595,1,0,0:0:0:0:
448,192,21595,1,0,0:0:0:0:
64,192,21735,1,0,0:0:0:0:
192,192,21735,1,0,0:0:0:0:
320,192,21735,1,0,0:0:0:0:
448,192,21875,1,0,0:0:0:0:
320,192,21945,1,0,0:0:0:0:
192,192,22015,1,0,0:0:0:0:
64,192,22015,1,0,0:0:0:0:
448,192,22015,1,0,0:0:0:0:
320,192,22156,1,0,0:0:0:0:
64,192,22156,1,0,0:0:0:0:
192,192,22296,1,0,0:0:0:0:
320,192,22296,1,0,0:0:0:0:
448,192,22296,1,0,0:0:0:0:
64,192,22436,1,0,0:0:0:0:
192,192,22506,1,0,0:0:0:0:
320,192,22576,1,0,0:0:0:0:
448,192,22576,1,0,0:0:0:0:
64,192,22716,1,0,0:0:0:0:
192,192,22716,1,0,0:0:0:0:
448,192,22716,1,0,0:0:0:0:
320,192,22857,1,0,0:0:0:0:
192,192,22857,1,0,0:0:0:0:
64,192,22997,1,0,0:0:0:0:
192,192,23067,1,0,0:0:0:0:
448,192,23137,1,0,0:0:0:0:
320,192,23137,1,0,0:0:0:0:
64,192,23137,1,0,0:0:0:0:
448,192,23277,1,0,0:0:0:0:
320,192,23417,1,0,0:0:0:0:
192,192,23417,1,0,0:0:0:0:
64,192,23417,1,0,0:0:0:0:
448,192,23558,1,0,0:0:0:0:
320,192,23628,1,0,0:0:0:0:
448,192,23698,1,0,0:0:0:0:
192,192,23698,1,0,0:0:0:0:
64,192,23698,1,0,0:0:0:0:
192,192,23838,1,0,0:0:0:0:
448,192,23978,1,0,0:0:0:0:
320,192,23978,1,0,0:0:0:0:
64,192,23978,1,0,0:0:0:0:
320,192,24118,1,0,0:0:0:0:
192,192,24188,1,0,0:0:0:0:
448,192,24258,1,0,0:0:0:0:
64,192,24258,1,0,0:0:0:0:
320,192,24258,1,0,0:0:0:0:
192,192,24399,1,0,0:0:0:0:
448,192,24539,1,0,0:0:0:0:
64,192,24539,1,0,0:0:0:0:
320,192,24539,1,0,0:0:0:0:
64,192,24679,1,0,0:0:0:0:
192,192,24749,1,0,0:0:0:0:
320,192,24819,1,0,0:0:0:0:
448,192,24819,1,0,0:0:0:0:
64,192,24819,1,0,0:0:0:0:
320,192,24959,1,0,0:0:0:0:
448,192,25100,1,0,0:0:0:0:
192,192,25100,1,0,0:0:0:0:
64,192,25100,1,0,0:0:0:0:
320,192,25240,1,0,0:0:0:0:
192,192,25310,1,0,0:0:0:0:
448,192,25380,1,0,0:0:0:0:
64,192,25380,1,0,0:0:0:0:
320,192,25380,1,0,0:0:0:0:
192,192,25520,1,0,0:0:0:0:
448,192,25660,1,0,0:0:0:0:
320,192,25660,1,0,0:0:0:0:
64,192,25660,1,0,0:0:0:0:
448,192,25801,1,0,0:0:0:0:
192,192,25871,1,0,0:0:0:0:
320,192,25941,1,0,0:0:0:0:
64,192,25941,1,0,0:0:0:0:
448,192,25941,1,0,0:0:0:0:
192,192,26081,1,0,0:0:0:0:
64,192,26081,1,0,0:0:0:0:
448,192,26221,1,0,0:0:0:0:
320,192,26221,1,0,0:0:0:0:
192,192,26221,1,0,0:0:0:0:
64,192,26361,1,0,0:0:0:0:
192,192,26431,1,0,0:0:0:0:
320,192,26501,1,0,0:0:0:0:
448,192,26501,1,0,0:0:0:0:
64,192,26501,1,0,0:0:0:0:
192,192,26642,1,0,0:0:0:0:
448,192,26642,1,0,0:0:0:0:
192,192,26782,1,0,0:0:0:0:
64,192,26782,1,0,0:0:0:0:
320,192,26852,1,0,0:0:0:0:
448,192,26852,1,0,0:0:0:0:
192,192,26922,1,0,0:0:0:0:
64,192,26922,1,0,0:0:0:0:
320,192,26992,1,0,0:0:0:0:
448,192,26992,1,0,0:0:0:0:
192,192,27062,1,0,0:0:0:0:
64,192,27062,1,0,0:0:0:0:
320,192,27132,1,0,0:0:0:0:
448,192,27132,1,0,0:0:0:0:
192,192,27202,1,0,0:0:0:0:
64,192,27202,1,0,0:0:0:0:
320,192,27343,1,0,0:0:0:0:
448,192,27343,1,0,0:0:0:0:
64,192,27483,1,0,0:0:0:0:
192,192,27623,1,0,0:0:0:0:
64,192,27623,1,0,0:0:0:0:
448,192,27623,1,0,0:0:0:0:
320,192,27763,1,0,0:0:0:0:
192,192,27903,1,0,0:0:0:0:
448,192,27903,1,0,0:0:0:0:
64,192,27903,1,0,0:0:0:0:
320,192,28044,1,0,0:0:0:0:
192,192,28114,1,0,0:0:0:0:
448,192,28184,1,0,0:0:0:0:
64,192,28184,1,0,0:0:0:0:
320,192,28184,1,0,0:0:0:0:
192,192,28324,1,0,0:0:0:0:
64,192,28464,1,0,0:0:0:0:
448,192,28464,1,0,0:0:0:0:
320,192,28464,1,0,0:0:0:0:
320,192,28604,1,0,0:0:0:0:
64,192,28744,1,0,0:0:0:0:
192,192,28744,1,0,0:0:0:0:
448,192,28744,1,0,0:0:0:0:
448,192,28885,1,0,0:0:0:0:
64,192,29025,1,0,0:0:0:0:
320,192,29025,1,0,0:0:0:0:
192,192,29025,1,0,0:0:0:0:
448,192,29165,1,0,0:0:0:0:
320,192,29235,1,0,0:0:0:0:
192,192,29305,1,0,0:0:0:0:
64,192,29305,1,0,0:0:0:0:
448,192,29305,1,0,0:0:0:0:
320,192,29445,1,0,0:0:0:0:
64,192,29586,1,0,0:0:0:0:
448,192,29586,1,0,0:0:0:0:
192,192,29726,1,0,0:0:0:0:
64,192,29866,1,0,0:0:0:0:
320,192,29866,1,0,0:0:0:0:
192,192,30006,1,0,0:0:0:0:
64,192,30146,1,0,0:0:0:0:
192,192,30146,1,0,0:0:0:0:
320,192,30287,1,0,0:0:0:0:
192,192,30357,1,0,0:0:0:0:
64,192,30427,1,0,0:0:0:0:
448,192,30427,1,0,0:0:0:0:
320,192,30427,1,0,0:0:0:0:
192,192,30567,1,0,0:0:0:0:
320,192,30707,1,0,0:0:0:0:
448,192,30707,1,0,0:0:0:0:
192,192,30777,1,0,0:0:0:0:
64,192,30777,1,0,0:0:0:0:
448,192,30847,1,0,0:0:0:0:
320,192,30847,1,0,0:0:0:0:
192,192,30917,1,0,0:0:0:0:
64,192,30917,1,0,0:0:0:0:
320,192,30987,1,0,0:0:0:0:
448,192,30987,1,0,0:0:0:0:
192,192,31058,1,0,0:0:0:0:
64,192,31128,1,0,0:0:0:0:
448,192,31128,1,0,0:0:0:0:
320,192,31268,1,0,0:0:0:0:
192,192,31268,1,0,0:0:0:0:
64,192,31408,1,0,0:0:0:0:
448,192,31408,1,0,0:0:0:0:
320,192,31548,1,0,0:0:0:0:
192,192,31548,1,0,0:0:0:0:
64,192,31688,1,0,0:0:0:0:
192,192,31688,1,0,0:0:0:0:
320,192,31688,1,0,0:0:0:0:
448,192,31688,1,0,0:0:0:0:
64,192,31829,1,0,0:0:0:0:
448,192,31829,1,0,0:0:0:0:
320,192,32109,1,0,0:0:0:0:
448,192,32109,1,0,0:0:0:0:
64,192,32249,1,0,0:0:0:0:
448,192,32249,1,0,0:0:0:0:
320,192,32249,1,0,0:0:0:0:
192,192,32529,1,0,0:0:0:0:
320,192,32529,1,0,0:0:0:0:
64,192,32810,1,0,0:0:0:0:
64,192,32950,1,0,0:0:0:0:
448,192,32950,1,0,0:0:0:0:
192,192,33090,1,0,0:0:0:0:
320,192,33090,1,0,0:0:0:0:
448,192,33090,1,0,0:0:0:0:
192,192,33230,1,0,0:0:0:0:
320,192,33371,1,0,0:0:0:0:
64,192,33371,1,0,0:0:0:0:
320,192,33511,1,0,0:0:0:0:
64,192,33511,1,0,0:0:0:0:
192,192,33651,1,0,0:0:0:0:
448,192,33651,1,0,0:0:0:0:
64,192,33931,1,0,0:0:0:0:
320,192,33931,1,0,0:0:0:0:
448,192,33931,1,0,0:0:0:0:
192,192,34072,1,0,0:0:0:0:
192,192,34212,1,0,0:0:0:0:
320,192,34352,1,0,0:0:0:0:
448,192,34352,1,0,0:0:0:0:
64,192,34492,1,0,0:0:0:0:
192,192,34492,1,0,0:0:0:0:
448,192,34492,1,0,0:0:0:0:
320,192,34772,1,0,0:0:0:0:
448,192,34772,1,0,0:0:0:0:
192,192,34913,1,0,0:0:0:0:
192,192,35053,1,0,0:0:0:0:
64,192,35193,1,0,0:0:0:0:
320,192,35193,1,0,0:0:0:0:
448,192,35193,1,0,0:0:0:0:
64,192,35333,1,0,0:0:0:0:
192,192,35473,1,0,0:0:0:0:
320,192,35473,1,0,0:0:0:0:
64,192,35614,1,0,0:0:0:0:
320,192,35614,1,0,0:0:0:0:
448,192,35614,1,0,0:0:0:0:
192,192,35754,1,0,0:0:0:0:
64,192,35894,1,0,0:0:0:0:
320,192,35894,1,0,0:0:0:0:
448,192,35894,1,0,0:0:0:0:
64,192,36174,1,0,0:0:0:0:
192,192,36174,1,0,0:0:0:0:
448,192,36174,1,0,0:0:0:0:
320,192,36315,1,0,0:0:0:0:
320,192,36455,1,0,0:0:0:0:
192,192,36595,1,0,0:0:0:0:
64,192,36735,1,0,0:0:0:0:
320,192,36735,1,0,0:0:0:0:
448,192,36735,1,0,0:0:0:0:
192,192,37015,1,0,0:0:0:0:
448,192,37015,1,0,0:0:0:0:
192,192,37156,1,0,0:0:0:0:
192,192,37296,1,0,0:0:0:0:
64,192,37436,1,0,0:0:0:0:
192,192,37576,1,0,0:0:0:0:
320,192,37576,1,0,0:0:0:0:
448,192,37576,1,0,0:0:0:0:
320,192,37716,1,0,0:0:0:0:
192,192,37857,1,0,0:0:0:0:
64,192,37857,1,0,0:0:0:0:
320,192,37997,1,0,0:0:0:0:
448,192,37997,1,0,0:0:0:0:
64,192,38137,1,0,0:0:0:0:
192,192,38137,1,0,0:0:0:0:
320,192,38207,1,0,0:0:0:0:
448,192,38277,1,0,0:0:0:0:
64,192,38417,1,0,0:0:0:0:
192,192,38417,1,0,0:0:0:0:
320,192,38417,1,0,0:0:0:0:
448,192,38698,1,0,0:0:0:0:
320,192,38698,1,0,0:0:0:0:
64,192,38838,1,0,0:0:0:0:
192,192,38978,1,0,0:0:0:0:
320,192,38978,1,0,0:0:0:0:
64,192,39118,1,0,0:0:0:0:
448,192,39118,1,0,0:0:0:0:
192,192,39258,1,0,0:0:0:0:
320,192,39258,1,0,0:0:0:0:
448,192,39399,1,0,0:0:0:0:
64,192,39539,1,0,0:0:0:0:
192,192,39539,1,0,0:0:0:0:
64,192,39679,1,0,0:0:0:0:
192,192,39679,1,0,0:0:0:0:
320,192,39819,1,0,0:0:0:0:
448,192,39819,1,0,0:0:0:0:
64,192,40100,1,0,0:0:0:0:
320,192,40100,1,0,0:0:0:0:
64,192,40240,1,0,0:0:0:0:
320,192,40240,1,0,0:0:0:0:
192,192,40380,1,0,0:0:0:0:
448,192,40380,1,0,0:0:0:0:
320,192,40520,1,0,0:0:0:0:
64,192,40660,1,0,0:0:0:0:
192,192,40660,1,0,0:0:0:0:
320,192,40730,1,0,0:0:0:0:
448,192,40730,1,0,0:0:0:0:
192,192,40801,1,0,0:0:0:0:
64,192,40801,1,0,0:0:0:0:
320,192,40871,1,0,0:0:0:0:
448,192,40871,1,0,0:0:0:0:
192,192,40941,1,0,0:0:0:0:
64,192,41011,1,0,0:0:0:0:
192,192,41081,1,0,0:0:0:0:
448,192,41081,1,0,0:0:0:0:
320,192,41151,1,0,0:0:0:0:
64,192,41151,1,0,0:0:0:0:
192,192,41221,1,0,0:0:0:0:
448,192,41221,1,0,0:0:0:0:
320,192,41291,1,0,0:0:0:0:
64,192,41291,1,0,0:0:0:0:
448,192,41361,1,0,0:0:0:0:
192,192,41431,1,0,0:0:0:0:
320,192,41501,1,0,0:0:0:0:
64,192,41501,1,0,0:0:0:0:
192,192,41642,1,0,0:0:0:0:
448,192,41642,1,0,0:0:0:0:
64,192,41782,1,0,0:0:0:0:
192,192,41782,1,0,0:0:0:0:
320,192,41852,1,0,0:0:0:0:
448,192,41852,1,0,0:0:0:0:
192,192,41922,1,0,0:0:0:0:
64,192,41922,1,0,0:0:0:0:
320,192,41992,1,0,0:0:0:0:
448,192,41992,1,0,0:0:0:0:
64,192,42062,1,0,0:0:0:0:
192,192,42132,1,0,0:0:0:0:
320,192,42202,1,0,0:0:0:0:
448,192,42272,1,0,0:0:0:0:
192,192,42343,1,0,0:0:0:0:
64,192,42413,1,0,0:0:0:0:
448,192,42483,1,0,0:0:0:0:
320,192,42553,1,0,0:0:0:0:
192,192,42623,1,0,0:0:0:0:
64,192,42623,1,0,0:0:0:0:
320,192,42763,1,0,0:0:0:0:
448,192,42763,1,0,0:0:0:0:
64,192,42903,1,0,0:0:0:0:
192,192,42903,1,0,0:0:0:0:
64,192,43184,1,0,0:0:0:0:
192,192,43184,1,0,0:0:0:0:
320,192,43184,1,0,0:0:0:0:
448,192,43184,1,0,0:0:0:0:
64,192,43464,1,0,0:0:0:0:
192,192,43464,1,0,0:0:0:0:
320,192,43464,1,0,0:0:0:0:
448,192,43464,1,0,0:0:0:0:
64,192,43744,1,0,0:0:0:0:
192,192,43744,1,0,0:0:0:0:
320,192,43744,1,0,0:0:0:0:
448,192,43744,1,0,0:0:0:0:
64,192,44025,128,0,44586:0:0:0:0:
192,192,44586,128,0,45006:0:0:0:0:
64,192,45146,1,0,0:0:0:0:
448,192,45146,1,0,0:0:0:0:
320,192,45146,1,0,0:0:0:0:
192,192,45146,1,0,0:0:0:0:
320,192,45287,1,0,0:0:0:0:
448,192,45287,1,0,0:0:0:0:
64,192,45427,1,0,0:0:0:0:
192,192,45427,1,0,0:0:0:0:
64,192,45567,1,0,0:0:0:0:
320,192,45567,1,0,0:0:0:0:
448,192,45567,1,0,0:0:0:0:
192,192,45707,1,0,0:0:0:0:
320,192,45707,1,0,0:0:0:0:
64,192,45847,1,0,0:0:0:0:
192,192,45847,1,0,0:0:0:0:
448,192,45847,1,0,0:0:0:0:
320,192,45987,1,0,0:0:0:0:
448,192,45987,1,0,0:0:0:0:
192,192,46128,1,0,0:0:0:0:
64,192,46128,1,0,0:0:0:0:
320,192,46128,1,0,0:0:0:0:
64,192,46268,1,0,0:0:0:0:
448,192,46268,1,0,0:0:0:0:
192,192,46408,1,0,0:0:0:0:
320,192,46408,1,0,0:0:0:0:
448,192,46408,1,0,0:0:0:0:
64,192,46548,1,0,0:0:0:0:
192,192,46548,1,0,0:0:0:0:
64,192,46688,1,0,0:0:0:0:
320,192,46688,1,0,0:0:0:0:
448,192,46688,1,0,0:0:0:0:
64,192,46829,1,0,0:0:0:0:
192,192,46829,1,0,0:0:0:0:
192,192,46969,1,0,0:0:0:0:
320,192,46969,1,0,0:0:0:0:
448,192,46969,1,0,0:0:0:0:
64,192,47109,1,0,0:0:0:0:
320,192,47109,1,0,0:0:0:0:
64,192,47249,1,0,0:0:0:0:
192,192,47249,1,0,0:0:0:0:
448,192,47249,1,0,0:0:0:0:
192,192,47389,1,0,0:0:0:0:
320,192,47389,1,0,0:0:0:0:
64,192,47529,1,0,0:0:0:0:
192,192,47529,1,0,0:0:0:0:
448,192,47529,1,0,0:0:0:0:
320,192,47670,1,0,0:0:0:0:
448,192,47670,1,0,0:0:0:0:
64,192,47810,1,0,0:0:0:0:
192,192,47810,1,0,0:0:0:0:
320,192,47810,1,0,0:0:0:0:
64,192,47950,1,0,0:0:0:0:
448,192,47950,1,0,0:0:0:0:
192,192,48090,1,0,0:0:0:0:
448,192,48090,1,0,0:0:0:0:
320,192,48090,1,0,0:0:0:0:
64,192,48230,1,0,0:0:0:0:
192,192,48230,1,0,0:0:0:0:
64,192,48371,1,0,0:0:0:0:
448,192,48371,1,0,0:0:0:0:
320,192,48371,1,0,0:0:0:0:
192,192,48511,1,0,0:0:0:0:
448,192,48511,1,0,0:0:0:0:
64,192,48651,1,0,0:0:0:0:
192,192,48651,1,0,0:0:0:0:
320,192,48651,1,0,0:0:0:0:
64,192,48791,1,0,0:0:0:0:
448,192,48791,1,0,0:0:0:0:
192,192,48931,1,0,0:0:0:0:
320,192,48931,1,0,0:0:0:0:
448,192,48931,1,0,0:0:0:0:
64,192,49072,1,0,0:0:0:0:
448,192,49072,1,0,0:0:0:0:
64,192,49212,1,0,0:0:0:0:
192,192,49212,1,0,0:0:0:0:
320,192,49212,1,0,0:0:0:0:
320,192,49352,1,0,0:0:0:0:
448,192,49352,1,0,0:0:0:0:
64,192,49492,1,0,0:0:0:0:
192,192,49492,1,0,0:0:0:0:
448,192,49492,1,0,0:0:0:0:
64,192,49632,1,0,0:0:0:0:
320,192,49632,1,0,0:0:0:0:
448,192,49632,1,0,0:0:0:0:
192,192,49632,1,0,0:0:0:0:
192,192,49772,1,0,0:0:0:0:
64,192,49772,1,0,0:0:0:0:
448,192,49913,1,0,0:0:0:0:
320,192,49913,1,0,0:0:0:0:
448,192,50053,1,0,0:0:0:0:
192,192,50053,1,0,0:0:0:0:
64,192,50053,1,0,0:0:0:0:
320,192,50193,1,0,0:0:0:0:
192,192,50193,1,0,0:0:0:0:
448,192,50333,1,0,0:0:0:0:
320,192,50333,1,0,0:0:0:0:
64,192,50333,1,0,0:0:0:0:
192,192,50473,1,0,0:0:0:0:
64,192,50473,1,0,0:0:0:0:
320,192,50614,1,0,0:0:0:0:
448,192,50614,1,0,0:0:0:0:
192,192,50614,1,0,0:0:0:0:
448,192,50754,1,0,0:0:0:0:
64,192,50754,1,0,0:0:0:0:
320,192,50894,1,0,0:0:0:0:
192,192,50894,1,0,0:0:0:0:
64,192,50894,1,0,0:0:0:0:
448,192,51034,1,0,0:0:0:0:
320,192,51034,1,0,0:0:0:0:
448,192,51174,1,0,0:0:0:0:
192,192,51174,1,0,0:0:0:0:
64,192,51174,1,0,0:0:0:0:
448,192,51315,1,0,0:0:0:0:
320,192,51315,1,0,0:0:0:0:
320,192,51455,1,0,0:0:0:0:
192,192,51455,1,0,0:0:0:0:
64,192,51455,1,0,0:0:0:0:
448,192,51595,1,0,0:0:0:0:
192,192,51595,1,0,0:0:0:0:
448,192,51735,1,0,0:0:0:0:
320,192,51735,1,0,0:0:0:0:
64,192,51735,1,0,0:0:0:0:
320,192,51875,1,0,0:0:0:0:
192,192,51875,1,0,0:0:0:0:
448,192,52015,1,0,0:0:0:0:
320,192,52015,1,0,0:0:0:0:
64,192,52015,1,0,0:0:0:0:
192,192,52156,1,0,0:0:0:0:
64,192,52156,1,0,0:0:0:0:
448,192,52296,1,0,0:0:0:0:
320,192,52296,1,0,0:0:0:0:
192,192,52296,1,0,0:0:0:0:
448,192,52436,1,0,0:0:0:0:
64,192,52436,1,0,0:0:0:0:
320,192,52576,1,0,0:0:0:0:
64,192,52576,1,0,0:0:0:0:
192,192,52576,1,0,0:0:0:0:
448,192,52716,1,0,0:0:0:0:
320,192,52716,1,0,0:0:0:0:
448,192,52857,1,0,0:0:0:0:
64,192,52857,1,0,0:0:0:0:
192,192,52857,1,0,0:0:0:0:
320,192,52997,1,0,0:0:0:0:
64,192,52997,1,0,0:0:0:0:
448,192,53137,1,0,0:0:0:0:
320,192,53137,1,0,0:0:0:0:
192,192,53137,1,0,0:0:0:0:
448,192,53277,1,0,0:0:0:0:
64,192,53277,1,0,0:0:0:0:
320,192,53417,1,0,0:0:0:0:
192,192,53417,1,0,0:0:0:0:
64,192,53417,1,0,0:0:0:0:
448,192,53558,1,0,0:0:0:0:
64,192,53558,1,0,0:0:0:0:
448,192,53698,1,0,0:0:0:0:
320,192,53698,1,0,0:0:0:0:
192,192,53698,1,0,0:0:0:0:
192,192,53838,1,0,0:0:0:0:
64,192,53838,1,0,0:0:0:0:
448,192,53978,1,0,0:0:0:0:
320,192,53978,1,0,0:0:0:0:
64,192,53978,1,0,0:0:0:0:
448,192,54118,1,0,0:0:0:0:
192,192,54118,1,0,0:0:0:0:
64,192,54118,1,0,0:0:0:0:
320,192,54118,1,0,0:0:0:0:
448,192,54258,1,0,0:0:0:0:
320,192,54258,1,0,0:0:0:0:
192,192,54399,1,0,0:0:0:0:
64,192,54399,1,0,0:0:0:0:
448,192,54539,1,0,0:0:0:0:
320,192,54539,1,0,0:0:0:0:
64,192,54539,1,0,0:0:0:0:
320,192,54679,1,0,0:0:0:0:
192,192,54679,1,0,0:0:0:0:
448,192,54819,1,0,0:0:0:0:
192,192,54819,1,0,0:0:0:0:
64,192,54819,1,0,0:0:0:0:
448,192,54959,1,0,0:0:0:0:
320,192,54959,1,0,0:0:0:0:
320,192,55100,1,0,0:0:0:0:
64,192,55100,1,0,0:0:0:0:
192,192,55100,1,0,0:0:0:0:
448,192,55240,1,0,0:0:0:0:
64,192,55240,1,0,0:0:0:0:
448,192,55380,1,0,0:0:0:0:
320,192,55380,1,0,0:0:0:0:
192,192,55380,1,0,0:0:0:0:
192,192,55520,1,0,0:0:0:0:
64,192,55520,1,0,0:0:0:0:
448,192,55660,1,0,0:0:0:0:
320,192,55660,1,0,0:0:0:0:
64,192,55660,1,0,0:0:0:0:
192,192,55801,1,0,0:0:0:0:
64,192,55801,1,0,0:0:0:0:
448,192,55941,1,0,0:0:0:0:
320,192,55941,1,0,0:0:0:0:
192,192,55941,1,0,0:0:0:0:
320,192,56081,1,0,0:0:0:0:
64,192,56081,1,0,0:0:0:0:
448,192,56221,1,0,0:0:0:0:
192,192,56221,1,0,0:0:0:0:
64,192,56221,1,0,0:0:0:0:
320,192,56361,1,0,0:0:0:0:
192,192,56361,1,0,0:0:0:0:
448,192,56501,1,0,0:0:0:0:
192,192,56501,1,0,0:0:0:0:
64,192,56501,1,0,0:0:0:0:
448,192,56642,1,0,0:0:0:0:
320,192,56642,1,0,0:0:0:0:
320,192,56782,1,0,0:0:0:0:
192,192,56782,1,0,0:0:0:0:
64,192,56782,1,0,0:0:0:0:
448,192,56922,1,0,0:0:0:0:
64,192,56922,1,0,0:0:0:0:
320,192,57062,1,0,0:0:0:0:
448,192,57062,1,0,0:0:0:0:
192,192,57062,1,0,0:0:0:0:
192,192,57202,1,0,0:0:0:0:
64,192,57202,1,0,0:0:0:0:
320,192,57343,1,0,0:0:0:0:
448,192,57343,1,0,0:0:0:0:
64,192,57343,1,0,0:0:0:0:
448,192,57483,1,0,0:0:0:0:
192,192,57483,1,0,0:0:0:0:
320,192,57623,1,0,0:0:0:0:
192,192,57623,1,0,0:0:0:0:
64,192,57623,1,0,0:0:0:0:
448,192,57763,1,0,0:0:0:0:
64,192,57763,1,0,0:0:0:0:
448,192,57903,1,0,0:0:0:0:
320,192,57903,1,0,0:0:0:0:
192,192,57903,1,0,0:0:0:0:
448,192,58044,1,0,0:0:0:0:
64,192,58044,1,0,0:0:0:0:
320,192,58184,1,0,0:0:0:0:
192,192,58184,1,0,0:0:0:0:
64,192,58184,1,0,0:0:0:0:
448,192,58324,1,0,0:0:0:0:
320,192,58324,1,0,0:0:0:0:
448,192,58464,1,0,0:0:0:0:
192,192,58464,1,0,0:0:0:0:
64,192,58464,1,0,0:0:0:0:
448,192,58604,1,0,0:0:0:0:
192,192,58604,1,0,0:0:0:0:
64,192,58604,1,0,0:0:0:0:
320,192,58604,1,0,0:0:0:0:
192,192,58744,1,0,0:0:0:0:
448,192,58744,1,0,0:0:0:0:
64,192,58885,1,0,0:0:0:0:
320,192,58885,1,0,0:0:0:0:
64,192,59025,1,0,0:0:0:0:
320,192,59025,1,0,0:0:0:0:
448,192,59025,1,0,0:0:0:0:
192,192,59165,1,0,0:0:0:0:
320,192,59165,1,0,0:0:0:0:
64,192,59305,1,0,0:0:0:0:
192,192,59305,1,0,0:0:0:0:
448,192,59305,1,0,0:0:0:0:
320,192,59445,1,0,0:0:0:0:
448,192,59445,1,0,0:0:0:0:
192,192,59586,1,0,0:0:0:0:
64,192,59586,1,0,0:0:0:0:
320,192,59586,1,0,0:0:0:0:
64,192,59726,1,0,0:0:0:0:
448,192,59726,1,0,0:0:0:0:
192,192,59866,1,0,0:0:0:0:
320,192,59866,1,0,0:0:0:0:
448,192,59866,1,0,0:0:0:0:
64,192,60006,1,0,0:0:0:0:
192,192,60006,1,0,0:0:0:0:
64,192,60146,1,0,0:0:0:0:
320,192,60146,1,0,0:0:0:0:
448,192,60146,1,0,0:0:0:0:
64,192,60287,1,0,0:0:0:0:
192,192,60287,1,0,0:0:0:0:
192,192,60427,1,0,0:0:0:0:
320,192,60427,1,0,0:0:0:0:
448,192,60427,1,0,0:0:0:0:
64,192,60567,1,0,0:0:0:0:
320,192,60567,1,0,0:0:0:0:
64,192,60707,1,0,0:0:0:0:
192,192,60707,1,0,0:0:0:0:
448,192,60707,1,0,0:0:0:0:
192,192,60847,1,0,0:0:0:0:
320,192,60847,1,0,0:0:0:0:
64,192,60847,1,0,0:0:0:0:
448,192,60847,1,0,0:0:0:0:
64,192,60987,1,0,0:0:0:0:
192,192,60987,1,0,0:0:0:0:
320,192,61058,1,0,0:0:0:0:
448,192,61058,1,0,0:0:0:0:
192,192,61128,1,0,0:0:0:0:
64,192,61128,1,0,0:0:0:0:
192,192,61268,1,0,0:0:0:0:
320,192,61268,1,0,0:0:0:0:
64,192,61408,1,0,0:0:0:0:
448,192,61408,1,0,0:0:0:0:
448,192,61548,1,0,0:0:0:0:
192,192,61548,1,0,0:0:0:0:
320,192,61618,1,0,0:0:0:0:
64,192,61618,1,0,0:0:0:0:
192,192,61688,1,0,0:0:0:0:
448,192,61688,1,0,0:0:0:0:
64,192,61829,1,0,0:0:0:0:
320,192,61829,1,0,0:0:0:0:
192,192,61899,1,0,0:0:0:0:
448,192,61969,1,0,0:0:0:0:
64,192,61969,1,0,0:0:0:0:
320,192,61969,1,0,0:0:0:0:
192,192,62109,1,0,0:0:0:0:
448,192,62109,1,0,0:0:0:0:
64,192,62249,1,0,0:0:0:0:
192,192,62249,1,0,0:0:0:0:
448,192,62319,1,0,0:0:0:0:
320,192,62319,1,0,0:0:0:0:
64,192,62389,1,0,0:0:0:0:
192,192,62389,1,0,0:0:0:0:
448,192,62459,1,0,0:0:0:0:
320,192,62459,1,0,0:0:0:0:
64,192,62529,1,0,0:0:0:0:
192,192,62529,1,0,0:0:0:0:
192,192,62670,1,0,0:0:0:0:
320,192,62670,1,0,0:0:0:0:
320,192,62810,1,0,0:0:0:0:
448,192,62810,1,0,0:0:0:0:
64,192,62950,1,0,0:0:0:0:
192,192,62950,1,0,0:0:0:0:
64,192,63090,1,0,0:0:0:0:
320,192,63090,1,0,0:0:0:0:
448,192,63090,1,0,0:0:0:0:
192,192,63090,1,0,0:0:0:0:
64,192,63371,1,0,0:0:0:0:
320,192,63371,1,0,0:0:0:0:
448,192,63371,1,0,0:0:0:0:
64,192,63651,1,0,0:0:0:0:
192,192,63651,1,0,0:0:0:0:
192,192,63791,1,0,0:0:0:0:
320,192,63791,1,0,0:0:0:0:
64,192,63931,1,0,0:0:0:0:
320,192,63931,1,0,0:0:0:0:
448,192,63931,1,0,0:0:0:0:
192,192,64212,1,0,0:0:0:0:
448,192,64212,1,0,0:0:0:0:
448,192,64352,1,0,0:0:0:0:
320,192,64352,1,0,0:0:0:0:
64,192,64492,1,0,0:0:0:0:
192,192,64492,1,0,0:0:0:0:
448,192,64492,1,0,0:0:0:0:
64,192,64772,1,0,0:0:0:0:
320,192,64772,1,0,0:0:0:0:
192,192,64913,1,0,0:0:0:0:
320,192,64913,1,0,0:0:0:0:
64,192,65053,1,0,0:0:0:0:
192,192,65053,1,0,0:0:0:0:
448,192,65053,1,0,0:0:0:0:
320,192,65333,1,0,0:0:0:0:
448,192,65333,1,0,0:0:0:0:
192,192,65473,1,0,0:0:0:0:
320,192,65473,1,0,0:0:0:0:
64,192,65614,1,0,0:0:0:0:
448,192,65614,1,0,0:0:0:0:
192,192,65614,1,0,0:0:0:0:
64,192,65894,1,0,0:0:0:0:
192,192,65894,1,0,0:0:0:0:
320,192,66034,1,0,0:0:0:0:
448,192,66034,1,0,0:0:0:0:
64,192,66174,1,0,0:0:0:0:
448,192,66174,1,0,0:0:0:0:
192,192,66174,1,0,0:0:0:0:
64,192,66455,1,0,0:0:0:0:
192,192,66455,1,0,0:0:0:0:
320,192,66595,1,0,0:0:0:0:
192,192,66595,1,0,0:0:0:0:
64,192,66735,1,0,0:0:0:0:
320,192,66735,1,0,0:0:0:0:
448,192,66735,1,0,0:0:0:0:
64,192,67015,1,0,0:0:0:0:
320,192,67015,1,0,0:0:0:0:
192,192,67015,1,0,0:0:0:0:
192,192,67156,1,0,0:0:0:0:
448,192,67156,1,0,0:0:0:0:
64,192,67296,1,0,0:0:0:0:
320,192,67296,1,0,0:0:0:0:
448,192,67296,1,0,0:0:0:0:
192,192,67436,1,0,0:0:0:0:
64,192,67576,1,0,0:0:0:0:
320,192,67576,1,0,0:0:0:0:
448,192,67576,1,0,0:0:0:0:
192,192,67576,1,0,0:0:0:0:
64,192,67857,1,0,0:0:0:0:
320,192,67857,1,0,0:0:0:0:
448,192,67857,1,0,0:0:0:0:
64,192,68137,1,0,0:0:0:0:
192,192,68137,1,0,0:0:0:0:
320,192,68277,1,0,0:0:0:0:
192,192,68277,1,0,0:0:0:0:
64,192,68417,1,0,0:0:0:0:
320,192,68417,1,0,0:0:0:0:
448,192,68417,1,0,0:0:0:0:
64,192,68698,1,0,0:0:0:0:
192,192,68698,1,0,0:0:0:0:
448,192,68838,1,0,0:0:0:0:
64,192,68838,1,0,0:0:0:0:
192,192,68978,1,0,0:0:0:0:
320,192,68978,1,0,0:0:0:0:
448,192,68978,1,0,0:0:0:0:
64,192,69258,1,0,0:0:0:0:
320,192,69258,1,0,0:0:0:0:
192,192,69399,1,0,0:0:0:0:
448,192,69399,1,0,0:0:0:0:
64,192,69539,1,0,0:0:0:0:
320,192,69539,1,0,0:0:0:0:
448,192,69539,1,0,0:0:0:0:
448,192,69819,1,0,0:0:0:0:
192,192,69819,1,0,0:0:0:0:
64,192,69959,1,0,0:0:0:0:
192,192,69959,1,0,0:0:0:0:
64,192,70100,1,0,0:0:0:0:
320,192,70100,1,0,0:0:0:0:
448,192,70100,1,0,0:0:0:0:
448,192,70380,1,0,0:0:0:0:
320,192,70380,1,0,0:0:0:0:
192,192,70520,1,0,0:0:0:0:
320,192,70520,1,0,0:0:0:0:
64,192,70660,1,0,0:0:0:0:
192,192,70660,1,0,0:0:0:0:
448,192,70660,1,0,0:0:0:0:
64,192,70941,1,0,0:0:0:0:
448,192,70941,1,0,0:0:0:0:
64,192,71081,1,0,0:0:0:0:
448,192,71081,1,0,0:0:0:0:
192,192,71221,1,0,0:0:0:0:
320,192,71221,1,0,0:0:0:0:
448,192,71221,1,0,0:0:0:0:
64,192,71501,1,0,0:0:0:0:
192,192,71501,1,0,0:0:0:0:
64,192,71642,1,0,0:0:0:0:
192,192,71642,1,0,0:0:0:0:
64,192,71782,1,0,0:0:0:0:
320,192,71782,1,0,0:0:0:0:
448,192,71782,1,0,0:0:0:0:
64,192,72062,1,0,0:0:0:0:
192,192,72062,1,0,0:0:0:0:
320,192,72062,1,0,0:0:0:0:
448,192,72062,1,0,0:0:0:0:
64,192,72202,1,0,0:0:0:0:
320,192,72202,1,0,0:0:0:0:
448,192,72343,1,0,0:0:0:0:
320,192,72343,1,0,0:0:0:0:
192,192,72343,1,0,0:0:0:0:
64,192,72483,1,0,0:0:0:0:
448,192,72483,1,0,0:0:0:0:
192,192,72483,1,0,0:0:0:0:
64,192,72623,1,0,0:0:0:0:
320,192,72623,1,0,0:0:0:0:
192,192,72763,1,0,0:0:0:0:
448,192,72763,1,0,0:0:0:0:
448,192,72903,1,0,0:0:0:0:
320,192,72903,1,0,0:0:0:0:
64,192,72903,1,0,0:0:0:0:
64,192,73044,1,0,0:0:0:0:
448,192,73184,1,0,0:0:0:0:
192,192,73184,1,0,0:0:0:0:
320,192,73324,1,0,0:0:0:0:
448,192,73324,1,0,0:0:0:0:
448,192,73464,1,0,0:0:0:0:
192,192,73464,1,0,0:0:0:0:
64,192,73464,1,0,0:0:0:0:
192,192,73604,1,0,0:0:0:0:
320,192,73604,1,0,0:0:0:0:
320,192,73744,1,0,0:0:0:0:
64,192,73744,1,0,0:0:0:0:
448,192,73885,1,0,0:0:0:0:
448,192,74025,1,0,0:0:0:0:
192,192,74025,1,0,0:0:0:0:
64,192,74025,1,0,0:0:0:0:
448,192,74305,1,0,0:0:0:0:
320,192,74305,1,0,0:0:0:0:
320,192,74445,1,0,0:0:0:0:
192,192,74445,1,0,0:0:0:0:
192,192,74586,1,0,0:0:0:0:
448,192,74586,1,0,0:0:0:0:
64,192,74586,1,0,0:0:0:0:
320,192,74726,1,0,0:0:0:0:
192,192,74866,1,0,0:0:0:0:
64,192,74866,1,0,0:0:0:0:
448,192,74866,1,0,0:0:0:0:
320,192,75006,1,0,0:0:0:0:
448,192,75146,1,0,0:0:0:0:
64,192,75146,1,0,0:0:0:0:
320,192,75146,1,0,0:0:0:0:
448,192,75287,1,0,0:0:0:0:
192,192,75427,1,0,0:0:0:0:
64,192,75427,1,0,0:0:0:0:
320,192,75567,1,0,0:0:0:0:
448,192,75707,1,0,0:0:0:0:
320,192,75707,1,0,0:0:0:0:
64,192,75707,1,0,0:0:0:0:
64,192,75987,1,0,0:0:0:0:
320,192,75987,1,0,0:0:0:0:
192,192,76058,1,0,0:0:0:0:
448,192,76128,1,0,0:0:0:0:
320,192,76128,1,0,0:0:0:0:
192,192,76198,1,0,0:0:0:0:
64,192,76198,1,0,0:0:0:0:
448,192,76268,1,0,0:0:0:0:
320,192,76268,1,0,0:0:0:0:
192,192,76338,1,0,0:0:0:0:
64,192,76338,1,0,0:0:0:0:
320,192,76408,1,0,0:0:0:0:
448,192,76408,1,0,0:0:0:0:
192,192,76478,1,0,0:0:0:0:
448,192,76548,1,0,0:0:0:0:
64,192,76548,1,0,0:0:0:0:
320,192,76548,1,0,0:0:0:0:
448,192,76829,1,0,0:0:0:0:
320,192,76829,1,0,0:0:0:0:
64,192,76829,1,0,0:0:0:0:
192,192,77109,1,0,0:0:0:0:
64,192,77109,1,0,0:0:0:0:
192,192,77249,1,0,0:0:0:0:
320,192,77249,1,0,0:0:0:0:
448,192,77389,1,0,0:0:0:0:
320,192,77389,1,0,0:0:0:0:
64,192,77389,1,0,0:0:0:0:
192,192,77670,1,0,0:0:0:0:
64,192,77670,1,0,0:0:0:0:
64,192,77810,1,0,0:0:0:0:
448,192,77810,1,0,0:0:0:0:
448,192,77950,1,0,0:0:0:0:
320,192,77950,1,0,0:0:0:0:
192,192,77950,1,0,0:0:0:0:
320,192,78230,1,0,0:0:0:0:
64,192,78230,1,0,0:0:0:0:
448,192,78371,1,0,0:0:0:0:
192,192,78371,1,0,0:0:0:0:
448,192,78511,1,0,0:0:0:0:
320,192,78511,1,0,0:0:0:0:
64,192,78511,1,0,0:0:0:0:
192,192,78791,1,0,0:0:0:0:
448,192,78791,1,0,0:0:0:0:
192,192,78931,1,0,0:0:0:0:
64,192,78931,1,0,0:0:0:0:
448,192,79072,1,0,0:0:0:0:
320,192,79072,1,0,0:0:0:0:
64,192,79072,1,0,0:0:0:0:
320,192,79352,1,0,0:0:0:0:
448,192,79352,1,0,0:0:0:0:
320,192,79492,1,0,0:0:0:0:
192,192,79492,1,0,0:0:0:0:
448,192,79632,1,0,0:0:0:0:
192,192,79632,1,0,0:0:0:0:
64,192,79632,1,0,0:0:0:0:
448,192,79913,1,0,0:0:0:0:
64,192,79913,1,0,0:0:0:0:
448,192,80053,1,0,0:0:0:0:
64,192,80053,1,0,0:0:0:0:
192,192,80123,1,0,0:0:0:0:
320,192,80123,1,0,0:0:0:0:
448,192,80193,1,0,0:0:0:0:
64,192,80193,1,0,0:0:0:0:
192,192,80333,1,0,0:0:0:0:
448,192,80333,1,0,0:0:0:0:
64,192,80473,1,0,0:0:0:0:
320,192,80473,1,0,0:0:0:0:
192,192,80614,1,0,0:0:0:0:
64,192,80614,1,0,0:0:0:0:
448,192,80754,1,0,0:0:0:0:
320,192,80754,1,0,0:0:0:0:
64,192,80754,1,0,0:0:0:0:
192,192,80894,1,0,0:0:0:0:
320,192,80894,1,0,0:0:0:0:
448,192,81034,1,0,0:0:0:0:
64,192,81034,1,0,0:0:0:0:
192,192,81034,1,0,0:0:0:0:
64,192,81315,1,0,0:0:0:0:
192,192,81315,1,0,0:0:0:0:
320,192,81315,1,0,0:0:0:0:
192,192,81455,1,0,0:0:0:0:
448,192,81455,1,0,0:0:0:0:
64,192,81595,1,0,0:0:0:0:
320,192,81595,1,0,0:0:0:0:
448,192,81595,1,0,0:0:0:0:
192,192,81735,1,0,0:0:0:0:
64,192,81735,1,0,0:0:0:0:
64,192,81875,1,0,0:0:0:0:
320,192,81875,1,0,0:0:0:0:
448,192,81875,1,0,0:0:0:0:
192,192,82015,1,0,0:0:0:0:
448,192,82015,1,0,0:0:0:0:
64,192,82156,1,0,0:0:0:0:
320,192,82156,1,0,0:0:0:0:
192,192,82156,1,0,0:0:0:0:
64,192,82296,1,0,0:0:0:0:
448,192,82296,1,0,0:0:0:0:
192,192,82436,1,0,0:0:0:0:
320,192,82436,1,0,0:0:0:0:
448,192,82436,1,0,0:0:0:0:
64,192,82576,1,0,0:0:0:0:
320,192,82576,1,0,0:0:0:0:
192,192,82646,1,0,0:0:0:0:
64,192,82716,1,0,0:0:0:0:
320,192,82716,1,0,0:0:0:0:
448,192,82716,1,0,0:0:0:0:
192,192,82857,1,0,0:0:0:0:
448,192,82857,1,0,0:0:0:0:
448,192,82997,1,0,0:0:0:0:
64,192,82997,1,0,0:0:0:0:
320,192,82997,1,0,0:0:0:0:
192,192,83137,1,0,0:0:0:0:
320,192,83277,1,0,0:0:0:0:
448,192,83277,1,0,0:0:0:0:
64,192,83277,1,0,0:0:0:0:
192,192,83277,1,0,0:0:0:0:
64,192,83558,1,0,0:0:0:0:
192,192,83558,1,0,0:0:0:0:
448,192,83558,1,0,0:0:0:0:
320,192,83698,1,0,0:0:0:0:
64,192,83838,1,0,0:0:0:0:
320,192,83838,1,0,0:0:0:0:
192,192,83838,1,0,0:0:0:0:
192,192,83978,1,0,0:0:0:0:
64,192,84118,1,0,0:0:0:0:
320,192,84118,1,0,0:0:0:0:
448,192,84118,1,0,0:0:0:0:
64,192,84258,1,0,0:0:0:0:
192,192,84399,1,0,0:0:0:0:
320,192,84399,1,0,0:0:0:0:
448,192,84399,1,0,0:0:0:0:
192,192,84539,1,0,0:0:0:0:
64,192,84679,1,0,0:0:0:0:
320,192,84679,1,0,0:0:0:0:
448,192,84679,1,0,0:0:0:0:
192,192,84819,1,0,0:0:0:0:
320,192,84889,1,0,0:0:0:0:
64,192,84959,1,0,0:0:0:0:
192,192,84959,1,0,0:0:0:0:
448,192,84959,1,0,0:0:0:0:
320,192,85100,1,0,0:0:0:0:
448,192,85100,1,0,0:0:0:0:
64,192,85240,1,0,0:0:0:0:
192,192,85240,1,0,0:0:0:0:
320,192,85240,1,0,0:0:0:0:
192,192,85380,1,0,0:0:0:0:
64,192,85520,1,0,0:0:0:0:
320,192,85520,1,0,0:0:0:0:
448,192,85520,1,0,0:0:0:0:
64,192,85801,1,0,0:0:0:0:
192,192,85801,1,0,0:0:0:0:
448,192,85801,1,0,0:0:0:0:
320,192,85941,1,0,0:0:0:0:
64,192,86081,1,0,0:0:0:0:
192,192,86081,1,0,0:0:0:0:
320,192,86221,1,0,0:0:0:0:
64,192,86361,1,0,0:0:0:0:
192,192,86361,1,0,0:0:0:0:
448,192,86361,1,0,0:0:0:0:
320,192,86501,1,0,0:0:0:0:
192,192,86572,1,0,0:0:0:0:
64,192,86642,1,0,0:0:0:0:
448,192,86642,1,0,0:0:0:0:
192,192,86782,1,0,0:0:0:0:
64,192,86922,1,0,0:0:0:0:
448,192,86922,1,0,0:0:0:0:
320,192,87062,1,0,0:0:0:0:
192,192,87062,1,0,0:0:0:0:
64,192,87202,1,0,0:0:0:0:
448,192,87202,1,0,0:0:0:0:
192,192,87343,1,0,0:0:0:0:
64,192,87343,1,0,0:0:0:0:
320,192,87483,1,0,0:0:0:0:
448,192,87483,1,0,0:0:0:0:
64,192,87763,1,0,0:0:0:0:
192,192,87763,1,0,0:0:0:0:
448,192,87763,1,0,0:0:0:0:
320,192,88044,1,0,0:0:0:0:
448,192,88044,1,0,0:0:0:0:
64,192,88324,1,0,0:0:0:0:
192,192,88324,1,0,0:0:0:0:
320,192,88464,1,0,0:0:0:0:
448,192,88464,1,0,0:0:0:0:
64,192,88604,1,0,0:0:0:0:
192,192,88604,1,0,0:0:0:0:
320,192,88885,1,0,0:0:0:0:
192,192,88885,1,0,0:0:0:0:
64,192,89025,1,0,0:0:0:0:
448,192,89025,1,0,0:0:0:0:
192,192,89165,1,0,0:0:0:0:
320,192,89165,1,0,0:0:0:0:
192,192,89445,1,0,0:0:0:0:
64,192,89445,1,0,0:0:0:0:
64,192,89586,1,0,0:0:0:0:
192,192,89586,1,0,0:0:0:0:
320,192,89726,1,0,0:0:0:0:
448,192,89726,1,0,0:0:0:0:
192,192,89866,1,0,0:0:0:0:
448,192,90006,1,0,0:0:0:0:
64,192,90006,1,0,0:0:0:0:
320,192,90006,1,0,0:0:0:0:
192,192,90146,1,0,0:0:0:0:
192,192,90287,1,0,0:0:0:0:
64,192,90427,1,0,0:0:0:0:
320,192,90427,1,0,0:0:0:0:
448,192,90427,1,0,0:0:0:0:
320,192,90567,1,0,0:0:0:0:
192,192,90707,1,0,0:0:0:0:
320,192,90707,1,0,0:0:0:0:
64,192,90847,1,0,0:0:0:0:
192,192,90847,1,0,0:0:0:0:
448,192,90847,1,0,0:0:0:0:
320,192,90987,1,0,0:0:0:0:
320,192,91128,1,0,0:0:0:0:
192,192,91268,1,0,0:0:0:0:
64,192,91268,1,0,0:0:0:0:
320,192,91338,1,0,0:0:0:0:
448,192,91338,1,0,0:0:0:0:
192,192,91408,1,0,0:0:0:0:
64,192,91478,1,0,0:0:0:0:
192,192,91548,1,0,0:0:0:0:
320,192,91618,1,0,0:0:0:0:
448,192,91688,1,0,0:0:0:0:
320,192,91758,1,0,0:0:0:0:
192,192,91829,1,0,0:0:0:0:
320,192,91899,1,0,0:0:0:0:
64,192,91969,1,0,0:0:0:0:
192,192,92039,1,0,0:0:0:0:
448,192,92109,1,0,0:0:0:0:
320,192,92179,1,0,0:0:0:0:
192,192,92249,1,0,0:0:0:0:
448,192,92249,1,0,0:0:0:0:
64,192,92249,128,0,92529:0:0:0:0:
320,192,92389,128,0,92529:0:0:0:0:
192,192,92529,128,0,92810:0:0:0:0:
448,192,92670,128,0,92810:0:0:0:0:
320,192,92810,128,0,93090:0:0:0:0:
64,192,92950,128,0,93090:0:0:0:0:
192,192,93090,128,0,93371:0:0:0:0:
448,192,93230,128,0,93371:0:0:0:0:
320,192,93371,128,0,93651:0:0:0:0:
64,192,93511,128,0,93651:0:0:0:0:
192,192,93651,128,0,93931:0:0:0:0:
448,192,93791,128,0,93931:0:0:0:0:
64,192,93931,128,0,94212:0:0:0:0:
320,192,94072,128,0,94212:0:0:0:0:
448,192,94212,128,0,94492:0:0:0:0:
192,192,94352,128,0,94492:0:0:0:0:
320,192,94492,128,0,94772:0:0:0:0:
64,192,94632,128,0,94772:0:0:0:0:
192,192,94772,128,0,95053:0:0:0:0:
320,192,94913,128,0,95053:0:0:0:0:
448,192,95053,128,0,95333:0:0:0:0:
192,192,95193,128,0,95333:0:0:0:0:
64,192,95333,128,0,95614:0:0:0:0:
448,192,95473,128,0,95614:0:0:0:0:
320,192,95614,128,0,95894:0:0:0:0:
64,192,95754,128,0,95894:0:0:0:0:
192,192,95894,128,0,96174:0:0:0:0:
448,192,96034,128,0,96174:0:0:0:0:
320,192,96174,128,0,96455:0:0:0:0:
64,192,96315,128,0,96455:0:0:0:0:
448,192,96455,128,0,96595:0:0:0:0:
64,192,96595,5,0,0:0:0:0:
192,192,96595,1,0,0:0:0:0:
320,192,96665,1,0,0:0:0:0:
448,192,96735,1,0,0:0:0:0:
192,192,96735,1,0,0:0:0:0:
64,192,96735,1,0,0:0:0:0:
320,192,96875,1,0,0:0:0:0:
448,192,96875,1,0,0:0:0:0:
192,192,97015,1,0,0:0:0:0:
64,192,97015,1,0,0:0:0:0:
320,192,97156,1,0,0:0:0:0:
448,192,97156,1,0,0:0:0:0:
64,192,97156,1,0,0:0:0:0:
192,192,97296,1,0,0:0:0:0:
320,192,97296,1,0,0:0:0:0:
64,192,97436,1,0,0:0:0:0:
192,192,97436,1,0,0:0:0:0:
64,192,97576,1,0,0:0:0:0:
320,192,97576,1,0,0:0:0:0:
448,192,97576,1,0,0:0:0:0:
192,192,97716,1,0,0:0:0:0:
320,192,97716,1,0,0:0:0:0:
64,192,97857,1,0,0:0:0:0:
192,192,97857,1,0,0:0:0:0:
448,192,97857,1,0,0:0:0:0:
320,192,97997,1,0,0:0:0:0:
192,192,98137,1,0,0:0:0:0:
64,192,98137,1,0,0:0:0:0:
64,192,98277,1,0,0:0:0:0:
320,192,98277,1,0,0:0:0:0:
448,192,98277,1,0,0:0:0:0:
320,192,98417,1,0,0:0:0:0:
192,192,98558,1,0,0:0:0:0:
64,192,98558,1,0,0:0:0:0:
448,192,98698,1,0,0:0:0:0:
320,192,98698,1,0,0:0:0:0:
64,192,98698,1,0,0:0:0:0:
192,192,98838,1,0,0:0:0:0:
64,192,98978,1,0,0:0:0:0:
320,192,98978,1,0,0:0:0:0:
448,192,98978,1,0,0:0:0:0:
192,192,99118,1,0,0:0:0:0:
64,192,99118,1,0,0:0:0:0:
320,192,99188,1,0,0:0:0:0:
448,192,99188,1,0,0:0:0:0:
192,192,99258,1,0,0:0:0:0:
64,192,99258,1,0,0:0:0:0:
320,192,99329,1,0,0:0:0:0:
192,192,99399,1,0,0:0:0:0:
64,192,99399,1,0,0:0:0:0:
448,192,99399,1,0,0:0:0:0:
320,192,99469,1,0,0:0:0:0:
192,192,99539,1,0,0:0:0:0:
64,192,99539,1,0,0:0:0:0:
320,192,99609,1,0,0:0:0:0:
448,192,99609,1,0,0:0:0:0:
192,192,99679,1,0,0:0:0:0:
64,192,99679,1,0,0:0:0:0:
320,192,99749,1,0,0:0:0:0:
192,192,99819,1,0,0:0:0:0:
64,192,99819,1,0,0:0:0:0:
448,192,99819,1,0,0:0:0:0:
320,192,99889,1,0,0:0:0:0:
192,192,99959,1,0,0:0:0:0:
64,192,99959,1,0,0:0:0:0:
320,192,100029,1,0,0:0:0:0:
192,192,100100,1,0,0:0:0:0:
64,192,100100,1,0,0:0:0:0:
448,192,100100,1,0,0:0:0:0:
320,192,100170,1,0,0:0:0:0:
192,192,100240,1,0,0:0:0:0:
64,192,100240,1,0,0:0:0:0:
320,192,100310,1,0,0:0:0:0:
192,192,100380,1,0,0:0:0:0:
64,192,100380,1,0,0:0:0:0:
448,192,100380,1,0,0:0:0:0:
320,192,100450,1,0,0:0:0:0:
64,192,100520,1,0,0:0:0:0:
192,192,100520,1,0,0:0:0:0:
320,192,100590,1,0,0:0:0:0:
64,192,100660,1,0,0:0:0:0:
192,192,100660,1,0,0:0:0:0:
448,192,100660,1,0,0:0:0:0:
64,192,101221,1,0,0:0:0:0:
192,192,101221,1,0,0:0:0:0:
320,192,101221,1,0,0:0:0:0:
448,192,101221,1,0,0:0:0:0:
64,192,101361,1,0,0:0:0:0:
192,192,101361,1,0,0:0:0:0:
448,192,101361,1,0,0:0:0:0:
320,192,101501,1,0,0:0:0:0:
448,192,101501,1,0,0:0:0:0:
192,192,101572,1,0,0:0:0:0:
64,192,101572,1,0,0:0:0:0:
448,192,101642,1,0,0:0:0:0:
320,192,101642,1,0,0:0:0:0:
64,192,101782,1,0,0:0:0:0:
448,192,101782,1,0,0:0:0:0:
64,192,101922,1,0,0:0:0:0:
192,192,101922,1,0,0:0:0:0:
320,192,101922,1,0,0:0:0:0:
192,192,102062,1,0,0:0:0:0:
448,192,102062,1,0,0:0:0:0:
320,192,102132,1,0,0:0:0:0:
64,192,102132,1,0,0:0:0:0:
448,192,102202,1,0,0:0:0:0:
192,192,102202,1,0,0:0:0:0:
320,192,102343,1,0,0:0:0:0:
448,192,102343,1,0,0:0:0:0:
64,192,102483,1,0,0:0:0:0:
192,192,102483,1,0,0:0:0:0:
320,192,102483,1,0,0:0:0:0:
448,192,102623,1,0,0:0:0:0:
64,192,102623,1,0,0:0:0:0:
320,192,102693,1,0,0:0:0:0:
192,192,102693,1,0,0:0:0:0:
448,192,102763,1,0,0:0:0:0:
64,192,102763,1,0,0:0:0:0:
320,192,102903,1,0,0:0:0:0:
192,192,102903,1,0,0:0:0:0:
192,192,103044,1,0,0:0:0:0:
64,192,103044,1,0,0:0:0:0:
448,192,103044,1,0,0:0:0:0:
320,192,103184,1,0,0:0:0:0:
448,192,103184,1,0,0:0:0:0:
192,192,103254,1,0,0:0:0:0:
64,192,103254,1,0,0:0:0:0:
448,192,103324,1,0,0:0:0:0:
320,192,103324,1,0,0:0:0:0:
192,192,103464,1,0,0:0:0:0:
64,192,103464,1,0,0:0:0:0:
64,192,103604,1,0,0:0:0:0:
320,192,103604,1,0,0:0:0:0:
448,192,103604,1,0,0:0:0:0:
192,192,103744,1,0,0:0:0:0:
448,192,103744,1,0,0:0:0:0:
320,192,103815,1,0,0:0:0:0:
64,192,103815,1,0,0:0:0:0:
448,192,103885,1,0,0:0:0:0:
192,192,103885,1,0,0:0:0:0:
64,192,104025,1,0,0:0:0:0:
320,192,104025,1,0,0:0:0:0:
192,192,104165,1,0,0:0:0:0:
448,192,104165,1,0,0:0:0:0:
64,192,104165,1,0,0:0:0:0:
320,192,104305,1,0,0:0:0:0:
448,192,104305,1,0,0:0:0:0:
192,192,104375,1,0,0:0:0:0:
64,192,104375,1,0,0:0:0:0:
448,192,104445,1,0,0:0:0:0:
320,192,104445,1,0,0:0:0:0:
192,192,104586,1,0,0:0:0:0:
64,192,104586,1,0,0:0:0:0:
192,192,104726,1,0,0:0:0:0:
320,192,104726,1,0,0:0:0:0:
448,192,104726,1,0,0:0:0:0:
320,192,104866,1,0,0:0:0:0:
64,192,104866,1,0,0:0:0:0:
192,192,104936,1,0,0:0:0:0:
448,192,104936,1,0,0:0:0:0:
64,192,105006,1,0,0:0:0:0:
320,192,105006,1,0,0:0:0:0:
448,192,105146,1,0,0:0:0:0:
192,192,105146,1,0,0:0:0:0:
64,192,105287,1,0,0:0:0:0:
448,192,105287,1,0,0:0:0:0:
320,192,105287,1,0,0:0:0:0:
320,192,105427,1,0,0:0:0:0:
192,192,105427,1,0,0:0:0:0:
64,192,105497,1,0,0:0:0:0:
448,192,105497,1,0,0:0:0:0:
192,192,105567,1,0,0:0:0:0:
320,192,105567,1,0,0:0:0:0:
192,192,105707,1,0,0:0:0:0:
320,192,105707,1,0,0:0:0:0:
448,192,105707,1,0,0:0:0:0:
64,192,105707,1,0,0:0:0:0:
64,192,105847,1,0,0:0:0:0:
448,192,105847,1,0,0:0:0:0:
192,192,105987,1,0,0:0:0:0:
320,192,105987,1,0,0:0:0:0:
448,192,106058,1,0,0:0:0:0:
64,192,106058,1,0,0:0:0:0:
192,192,106128,1,0,0:0:0:0:
320,192,106128,1,0,0:0:0:0:
448,192,106268,1,0,0:0:0:0:
64,192,106268,1,0,0:0:0:0:
64,192,106408,1,0,0:0:0:0:
192,192,106408,1,0,0:0:0:0:
320,192,106408,1,0,0:0:0:0:
320,192,106548,1,0,0:0:0:0:
448,192,106548,1,0,0:0:0:0:
64,192,106618,1,0,0:0:0:0:
192,192,106618,1,0,0:0:0:0:
320,192,106688,1,0,0:0:0:0:
448,192,106688,1,0,0:0:0:0:
64,192,106829,1,0,0:0:0:0:
192,192,106829,1,0,0:0:0:0:
64,192,106969,1,0,0:0:0:0:
320,192,106969,1,0,0:0:0:0:
448,192,106969,1,0,0:0:0:0:
192,192,107109,1,0,0:0:0:0:
448,192,107109,1,0,0:0:0:0:
320,192,107179,1,0,0:0:0:0:
64,192,107179,1,0,0:0:0:0:
192,192,107249,1,0,0:0:0:0:
448,192,107249,1,0,0:0:0:0:
64,192,107389,1,0,0:0:0:0:
192,192,107389,1,0,0:0:0:0:
64,192,107529,1,0,0:0:0:0:
320,192,107529,1,0,0:0:0:0:
448,192,107529,1,0,0:0:0:0:
192,192,107670,1,0,0:0:0:0:
448,192,107670,1,0,0:0:0:0:
320,192,107740,1,0,0:0:0:0:
64,192,107740,1,0,0:0:0:0:
192,192,107810,1,0,0:0:0:0:
448,192,107810,1,0,0:0:0:0:
64,192,107950,1,0,0:0:0:0:
320,192,107950,1,0,0:0:0:0:
320,192,108090,1,0,0:0:0:0:
448,192,108090,1,0,0:0:0:0:
192,192,108090,1,0,0:0:0:0:
64,192,108230,1,0,0:0:0:0:
192,192,108230,1,0,0:0:0:0:
320,192,108301,1,0,0:0:0:0:
448,192,108301,1,0,0:0:0:0:
192,192,108371,1,0,0:0:0:0:
64,192,108371,1,0,0:0:0:0:
320,192,108511,1,0,0:0:0:0:
448,192,108511,1,0,0:0:0:0:
64,192,108651,1,0,0:0:0:0:
192,192,108651,1,0,0:0:0:0:
448,192,108651,1,0,0:0:0:0:
320,192,108791,1,0,0:0:0:0:
64,192,108791,1,0,0:0:0:0:
192,192,108861,1,0,0:0:0:0:
448,192,108861,1,0,0:0:0:0:
320,192,108931,1,0,0:0:0:0:
64,192,108931,1,0,0:0:0:0:
320,192,109072,1,0,0:0:0:0:
448,192,109072,1,0,0:0:0:0:
192,192,109212,1,0,0:0:0:0:
448,192,109212,1,0,0:0:0:0:
64,192,109352,1,0,0:0:0:0:
320,192,109352,1,0,0:0:0:0:
64,192,109492,1,0,0:0:0:0:
192,192,109492,1,0,0:0:0:0:
320,192,109632,1,0,0:0:0:0:
448,192,109632,1,0,0:0:0:0:
64,192,109772,1,0,0:0:0:0:
320,192,109772,1,0,0:0:0:0:
192,192,109913,1,0,0:0:0:0:
448,192,109913,1,0,0:0:0:0:
64,192,110053,1,0,0:0:0:0:
320,192,110053,1,0,0:0:0:0:
192,192,110193,1,0,0:0:0:0:
320,192,110193,1,0,0:0:0:0:
448,192,110193,1,0,0:0:0:0:
64,192,110193,1,0,0:0:0:0:
192,192,110333,1,0,0:0:0:0:
192,192,110473,1,0,0:0:0:0:
320,192,110614,1,0,0:0:0:0:
192,192,110754,1,0,0:0:0:0:
64,192,110754,1,0,0:0:0:0:
448,192,110754,1,0,0:0:0:0:
64,192,110894,1,0,0:0:0:0:
64,192,111034,1,0,0:0:0:0:
448,192,111034,1,0,0:0:0:0:
192,192,111174,1,0,0:0:0:0:
320,192,111315,1,0,0:0:0:0:
448,192,111315,1,0,0:0:0:0:
64,192,111315,1,0,0:0:0:0:
448,192,111455,1,0,0:0:0:0:
320,192,111595,1,0,0:0:0:0:
320,192,111735,1,0,0:0:0:0:
64,192,111875,1,0,0:0:0:0:
192,192,111875,1,0,0:0:0:0:
448,192,111875,1,0,0:0:0:0:
192,192,112015,1,0,0:0:0:0:
64,192,112156,1,0,0:0:0:0:
448,192,112156,1,0,0:0:0:0:
320,192,112296,1,0,0:0:0:0:
320,192,112436,1,0,0:0:0:0:
192,192,112436,1,0,0:0:0:0:
64,192,112436,1,0,0:0:0:0:
448,192,112436,1,0,0:0:0:0:
192,192,112576,1,0,0:0:0:0:
320,192,112716,1,0,0:0:0:0:
64,192,112857,1,0,0:0:0:0:
192,192,112857,1,0,0:0:0:0:
448,192,112857,1,0,0:0:0:0:
64,192,112997,1,0,0:0:0:0:
448,192,112997,1,0,0:0:0:0:
320,192,113137,1,0,0:0:0:0:
192,192,113277,1,0,0:0:0:0:
320,192,113277,1,0,0:0:0:0:
192,192,113417,1,0,0:0:0:0:
64,192,113558,1,0,0:0:0:0:
320,192,113558,1,0,0:0:0:0:
448,192,113558,1,0,0:0:0:0:
192,192,113698,1,0,0:0:0:0:
320,192,113838,1,0,0:0:0:0:
64,192,113978,1,0,0:0:0:0:
192,192,113978,1,0,0:0:0:0:
320,192,114048,1,0,0:0:0:0:
64,192,114118,1,0,0:0:0:0:
192,192,114118,1,0,0:0:0:0:
448,192,114118,1,0,0:0:0:0:
320,192,114258,1,0,0:0:0:0:
448,192,114258,1,0,0:0:0:0:
192,192,114399,1,0,0:0:0:0:
192,192,114539,1,0,0:0:0:0:
64,192,114679,1,0,0:0:0:0:
320,192,114679,1,0,0:0:0:0:
448,192,114679,1,0,0:0:0:0:
192,192,114679,1,0,0:0:0:0:
320,192,114819,1,0,0:0:0:0:
320,192,114959,1,0,0:0:0:0:
192,192,115100,1,0,0:0:0:0:
320,192,115240,1,0,0:0:0:0:
448,192,115240,1,0,0:0:0:0:
64,192,115240,1,0,0:0:0:0:
192,192,115380,1,0,0:0:0:0:
64,192,115520,1,0,0:0:0:0:
192,192,115520,1,0,0:0:0:0:
320,192,115660,1,0,0:0:0:0:
192,192,115801,1,0,0:0:0:0:
64,192,115801,1,0,0:0:0:0:
448,192,115801,1,0,0:0:0:0:
320,192,115941,1,0,0:0:0:0:
64,192,116081,1,0,0:0:0:0:
192,192,116081,1,0,0:0:0:0:
448,192,116081,1,0,0:0:0:0:
320,192,116221,1,0,0:0:0:0:
192,192,116361,1,0,0:0:0:0:
64,192,116361,1,0,0:0:0:0:
320,192,116431,1,0,0:0:0:0:
448,192,116431,1,0,0:0:0:0:
192,192,116501,1,0,0:0:0:0:
64,192,116501,1,0,0:0:0:0:
320,192,116572,1,0,0:0:0:0:
448,192,116572,1,0,0:0:0:0:
192,192,116642,1,0,0:0:0:0:
64,192,116642,1,0,0:0:0:0:
320,192,116712,1,0,0:0:0:0:
448,192,116712,1,0,0:0:0:0:
192,192,116782,1,0,0:0:0:0:
64,192,116782,1,0,0:0:0:0:
320,192,116852,1,0,0:0:0:0:
192,192,116922,1,0,0:0:0:0:
64,192,116922,1,0,0:0:0:0:
448,192,116922,1,0,0:0:0:0:
64,192,117202,1,0,0:0:0:0:
320,192,117202,1,0,0:0:0:0:
448,192,117202,1,0,0:0:0:0:
192,192,117343,1,0,0:0:0:0:
320,192,117343,1,0,0:0:0:0:
64,192,117483,1,0,0:0:0:0:
192,192,117483,1,0,0:0:0:0:
448,192,117483,1,0,0:0:0:0:
320,192,117623,1,0,0:0:0:0:
448,192,117623,1,0,0:0:0:0:
64,192,117763,1,0,0:0:0:0:
192,192,117763,1,0,0:0:0:0:
320,192,117763,1,0,0:0:0:0:
64,192,117903,1,0,0:0:0:0:
192,192,117903,1,0,0:0:0:0:
64,192,118044,1,0,0:0:0:0:
320,192,118044,1,0,0:0:0:0:
448,192,118044,1,0,0:0:0:0:
192,192,118184,1,0,0:0:0:0:
320,192,118184,1,0,0:0:0:0:
64,192,118324,1,0,0:0:0:0:
192,192,118324,1,0,0:0:0:0:
448,192,118324,1,0,0:0:0:0:
320,192,118464,1,0,0:0:0:0:
64,192,118464,1,0,0:0:0:0:
192,192,118604,1,0,0:0:0:0:
320,192,118604,1,0,0:0:0:0:
448,192,118604,1,0,0:0:0:0:
64,192,118744,1,0,0:0:0:0:
448,192,118744,1,0,0:0:0:0:
64,192,118885,1,0,0:0:0:0:
192,192,118885,1,0,0:0:0:0:
320,192,118885,1,0,0:0:0:0:
320,192,119025,1,0,0:0:0:0:
448,192,119025,1,0,0:0:0:0:
64,192,119165,1,0,0:0:0:0:
192,192,119165,1,0,0:0:0:0:
448,192,119165,1,0,0:0:0:0:
64,192,119305,1,0,0:0:0:0:
192,192,119305,1,0,0:0:0:0:
448,192,119305,1,0,0:0:0:0:
320,192,119445,1,0,0:0:0:0:
192,192,119515,1,0,0:0:0:0:
64,192,119586,1,0,0:0:0:0:
320,192,119586,1,0,0:0:0:0:
448,192,119586,1,0,0:0:0:0:
64,192,119726,1,0,0:0:0:0:
192,192,119726,1,0,0:0:0:0:
448,192,119726,1,0,0:0:0:0:
320,192,119866,1,0,0:0:0:0:
64,192,119936,1,0,0:0:0:0:
192,192,120006,1,0,0:0:0:0:
448,192,120006,1,0,0:0:0:0:
320,192,120006,1,0,0:0:0:0:
192,192,120146,1,0,0:0:0:0:
64,192,120146,1,0,0:0:0:0:
448,192,120146,1,0,0:0:0:0:
320,192,120287,1,0,0:0:0:0:
192,192,120357,1,0,0:0:0:0:
64,192,120427,1,0,0:0:0:0:
448,192,120427,1,0,0:0:0:0:
320,192,120427,1,0,0:0:0:0:
192,192,120567,1,0,0:0:0:0:
448,192,120567,1,0,0:0:0:0:
64,192,120567,1,0,0:0:0:0:
320,192,120637,1,0,0:0:0:0:
192,192,120707,1,0,0:0:0:0:
64,192,120777,1,0,0:0:0:0:
192,192,120847,1,0,0:0:0:0:
320,192,120847,1,0,0:0:0:0:
448,192,120847,1,0,0:0:0:0:
64,192,120987,1,0,0:0:0:0:
320,192,120987,1,0,0:0:0:0:
448,192,120987,1,0,0:0:0:0:
64,192,121128,1,0,0:0:0:0:
320,192,121128,1,0,0:0:0:0:
448,192,121128,1,0,0:0:0:0:
64,192,121268,1,0,0:0:0:0:
192,192,121268,1,0,0:0:0:0:
448,192,121268,1,0,0:0:0:0:
320,192,121408,128,0,122483:0:0:0:0:
192,192,122483,128,0,123651:0:0:0:0:
64,192,123651,5,0,0:0:0:0:
448,192,123651,1,0,0:0:0:0:
320,192,123651,1,0,0:0:0:0:
320,192,123791,1,0,0:0:0:0:
448,192,123791,1,0,0:0:0:0:
64,192,123931,1,0,0:0:0:0:
192,192,123931,1,0,0:0:0:0:
64,192,124072,1,0,0:0:0:0:
320,192,124072,1,0,0:0:0:0:
448,192,124072,1,0,0:0:0:0:
192,192,124212,1,0,0:0:0:0:
320,192,124212,1,0,0:0:0:0:
64,192,124352,1,0,0:0:0:0:
192,192,124352,1,0,0:0:0:0:
448,192,124352,1,0,0:0:0:0:
320,192,124492,1,0,0:0:0:0:
448,192,124492,1,0,0:0:0:0:
192,192,124632,1,0,0:0:0:0:
64,192,124632,1,0,0:0:0:0:
320,192,124632,1,0,0:0:0:0:
64,192,124772,1,0,0:0:0:0:
448,192,124772,1,0,0:0:0:0:
192,192,124913,1,0,0:0:0:0:
320,192,124913,1,0,0:0:0:0:
448,192,124913,1,0,0:0:0:0:
64,192,125053,1,0,0:0:0:0:
192,192,125053,1,0,0:0:0:0:
64,192,125193,1,0,0:0:0:0:
320,192,125193,1,0,0:0:0:0:
448,192,125193,1,0,0:0:0:0:
64,192,125333,1,0,0:0:0:0:
192,192,125333,1,0,0:0:0:0:
192,192,125473,1,0,0:0:0:0:
320,192,125473,1,0,0:0:0:0:
448,192,125473,1,0,0:0:0:0:
64,192,125614,1,0,0:0:0:0:
320,192,125614,1,0,0:0:0:0:
64,192,125754,1,0,0:0:0:0:
192,192,125754,1,0,0:0:0:0:
448,192,125754,1,0,0:0:0:0:
192,192,125894,1,0,0:0:0:0:
320,192,125894,1,0,0:0:0:0:
64,192,126034,1,0,0:0:0:0:
192,192,126034,1,0,0:0:0:0:
448,192,126034,1,0,0:0:0:0:
320,192,126174,1,0,0:0:0:0:
448,192,126174,1,0,0:0:0:0:
64,192,126315,1,0,0:0:0:0:
192,192,126315,1,0,0:0:0:0:
320,192,126315,1,0,0:0:0:0:
64,192,126455,1,0,0:0:0:0:
448,192,126455,1,0,0:0:0:0:
192,192,126595,1,0,0:0:0:0:
448,192,126595,1,0,0:0:0:0:
320,192,126595,1,0,0:0:0:0:
64,192,126735,1,0,0:0:0:0:
192,192,126735,1,0,0:0:0:0:
64,192,126875,1,0,0:0:0:0:
448,192,126875,1,0,0:0:0:0:
320,192,126875,1,0,0:0:0:0:
192,192,127015,1,0,0:0:0:0:
448,192,127015,1,0,0:0:0:0:
64,192,127156,1,0,0:0:0:0:
192,192,127156,1,0,0:0:0:0:
320,192,127156,1,0,0:0:0:0:
64,192,127296,1,0,0:0:0:0:
448,192,127296,1,0,0:0:0:0:
192,192,127436,1,0,0:0:0:0:
320,192,127436,1,0,0:0:0:0:
448,192,127436,1,0,0:0:0:0:
64,192,127576,1,0,0:0:0:0:
448,192,127576,1,0,0:0:0:0:
64,192,127716,1,0,0:0:0:0:
192,192,127716,1,0,0:0:0:0:
320,192,127716,1,0,0:0:0:0:
320,192,127857,1,0,0:0:0:0:
448,192,127857,1,0,0:0:0:0:
64,192,127997,1,0,0:0:0:0:
192,192,127997,1,0,0:0:0:0:
448,192,127997,1,0,0:0:0:0:
64,192,128137,1,0,0:0:0:0:
320,192,128137,1,0,0:0:0:0:
448,192,128137,1,0,0:0:0:0:
192,192,128137,1,0,0:0:0:0:
192,192,128277,1,0,0:0:0:0:
64,192,128277,1,0,0:0:0:0:
448,192,128417,1,0,0:0:0:0:
320,192,128417,1,0,0:0:0:0:
448,192,128558,1,0,0:0:0:0:
192,192,128558,1,0,0:0:0:0:
64,192,128558,1,0,0:0:0:0:
320,192,128698,1,0,0:0:0:0:
192,192,128698,1,0,0:0:0:0:
448,192,128838,1,0,0:0:0:0:
320,192,128838,1,0,0:0:0:0:
64,192,128838,1,0,0:0:0:0:
192,192,128978,1,0,0:0:0:0:
64,192,128978,1,0,0:0:0:0:
320,192,129118,1,0,0:0:0:0:
448,192,129118,1,0,0:0:0:0:
192,192,129118,1,0,0:0:0:0:
448,192,129258,1,0,0:0:0:0:
64,192,129258,1,0,0:0:0:0:
320,192,129399,1,0,0:0:0:0:
192,192,129399,1,0,0:0:0:0:
64,192,129399,1,0,0:0:0:0:
448,192,129539,1,0,0:0:0:0:
320,192,129539,1,0,0:0:0:0:
448,192,129679,1,0,0:0:0:0:
192,192,129679,1,0,0:0:0:0:
64,192,129679,1,0,0:0:0:0:
448,192,129819,1,0,0:0:0:0:
320,192,129819,1,0,0:0:0:0:
320,192,129959,1,0,0:0:0:0:
192,192,129959,1,0,0:0:0:0:
64,192,129959,1,0,0:0:0:0:
448,192,130100,1,0,0:0:0:0:
192,192,130100,1,0,0:0:0:0:
448,192,130240,1,0,0:0:0:0:
320,192,130240,1,0,0:0:0:0:
64,192,130240,1,0,0:0:0:0:
320,192,130380,1,0,0:0:0:0:
192,192,130380,1,0,0:0:0:0:
448,192,130520,1,0,0:0:0:0:
320,192,130520,1,0,0:0:0:0:
64,192,130520,1,0,0:0:0:0:
192,192,130660,1,0,0:0:0:0:
64,192,130660,1,0,0:0:0:0:
448,192,130801,1,0,0:0:0:0:
320,192,130801,1,0,0:0:0:0:
192,192,130801,1,0,0:0:0:0:
448,192,130941,1,0,0:0:0:0:
64,192,130941,1,0,0:0:0:0:
320,192,131081,1,0,0:0:0:0:
64,192,131081,1,0,0:0:0:0:
192,192,131081,1,0,0:0:0:0:
448,192,131221,1,0,0:0:0:0:
320,192,131221,1,0,0:0:0:0:
448,192,131361,1,0,0:0:0:0:
64,192,131361,1,0,0:0:0:0:
192,192,131361,1,0,0:0:0:0:
320,192,131501,1,0,0:0:0:0:
64,192,131501,1,0,0:0:0:0:
448,192,131642,1,0,0:0:0:0:
320,192,131642,1,0,0:0:0:0:
192,192,131642,1,0,0:0:0:0:
448,192,131782,1,0,0:0:0:0:
64,192,131782,1,0,0:0:0:0:
320,192,131922,1,0,0:0:0:0:
192,192,131922,1,0,0:0:0:0:
64,192,131922,1,0,0:0:0:0:
448,192,132062,1,0,0:0:0:0:
64,192,132062,1,0,0:0:0:0:
448,192,132202,1,0,0:0:0:0:
320,192,132202,1,0,0:0:0:0:
192,192,132202,1,0,0:0:0:0:
192,192,132343,1,0,0:0:0:0:
64,192,132343,1,0,0:0:0:0:
448,192,132483,1,0,0:0:0:0:
320,192,132483,1,0,0:0:0:0:
64,192,132483,1,0,0:0:0:0:
448,192,132623,1,0,0:0:0:0:
192,192,132623,1,0,0:0:0:0:
64,192,132623,1,0,0:0:0:0:
320,192,132623,1,0,0:0:0:0:
448,192,132763,1,0,0:0:0:0:
320,192,132763,1,0,0:0:0:0:
192,192,132903,1,0,0:0:0:0:
64,192,132903,1,0,0:0:0:0:
448,192,133044,1,0,0:0:0:0:
320,192,133044,1,0,0:0:0:0:
64,192,133044,1,0,0:0:0:0:
320,192,133184,1,0,0:0:0:0:
192,192,133184,1,0,0:0:0:0:
448,192,133324,1,0,0:0:0:0:
192,192,133324,1,0,0:0:0:0:
64,192,133324,1,0,0:0:0:0:
448,192,133464,1,0,0:0:0:0:
320,192,133464,1,0,0:0:0:0:
320,192,133604,1,0,0:0:0:0:
64,192,133604,1,0,0:0:0:0:
192,192,133604,1,0,0:0:0:0:
448,192,133744,1,0,0:0:0:0:
64,192,133744,1,0,0:0:0:0:
448,192,133885,1,0,0:0:0:0:
320,192,133885,1,0,0:0:0:0:
192,192,133885,1,0,0:0:0:0:
192,192,134025,1,0,0:0:0:0:
64,192,134025,1,0,0:0:0:0:
448,192,134165,1,0,0:0:0:0:
320,192,134165,1,0,0:0:0:0:
64,192,134165,1,0,0:0:0:0:
192,192,134305,1,0,0:0:0:0:
64,192,134305,1,0,0:0:0:0:
448,192,134445,1,0,0:0:0:0:
320,192,134445,1,0,0:0:0:0:
192,192,134445,1,0,0:0:0:0:
320,192,134586,1,0,0:0:0:0:
64,192,134586,1,0,0:0:0:0:
448,192,134726,1,0,0:0:0:0:
192,192,134726,1,0,0:0:0:0:
64,192,134726,1,0,0:0:0:0:
320,192,134866,1,0,0:0:0:0:
192,192,134866,1,0,0:0:0:0:
448,192,135006,1,0,0:0:0:0:
192,192,135006,1,0,0:0:0:0:
64,192,135006,1,0,0:0:0:0:
448,192,135146,1,0,0:0:0:0:
320,192,135146,1,0,0:0:0:0:
320,192,135287,1,0,0:0:0:0:
192,192,135287,1,0,0:0:0:0:
64,192,135287,1,0,0:0:0:0:
448,192,135427,1,0,0:0:0:0:
64,192,135427,1,0,0:0:0:0:
320,192,135567,1,0,0:0:0:0:
448,192,135567,1,0,0:0:0:0:
192,192,135567,1,0,0:0:0:0:
192,192,135707,1,0,0:0:0:0:
64,192,135707,1,0,0:0:0:0:
320,192,135847,1,0,0:0:0:0:
448,192,135847,1,0,0:0:0:0:
64,192,135847,1,0,0:0:0:0:
448,192,135987,1,0,0:0:0:0:
192,192,135987,1,0,0:0:0:0:
320,192,136128,1,0,0:0:0:0:
192,192,136128,1,0,0:0:0:0:
64,192,136128,1,0,0:0:0:0:
448,192,136268,1,0,0:0:0:0:
64,192,136268,1,0,0:0:0:0:
448,192,136408,1,0,0:0:0:0:
320,192,136408,1,0,0:0:0:0:
192,192,136408,1,0,0:0:0:0:
448,192,136548,1,0,0:0:0:0:
64,192,136548,1,0,0:0:0:0:
320,192,136688,1,0,0:0:0:0:
192,192,136688,1,0,0:0:0:0:
64,192,136688,1,0,0:0:0:0:
448,192,136829,1,0,0:0:0:0:
320,192,136829,1,0,0:0:0:0:
448,192,136969,1,0,0:0:0:0:
192,192,136969,1,0,0:0:0:0:
64,192,136969,1,0,0:0:0:0:
448,192,137109,1,0,0:0:0:0:
192,192,137109,1,0,0:0:0:0:
64,192,137109,1,0,0:0:0:0:
320,192,137109,1,0,0:0:0:0:
192,192,137249,1,0,0:0:0:0:
448,192,137249,1,0,0:0:0:0:
64,192,137389,1,0,0:0:0:0:
320,192,137389,1,0,0:0:0:0:
64,192,137529,1,0,0:0:0:0:
320,192,137529,1,0,0:0:0:0:
448,192,137529,1,0,0:0:0:0:
192,192,137670,1,0,0:0:0:0:
320,192,137670,1,0,0:0:0:0:
64,192,137810,1,0,0:0:0:0:
192,192,137810,1,0,0:0:0:0:
448,192,137810,1,0,0:0:0:0:
320,192,137950,1,0,0:0:0:0:
448,192,137950,1,0,0:0:0:0:
192,192,138090,1,0,0:0:0:0:
64,192,138090,1,0,0:0:0:0:
320,192,138090,1,0,0:0:0:0:
64,192,138230,1,0,0:0:0:0:
448,192,138230,1,0,0:0:0:0:
192,192,138371,1,0,0:0:0:0:
320,192,138371,1,0,0:0:0:0:
448,192,138371,1,0,0:0:0:0:
64,192,138511,1,0,0:0:0:0:
192,192,138511,1,0,0:0:0:0:
64,192,138651,1,0,0:0:0:0:
320,192,138651,1,0,0:0:0:0:
448,192,138651,1,0,0:0:0:0:
64,192,138791,1,0,0:0:0:0:
192,192,138791,1,0,0:0:0:0:
192,192,138931,1,0,0:0:0:0:
320,192,138931,1,0,0:0:0:0:
448,192,138931,1,0,0:0:0:0:
64,192,139072,1,0,0:0:0:0:
320,192,139072,1,0,0:0:0:0:
64,192,139212,1,0,0:0:0:0:
192,192,139212,1,0,0:0:0:0:
448,192,139212,1,0,0:0:0:0:
192,192,139352,1,0,0:0:0:0:
320,192,139352,1,0,0:0:0:0:
64,192,139352,1,0,0:0:0:0:
448,192,139352,1,0,0:0:0:0:
64,192,139492,1,0,0:0:0:0:
192,192,139492,1,0,0:0:0:0:
320,192,139562,1,0,0:0:0:0:
448,192,139562,1,0,0:0:0:0:
192,192,139632,1,0,0:0:0:0:
64,192,139632,1,0,0:0:0:0:
192,192,139772,1,0,0:0:0:0:
320,192,139772,1,0,0:0:0:0:
64,192,139913,1,0,0:0:0:0:
448,192,139913,1,0,0:0:0:0:
448,192,140053,1,0,0:0:0:0:
192,192,140053,1,0,0:0:0:0:
320,192,140123,1,0,0:0:0:0:
64,192,140123,1,0,0:0:0:0:
192,192,140193,1,0,0:0:0:0:
448,192,140193,1,0,0:0:0:0:
64,192,140333,1,0,0:0:0:0:
320,192,140333,1,0,0:0:0:0:
192,192,140403,1,0,0:0:0:0:
448,192,140473,1,0,0:0:0:0:
64,192,140473,1,0,0:0:0:0:
320,192,140473,1,0,0:0:0:0:
192,192,140614,1,0,0:0:0:0:
448,192,140614,1,0,0:0:0:0:
64,192,140754,1,0,0:0:0:0:
192,192,140754,1,0,0:0:0:0:
448,192,140824,1,0,0:0:0:0:
320,192,140824,1,0,0:0:0:0:
64,192,140894,1,0,0:0:0:0:
192,192,140894,1,0,0:0:0:0:
448,192,140964,1,0,0:0:0:0:
320,192,140964,1,0,0:0:0:0:
64,192,141034,1,0,0:0:0:0:
192,192,141034,1,0,0:0:0:0:
192,192,141174,1,0,0:0:0:0:
320,192,141174,1,0,0:0:0:0:
320,192,141315,1,0,0:0:0:0:
448,192,141315,1,0,0:0:0:0:
64,192,141455,1,0,0:0:0:0:
192,192,141455,1,0,0:0:0:0:
64,192,141595,1,0,0:0:0:0:
320,192,141595,1,0,0:0:0:0:
448,192,141595,1,0,0:0:0:0:
192,192,141595,1,0,0:0:0:0:
320,192,141735,1,0,0:0:0:0:
192,192,141735,1,0,0:0:0:0:
64,192,141875,1,0,0:0:0:0:
320,192,141875,1,0,0:0:0:0:
192,192,142015,1,0,0:0:0:0:
64,192,142015,1,0,0:0:0:0:
448,192,142015,1,0,0:0:0:0:
320,192,142156,1,0,0:0:0:0:
448,192,142156,1,0,0:0:0:0:
192,192,142296,1,0,0:0:0:0:
320,192,142296,1,0,0:0:0:0:
64,192,142436,1,0,0:0:0:0:
192,192,142436,1,0,0:0:0:0:
448,192,142436,1,0,0:0:0:0:
192,192,142576,1,0,0:0:0:0:
320,192,142576,1,0,0:0:0:0:
64,192,142716,1,0,0:0:0:0:
448,192,142716,1,0,0:0:0:0:
320,192,142716,1,0,0:0:0:0:
192,192,142857,1,0,0:0:0:0:
64,192,142857,1,0,0:0:0:0:
320,192,142997,1,0,0:0:0:0:
448,192,142997,1,0,0:0:0:0:
64,192,143137,1,0,0:0:0:0:
192,192,143137,1,0,0:0:0:0:
448,192,143137,1,0,0:0:0:0:
320,192,143277,1,0,0:0:0:0:
192,192,143277,1,0,0:0:0:0:
64,192,143417,1,0,0:0:0:0:
320,192,143417,1,0,0:0:0:0:
64,192,143558,1,0,0:0:0:0:
192,192,143558,1,0,0:0:0:0:
448,192,143558,1,0,0:0:0:0:
192,192,143698,1,0,0:0:0:0:
320,192,143698,1,0,0:0:0:0:
64,192,143838,1,0,0:0:0:0:
320,192,143838,1,0,0:0:0:0:
448,192,143838,1,0,0:0:0:0:
192,192,143978,1,0,0:0:0:0:
448,192,143978,1,0,0:0:0:0:
64,192,144118,1,0,0:0:0:0:
320,192,144118,1,0,0:0:0:0:
448,192,144118,1,0,0:0:0:0:
64,192,144258,1,0,0:0:0:0:
192,192,144258,1,0,0:0:0:0:
192,192,144399,1,0,0:0:0:0:
320,192,144399,1,0,0:0:0:0:
448,192,144399,1,0,0:0:0:0:
64,192,144539,1,0,0:0:0:0:
320,192,144539,1,0,0:0:0:0:
64,192,144679,1,0,0:0:0:0:
192,192,144679,1,0,0:0:0:0:
448,192,144679,1,0,0:0:0:0:
320,192,144819,1,0,0:0:0:0:
192,192,144819,1,0,0:0:0:0:
64,192,144959,1,0,0:0:0:0:
320,192,144959,1,0,0:0:0:0:
448,192,144959,1,0,0:0:0:0:
64,192,145100,1,0,0:0:0:0:
192,192,145100,1,0,0:0:0:0:
320,192,145240,1,0,0:0:0:0:
448,192,145240,1,0,0:0:0:0:
64,192,145380,1,0,0:0:0:0:
448,192,145380,1,0,0:0:0:0:
192,192,145380,1,0,0:0:0:0:
320,192,145520,1,0,0:0:0:0:
448,192,145520,1,0,0:0:0:0:
64,192,145660,1,0,0:0:0:0:
192,192,145660,1,0,0:0:0:0:
320,192,145660,1,0,0:0:0:0:
64,192,145801,1,0,0:0:0:0:
192,192,145801,1,0,0:0:0:0:
448,192,145801,1,0,0:0:0:0:
64,192,145941,1,0,0:0:0:0:
192,192,145941,1,0,0:0:0:0:
320,192,145941,1,0,0:0:0:0:
64,192,146081,1,0,0:0:0:0:
448,192,146081,1,0,0:0:0:0:
192,192,146081,1,0,0:0:0:0:
320,192,146221,1,0,0:0:0:0:
448,192,146221,1,0,0:0:0:0:
192,192,146361,1,0,0:0:0:0:
320,192,146361,1,0,0:0:0:0:
64,192,146501,1,0,0:0:0:0:
192,192,146501,1,0,0:0:0:0:
448,192,146501,1,0,0:0:0:0:
320,192,146642,1,0,0:0:0:0:
448,192,146642,1,0,0:0:0:0:
64,192,146782,1,0,0:0:0:0:
320,192,146782,1,0,0:0:0:0:
64,192,146922,1,0,0:0:0:0:
192,192,146922,1,0,0:0:0:0:
448,192,146922,1,0,0:0:0:0:
192,192,147062,1,0,0:0:0:0:
320,192,147062,1,0,0:0:0:0:
64,192,147202,1,0,0:0:0:0:
320,192,147202,1,0,0:0:0:0:
448,192,147202,1,0,0:0:0:0:
192,192,147343,1,0,0:0:0:0:
64,192,147483,1,0,0:0:0:0:
320,192,147483,1,0,0:0:0:0:
192,192,147623,1,0,0:0:0:0:
320,192,147623,1,0,0:0:0:0:
448,192,147623,1,0,0:0:0:0:
64,192,147763,1,0,0:0:0:0:
192,192,147763,1,0,0:0:0:0:
320,192,147903,1,0,0:0:0:0:
448,192,147903,1,0,0:0:0:0:
64,192,148044,1,0,0:0:0:0:
192,192,148044,1,0,0:0:0:0:
448,192,148044,1,0,0:0:0:0:
320,192,148184,1,0,0:0:0:0:
192,192,148254,1,0,0:0:0:0:
64,192,148324,1,0,0:0:0:0:
448,192,148324,1,0,0:0:0:0:
320,192,148464,1,0,0:0:0:0:
448,192,148464,1,0,0:0:0:0:
192,192,148604,1,0,0:0:0:0:
320,192,148604,1,0,0:0:0:0:
64,192,148744,1,0,0:0:0:0:
192,192,148744,1,0,0:0:0:0:
448,192,148744,1,0,0:0:0:0:
320,192,148885,1,0,0:0:0:0:
448,192,148885,1,0,0:0:0:0:
64,192,149025,1,0,0:0:0:0:
320,192,149025,1,0,0:0:0:0:
64,192,149165,1,0,0:0:0:0:
192,192,149165,1,0,0:0:0:0:
448,192,149165,1,0,0:0:0:0:
320,192,149305,1,0,0:0:0:0:
64,192,149445,1,0,0:0:0:0:
192,192,149445,1,0,0:0:0:0:
320,192,149515,1,0,0:0:0:0:
448,192,149515,1,0,0:0:0:0:
192,192,149586,1,0,0:0:0:0:
64,192,149586,1,0,0:0:0:0:
320,192,149656,1,0,0:0:0:0:
448,192,149656,1,0,0:0:0:0:
192,192,149726,1,0,0:0:0:0:
320,192,149796,1,0,0:0:0:0:
64,192,149866,1,0,0:0:0:0:
192,192,149866,1,0,0:0:0:0:
320,192,149936,1,0,0:0:0:0:
448,192,149936,1,0,0:0:0:0:
192,192,150006,1,0,0:0:0:0:
64,192,150006,1,0,0:0:0:0:
320,192,150076,1,0,0:0:0:0:
192,192,150146,1,0,0:0:0:0:
320,192,150216,1,0,0:0:0:0:
192,192,150287,1,0,0:0:0:0:
64,192,150287,1,0,0:0:0:0:
448,192,150287,1,0,0:0:0:0:
64,192,150567,1,0,0:0:0:0:
320,192,150567,1,0,0:0:0:0:
192,192,150567,1,0,0:0:0:0:
448,192,150567,1,0,0:0:0:0:
64,192,150847,1,0,0:0:0:0:
320,192,150847,1,0,0:0:0:0:
448,192,150847,1,0,0:0:0:0:
192,192,151128,1,0,0:0:0:0:
64,192,151128,1,0,0:0:0:0:
64,192,151268,1,0,0:0:0:0:
192,192,151268,1,0,0:0:0:0:
448,192,151408,1,0,0:0:0:0:
320,192,151408,1,0,0:0:0:0:
192,192,151408,1,0,0:0:0:0:
192,192,151688,1,0,0:0:0:0:
320,192,151688,1,0,0:0:0:0:
64,192,151829,1,0,0:0:0:0:
448,192,151829,1,0,0:0:0:0:
192,192,151969,1,0,0:0:0:0:
320,192,151969,1,0,0:0:0:0:
64,192,151969,1,0,0:0:0:0:
64,192,152249,1,0,0:0:0:0:
192,192,152249,1,0,0:0:0:0:
320,192,152389,1,0,0:0:0:0:
448,192,152389,1,0,0:0:0:0:
64,192,152529,1,0,0:0:0:0:
192,192,152529,1,0,0:0:0:0:
448,192,152529,1,0,0:0:0:0:
448,192,152810,1,0,0:0:0:0:
320,192,152810,1,0,0:0:0:0:
192,192,152950,1,0,0:0:0:0:
320,192,152950,1,0,0:0:0:0:
64,192,153090,1,0,0:0:0:0:
192,192,153090,1,0,0:0:0:0:
448,192,153090,1,0,0:0:0:0:
64,192,153371,1,0,0:0:0:0:
320,192,153371,1,0,0:0:0:0:
192,192,153511,1,0,0:0:0:0:
448,192,153511,1,0,0:0:0:0:
64,192,153651,1,0,0:0:0:0:
320,192,153651,1,0,0:0:0:0:
448,192,153651,1,0,0:0:0:0:
64,192,153931,1,0,0:0:0:0:
192,192,153931,1,0,0:0:0:0:
192,192,154072,1,0,0:0:0:0:
320,192,154072,1,0,0:0:0:0:
64,192,154212,1,0,0:0:0:0:
320,192,154212,1,0,0:0:0:0:
448,192,154212,1,0,0:0:0:0:
192,192,154492,1,0,0:0:0:0:
320,192,154492,1,0,0:0:0:0:
64,192,154632,1,0,0:0:0:0:
448,192,154632,1,0,0:0:0:0:
64,192,154772,1,0,0:0:0:0:
320,192,154772,1,0,0:0:0:0:
192,192,154772,1,0,0:0:0:0:
64,192,155053,1,0,0:0:0:0:
192,192,155053,1,0,0:0:0:0:
448,192,155053,1,0,0:0:0:0:
320,192,155193,1,0,0:0:0:0:
448,192,155193,1,0,0:0:0:0:
64,192,155333,1,0,0:0:0:0:
192,192,155333,1,0,0:0:0:0:
320,192,155614,1,0,0:0:0:0:
448,192,155614,1,0,0:0:0:0:
64,192,155754,1,0,0:0:0:0:
192,192,155754,1,0,0:0:0:0:
320,192,155894,1,0,0:0:0:0:
448,192,155894,1,0,0:0:0:0:
64,192,155894,1,0,0:0:0:0:
64,192,156174,1,0,0:0:0:0:
320,192,156174,1,0,0:0:0:0:
192,192,156315,1,0,0:0:0:0:
448,192,156315,1,0,0:0:0:0:
64,192,156455,1,0,0:0:0:0:
320,192,156455,1,0,0:0:0:0:
448,192,156455,1,0,0:0:0:0:
192,192,156735,1,0,0:0:0:0:
320,192,156735,1,0,0:0:0:0:
64,192,156875,1,0,0:0:0:0:
192,192,156875,1,0,0:0:0:0:
64,192,157015,1,0,0:0:0:0:
320,192,157015,1,0,0:0:0:0:
448,192,157015,1,0,0:0:0:0:
64,192,157296,1,0,0:0:0:0:
192,192,157296,1,0,0:0:0:0:
320,192,157436,1,0,0:0:0:0:
192,192,157436,1,0,0:0:0:0:
64,192,157576,1,0,0:0:0:0:
320,192,157576,1,0,0:0:0:0:
448,192,157576,1,0,0:0:0:0:
192,192,157857,1,0,0:0:0:0:
448,192,157857,1,0,0:0:0:0:
320,192,157997,1,0,0:0:0:0:
192,192,157997,1,0,0:0:0:0:
64,192,158137,1,0,0:0:0:0:
320,192,158137,1,0,0:0:0:0:
448,192,158137,1,0,0:0:0:0:
64,192,158417,1,0,0:0:0:0:
192,192,158417,1,0,0:0:0:0:
320,192,158558,1,0,0:0:0:0:
448,192,158558,1,0,0:0:0:0:
64,192,158698,1,0,0:0:0:0:
192,192,158698,1,0,0:0:0:0:
448,192,158698,1,0,0:0:0:0:
320,192,158978,1,0,0:0:0:0:
448,192,158978,1,0,0:0:0:0:
192,192,159118,1,0,0:0:0:0:
320,192,159118,1,0,0:0:0:0:
64,192,159258,1,0,0:0:0:0:
192,192,159258,1,0,0:0:0:0:
448,192,159258,1,0,0:0:0:0:
64,192,159539,1,0,0:0:0:0:
192,192,159539,1,0,0:0:0:0:
320,192,159609,1,0,0:0:0:0:
448,192,159609,1,0,0:0:0:0:
192,192,159679,1,0,0:0:0:0:
64,192,159679,1,0,0:0:0:0:
320,192,159749,1,0,0:0:0:0:
448,192,159749,1,0,0:0:0:0:
64,192,159819,1,0,0:0:0:0:
192,192,159819,1,0,0:0:0:0:
320,192,159889,1,0,0:0:0:0:
448,192,159889,1,0,0:0:0:0:
64,192,159959,1,0,0:0:0:0:
192,192,159959,1,0,0:0:0:0:
320,192,160029,1,0,0:0:0:0:
448,192,160029,1,0,0:0:0:0:
64,192,160100,1,0,0:0:0:0:
192,192,160100,1,0,0:0:0:0:
320,192,160170,1,0,0:0:0:0:
448,192,160170,1,0,0:0:0:0:
192,192,160240,1,0,0:0:0:0:
64,192,160240,1,0,0:0:0:0:
320,192,160310,1,0,0:0:0:0:
448,192,160310,1,0,0:0:0:0:
192,192,160380,1,0,0:0:0:0:
64,192,160450,1,0,0:0:0:0:
448,192,160520,1,0,0:0:0:0:
320,192,160590,1,0,0:0:0:0:
192,192,160660,1,0,0:0:0:0:
64,192,160660,1,0,0:0:0:0:
448,192,160730,1,0,0:0:0:0:
320,192,160801,1,0,0:0:0:0:
192,192,160871,1,0,0:0:0:0:
64,192,160941,1,0,0:0:0:0:
448,192,160941,1,0,0:0:0:0:
320,192,161011,1,0,0:0:0:0:
192,192,161081,1,0,0:0:0:0:
64,192,161151,1,0,0:0:0:0:
320,192,161221,1,0,0:0:0:0:
448,192,161221,1,0,0:0:0:0:
192,192,161291,1,0,0:0:0:0:
320,192,161361,1,0,0:0:0:0:
192,192,161431,1,0,0:0:0:0:
64,192,161431,1,0,0:0:0:0:
320,192,161501,1,0,0:0:0:0:
448,192,161501,1,0,0:0:0:0:
64,192,161572,1,0,0:0:0:0:
192,192,161642,1,0,0:0:0:0:
320,192,161712,1,0,0:0:0:0:
448,192,161782,1,0,0:0:0:0:
64,192,161782,1,0,0:0:0:0:
192,192,161782,1,0,0:0:0:0:
64,192,162062,1,0,0:0:0:0:
448,192,162062,1,0,0:0:0:0:
320,192,162062,1,0,0:0:0:0:
192,192,162343,1,0,0:0:0:0:
64,192,162343,1,0,0:0:0:0:
448,192,162483,1,0,0:0:0:0:
64,192,162623,1,0,0:0:0:0:
320,192,162623,1,0,0:0:0:0:
448,192,162623,1,0,0:0:0:0:
192,192,162763,1,0,0:0:0:0:
64,192,162903,1,0,0:0:0:0:
192,192,162903,1,0,0:0:0:0:
64,192,163044,1,0,0:0:0:0:
192,192,163184,1,0,0:0:0:0:
320,192,163184,1,0,0:0:0:0:
448,192,163184,1,0,0:0:0:0:
320,192,163324,1,0,0:0:0:0:
64,192,163464,1,0,0:0:0:0:
192,192,163464,1,0,0:0:0:0:
192,192,163604,1,0,0:0:0:0:
64,192,163744,1,0,0:0:0:0:
320,192,163744,1,0,0:0:0:0:
448,192,163744,1,0,0:0:0:0:
320,192,163885,1,0,0:0:0:0:
192,192,164025,1,0,0:0:0:0:
448,192,164025,1,0,0:0:0:0:
64,192,164165,1,0,0:0:0:0:
192,192,164305,1,0,0:0:0:0:
320,192,164305,1,0,0:0:0:0:
448,192,164305,1,0,0:0:0:0:
320,192,164445,1,0,0:0:0:0:
64,192,164586,1,0,0:0:0:0:
448,192,164586,1,0,0:0:0:0:
320,192,164726,1,0,0:0:0:0:
192,192,164866,1,0,0:0:0:0:
448,192,164866,1,0,0:0:0:0:
320,192,164866,1,0,0:0:0:0:
192,192,165006,1,0,0:0:0:0:
64,192,165146,1,0,0:0:0:0:
448,192,165146,1,0,0:0:0:0:
320,192,165287,1,0,0:0:0:0:
192,192,165427,1,0,0:0:0:0:
64,192,165427,1,0,0:0:0:0:
448,192,165427,1,0,0:0:0:0:
192,192,165567,1,0,0:0:0:0:
64,192,165707,1,0,0:0:0:0:
320,192,165707,1,0,0:0:0:0:
192,192,165847,1,0,0:0:0:0:
64,192,165987,1,0,0:0:0:0:
320,192,165987,1,0,0:0:0:0:
448,192,165987,1,0,0:0:0:0:
192,192,166128,1,0,0:0:0:0:
64,192,166268,1,0,0:0:0:0:
192,192,166268,1,0,0:0:0:0:
320,192,166268,1,0,0:0:0:0:
448,192,166268,1,0,0:0:0:0:
320,192,166408,1,0,0:0:0:0:
64,192,166548,1,0,0:0:0:0:
192,192,166548,1,0,0:0:0:0:
448,192,166548,1,0,0:0:0:0:
64,192,166688,1,0,0:0:0:0:
192,192,166829,1,0,0:0:0:0:
320,192,166829,1,0,0:0:0:0:
64,192,166969,1,0,0:0:0:0:
192,192,167109,1,0,0:0:0:0:
320,192,167109,1,0,0:0:0:0:
448,192,167109,1,0,0:0:0:0:
320,192,167249,1,0,0:0:0:0:
192,192,167389,1,0,0:0:0:0:
448,192,167389,1,0,0:0:0:0:
448,192,167529,1,0,0:0:0:0:
64,192,167529,1,0,0:0:0:0:
320,192,167529,1,0,0:0:0:0:
192,192,167670,1,0,0:0:0:0:
64,192,167810,1,0,0:0:0:0:
320,192,167810,1,0,0:0:0:0:
448,192,167810,1,0,0:0:0:0:
64,192,167950,1,0,0:0:0:0:
320,192,168090,1,0,0:0:0:0:
192,192,168230,1,0,0:0:0:0:
64,192,168230,1,0,0:0:0:0:
448,192,168230,1,0,0:0:0:0:
320,192,168371,1,0,0:0:0:0:
64,192,168511,1,0,0:0:0:0:
448,192,168511,1,0,0:0:0:0:
192,192,168651,1,0,0:0:0:0:
64,192,168651,1,0,0:0:0:0:
448,192,168791,1,0,0:0:0:0:
320,192,168791,1,0,0:0:0:0:
64,192,168931,1,0,0:0:0:0:
192,192,168931,128,0,169072:0:0:0:0:
448,192,169212,1,0,0:0:0:0:
192,192,169212,1,0,0:0:0:0:
64,192,169352,1,0,0:0:0:0:
320,192,169352,1,0,0:0:0:0:
448,192,169492,1,0,0:0:0:0:
192,192,169492,1,0,0:0:0:0:
64,192,169632,1,0,0:0:0:0:
320,192,169632,1,0,0:0:0:0:
448,192,169772,1,0,0:0:0:0:
192,192,169772,128,0,169913:0:0:0:0:
320,192,170053,1,0,0:0:0:0:
192,192,170053,1,0,0:0:0:0:
64,192,170193,1,0,0:0:0:0:
448,192,170193,1,0,0:0:0:0:
64,192,170333,1,0,0:0:0:0:
448,192,170333,1,0,0:0:0:0:
448,192,170473,1,0,0:0:0:0:
64,192,170473,1,0,0:0:0:0:
64,192,170614,1,0,0:0:0:0:
192,192,170614,1,0,0:0:0:0:
320,192,170614,1,0,0:0:0:0:
448,192,170614,1,0,0:0:0:0:
