osu file format v14

[General]
AudioFilename: gumi.mp3
AudioLeadIn: 0
PreviewTime: 103269
Countdown: 1
SampleSet: None
StackLeniency: 0.7
Mode: 3
LetterboxInBreaks: 0
SpecialStyle: 1
WidescreenStoryboard: 1

[Editor]
DistanceSpacing: 1
BeatDivisor: 4
GridSize: 4
TimelineZoom: 4.199998

[Metadata]
Title:Demitoo 4k Practice pack
TitleUnicode:Demitoo 4k Practice pack
Artist:Various Artist
ArtistUnicode:Various Artist
Creator:Demitoo
Version:Positive Thinking (Easy) - 136 bpm
Source:
Tags:
BeatmapID:871536
BeatmapSetID:400528

[Difficulty]
HPDrainRate:8
CircleSize:4
OverallDifficulty:8
ApproachRate:5
SliderMultiplier:1.4
SliderTickRate:1

[Events]
//Background and Video events
0,0,"maxresdefault (1).jpg",0,0
//Break Periods
//Storyboard Layer 0 (Background)
//Storyboard Layer 1 (Fail)
//Storyboard Layer 2 (Pass)
//Storyboard Layer 3 (Foreground)
//Storyboard Sound Samples

[TimingPoints]
917,441.176470588235,4,2,0,10,1,0

[HitObjects]
192,192,916,128,0,1137:0:0:0:0:
320,192,916,128,0,1137:0:0:0:0:
64,192,1137,1,0,0:0:0:0:
448,192,1137,1,0,0:0:0:0:
448,192,1358,1,0,0:0:0:0:
448,192,1578,1,0,0:0:0:0:
192,192,1799,128,0,2019:0:0:0:0:
320,192,1799,128,0,2019:0:0:0:0:
64,192,2019,1,0,0:0:0:0:
448,192,2019,1,0,0:0:0:0:
64,192,2240,1,0,0:0:0:0:
64,192,2461,1,0,0:0:0:0:
192,192,2681,128,0,2902:0:0:0:0:
320,192,2681,128,0,2902:0:0:0:0:
64,192,2902,1,0,0:0:0:0:
448,192,2902,1,0,0:0:0:0:
448,192,3122,1,0,0:0:0:0:
448,192,3343,1,0,0:0:0:0:
192,192,3564,128,0,3784:0:0:0:0:
320,192,3564,128,0,3784:0:0:0:0:
448,192,3784,1,0,0:0:0:0:
64,192,3784,1,0,0:0:0:0:
64,192,4005,1,0,0:0:0:0:
64,192,4225,1,0,0:0:0:0:
192,192,4446,128,0,4666:0:0:0:0:
320,192,4446,128,0,4666:0:0:0:0:
64,192,4666,1,0,0:0:0:0:
448,192,4666,1,0,0:0:0:0:
448,192,4887,1,0,0:0:0:0:
448,192,5108,1,0,0:0:0:0:
192,192,5328,128,0,5549:0:0:0:0:
320,192,5328,128,0,5549:0:0:0:0:
64,192,5549,1,0,0:0:0:0:
448,192,5549,1,0,0:0:0:0:
448,192,5769,1,0,0:0:0:0:
448,192,5990,1,0,0:0:0:0:
192,192,6211,128,0,6431:0:0:0:0:
320,192,6211,128,0,6431:0:0:0:0:
448,192,6431,1,0,0:0:0:0:
64,192,6431,1,0,0:0:0:0:
64,192,6652,1,0,0:0:0:0:
64,192,6872,1,0,0:0:0:0:
192,192,7093,128,0,7314:0:0:0:0:
320,192,7093,128,0,7314:0:0:0:0:
448,192,7314,1,0,0:0:0:0:
64,192,7314,1,0,0:0:0:0:
192,192,7534,1,0,0:0:0:0:
320,192,7534,1,0,0:0:0:0:
64,192,7975,128,0,8416:0:0:0:0:
320,192,7975,1,0,0:0:0:0:
192,192,8196,1,0,0:0:0:0:
192,192,8416,128,0,8858:0:0:0:0:
448,192,8416,1,0,0:0:0:0:
320,192,8858,128,0,9299:0:0:0:0:
64,192,9078,1,0,0:0:0:0:
448,192,9299,1,0,0:0:0:0:
64,192,9299,128,0,9740:0:0:0:0:
192,192,9740,128,0,9961:0:0:0:0:
320,192,9740,128,0,9961:0:0:0:0:
64,192,9961,1,0,0:0:0:0:
448,192,9961,1,0,0:0:0:0:
448,192,10181,1,0,0:0:0:0:
192,192,10181,1,0,0:0:0:0:
448,192,10402,1,0,0:0:0:0:
192,192,10622,128,0,10843:0:0:0:0:
320,192,10622,128,0,10843:0:0:0:0:
64,192,10843,1,0,0:0:0:0:
448,192,10843,1,0,0:0:0:0:
192,192,11064,1,0,0:0:0:0:
320,192,11064,1,0,0:0:0:0:
448,192,11505,128,0,11946:0:0:0:0:
192,192,11505,1,0,0:0:0:0:
320,192,11725,1,0,0:0:0:0:
320,192,11946,128,0,12387:0:0:0:0:
64,192,11946,1,0,0:0:0:0:
192,192,12387,128,0,12828:0:0:0:0:
448,192,12608,1,0,0:0:0:0:
64,192,12828,1,0,0:0:0:0:
448,192,12828,128,0,13269:0:0:0:0:
192,192,13269,128,0,13490:0:0:0:0:
320,192,13269,128,0,13490:0:0:0:0:
64,192,13490,1,0,0:0:0:0:
448,192,13490,1,0,0:0:0:0:
64,192,13711,1,0,0:0:0:0:
320,192,13711,1,0,0:0:0:0:
64,192,13931,1,0,0:0:0:0:
192,192,14152,128,0,14372:0:0:0:0:
320,192,14152,128,0,14372:0:0:0:0:
64,192,14372,1,0,0:0:0:0:
448,192,14372,1,0,0:0:0:0:
192,192,14593,1,0,0:0:0:0:
320,192,14593,1,0,0:0:0:0:
64,192,15034,128,0,15475:0:0:0:0:
320,192,15034,1,0,0:0:0:0:
192,192,15255,1,0,0:0:0:0:
192,192,15475,128,0,15916:0:0:0:0:
448,192,15475,1,0,0:0:0:0:
320,192,15916,128,0,16358:0:0:0:0:
64,192,16137,1,0,0:0:0:0:
64,192,16358,128,0,16799:0:0:0:0:
448,192,16358,1,0,0:0:0:0:
192,192,16799,128,0,17019:0:0:0:0:
320,192,16799,128,0,17019:0:0:0:0:
64,192,17019,1,0,0:0:0:0:
448,192,17019,1,0,0:0:0:0:
448,192,17240,1,0,0:0:0:0:
448,192,17461,1,0,0:0:0:0:
192,192,17681,128,0,17902:0:0:0:0:
320,192,17681,128,0,17902:0:0:0:0:
64,192,17902,1,0,0:0:0:0:
448,192,17902,128,0,18122:0:0:0:0:
64,192,18122,1,0,0:0:0:0:
320,192,18122,1,0,0:0:0:0:
192,192,18233,1,0,0:0:0:0:
320,192,18343,1,0,0:0:0:0:
448,192,18453,1,0,0:0:0:0:
64,192,18564,128,0,19005:0:0:0:0:
192,192,18564,1,0,0:0:0:0:
192,192,19005,1,0,0:0:0:0:
448,192,19005,1,0,0:0:0:0:
320,192,19225,1,0,0:0:0:0:
192,192,19446,128,0,19666:0:0:0:0:
320,192,19446,128,0,19666:0:0:0:0:
64,192,19666,1,0,0:0:0:0:
448,192,19666,1,0,0:0:0:0:
192,192,19887,1,0,0:0:0:0:
448,192,19887,1,0,0:0:0:0:
320,192,19997,1,0,0:0:0:0:
448,192,20108,1,0,0:0:0:0:
320,192,20218,1,0,0:0:0:0:
192,192,20328,1,0,0:0:0:0:
64,192,20328,128,0,20549:0:0:0:0:
448,192,20549,1,0,0:0:0:0:
320,192,20549,128,0,20769:0:0:0:0:
192,192,20769,128,0,21211:0:0:0:0:
448,192,20769,1,0,0:0:0:0:
64,192,21211,128,0,21652:0:0:0:0:
320,192,21431,1,0,0:0:0:0:
192,192,21652,1,0,0:0:0:0:
448,192,21652,1,0,0:0:0:0:
64,192,22093,1,0,0:0:0:0:
320,192,22093,1,0,0:0:0:0:
448,192,22093,1,0,0:0:0:0:
64,192,22314,1,0,0:0:0:0:
320,192,22314,1,0,0:0:0:0:
448,192,22314,1,0,0:0:0:0:
192,192,22534,1,0,0:0:0:0:
320,192,22534,1,0,0:0:0:0:
192,192,22755,1,0,0:0:0:0:
64,192,22975,1,0,0:0:0:0:
192,192,22975,1,0,0:0:0:0:
448,192,22975,1,0,0:0:0:0:
64,192,23196,1,0,0:0:0:0:
192,192,23196,1,0,0:0:0:0:
448,192,23196,1,0,0:0:0:0:
320,192,23416,1,0,0:0:0:0:
192,192,23416,1,0,0:0:0:0:
320,192,23637,1,0,0:0:0:0:
192,192,23858,1,0,0:0:0:0:
448,192,23858,1,0,0:0:0:0:
320,192,23858,1,0,0:0:0:0:
448,192,24078,1,0,0:0:0:0:
64,192,24078,1,0,0:0:0:0:
320,192,24078,1,0,0:0:0:0:
192,192,24299,1,0,0:0:0:0:
320,192,24299,1,0,0:0:0:0:
192,192,24519,1,0,0:0:0:0:
64,192,24740,1,0,0:0:0:0:
192,192,24740,1,0,0:0:0:0:
320,192,24740,1,0,0:0:0:0:
192,192,24961,1,0,0:0:0:0:
64,192,24961,1,0,0:0:0:0:
448,192,24961,1,0,0:0:0:0:
192,192,25181,1,0,0:0:0:0:
320,192,25181,1,0,0:0:0:0:
192,192,25402,1,0,0:0:0:0:
448,192,25622,1,0,0:0:0:0:
320,192,25622,1,0,0:0:0:0:
64,192,25622,1,0,0:0:0:0:
448,192,25843,1,0,0:0:0:0:
320,192,25843,1,0,0:0:0:0:
64,192,25843,1,0,0:0:0:0:
320,192,26064,1,0,0:0:0:0:
192,192,26064,1,0,0:0:0:0:
192,192,26284,1,0,0:0:0:0:
448,192,26505,1,0,0:0:0:0:
192,192,26505,1,0,0:0:0:0:
64,192,26505,1,0,0:0:0:0:
448,192,26725,1,0,0:0:0:0:
192,192,26725,1,0,0:0:0:0:
64,192,26725,1,0,0:0:0:0:
192,192,26946,1,0,0:0:0:0:
320,192,26946,1,0,0:0:0:0:
320,192,27166,1,0,0:0:0:0:
320,192,27387,1,0,0:0:0:0:
448,192,27387,1,0,0:0:0:0:
192,192,27387,1,0,0:0:0:0:
320,192,27608,1,0,0:0:0:0:
448,192,27608,1,0,0:0:0:0:
64,192,27608,1,0,0:0:0:0:
192,192,27828,1,0,0:0:0:0:
320,192,27828,1,0,0:0:0:0:
192,192,28049,1,0,0:0:0:0:
64,192,28269,1,0,0:0:0:0:
192,192,28269,1,0,0:0:0:0:
320,192,28269,1,0,0:0:0:0:
448,192,28490,1,0,0:0:0:0:
192,192,28490,1,0,0:0:0:0:
64,192,28490,1,0,0:0:0:0:
320,192,28711,1,0,0:0:0:0:
192,192,28931,1,0,0:0:0:0:
320,192,28931,1,0,0:0:0:0:
64,192,29152,1,0,0:0:0:0:
320,192,29152,1,0,0:0:0:0:
448,192,29152,1,0,0:0:0:0:
64,192,29372,1,0,0:0:0:0:
320,192,29372,1,0,0:0:0:0:
448,192,29372,1,0,0:0:0:0:
192,192,29593,1,0,0:0:0:0:
320,192,29593,1,0,0:0:0:0:
192,192,29814,1,0,0:0:0:0:
64,192,30034,1,0,0:0:0:0:
192,192,30034,1,0,0:0:0:0:
448,192,30034,1,0,0:0:0:0:
64,192,30255,1,0,0:0:0:0:
192,192,30255,1,0,0:0:0:0:
448,192,30255,1,0,0:0:0:0:
320,192,30475,1,0,0:0:0:0:
192,192,30475,1,0,0:0:0:0:
320,192,30696,1,0,0:0:0:0:
192,192,30916,1,0,0:0:0:0:
448,192,30916,1,0,0:0:0:0:
320,192,30916,1,0,0:0:0:0:
64,192,31137,1,0,0:0:0:0:
448,192,31137,1,0,0:0:0:0:
320,192,31137,1,0,0:0:0:0:
320,192,31358,1,0,0:0:0:0:
192,192,31358,1,0,0:0:0:0:
192,192,31578,1,0,0:0:0:0:
320,192,31799,1,0,0:0:0:0:
192,192,31799,1,0,0:0:0:0:
64,192,31799,1,0,0:0:0:0:
64,192,32019,1,0,0:0:0:0:
192,192,32019,1,0,0:0:0:0:
448,192,32019,1,0,0:0:0:0:
320,192,32130,1,0,0:0:0:0:
192,192,32240,1,0,0:0:0:0:
448,192,32240,1,0,0:0:0:0:
64,192,32350,1,0,0:0:0:0:
192,192,32461,1,0,0:0:0:0:
64,192,32571,1,0,0:0:0:0:
448,192,32681,1,0,0:0:0:0:
192,192,32681,1,0,0:0:0:0:
320,192,32681,1,0,0:0:0:0:
192,192,32902,1,0,0:0:0:0:
448,192,32902,1,0,0:0:0:0:
64,192,32902,1,0,0:0:0:0:
320,192,33012,1,0,0:0:0:0:
192,192,33122,1,0,0:0:0:0:
448,192,33122,1,0,0:0:0:0:
320,192,33233,1,0,0:0:0:0:
192,192,33343,1,0,0:0:0:0:
64,192,33453,1,0,0:0:0:0:
192,192,33564,1,0,0:0:0:0:
448,192,33564,1,0,0:0:0:0:
320,192,33564,1,0,0:0:0:0:
192,192,33784,1,0,0:0:0:0:
448,192,33784,1,0,0:0:0:0:
64,192,33784,1,0,0:0:0:0:
320,192,33894,1,0,0:0:0:0:
192,192,34005,1,0,0:0:0:0:
448,192,34005,1,0,0:0:0:0:
320,192,34115,1,0,0:0:0:0:
192,192,34225,1,0,0:0:0:0:
320,192,34336,1,0,0:0:0:0:
64,192,34446,128,0,34887:0:0:0:0:
448,192,34446,128,0,34887:0:0:0:0:
192,192,34446,1,0,0:0:0:0:
320,192,34887,128,0,35328:0:0:0:0:
192,192,34887,1,0,0:0:0:0:
64,192,35328,128,0,35769:0:0:0:0:
192,192,35328,128,0,35769:0:0:0:0:
320,192,35549,1,0,0:0:0:0:
320,192,35769,1,0,0:0:0:0:
448,192,35769,1,0,0:0:0:0:
320,192,35880,1,0,0:0:0:0:
192,192,35990,1,0,0:0:0:0:
320,192,36100,1,0,0:0:0:0:
192,192,36211,1,0,0:0:0:0:
64,192,36211,1,0,0:0:0:0:
448,192,36321,1,0,0:0:0:0:
320,192,36431,1,0,0:0:0:0:
192,192,36541,1,0,0:0:0:0:
448,192,36652,1,0,0:0:0:0:
320,192,36652,1,0,0:0:0:0:
64,192,36652,1,0,0:0:0:0:
192,192,36762,1,0,0:0:0:0:
320,192,36872,1,0,0:0:0:0:
192,192,36983,1,0,0:0:0:0:
320,192,37093,1,0,0:0:0:0:
448,192,37093,1,0,0:0:0:0:
192,192,37203,1,0,0:0:0:0:
320,192,37314,1,0,0:0:0:0:
192,192,37424,1,0,0:0:0:0:
64,192,37534,1,0,0:0:0:0:
320,192,37534,1,0,0:0:0:0:
448,192,37534,1,0,0:0:0:0:
192,192,37644,1,0,0:0:0:0:
320,192,37755,1,0,0:0:0:0:
448,192,37865,1,0,0:0:0:0:
64,192,37975,1,0,0:0:0:0:
192,192,37975,1,0,0:0:0:0:
448,192,38086,1,0,0:0:0:0:
320,192,38196,1,0,0:0:0:0:
192,192,38306,1,0,0:0:0:0:
64,192,38416,1,0,0:0:0:0:
320,192,38416,1,0,0:0:0:0:
448,192,38416,1,0,0:0:0:0:
192,192,38527,1,0,0:0:0:0:
320,192,38637,1,0,0:0:0:0:
192,192,38747,1,0,0:0:0:0:
320,192,38858,1,0,0:0:0:0:
448,192,38858,1,0,0:0:0:0:
64,192,38968,1,0,0:0:0:0:
192,192,39078,1,0,0:0:0:0:
320,192,39189,1,0,0:0:0:0:
448,192,39299,1,0,0:0:0:0:
64,192,39299,1,0,0:0:0:0:
192,192,39299,1,0,0:0:0:0:
320,192,39409,1,0,0:0:0:0:
192,192,39519,1,0,0:0:0:0:
320,192,39630,1,0,0:0:0:0:
64,192,39740,1,0,0:0:0:0:
192,192,39740,1,0,0:0:0:0:
448,192,39850,1,0,0:0:0:0:
320,192,39961,1,0,0:0:0:0:
192,192,40071,1,0,0:0:0:0:
64,192,40181,1,0,0:0:0:0:
320,192,40181,1,0,0:0:0:0:
448,192,40181,1,0,0:0:0:0:
192,192,40291,1,0,0:0:0:0:
320,192,40402,1,0,0:0:0:0:
192,192,40512,1,0,0:0:0:0:
320,192,40622,1,0,0:0:0:0:
448,192,40622,1,0,0:0:0:0:
64,192,40733,1,0,0:0:0:0:
192,192,40843,1,0,0:0:0:0:
320,192,40953,1,0,0:0:0:0:
448,192,41064,1,0,0:0:0:0:
64,192,41064,1,0,0:0:0:0:
192,192,41064,1,0,0:0:0:0:
320,192,41174,1,0,0:0:0:0:
192,192,41284,1,0,0:0:0:0:
320,192,41394,1,0,0:0:0:0:
192,192,41505,1,0,0:0:0:0:
64,192,41505,1,0,0:0:0:0:
448,192,41615,1,0,0:0:0:0:
320,192,41725,1,0,0:0:0:0:
192,192,41836,1,0,0:0:0:0:
448,192,41946,1,0,0:0:0:0:
64,192,41946,1,0,0:0:0:0:
320,192,41946,1,0,0:0:0:0:
192,192,42056,1,0,0:0:0:0:
320,192,42166,1,0,0:0:0:0:
192,192,42277,1,0,0:0:0:0:
448,192,42387,1,0,0:0:0:0:
320,192,42387,1,0,0:0:0:0:
64,192,42497,1,0,0:0:0:0:
192,192,42608,1,0,0:0:0:0:
320,192,42718,1,0,0:0:0:0:
448,192,42828,1,0,0:0:0:0:
64,192,42828,1,0,0:0:0:0:
192,192,42828,1,0,0:0:0:0:
320,192,42939,1,0,0:0:0:0:
192,192,43049,1,0,0:0:0:0:
320,192,43159,1,0,0:0:0:0:
64,192,43269,1,0,0:0:0:0:
192,192,43269,1,0,0:0:0:0:
448,192,43380,1,0,0:0:0:0:
320,192,43490,1,0,0:0:0:0:
192,192,43600,1,0,0:0:0:0:
320,192,43711,1,0,0:0:0:0:
64,192,43711,1,0,0:0:0:0:
448,192,43711,1,0,0:0:0:0:
192,192,43821,1,0,0:0:0:0:
320,192,43931,1,0,0:0:0:0:
192,192,44041,1,0,0:0:0:0:
320,192,44152,1,0,0:0:0:0:
448,192,44152,1,0,0:0:0:0:
64,192,44262,1,0,0:0:0:0:
192,192,44372,1,0,0:0:0:0:
320,192,44483,1,0,0:0:0:0:
192,192,44593,1,0,0:0:0:0:
64,192,44593,1,0,0:0:0:0:
448,192,44593,1,0,0:0:0:0:
320,192,44703,1,0,0:0:0:0:
192,192,44814,1,0,0:0:0:0:
320,192,44924,1,0,0:0:0:0:
192,192,45034,1,0,0:0:0:0:
64,192,45034,1,0,0:0:0:0:
448,192,45144,1,0,0:0:0:0:
320,192,45255,1,0,0:0:0:0:
192,192,45365,1,0,0:0:0:0:
448,192,45475,1,0,0:0:0:0:
64,192,45475,1,0,0:0:0:0:
320,192,45475,1,0,0:0:0:0:
192,192,45586,1,0,0:0:0:0:
320,192,45696,1,0,0:0:0:0:
192,192,45806,1,0,0:0:0:0:
448,192,45916,1,0,0:0:0:0:
320,192,45916,1,0,0:0:0:0:
64,192,46027,1,0,0:0:0:0:
192,192,46137,1,0,0:0:0:0:
320,192,46247,1,0,0:0:0:0:
448,192,46358,1,0,0:0:0:0:
64,192,46358,1,0,0:0:0:0:
192,192,46358,1,0,0:0:0:0:
320,192,46468,1,0,0:0:0:0:
192,192,46578,1,0,0:0:0:0:
320,192,46689,1,0,0:0:0:0:
64,192,46799,1,0,0:0:0:0:
192,192,46799,1,0,0:0:0:0:
448,192,46909,1,0,0:0:0:0:
320,192,47019,1,0,0:0:0:0:
192,192,47130,1,0,0:0:0:0:
320,192,47240,1,0,0:0:0:0:
64,192,47240,1,0,0:0:0:0:
448,192,47240,1,0,0:0:0:0:
192,192,47350,1,0,0:0:0:0:
320,192,47461,1,0,0:0:0:0:
64,192,47571,1,0,0:0:0:0:
320,192,47681,1,0,0:0:0:0:
192,192,47681,1,0,0:0:0:0:
64,192,47791,1,0,0:0:0:0:
192,192,47902,1,0,0:0:0:0:
320,192,48012,1,0,0:0:0:0:
192,192,48122,1,0,0:0:0:0:
64,192,48122,1,0,0:0:0:0:
448,192,48122,1,0,0:0:0:0:
320,192,48233,1,0,0:0:0:0:
192,192,48343,1,0,0:0:0:0:
448,192,48453,1,0,0:0:0:0:
192,192,48564,1,0,0:0:0:0:
64,192,48564,1,0,0:0:0:0:
320,192,48564,1,0,0:0:0:0:
448,192,48674,1,0,0:0:0:0:
320,192,48784,1,0,0:0:0:0:
192,192,48894,1,0,0:0:0:0:
64,192,49005,1,0,0:0:0:0:
320,192,49005,1,0,0:0:0:0:
192,192,49115,1,0,0:0:0:0:
320,192,49225,1,0,0:0:0:0:
192,192,49336,1,0,0:0:0:0:
448,192,49446,1,0,0:0:0:0:
320,192,49446,1,0,0:0:0:0:
64,192,49446,1,0,0:0:0:0:
192,192,49556,1,0,0:0:0:0:
64,192,49666,1,0,0:0:0:0:
320,192,49777,1,0,0:0:0:0:
448,192,49887,1,0,0:0:0:0:
64,192,49887,1,0,0:0:0:0:
192,192,49887,1,0,0:0:0:0:
320,192,49997,1,0,0:0:0:0:
192,192,50108,1,0,0:0:0:0:
320,192,50218,1,0,0:0:0:0:
448,192,50328,1,0,0:0:0:0:
320,192,50439,1,0,0:0:0:0:
64,192,50549,1,0,0:0:0:0:
192,192,50549,1,0,0:0:0:0:
320,192,50659,1,0,0:0:0:0:
192,192,50769,1,0,0:0:0:0:
448,192,50769,1,0,0:0:0:0:
320,192,50880,1,0,0:0:0:0:
448,192,50990,1,0,0:0:0:0:
64,192,50990,1,0,0:0:0:0:
192,192,51064,1,0,0:0:0:0:
64,192,51137,1,0,0:0:0:0:
192,192,51211,1,0,0:0:0:0:
320,192,51284,1,0,0:0:0:0:
448,192,51358,1,0,0:0:0:0:
320,192,51431,1,0,0:0:0:0:
192,192,51505,1,0,0:0:0:0:
64,192,51578,1,0,0:0:0:0:
448,192,51652,1,0,0:0:0:0:
320,192,51725,1,0,0:0:0:0:
192,192,51799,1,0,0:0:0:0:
64,192,51872,1,0,0:0:0:0:
448,192,51946,1,0,0:0:0:0:
320,192,52019,1,0,0:0:0:0:
192,192,52093,1,0,0:0:0:0:
64,192,52093,1,0,0:0:0:0:
448,192,52093,1,0,0:0:0:0:
192,192,52314,1,0,0:0:0:0:
448,192,52314,1,0,0:0:0:0:
320,192,52424,1,0,0:0:0:0:
64,192,52534,1,0,0:0:0:0:
192,192,52534,1,0,0:0:0:0:
192,192,52755,1,0,0:0:0:0:
448,192,52755,1,0,0:0:0:0:
320,192,52975,1,0,0:0:0:0:
448,192,52975,1,0,0:0:0:0:
64,192,52975,1,0,0:0:0:0:
192,192,53196,1,0,0:0:0:0:
448,192,53196,1,0,0:0:0:0:
320,192,53306,1,0,0:0:0:0:
192,192,53416,1,0,0:0:0:0:
64,192,53416,1,0,0:0:0:0:
448,192,53637,1,0,0:0:0:0:
320,192,53637,1,0,0:0:0:0:
64,192,53858,1,0,0:0:0:0:
320,192,53858,1,0,0:0:0:0:
192,192,54078,1,0,0:0:0:0:
320,192,54078,1,0,0:0:0:0:
64,192,54299,1,0,0:0:0:0:
448,192,54299,1,0,0:0:0:0:
192,192,54519,1,0,0:0:0:0:
320,192,54519,1,0,0:0:0:0:
448,192,54740,1,0,0:0:0:0:
64,192,54740,128,0,55181:0:0:0:0:
320,192,55181,1,0,0:0:0:0:
448,192,55181,1,0,0:0:0:0:
320,192,55402,1,0,0:0:0:0:
64,192,55402,1,0,0:0:0:0:
192,192,55512,1,0,0:0:0:0:
320,192,55622,1,0,0:0:0:0:
448,192,55622,1,0,0:0:0:0:
64,192,55843,1,0,0:0:0:0:
320,192,55843,1,0,0:0:0:0:
192,192,56064,1,0,0:0:0:0:
448,192,56064,1,0,0:0:0:0:
192,192,56284,1,0,0:0:0:0:
64,192,56284,1,0,0:0:0:0:
320,192,56394,1,0,0:0:0:0:
192,192,56505,1,0,0:0:0:0:
448,192,56505,1,0,0:0:0:0:
448,192,56725,1,0,0:0:0:0:
320,192,56725,1,0,0:0:0:0:
448,192,56946,1,0,0:0:0:0:
192,192,56946,1,0,0:0:0:0:
448,192,57166,1,0,0:0:0:0:
64,192,57166,1,0,0:0:0:0:
320,192,57387,1,0,0:0:0:0:
64,192,57387,128,0,59152:0:0:0:0:
192,192,57608,1,0,0:0:0:0:
448,192,57608,1,0,0:0:0:0:
320,192,57718,1,0,0:0:0:0:
192,192,57828,1,0,0:0:0:0:
448,192,57828,1,0,0:0:0:0:
192,192,58049,1,0,0:0:0:0:
448,192,58049,1,0,0:0:0:0:
320,192,58159,1,0,0:0:0:0:
192,192,58269,1,0,0:0:0:0:
448,192,58269,1,0,0:0:0:0:
192,192,58490,1,0,0:0:0:0:
448,192,58490,1,0,0:0:0:0:
320,192,58600,1,0,0:0:0:0:
192,192,58711,1,0,0:0:0:0:
448,192,58711,1,0,0:0:0:0:
192,192,58931,1,0,0:0:0:0:
320,192,58931,1,0,0:0:0:0:
448,192,59152,1,0,0:0:0:0:
320,192,59152,1,0,0:0:0:0:
192,192,59372,1,0,0:0:0:0:
448,192,59372,1,0,0:0:0:0:
320,192,59483,1,0,0:0:0:0:
64,192,59593,1,0,0:0:0:0:
192,192,59593,1,0,0:0:0:0:
192,192,59814,1,0,0:0:0:0:
448,192,59814,1,0,0:0:0:0:
64,192,60034,1,0,0:0:0:0:
320,192,60034,1,0,0:0:0:0:
192,192,60255,1,0,0:0:0:0:
448,192,60255,1,0,0:0:0:0:
320,192,60365,1,0,0:0:0:0:
64,192,60475,1,0,0:0:0:0:
192,192,60475,1,0,0:0:0:0:
320,192,60696,1,0,0:0:0:0:
64,192,60916,1,0,0:0:0:0:
448,192,60916,1,0,0:0:0:0:
192,192,60916,1,0,0:0:0:0:
320,192,61027,1,0,0:0:0:0:
64,192,61137,1,0,0:0:0:0:
448,192,61137,1,0,0:0:0:0:
192,192,61247,1,0,0:0:0:0:
448,192,61358,1,0,0:0:0:0:
320,192,61358,1,0,0:0:0:0:
64,192,61468,1,0,0:0:0:0:
192,192,61578,1,0,0:0:0:0:
448,192,61578,1,0,0:0:0:0:
320,192,61689,1,0,0:0:0:0:
192,192,61799,1,0,0:0:0:0:
448,192,61799,1,0,0:0:0:0:
64,192,61909,1,0,0:0:0:0:
192,192,62019,1,0,0:0:0:0:
448,192,62019,1,0,0:0:0:0:
320,192,62130,1,0,0:0:0:0:
192,192,62240,1,0,0:0:0:0:
448,192,62240,1,0,0:0:0:0:
64,192,62240,128,0,62681:0:0:0:0:
192,192,62681,1,0,0:0:0:0:
448,192,62681,1,0,0:0:0:0:
192,192,62902,1,0,0:0:0:0:
320,192,62902,1,0,0:0:0:0:
64,192,63122,1,0,0:0:0:0:
448,192,63122,1,0,0:0:0:0:
192,192,63343,1,0,0:0:0:0:
448,192,63343,1,0,0:0:0:0:
320,192,63453,1,0,0:0:0:0:
64,192,63564,128,0,64005:0:0:0:0:
448,192,63564,128,0,64005:0:0:0:0:
192,192,63564,1,0,0:0:0:0:
320,192,64005,128,0,64446:0:0:0:0:
192,192,64005,1,0,0:0:0:0:
64,192,64446,1,0,0:0:0:0:
448,192,64446,128,0,65328:0:0:0:0:
320,192,64666,1,0,0:0:0:0:
64,192,64666,1,0,0:0:0:0:
192,192,64777,1,0,0:0:0:0:
64,192,64887,1,0,0:0:0:0:
320,192,64887,1,0,0:0:0:0:
320,192,65108,1,0,0:0:0:0:
64,192,65108,1,0,0:0:0:0:
192,192,65218,1,0,0:0:0:0:
64,192,65328,1,0,0:0:0:0:
320,192,65328,1,0,0:0:0:0:
192,192,65549,1,0,0:0:0:0:
320,192,65549,1,0,0:0:0:0:
64,192,65769,1,0,0:0:0:0:
320,192,65769,1,0,0:0:0:0:
448,192,65769,1,0,0:0:0:0:
192,192,65880,1,0,0:0:0:0:
320,192,65990,1,0,0:0:0:0:
448,192,66100,1,0,0:0:0:0:
320,192,66211,1,0,0:0:0:0:
64,192,66211,1,0,0:0:0:0:
192,192,66211,1,0,0:0:0:0:
64,192,66431,1,0,0:0:0:0:
192,192,66431,1,0,0:0:0:0:
320,192,66431,1,0,0:0:0:0:
192,192,66652,1,0,0:0:0:0:
448,192,66652,1,0,0:0:0:0:
320,192,66872,1,0,0:0:0:0:
64,192,66872,1,0,0:0:0:0:
192,192,67093,1,0,0:0:0:0:
320,192,67093,1,0,0:0:0:0:
448,192,67093,1,0,0:0:0:0:
192,192,67314,1,0,0:0:0:0:
320,192,67314,1,0,0:0:0:0:
448,192,67314,1,0,0:0:0:0:
192,192,67534,128,0,67975:0:0:0:0:
320,192,67534,1,0,0:0:0:0:
64,192,67975,128,0,69740:0:0:0:0:
448,192,67975,1,0,0:0:0:0:
320,192,67975,1,0,0:0:0:0:
320,192,68196,1,0,0:0:0:0:
192,192,68196,1,0,0:0:0:0:
320,192,68416,1,0,0:0:0:0:
448,192,68416,1,0,0:0:0:0:
192,192,68637,1,0,0:0:0:0:
320,192,68637,1,0,0:0:0:0:
448,192,68637,1,0,0:0:0:0:
320,192,68858,1,0,0:0:0:0:
448,192,68858,1,0,0:0:0:0:
320,192,69078,1,0,0:0:0:0:
448,192,69078,1,0,0:0:0:0:
192,192,69299,1,0,0:0:0:0:
320,192,69299,1,0,0:0:0:0:
448,192,69299,1,0,0:0:0:0:
448,192,69519,1,0,0:0:0:0:
320,192,69519,1,0,0:0:0:0:
320,192,69740,1,0,0:0:0:0:
192,192,69740,1,0,0:0:0:0:
192,192,69961,1,0,0:0:0:0:
320,192,69961,1,0,0:0:0:0:
448,192,69961,1,0,0:0:0:0:
64,192,70181,1,0,0:0:0:0:
320,192,70181,1,0,0:0:0:0:
448,192,70181,1,0,0:0:0:0:
192,192,70402,1,0,0:0:0:0:
64,192,70402,1,0,0:0:0:0:
320,192,70402,1,0,0:0:0:0:
192,192,70622,1,0,0:0:0:0:
320,192,70622,1,0,0:0:0:0:
448,192,70622,1,0,0:0:0:0:
64,192,70843,1,0,0:0:0:0:
320,192,70843,1,0,0:0:0:0:
448,192,70843,1,0,0:0:0:0:
448,192,71064,1,0,0:0:0:0:
64,192,71064,1,0,0:0:0:0:
192,192,71064,1,0,0:0:0:0:
192,192,71284,1,0,0:0:0:0:
320,192,71284,1,0,0:0:0:0:
448,192,71505,1,0,0:0:0:0:
64,192,71505,128,0,71946:0:0:0:0:
320,192,71946,1,0,0:0:0:0:
448,192,71946,128,0,72387:0:0:0:0:
192,192,72387,1,0,0:0:0:0:
320,192,72387,1,0,0:0:0:0:
64,192,72608,1,0,0:0:0:0:
320,192,72608,1,0,0:0:0:0:
64,192,72828,1,0,0:0:0:0:
192,192,72828,1,0,0:0:0:0:
64,192,73049,1,0,0:0:0:0:
320,192,73049,1,0,0:0:0:0:
448,192,73049,128,0,73490:0:0:0:0:
192,192,73490,1,0,0:0:0:0:
320,192,73490,1,0,0:0:0:0:
64,192,73490,128,0,74152:0:0:0:0:
192,192,73711,1,0,0:0:0:0:
448,192,73711,1,0,0:0:0:0:
192,192,73931,1,0,0:0:0:0:
448,192,73931,1,0,0:0:0:0:
320,192,74041,1,0,0:0:0:0:
192,192,74152,1,0,0:0:0:0:
448,192,74152,1,0,0:0:0:0:
64,192,74372,1,0,0:0:0:0:
320,192,74372,1,0,0:0:0:0:
192,192,74483,1,0,0:0:0:0:
320,192,74593,1,0,0:0:0:0:
448,192,74593,1,0,0:0:0:0:
192,192,74703,1,0,0:0:0:0:
64,192,74814,1,0,0:0:0:0:
320,192,74814,1,0,0:0:0:0:
192,192,74924,1,0,0:0:0:0:
320,192,75034,1,0,0:0:0:0:
448,192,75034,128,0,75475:0:0:0:0:
64,192,75034,1,0,0:0:0:0:
64,192,75475,128,0,75916:0:0:0:0:
192,192,75475,1,0,0:0:0:0:
320,192,75475,1,0,0:0:0:0:
192,192,75916,1,0,0:0:0:0:
448,192,75916,1,0,0:0:0:0:
320,192,76027,1,0,0:0:0:0:
192,192,76137,1,0,0:0:0:0:
64,192,76247,1,0,0:0:0:0:
192,192,76358,1,0,0:0:0:0:
448,192,76358,1,0,0:0:0:0:
192,192,76578,1,0,0:0:0:0:
320,192,76578,1,0,0:0:0:0:
64,192,76799,1,0,0:0:0:0:
192,192,76799,1,0,0:0:0:0:
448,192,76799,128,0,77240:0:0:0:0:
64,192,77240,128,0,77681:0:0:0:0:
192,192,77240,1,0,0:0:0:0:
320,192,77461,1,0,0:0:0:0:
448,192,77461,1,0,0:0:0:0:
192,192,77681,1,0,0:0:0:0:
320,192,77681,1,0,0:0:0:0:
448,192,77681,128,0,78343:0:0:0:0:
64,192,77902,1,0,0:0:0:0:
320,192,77902,1,0,0:0:0:0:
192,192,78012,1,0,0:0:0:0:
64,192,78122,1,0,0:0:0:0:
320,192,78122,1,0,0:0:0:0:
64,192,78343,1,0,0:0:0:0:
320,192,78343,1,0,0:0:0:0:
64,192,78564,1,0,0:0:0:0:
192,192,78564,1,0,0:0:0:0:
448,192,78674,1,0,0:0:0:0:
320,192,78784,1,0,0:0:0:0:
192,192,78894,1,0,0:0:0:0:
448,192,79005,1,0,0:0:0:0:
64,192,79005,1,0,0:0:0:0:
320,192,79005,1,0,0:0:0:0:
192,192,79115,1,0,0:0:0:0:
320,192,79225,1,0,0:0:0:0:
192,192,79336,1,0,0:0:0:0:
320,192,79446,1,0,0:0:0:0:
448,192,79446,1,0,0:0:0:0:
64,192,79556,1,0,0:0:0:0:
192,192,79666,1,0,0:0:0:0:
320,192,79777,1,0,0:0:0:0:
448,192,79887,1,0,0:0:0:0:
64,192,79887,1,0,0:0:0:0:
192,192,79887,1,0,0:0:0:0:
320,192,79997,1,0,0:0:0:0:
192,192,80108,1,0,0:0:0:0:
320,192,80218,1,0,0:0:0:0:
64,192,80328,1,0,0:0:0:0:
192,192,80328,1,0,0:0:0:0:
448,192,80439,1,0,0:0:0:0:
320,192,80549,1,0,0:0:0:0:
192,192,80659,1,0,0:0:0:0:
320,192,80769,1,0,0:0:0:0:
64,192,80769,1,0,0:0:0:0:
448,192,80769,1,0,0:0:0:0:
192,192,80880,1,0,0:0:0:0:
320,192,80990,1,0,0:0:0:0:
192,192,81100,1,0,0:0:0:0:
448,192,81211,1,0,0:0:0:0:
320,192,81211,1,0,0:0:0:0:
64,192,81321,1,0,0:0:0:0:
192,192,81431,1,0,0:0:0:0:
320,192,81541,1,0,0:0:0:0:
192,192,81652,1,0,0:0:0:0:
64,192,81652,1,0,0:0:0:0:
448,192,81652,1,0,0:0:0:0:
320,192,81762,1,0,0:0:0:0:
192,192,81872,1,0,0:0:0:0:
320,192,81983,1,0,0:0:0:0:
192,192,82093,1,0,0:0:0:0:
64,192,82093,1,0,0:0:0:0:
448,192,82203,1,0,0:0:0:0:
320,192,82314,1,0,0:0:0:0:
192,192,82424,1,0,0:0:0:0:
448,192,82534,1,0,0:0:0:0:
64,192,82534,1,0,0:0:0:0:
320,192,82534,1,0,0:0:0:0:
192,192,82644,1,0,0:0:0:0:
320,192,82755,1,0,0:0:0:0:
192,192,82865,1,0,0:0:0:0:
320,192,82975,1,0,0:0:0:0:
448,192,82975,1,0,0:0:0:0:
64,192,83086,1,0,0:0:0:0:
192,192,83196,1,0,0:0:0:0:
320,192,83306,1,0,0:0:0:0:
448,192,83416,1,0,0:0:0:0:
64,192,83416,1,0,0:0:0:0:
320,192,83527,1,0,0:0:0:0:
192,192,83637,1,0,0:0:0:0:
320,192,83747,1,0,0:0:0:0:
64,192,83858,1,0,0:0:0:0:
192,192,83858,1,0,0:0:0:0:
448,192,83858,1,0,0:0:0:0:
320,192,83968,1,0,0:0:0:0:
192,192,84078,1,0,0:0:0:0:
320,192,84189,1,0,0:0:0:0:
64,192,84299,1,0,0:0:0:0:
192,192,84299,1,0,0:0:0:0:
320,192,84409,1,0,0:0:0:0:
448,192,84519,1,0,0:0:0:0:
320,192,84630,1,0,0:0:0:0:
448,192,84740,1,0,0:0:0:0:
192,192,84740,1,0,0:0:0:0:
64,192,84850,1,0,0:0:0:0:
192,192,84961,1,0,0:0:0:0:
320,192,85071,1,0,0:0:0:0:
192,192,85181,1,0,0:0:0:0:
64,192,85181,1,0,0:0:0:0:
448,192,85181,1,0,0:0:0:0:
320,192,85291,1,0,0:0:0:0:
448,192,85402,1,0,0:0:0:0:
320,192,85512,1,0,0:0:0:0:
192,192,85622,1,0,0:0:0:0:
64,192,85622,1,0,0:0:0:0:
320,192,85733,1,0,0:0:0:0:
192,192,85843,1,0,0:0:0:0:
448,192,85843,1,0,0:0:0:0:
320,192,85953,1,0,0:0:0:0:
64,192,86064,1,0,0:0:0:0:
448,192,86064,1,0,0:0:0:0:
320,192,86174,1,0,0:0:0:0:
192,192,86284,1,0,0:0:0:0:
320,192,86394,1,0,0:0:0:0:
448,192,86505,1,0,0:0:0:0:
64,192,86505,1,0,0:0:0:0:
320,192,86615,1,0,0:0:0:0:
448,192,86725,1,0,0:0:0:0:
320,192,86799,1,0,0:0:0:0:
192,192,86872,1,0,0:0:0:0:
64,192,86946,1,0,0:0:0:0:
192,192,87019,1,0,0:0:0:0:
448,192,87093,1,0,0:0:0:0:
320,192,87166,1,0,0:0:0:0:
192,192,87240,1,0,0:0:0:0:
64,192,87314,1,0,0:0:0:0:
448,192,87387,128,0,87828:0:0:0:0:
192,192,87608,1,0,0:0:0:0:
64,192,87828,128,0,88269:0:0:0:0:
320,192,87828,1,0,0:0:0:0:
320,192,88049,1,0,0:0:0:0:
448,192,88269,128,0,88711:0:0:0:0:
192,192,88269,1,0,0:0:0:0:
192,192,88490,1,0,0:0:0:0:
64,192,88711,128,0,89152:0:0:0:0:
320,192,88711,1,0,0:0:0:0:
320,192,88931,1,0,0:0:0:0:
192,192,89152,1,0,0:0:0:0:
448,192,89152,1,0,0:0:0:0:
320,192,89262,1,0,0:0:0:0:
192,192,89372,1,0,0:0:0:0:
320,192,89483,1,0,0:0:0:0:
192,192,89593,1,0,0:0:0:0:
448,192,89593,128,0,90034:0:0:0:0:
192,192,89814,1,0,0:0:0:0:
64,192,90034,128,0,90475:0:0:0:0:
320,192,90034,1,0,0:0:0:0:
320,192,90255,1,0,0:0:0:0:
448,192,90475,128,0,90916:0:0:0:0:
192,192,90475,1,0,0:0:0:0:
192,192,90696,1,0,0:0:0:0:
64,192,90916,128,0,91358:0:0:0:0:
320,192,90916,1,0,0:0:0:0:
320,192,91137,1,0,0:0:0:0:
448,192,91358,128,0,91799:0:0:0:0:
192,192,91358,1,0,0:0:0:0:
192,192,91578,1,0,0:0:0:0:
320,192,91799,128,0,92240:0:0:0:0:
192,192,91799,1,0,0:0:0:0:
192,192,92019,1,0,0:0:0:0:
192,192,92240,1,0,0:0:0:0:
64,192,92240,128,0,92461:0:0:0:0:
192,192,92461,128,0,92681:0:0:0:0:
320,192,92461,1,0,0:0:0:0:
448,192,92681,1,0,0:0:0:0:
320,192,92681,128,0,94005:0:0:0:0:
448,192,92902,1,0,0:0:0:0:
64,192,93122,1,0,0:0:0:0:
192,192,93122,1,0,0:0:0:0:
448,192,93343,1,0,0:0:0:0:
64,192,93564,1,0,0:0:0:0:
192,192,93564,1,0,0:0:0:0:
448,192,93784,1,0,0:0:0:0:
64,192,94005,1,0,0:0:0:0:
192,192,94005,1,0,0:0:0:0:
448,192,94225,1,0,0:0:0:0:
64,192,94446,128,0,94887:0:0:0:0:
320,192,94446,1,0,0:0:0:0:
320,192,94666,1,0,0:0:0:0:
192,192,94887,1,0,0:0:0:0:
320,192,94887,1,0,0:0:0:0:
448,192,94887,128,0,95328:0:0:0:0:
64,192,95328,128,0,95769:0:0:0:0:
320,192,95328,1,0,0:0:0:0:
320,192,95549,1,0,0:0:0:0:
192,192,95769,1,0,0:0:0:0:
320,192,95769,1,0,0:0:0:0:
448,192,95769,128,0,96211:0:0:0:0:
64,192,96211,128,0,96652:0:0:0:0:
320,192,96211,1,0,0:0:0:0:
320,192,96431,1,0,0:0:0:0:
448,192,96652,128,0,97093:0:0:0:0:
192,192,96652,1,0,0:0:0:0:
320,192,96652,1,0,0:0:0:0:
64,192,97093,128,0,97534:0:0:0:0:
320,192,97093,1,0,0:0:0:0:
320,192,97314,1,0,0:0:0:0:
192,192,97534,1,0,0:0:0:0:
320,192,97534,1,0,0:0:0:0:
448,192,97534,128,0,97975:0:0:0:0:
64,192,97975,128,0,98196:0:0:0:0:
192,192,97975,1,0,0:0:0:0:
192,192,98196,128,0,98416:0:0:0:0:
320,192,98196,1,0,0:0:0:0:
320,192,98416,128,0,98637:0:0:0:0:
448,192,98416,1,0,0:0:0:0:
64,192,98416,1,0,0:0:0:0:
448,192,98637,128,0,98858:0:0:0:0:
192,192,98637,1,0,0:0:0:0:
320,192,98858,128,0,99078:0:0:0:0:
192,192,98858,1,0,0:0:0:0:
192,192,99078,128,0,99299:0:0:0:0:
64,192,99078,1,0,0:0:0:0:
320,192,99299,1,0,0:0:0:0:
448,192,99299,1,0,0:0:0:0:
64,192,99299,128,0,99740:0:0:0:0:
192,192,99740,1,0,0:0:0:0:
320,192,99740,1,0,0:0:0:0:
448,192,99740,128,0,101505:0:0:0:0:
64,192,100181,1,0,0:0:0:0:
320,192,100181,1,0,0:0:0:0:
64,192,100402,1,0,0:0:0:0:
320,192,100402,1,0,0:0:0:0:
64,192,100622,1,0,0:0:0:0:
320,192,100622,1,0,0:0:0:0:
64,192,100843,1,0,0:0:0:0:
320,192,100843,1,0,0:0:0:0:
64,192,101064,128,0,101174:0:0:0:0:
320,192,101064,128,0,101174:0:0:0:0:
64,192,101284,128,0,101505:0:0:0:0:
320,192,101284,128,0,101505:0:0:0:0:
448,192,101725,1,0,0:0:0:0:
192,192,101725,1,0,0:0:0:0:
64,192,101946,1,0,0:0:0:0:
320,192,101946,1,0,0:0:0:0:
448,192,102387,1,0,0:0:0:0:
64,192,102387,1,0,0:0:0:0:
192,192,102497,1,0,0:0:0:0:
320,192,102608,1,0,0:0:0:0:
64,192,102608,1,0,0:0:0:0:
192,192,102718,1,0,0:0:0:0:
64,192,102828,1,0,0:0:0:0:
320,192,102828,1,0,0:0:0:0:
192,192,102939,1,0,0:0:0:0:
320,192,103049,1,0,0:0:0:0:
448,192,103049,1,0,0:0:0:0:
192,192,103159,1,0,0:0:0:0:
320,192,103269,1,0,0:0:0:0:
64,192,103269,1,0,0:0:0:0:
448,192,103269,1,0,0:0:0:0:
192,192,103490,1,0,0:0:0:0:
448,192,103490,1,0,0:0:0:0:
320,192,103600,1,0,0:0:0:0:
64,192,103711,1,0,0:0:0:0:
192,192,103711,1,0,0:0:0:0:
448,192,103931,1,0,0:0:0:0:
320,192,103931,1,0,0:0:0:0:
64,192,104152,1,0,0:0:0:0:
448,192,104152,1,0,0:0:0:0:
64,192,104372,1,0,0:0:0:0:
320,192,104372,1,0,0:0:0:0:
192,192,104483,1,0,0:0:0:0:
320,192,104593,1,0,0:0:0:0:
448,192,104593,1,0,0:0:0:0:
64,192,104814,1,0,0:0:0:0:
192,192,104814,1,0,0:0:0:0:
320,192,105034,1,0,0:0:0:0:
192,192,105034,1,0,0:0:0:0:
192,192,105255,1,0,0:0:0:0:
448,192,105255,1,0,0:0:0:0:
320,192,105365,1,0,0:0:0:0:
64,192,105475,1,0,0:0:0:0:
192,192,105475,1,0,0:0:0:0:
448,192,105696,1,0,0:0:0:0:
320,192,105696,1,0,0:0:0:0:
448,192,105916,1,0,0:0:0:0:
64,192,105916,1,0,0:0:0:0:
64,192,106137,1,0,0:0:0:0:
320,192,106137,1,0,0:0:0:0:
192,192,106247,1,0,0:0:0:0:
320,192,106358,1,0,0:0:0:0:
448,192,106358,1,0,0:0:0:0:
64,192,106578,1,0,0:0:0:0:
192,192,106578,1,0,0:0:0:0:
192,192,106799,1,0,0:0:0:0:
448,192,106799,1,0,0:0:0:0:
448,192,107019,1,0,0:0:0:0:
192,192,107019,1,0,0:0:0:0:
320,192,107130,1,0,0:0:0:0:
192,192,107240,1,0,0:0:0:0:
64,192,107240,1,0,0:0:0:0:
320,192,107461,1,0,0:0:0:0:
448,192,107461,1,0,0:0:0:0:
64,192,107681,1,0,0:0:0:0:
448,192,107681,1,0,0:0:0:0:
320,192,107902,1,0,0:0:0:0:
64,192,107902,1,0,0:0:0:0:
192,192,108012,1,0,0:0:0:0:
448,192,108122,1,0,0:0:0:0:
320,192,108122,1,0,0:0:0:0:
192,192,108343,1,0,0:0:0:0:
64,192,108343,1,0,0:0:0:0:
192,192,108564,1,0,0:0:0:0:
448,192,108564,128,0,110328:0:0:0:0:
320,192,108784,1,0,0:0:0:0:
64,192,108784,1,0,0:0:0:0:
192,192,108894,1,0,0:0:0:0:
64,192,109005,1,0,0:0:0:0:
320,192,109005,1,0,0:0:0:0:
320,192,109225,1,0,0:0:0:0:
64,192,109225,1,0,0:0:0:0:
192,192,109336,1,0,0:0:0:0:
64,192,109446,1,0,0:0:0:0:
320,192,109446,1,0,0:0:0:0:
320,192,109666,1,0,0:0:0:0:
64,192,109666,1,0,0:0:0:0:
192,192,109777,1,0,0:0:0:0:
64,192,109887,1,0,0:0:0:0:
320,192,109887,1,0,0:0:0:0:
64,192,110108,1,0,0:0:0:0:
320,192,110108,1,0,0:0:0:0:
64,192,110328,1,0,0:0:0:0:
192,192,110328,1,0,0:0:0:0:
192,192,110549,1,0,0:0:0:0:
64,192,110549,1,0,0:0:0:0:
320,192,110659,1,0,0:0:0:0:
192,192,110769,1,0,0:0:0:0:
448,192,110769,1,0,0:0:0:0:
448,192,110990,1,0,0:0:0:0:
320,192,110990,1,0,0:0:0:0:
448,192,111211,1,0,0:0:0:0:
192,192,111211,1,0,0:0:0:0:
64,192,111211,1,0,0:0:0:0:
320,192,111431,1,0,0:0:0:0:
448,192,111431,1,0,0:0:0:0:
192,192,111541,1,0,0:0:0:0:
64,192,111652,1,0,0:0:0:0:
320,192,111652,1,0,0:0:0:0:
192,192,111872,1,0,0:0:0:0:
320,192,111872,1,0,0:0:0:0:
192,192,112093,1,0,0:0:0:0:
64,192,112093,1,0,0:0:0:0:
448,192,112093,1,0,0:0:0:0:
320,192,112203,1,0,0:0:0:0:
448,192,112314,1,0,0:0:0:0:
64,192,112314,1,0,0:0:0:0:
192,192,112424,1,0,0:0:0:0:
448,192,112534,1,0,0:0:0:0:
320,192,112534,1,0,0:0:0:0:
192,192,112644,1,0,0:0:0:0:
448,192,112755,1,0,0:0:0:0:
64,192,112755,1,0,0:0:0:0:
320,192,112865,1,0,0:0:0:0:
448,192,112975,1,0,0:0:0:0:
192,192,112975,1,0,0:0:0:0:
320,192,113086,1,0,0:0:0:0:
192,192,113196,1,0,0:0:0:0:
320,192,113306,1,0,0:0:0:0:
448,192,113416,1,0,0:0:0:0:
64,192,113416,128,0,113858:0:0:0:0:
192,192,113416,1,0,0:0:0:0:
192,192,113858,1,0,0:0:0:0:
448,192,113858,1,0,0:0:0:0:
192,192,114078,1,0,0:0:0:0:
320,192,114078,1,0,0:0:0:0:
64,192,114299,1,0,0:0:0:0:
448,192,114299,1,0,0:0:0:0:
192,192,114519,1,0,0:0:0:0:
448,192,114519,1,0,0:0:0:0:
320,192,114630,1,0,0:0:0:0:
64,192,114740,128,0,115181:0:0:0:0:
448,192,114740,128,0,115181:0:0:0:0:
320,192,115181,128,0,115622:0:0:0:0:
192,192,115181,1,0,0:0:0:0:
448,192,115622,128,0,116505:0:0:0:0:
64,192,115622,1,0,0:0:0:0:
320,192,115843,1,0,0:0:0:0:
64,192,115843,1,0,0:0:0:0:
192,192,115953,1,0,0:0:0:0:
64,192,116064,1,0,0:0:0:0:
320,192,116064,1,0,0:0:0:0:
320,192,116284,1,0,0:0:0:0:
64,192,116284,1,0,0:0:0:0:
192,192,116394,1,0,0:0:0:0:
64,192,116505,1,0,0:0:0:0:
320,192,116505,1,0,0:0:0:0:
192,192,116725,1,0,0:0:0:0:
320,192,116725,1,0,0:0:0:0:
64,192,116946,1,0,0:0:0:0:
448,192,116946,1,0,0:0:0:0:
192,192,117056,1,0,0:0:0:0:
320,192,117166,1,0,0:0:0:0:
64,192,117166,1,0,0:0:0:0:
448,192,117277,1,0,0:0:0:0:
320,192,117387,1,0,0:0:0:0:
64,192,117387,1,0,0:0:0:0:
64,192,117608,1,0,0:0:0:0:
320,192,117608,1,0,0:0:0:0:
192,192,117828,1,0,0:0:0:0:
448,192,117828,1,0,0:0:0:0:
320,192,118049,1,0,0:0:0:0:
192,192,118049,1,0,0:0:0:0:
64,192,118269,1,0,0:0:0:0:
320,192,118269,1,0,0:0:0:0:
192,192,118490,1,0,0:0:0:0:
448,192,118490,1,0,0:0:0:0:
192,192,118711,128,0,119152:0:0:0:0:
320,192,118711,1,0,0:0:0:0:
64,192,119152,128,0,120916:0:0:0:0:
320,192,119152,128,0,119372:0:0:0:0:
448,192,119152,1,0,0:0:0:0:
448,192,119372,128,0,119593:0:0:0:0:
192,192,119372,1,0,0:0:0:0:
320,192,119593,128,0,119814:0:0:0:0:
192,192,119593,1,0,0:0:0:0:
192,192,119814,128,0,120034:0:0:0:0:
448,192,119814,1,0,0:0:0:0:
320,192,120034,128,0,120255:0:0:0:0:
448,192,120034,1,0,0:0:0:0:
448,192,120255,1,0,0:0:0:0:
192,192,120255,1,0,0:0:0:0:
448,192,120475,1,0,0:0:0:0:
192,192,120475,1,0,0:0:0:0:
320,192,120586,1,0,0:0:0:0:
192,192,120696,1,0,0:0:0:0:
448,192,120696,1,0,0:0:0:0:
192,192,120916,1,0,0:0:0:0:
320,192,120916,1,0,0:0:0:0:
448,192,120916,1,0,0:0:0:0:
64,192,121137,1,0,0:0:0:0:
192,192,121137,1,0,0:0:0:0:
320,192,121137,1,0,0:0:0:0:
192,192,121358,1,0,0:0:0:0:
448,192,121358,1,0,0:0:0:0:
192,192,121578,1,0,0:0:0:0:
320,192,121578,1,0,0:0:0:0:
64,192,121799,1,0,0:0:0:0:
320,192,121799,1,0,0:0:0:0:
192,192,121799,1,0,0:0:0:0:
192,192,122019,1,0,0:0:0:0:
320,192,122019,1,0,0:0:0:0:
448,192,122019,128,0,122681:0:0:0:0:
64,192,122240,1,0,0:0:0:0:
192,192,122240,1,0,0:0:0:0:
64,192,122681,128,0,126211:0:0:0:0:
192,192,122681,128,0,126211:0:0:0:0:
320,192,122681,128,0,126211:0:0:0:0:
448,192,126211,1,0,0:0:0:0:
320,192,126321,1,0,0:0:0:0:
192,192,126431,1,0,0:0:0:0:
320,192,126541,1,0,0:0:0:0:
448,192,126652,1,0,0:0:0:0:
320,192,126762,1,0,0:0:0:0:
192,192,126872,1,0,0:0:0:0:
320,192,126983,1,0,0:0:0:0:
448,192,127093,1,0,0:0:0:0:
192,192,127093,1,0,0:0:0:0:
64,192,127093,1,0,0:0:0:0:
