osu file format v14

[General]
AudioFilename: MEPHISTO.mp3
AudioLeadIn: 0
PreviewTime: 60753
Countdown: 1
SampleSet: None
StackLeniency: 0.7
Mode: 3
LetterboxInBreaks: 0
SpecialStyle: 1
WidescreenStoryboard: 1

[Editor]
DistanceSpacing: 1
BeatDivisor: 4
GridSize: 4
TimelineZoom: 4.199998

[Metadata]
Title:Demitoo 4k Practice pack
TitleUnicode:Demitoo 4k Practice pack
Artist:Various Artist
ArtistUnicode:Various Artist
Creator:Demitoo
Version:Mephisto (Medium) - 170 bpm
Source:
Tags:
BeatmapID:871534
BeatmapSetID:400528

[Difficulty]
HPDrainRate:8
CircleSize:4
OverallDifficulty:8
ApproachRate:5
SliderMultiplier:1.4
SliderTickRate:1

[Events]
//Background and Video events
0,0,"Konachan.com - 187440 sample.jpg",0,0
//Break Periods
//Storyboard Layer 0 (Background)
//Storyboard Layer 1 (Fail)
//Storyboard Layer 2 (Pass)
//Storyboard Layer 3 (Foreground)
//Storyboard Sound Samples

[TimingPoints]
1459,352.941176470588,4,1,0,5,1,0

[HitObjects]
448,192,1459,5,0,0:0:0:0:
320,192,1547,1,0,0:0:0:0:
192,192,1635,1,0,0:0:0:0:
320,192,1723,1,0,0:0:0:0:
64,192,1811,1,0,0:0:0:0:
192,192,1900,1,0,0:0:0:0:
320,192,1988,1,0,0:0:0:0:
448,192,2076,1,0,0:0:0:0:
320,192,2164,1,0,0:0:0:0:
64,192,2253,1,0,0:0:0:0:
448,192,2341,1,0,0:0:0:0:
320,192,2429,1,0,0:0:0:0:
448,192,2517,1,0,0:0:0:0:
320,192,2606,1,0,0:0:0:0:
192,192,2694,1,0,0:0:0:0:
64,192,2782,1,0,0:0:0:0:
192,192,2870,1,0,0:0:0:0:
320,192,2870,1,0,0:0:0:0:
448,192,3047,1,0,0:0:0:0:
192,192,3047,1,0,0:0:0:0:
192,192,3223,1,0,0:0:0:0:
320,192,3223,1,0,0:0:0:0:
64,192,3400,1,0,0:0:0:0:
448,192,3400,1,0,0:0:0:0:
192,192,3576,1,0,0:0:0:0:
320,192,3576,1,0,0:0:0:0:
192,192,3753,1,0,0:0:0:0:
448,192,3753,1,0,0:0:0:0:
64,192,3929,1,0,0:0:0:0:
320,192,3929,1,0,0:0:0:0:
192,192,4106,1,0,0:0:0:0:
320,192,4106,1,0,0:0:0:0:
64,192,4282,1,0,0:0:0:0:
192,192,4282,1,0,0:0:0:0:
448,192,4282,1,0,0:0:0:0:
320,192,4370,1,0,0:0:0:0:
192,192,4458,1,0,0:0:0:0:
320,192,4547,1,0,0:0:0:0:
192,192,4635,1,0,0:0:0:0:
64,192,4635,1,0,0:0:0:0:
448,192,4635,1,0,0:0:0:0:
320,192,4723,1,0,0:0:0:0:
64,192,4811,1,0,0:0:0:0:
192,192,4900,1,0,0:0:0:0:
320,192,4988,1,0,0:0:0:0:
448,192,4988,1,0,0:0:0:0:
64,192,4988,1,0,0:0:0:0:
192,192,5076,1,0,0:0:0:0:
320,192,5164,1,0,0:0:0:0:
192,192,5253,1,0,0:0:0:0:
320,192,5341,1,0,0:0:0:0:
64,192,5341,1,0,0:0:0:0:
448,192,5341,1,0,0:0:0:0:
192,192,5429,1,0,0:0:0:0:
448,192,5517,1,0,0:0:0:0:
320,192,5606,1,0,0:0:0:0:
64,192,5694,1,0,0:0:0:0:
192,192,5694,1,0,0:0:0:0:
448,192,5694,1,0,0:0:0:0:
320,192,5782,1,0,0:0:0:0:
192,192,5870,1,0,0:0:0:0:
320,192,5958,1,0,0:0:0:0:
64,192,6047,1,0,0:0:0:0:
192,192,6047,1,0,0:0:0:0:
448,192,6047,1,0,0:0:0:0:
320,192,6135,1,0,0:0:0:0:
64,192,6223,1,0,0:0:0:0:
192,192,6311,1,0,0:0:0:0:
64,192,6400,1,0,0:0:0:0:
448,192,6400,1,0,0:0:0:0:
320,192,6400,1,0,0:0:0:0:
64,192,6576,1,0,0:0:0:0:
448,192,6576,1,0,0:0:0:0:
320,192,6576,1,0,0:0:0:0:
448,192,6753,1,0,0:0:0:0:
64,192,6753,1,0,0:0:0:0:
320,192,6753,1,0,0:0:0:0:
192,192,6841,1,0,0:0:0:0:
64,192,6929,1,0,0:0:0:0:
320,192,7017,1,0,0:0:0:0:
64,192,7106,1,0,0:0:0:0:
448,192,7106,1,0,0:0:0:0:
192,192,7106,1,0,0:0:0:0:
320,192,7194,1,0,0:0:0:0:
192,192,7282,1,0,0:0:0:0:
64,192,7370,1,0,0:0:0:0:
320,192,7458,1,0,0:0:0:0:
192,192,7458,1,0,0:0:0:0:
448,192,7547,1,0,0:0:0:0:
320,192,7635,1,0,0:0:0:0:
192,192,7723,1,0,0:0:0:0:
64,192,7811,1,0,0:0:0:0:
320,192,7811,1,0,0:0:0:0:
192,192,7900,1,0,0:0:0:0:
320,192,7988,1,0,0:0:0:0:
448,192,8076,1,0,0:0:0:0:
320,192,8164,1,0,0:0:0:0:
64,192,8164,1,0,0:0:0:0:
192,192,8253,1,0,0:0:0:0:
320,192,8341,1,0,0:0:0:0:
192,192,8429,1,0,0:0:0:0:
64,192,8517,1,0,0:0:0:0:
320,192,8517,1,0,0:0:0:0:
192,192,8606,1,0,0:0:0:0:
64,192,8694,1,0,0:0:0:0:
320,192,8782,1,0,0:0:0:0:
192,192,8870,1,0,0:0:0:0:
64,192,8870,1,0,0:0:0:0:
448,192,8958,1,0,0:0:0:0:
320,192,9047,1,0,0:0:0:0:
192,192,9135,1,0,0:0:0:0:
64,192,9223,1,0,0:0:0:0:
320,192,9223,1,0,0:0:0:0:
192,192,9311,1,0,0:0:0:0:
64,192,9400,1,0,0:0:0:0:
320,192,9488,1,0,0:0:0:0:
192,192,9576,1,0,0:0:0:0:
448,192,9576,1,0,0:0:0:0:
320,192,9664,1,0,0:0:0:0:
192,192,9753,1,0,0:0:0:0:
64,192,9841,1,0,0:0:0:0:
192,192,9929,1,0,0:0:0:0:
448,192,9929,1,0,0:0:0:0:
320,192,10017,1,0,0:0:0:0:
192,192,10106,1,0,0:0:0:0:
64,192,10194,1,0,0:0:0:0:
192,192,10282,1,0,0:0:0:0:
320,192,10282,1,0,0:0:0:0:
448,192,10370,1,0,0:0:0:0:
320,192,10458,1,0,0:0:0:0:
192,192,10547,1,0,0:0:0:0:
64,192,10635,1,0,0:0:0:0:
320,192,10635,1,0,0:0:0:0:
192,192,10723,1,0,0:0:0:0:
64,192,10811,1,0,0:0:0:0:
320,192,10900,1,0,0:0:0:0:
64,192,10988,1,0,0:0:0:0:
192,192,10988,1,0,0:0:0:0:
448,192,11076,1,0,0:0:0:0:
320,192,11164,1,0,0:0:0:0:
192,192,11253,1,0,0:0:0:0:
64,192,11341,1,0,0:0:0:0:
320,192,11341,1,0,0:0:0:0:
192,192,11429,1,0,0:0:0:0:
64,192,11517,1,0,0:0:0:0:
320,192,11606,1,0,0:0:0:0:
192,192,11694,1,0,0:0:0:0:
64,192,11694,1,0,0:0:0:0:
448,192,11782,1,0,0:0:0:0:
320,192,11870,1,0,0:0:0:0:
192,192,11958,1,0,0:0:0:0:
64,192,12047,1,0,0:0:0:0:
448,192,12047,1,0,0:0:0:0:
192,192,12135,1,0,0:0:0:0:
320,192,12223,1,0,0:0:0:0:
192,192,12311,1,0,0:0:0:0:
64,192,12400,1,0,0:0:0:0:
448,192,12400,1,0,0:0:0:0:
320,192,12488,1,0,0:0:0:0:
448,192,12576,1,0,0:0:0:0:
192,192,12664,1,0,0:0:0:0:
64,192,12753,1,0,0:0:0:0:
320,192,12753,1,0,0:0:0:0:
192,192,12841,1,0,0:0:0:0:
448,192,12929,1,0,0:0:0:0:
320,192,12929,1,0,0:0:0:0:
192,192,13017,1,0,0:0:0:0:
64,192,13106,1,0,0:0:0:0:
448,192,13106,1,0,0:0:0:0:
192,192,13194,1,0,0:0:0:0:
320,192,13282,1,0,0:0:0:0:
448,192,13282,1,0,0:0:0:0:
192,192,13370,1,0,0:0:0:0:
64,192,13458,1,0,0:0:0:0:
320,192,13458,1,0,0:0:0:0:
192,192,13547,1,0,0:0:0:0:
64,192,13635,1,0,0:0:0:0:
448,192,13635,1,0,0:0:0:0:
320,192,13723,1,0,0:0:0:0:
192,192,13811,1,0,0:0:0:0:
448,192,13811,1,0,0:0:0:0:
320,192,13900,1,0,0:0:0:0:
448,192,13988,1,0,0:0:0:0:
64,192,13988,1,0,0:0:0:0:
192,192,14076,1,0,0:0:0:0:
320,192,14164,1,0,0:0:0:0:
448,192,14164,1,0,0:0:0:0:
192,192,14253,1,0,0:0:0:0:
320,192,14341,1,0,0:0:0:0:
448,192,14341,1,0,0:0:0:0:
192,192,14429,1,0,0:0:0:0:
64,192,14517,1,0,0:0:0:0:
320,192,14517,1,0,0:0:0:0:
192,192,14606,1,0,0:0:0:0:
64,192,14694,1,0,0:0:0:0:
448,192,14694,1,0,0:0:0:0:
320,192,14782,1,0,0:0:0:0:
448,192,14870,1,0,0:0:0:0:
192,192,14870,1,0,0:0:0:0:
320,192,14958,1,0,0:0:0:0:
448,192,15047,1,0,0:0:0:0:
64,192,15047,1,0,0:0:0:0:
192,192,15135,1,0,0:0:0:0:
320,192,15223,1,0,0:0:0:0:
448,192,15223,1,0,0:0:0:0:
192,192,15311,1,0,0:0:0:0:
320,192,15400,1,0,0:0:0:0:
64,192,15400,1,0,0:0:0:0:
192,192,15488,1,0,0:0:0:0:
320,192,15576,1,0,0:0:0:0:
448,192,15576,1,0,0:0:0:0:
192,192,15664,1,0,0:0:0:0:
64,192,15753,1,0,0:0:0:0:
448,192,15753,1,0,0:0:0:0:
192,192,15841,1,0,0:0:0:0:
64,192,15929,1,0,0:0:0:0:
320,192,15929,1,0,0:0:0:0:
192,192,16017,1,0,0:0:0:0:
320,192,16106,1,0,0:0:0:0:
448,192,16106,1,0,0:0:0:0:
192,192,16194,1,0,0:0:0:0:
64,192,16282,1,0,0:0:0:0:
320,192,16282,1,0,0:0:0:0:
192,192,16370,1,0,0:0:0:0:
320,192,16458,1,0,0:0:0:0:
448,192,16458,1,0,0:0:0:0:
192,192,16547,1,0,0:0:0:0:
64,192,16635,1,0,0:0:0:0:
320,192,16635,1,0,0:0:0:0:
192,192,16723,1,0,0:0:0:0:
448,192,16811,1,0,0:0:0:0:
64,192,16811,1,0,0:0:0:0:
320,192,16900,1,0,0:0:0:0:
192,192,16988,1,0,0:0:0:0:
448,192,16988,1,0,0:0:0:0:
320,192,17076,1,0,0:0:0:0:
192,192,17164,1,0,0:0:0:0:
64,192,17164,1,0,0:0:0:0:
320,192,17253,1,0,0:0:0:0:
448,192,17341,1,0,0:0:0:0:
192,192,17341,1,0,0:0:0:0:
320,192,17429,1,0,0:0:0:0:
64,192,17517,1,0,0:0:0:0:
448,192,17517,1,0,0:0:0:0:
192,192,17606,1,0,0:0:0:0:
64,192,17694,1,0,0:0:0:0:
320,192,17694,1,0,0:0:0:0:
192,192,17782,1,0,0:0:0:0:
64,192,17870,1,0,0:0:0:0:
448,192,17870,1,0,0:0:0:0:
320,192,17958,1,0,0:0:0:0:
64,192,18047,1,0,0:0:0:0:
192,192,18106,1,0,0:0:0:0:
448,192,18164,1,0,0:0:0:0:
320,192,18223,1,0,0:0:0:0:
64,192,18282,1,0,0:0:0:0:
192,192,18341,1,0,0:0:0:0:
64,192,18400,1,0,0:0:0:0:
448,192,18400,1,0,0:0:0:0:
320,192,18400,1,0,0:0:0:0:
192,192,18576,1,0,0:0:0:0:
320,192,18664,1,0,0:0:0:0:
192,192,18753,1,0,0:0:0:0:
448,192,18753,1,0,0:0:0:0:
320,192,18929,1,0,0:0:0:0:
192,192,19017,1,0,0:0:0:0:
64,192,19106,1,0,0:0:0:0:
320,192,19106,1,0,0:0:0:0:
448,192,19282,1,0,0:0:0:0:
320,192,19370,1,0,0:0:0:0:
192,192,19458,1,0,0:0:0:0:
64,192,19458,1,0,0:0:0:0:
192,192,19635,1,0,0:0:0:0:
320,192,19635,1,0,0:0:0:0:
64,192,19811,128,0,19988:0:0:0:0:
192,192,19988,128,0,20164:0:0:0:0:
320,192,20164,128,0,20341:0:0:0:0:
448,192,20341,128,0,20517:0:0:0:0:
320,192,20517,128,0,20694:0:0:0:0:
448,192,20694,1,0,0:0:0:0:
320,192,20782,1,0,0:0:0:0:
192,192,20870,1,0,0:0:0:0:
64,192,20870,1,0,0:0:0:0:
64,192,21047,1,0,0:0:0:0:
448,192,21047,1,0,0:0:0:0:
192,192,21223,1,0,0:0:0:0:
320,192,21223,1,0,0:0:0:0:
192,192,21400,1,0,0:0:0:0:
320,192,21488,1,0,0:0:0:0:
192,192,21576,1,0,0:0:0:0:
448,192,21576,1,0,0:0:0:0:
64,192,21753,1,0,0:0:0:0:
192,192,21841,1,0,0:0:0:0:
64,192,21929,1,0,0:0:0:0:
320,192,21929,1,0,0:0:0:0:
64,192,22106,1,0,0:0:0:0:
192,192,22194,1,0,0:0:0:0:
320,192,22282,1,0,0:0:0:0:
448,192,22282,128,0,22458:0:0:0:0:
320,192,22458,1,0,0:0:0:0:
64,192,22458,1,0,0:0:0:0:
192,192,22635,1,0,0:0:0:0:
320,192,22635,1,0,0:0:0:0:
64,192,22811,1,0,0:0:0:0:
192,192,22900,1,0,0:0:0:0:
64,192,22988,1,0,0:0:0:0:
320,192,22988,1,0,0:0:0:0:
192,192,23076,1,0,0:0:0:0:
320,192,23164,1,0,0:0:0:0:
448,192,23164,1,0,0:0:0:0:
192,192,23253,1,0,0:0:0:0:
64,192,23341,1,0,0:0:0:0:
448,192,23341,128,0,23694:0:0:0:0:
320,192,23694,1,0,0:0:0:0:
192,192,23782,1,0,0:0:0:0:
64,192,23870,1,0,0:0:0:0:
320,192,23958,1,0,0:0:0:0:
192,192,24047,1,0,0:0:0:0:
64,192,24047,1,0,0:0:0:0:
448,192,24047,1,0,0:0:0:0:
320,192,24135,1,0,0:0:0:0:
192,192,24223,1,0,0:0:0:0:
320,192,24311,1,0,0:0:0:0:
192,192,24400,1,0,0:0:0:0:
64,192,24400,1,0,0:0:0:0:
448,192,24400,1,0,0:0:0:0:
320,192,24488,1,0,0:0:0:0:
64,192,24576,1,0,0:0:0:0:
192,192,24664,1,0,0:0:0:0:
64,192,24753,1,0,0:0:0:0:
320,192,24753,1,0,0:0:0:0:
448,192,24753,1,0,0:0:0:0:
192,192,24841,1,0,0:0:0:0:
320,192,24929,1,0,0:0:0:0:
192,192,25017,1,0,0:0:0:0:
64,192,25106,1,0,0:0:0:0:
320,192,25106,1,0,0:0:0:0:
448,192,25106,1,0,0:0:0:0:
192,192,25194,1,0,0:0:0:0:
448,192,25282,1,0,0:0:0:0:
320,192,25370,1,0,0:0:0:0:
192,192,25458,1,0,0:0:0:0:
64,192,25458,1,0,0:0:0:0:
448,192,25458,1,0,0:0:0:0:
320,192,25547,1,0,0:0:0:0:
192,192,25635,1,0,0:0:0:0:
320,192,25723,1,0,0:0:0:0:
64,192,25811,1,0,0:0:0:0:
192,192,25811,1,0,0:0:0:0:
448,192,25811,1,0,0:0:0:0:
320,192,25900,1,0,0:0:0:0:
64,192,25988,1,0,0:0:0:0:
192,192,26076,1,0,0:0:0:0:
64,192,26164,1,0,0:0:0:0:
320,192,26164,1,0,0:0:0:0:
448,192,26164,1,0,0:0:0:0:
192,192,26253,1,0,0:0:0:0:
64,192,26341,1,0,0:0:0:0:
192,192,26429,1,0,0:0:0:0:
64,192,26517,1,0,0:0:0:0:
320,192,26517,1,0,0:0:0:0:
448,192,26517,1,0,0:0:0:0:
192,192,26606,1,0,0:0:0:0:
448,192,26694,1,0,0:0:0:0:
64,192,26694,1,0,0:0:0:0:
320,192,26694,1,0,0:0:0:0:
192,192,26782,1,0,0:0:0:0:
64,192,26870,1,0,0:0:0:0:
448,192,26870,1,0,0:0:0:0:
320,192,26870,1,0,0:0:0:0:
192,192,26958,1,0,0:0:0:0:
448,192,27047,1,0,0:0:0:0:
320,192,27135,1,0,0:0:0:0:
192,192,27223,1,0,0:0:0:0:
64,192,27223,1,0,0:0:0:0:
448,192,27223,1,0,0:0:0:0:
320,192,27311,1,0,0:0:0:0:
192,192,27400,1,0,0:0:0:0:
320,192,27488,1,0,0:0:0:0:
192,192,27576,1,0,0:0:0:0:
64,192,27576,1,0,0:0:0:0:
448,192,27576,1,0,0:0:0:0:
320,192,27664,1,0,0:0:0:0:
64,192,27753,1,0,0:0:0:0:
192,192,27841,1,0,0:0:0:0:
64,192,27929,1,0,0:0:0:0:
320,192,27929,1,0,0:0:0:0:
448,192,27929,1,0,0:0:0:0:
192,192,28017,1,0,0:0:0:0:
448,192,28106,1,0,0:0:0:0:
320,192,28194,1,0,0:0:0:0:
192,192,28282,1,0,0:0:0:0:
64,192,28282,1,0,0:0:0:0:
448,192,28282,1,0,0:0:0:0:
320,192,28370,1,0,0:0:0:0:
64,192,28458,1,0,0:0:0:0:
192,192,28547,1,0,0:0:0:0:
64,192,28635,1,0,0:0:0:0:
448,192,28635,1,0,0:0:0:0:
320,192,28635,1,0,0:0:0:0:
192,192,28723,1,0,0:0:0:0:
448,192,28811,1,0,0:0:0:0:
320,192,28900,1,0,0:0:0:0:
192,192,28988,1,0,0:0:0:0:
64,192,28988,1,0,0:0:0:0:
448,192,28988,1,0,0:0:0:0:
320,192,29076,1,0,0:0:0:0:
64,192,29164,1,0,0:0:0:0:
192,192,29253,1,0,0:0:0:0:
448,192,29341,1,0,0:0:0:0:
320,192,29385,1,0,0:0:0:0:
192,192,29429,1,0,0:0:0:0:
64,192,29473,1,0,0:0:0:0:
448,192,29517,1,0,0:0:0:0:
320,192,29561,1,0,0:0:0:0:
192,192,29606,1,0,0:0:0:0:
64,192,29650,1,0,0:0:0:0:
320,192,29694,1,0,0:0:0:0:
448,192,29694,1,0,0:0:0:0:
192,192,29694,1,0,0:0:0:0:
448,192,29958,1,0,0:0:0:0:
320,192,30047,1,0,0:0:0:0:
192,192,30135,1,0,0:0:0:0:
64,192,30223,1,0,0:0:0:0:
320,192,30223,1,0,0:0:0:0:
192,192,30311,1,0,0:0:0:0:
448,192,30400,1,0,0:0:0:0:
64,192,30400,1,0,0:0:0:0:
448,192,30576,1,0,0:0:0:0:
320,192,30664,1,0,0:0:0:0:
192,192,30753,1,0,0:0:0:0:
64,192,30753,1,0,0:0:0:0:
192,192,30929,1,0,0:0:0:0:
448,192,30929,1,0,0:0:0:0:
192,192,31106,1,0,0:0:0:0:
320,192,31106,1,0,0:0:0:0:
192,192,31282,128,0,31458:0:0:0:0:
320,192,31458,128,0,31635:0:0:0:0:
448,192,31635,128,0,31811:0:0:0:0:
320,192,31811,128,0,31988:0:0:0:0:
64,192,31988,1,0,0:0:0:0:
192,192,32076,1,0,0:0:0:0:
448,192,32164,1,0,0:0:0:0:
320,192,32164,1,0,0:0:0:0:
192,192,32341,1,0,0:0:0:0:
448,192,32341,1,0,0:0:0:0:
64,192,32517,1,0,0:0:0:0:
320,192,32517,1,0,0:0:0:0:
192,192,32694,128,0,32870:0:0:0:0:
64,192,32870,128,0,33047:0:0:0:0:
320,192,33047,128,0,33223:0:0:0:0:
448,192,33223,128,0,33400:0:0:0:0:
320,192,33400,1,0,0:0:0:0:
192,192,33488,1,0,0:0:0:0:
64,192,33576,1,0,0:0:0:0:
320,192,33576,1,0,0:0:0:0:
192,192,33753,1,0,0:0:0:0:
320,192,33753,1,0,0:0:0:0:
448,192,33929,128,0,34106:0:0:0:0:
320,192,33929,1,0,0:0:0:0:
64,192,34106,1,0,0:0:0:0:
192,192,34194,1,0,0:0:0:0:
320,192,34282,1,0,0:0:0:0:
448,192,34370,1,0,0:0:0:0:
192,192,34458,1,0,0:0:0:0:
320,192,34458,1,0,0:0:0:0:
64,192,34635,1,0,0:0:0:0:
448,192,34635,128,0,34988:0:0:0:0:
320,192,34988,1,0,0:0:0:0:
192,192,35076,1,0,0:0:0:0:
448,192,35164,1,0,0:0:0:0:
320,192,35253,1,0,0:0:0:0:
192,192,35341,1,0,0:0:0:0:
64,192,35341,1,0,0:0:0:0:
448,192,35341,1,0,0:0:0:0:
320,192,35429,1,0,0:0:0:0:
192,192,35517,1,0,0:0:0:0:
320,192,35606,1,0,0:0:0:0:
64,192,35694,1,0,0:0:0:0:
192,192,35694,1,0,0:0:0:0:
448,192,35694,1,0,0:0:0:0:
320,192,35782,1,0,0:0:0:0:
64,192,35870,1,0,0:0:0:0:
192,192,35958,1,0,0:0:0:0:
64,192,36047,1,0,0:0:0:0:
320,192,36047,1,0,0:0:0:0:
448,192,36047,1,0,0:0:0:0:
192,192,36135,1,0,0:0:0:0:
320,192,36223,1,0,0:0:0:0:
192,192,36311,1,0,0:0:0:0:
64,192,36400,1,0,0:0:0:0:
320,192,36400,1,0,0:0:0:0:
448,192,36400,1,0,0:0:0:0:
192,192,36488,1,0,0:0:0:0:
448,192,36576,1,0,0:0:0:0:
320,192,36664,1,0,0:0:0:0:
192,192,36753,1,0,0:0:0:0:
64,192,36753,1,0,0:0:0:0:
448,192,36753,1,0,0:0:0:0:
320,192,36841,1,0,0:0:0:0:
64,192,36929,1,0,0:0:0:0:
192,192,37017,1,0,0:0:0:0:
64,192,37106,1,0,0:0:0:0:
320,192,37106,1,0,0:0:0:0:
448,192,37106,1,0,0:0:0:0:
192,192,37194,1,0,0:0:0:0:
448,192,37282,1,0,0:0:0:0:
320,192,37370,1,0,0:0:0:0:
64,192,37458,1,0,0:0:0:0:
192,192,37458,1,0,0:0:0:0:
448,192,37458,1,0,0:0:0:0:
320,192,37547,1,0,0:0:0:0:
64,192,37635,1,0,0:0:0:0:
192,192,37723,1,0,0:0:0:0:
64,192,37811,1,0,0:0:0:0:
320,192,37811,1,0,0:0:0:0:
448,192,37811,1,0,0:0:0:0:
192,192,37900,1,0,0:0:0:0:
64,192,37988,1,0,0:0:0:0:
320,192,37988,1,0,0:0:0:0:
448,192,37988,1,0,0:0:0:0:
192,192,38076,1,0,0:0:0:0:
64,192,38164,1,0,0:0:0:0:
320,192,38164,1,0,0:0:0:0:
448,192,38164,1,0,0:0:0:0:
192,192,38341,1,0,0:0:0:0:
320,192,38341,1,0,0:0:0:0:
320,192,38517,1,0,0:0:0:0:
64,192,38517,1,0,0:0:0:0:
448,192,38517,1,0,0:0:0:0:
64,192,38694,1,0,0:0:0:0:
320,192,38694,1,0,0:0:0:0:
192,192,38870,1,0,0:0:0:0:
448,192,38870,1,0,0:0:0:0:
320,192,38870,1,0,0:0:0:0:
64,192,39047,1,0,0:0:0:0:
320,192,39047,1,0,0:0:0:0:
192,192,39223,1,0,0:0:0:0:
448,192,39223,1,0,0:0:0:0:
64,192,39223,1,0,0:0:0:0:
64,192,39400,1,0,0:0:0:0:
448,192,39400,1,0,0:0:0:0:
192,192,39576,1,0,0:0:0:0:
320,192,39576,1,0,0:0:0:0:
64,192,39576,1,0,0:0:0:0:
64,192,39753,1,0,0:0:0:0:
320,192,39753,1,0,0:0:0:0:
64,192,39929,1,0,0:0:0:0:
192,192,39929,1,0,0:0:0:0:
448,192,39929,1,0,0:0:0:0:
192,192,40106,1,0,0:0:0:0:
448,192,40106,1,0,0:0:0:0:
320,192,40282,1,0,0:0:0:0:
448,192,40282,1,0,0:0:0:0:
64,192,40282,128,0,40635:0:0:0:0:
448,192,40635,1,0,0:0:0:0:
320,192,40694,1,0,0:0:0:0:
64,192,40753,1,0,0:0:0:0:
192,192,40811,1,0,0:0:0:0:
448,192,40870,1,0,0:0:0:0:
320,192,40929,1,0,0:0:0:0:
64,192,40988,1,0,0:0:0:0:
192,192,40988,1,0,0:0:0:0:
448,192,40988,1,0,0:0:0:0:
192,192,41253,1,0,0:0:0:0:
320,192,41253,1,0,0:0:0:0:
320,192,41870,1,0,0:0:0:0:
448,192,41958,1,0,0:0:0:0:
320,192,42047,1,0,0:0:0:0:
192,192,42135,1,0,0:0:0:0:
448,192,42223,1,0,0:0:0:0:
320,192,42311,1,0,0:0:0:0:
64,192,42400,1,0,0:0:0:0:
192,192,42400,1,0,0:0:0:0:
320,192,42488,1,0,0:0:0:0:
448,192,42576,1,0,0:0:0:0:
192,192,42664,1,0,0:0:0:0:
320,192,42753,1,0,0:0:0:0:
192,192,42841,1,0,0:0:0:0:
64,192,42929,1,0,0:0:0:0:
320,192,42929,1,0,0:0:0:0:
448,192,43017,1,0,0:0:0:0:
320,192,43106,1,0,0:0:0:0:
192,192,43194,1,0,0:0:0:0:
64,192,43282,1,0,0:0:0:0:
192,192,43370,1,0,0:0:0:0:
320,192,43458,1,0,0:0:0:0:
448,192,43517,1,0,0:0:0:0:
192,192,43576,1,0,0:0:0:0:
64,192,43635,1,0,0:0:0:0:
192,192,43723,1,0,0:0:0:0:
448,192,43811,1,0,0:0:0:0:
64,192,43811,1,0,0:0:0:0:
192,192,43900,1,0,0:0:0:0:
320,192,43988,1,0,0:0:0:0:
192,192,44076,1,0,0:0:0:0:
64,192,44164,1,0,0:0:0:0:
320,192,44164,1,0,0:0:0:0:
448,192,44164,1,0,0:0:0:0:
64,192,44517,1,0,0:0:0:0:
448,192,44517,1,0,0:0:0:0:
320,192,44606,1,0,0:0:0:0:
192,192,44694,1,0,0:0:0:0:
448,192,44694,1,0,0:0:0:0:
320,192,44782,1,0,0:0:0:0:
192,192,44870,1,0,0:0:0:0:
64,192,44870,1,0,0:0:0:0:
320,192,44958,1,0,0:0:0:0:
448,192,44958,1,0,0:0:0:0:
192,192,45047,1,0,0:0:0:0:
64,192,45047,1,0,0:0:0:0:
192,192,45223,1,0,0:0:0:0:
448,192,45223,1,0,0:0:0:0:
320,192,45311,1,0,0:0:0:0:
64,192,45400,1,0,0:0:0:0:
448,192,45400,1,0,0:0:0:0:
192,192,45488,1,0,0:0:0:0:
320,192,45576,1,0,0:0:0:0:
448,192,45576,1,0,0:0:0:0:
64,192,45664,1,0,0:0:0:0:
192,192,45664,1,0,0:0:0:0:
320,192,45753,1,0,0:0:0:0:
448,192,45753,1,0,0:0:0:0:
192,192,45841,1,0,0:0:0:0:
64,192,45841,1,0,0:0:0:0:
320,192,45929,1,0,0:0:0:0:
448,192,45929,1,0,0:0:0:0:
192,192,46017,1,0,0:0:0:0:
64,192,46106,1,0,0:0:0:0:
320,192,46106,1,0,0:0:0:0:
192,192,46194,1,0,0:0:0:0:
448,192,46282,1,0,0:0:0:0:
64,192,46282,1,0,0:0:0:0:
320,192,46370,1,0,0:0:0:0:
192,192,46458,1,0,0:0:0:0:
448,192,46458,1,0,0:0:0:0:
320,192,46547,1,0,0:0:0:0:
192,192,46635,1,0,0:0:0:0:
64,192,46635,1,0,0:0:0:0:
448,192,46635,1,0,0:0:0:0:
320,192,46723,1,0,0:0:0:0:
64,192,46811,1,0,0:0:0:0:
448,192,46811,1,0,0:0:0:0:
192,192,46900,1,0,0:0:0:0:
64,192,46988,1,0,0:0:0:0:
320,192,46988,1,0,0:0:0:0:
192,192,47076,1,0,0:0:0:0:
320,192,47164,1,0,0:0:0:0:
448,192,47164,1,0,0:0:0:0:
192,192,47253,1,0,0:0:0:0:
64,192,47341,1,0,0:0:0:0:
320,192,47341,1,0,0:0:0:0:
192,192,47429,1,0,0:0:0:0:
64,192,47517,1,0,0:0:0:0:
448,192,47517,1,0,0:0:0:0:
320,192,47606,1,0,0:0:0:0:
192,192,47694,1,0,0:0:0:0:
448,192,47694,1,0,0:0:0:0:
320,192,47782,1,0,0:0:0:0:
192,192,47870,1,0,0:0:0:0:
64,192,47870,1,0,0:0:0:0:
448,192,47958,1,0,0:0:0:0:
64,192,48047,1,0,0:0:0:0:
320,192,48047,1,0,0:0:0:0:
192,192,48135,1,0,0:0:0:0:
320,192,48223,1,0,0:0:0:0:
448,192,48223,1,0,0:0:0:0:
64,192,48311,1,0,0:0:0:0:
192,192,48400,1,0,0:0:0:0:
448,192,48400,1,0,0:0:0:0:
320,192,48488,1,0,0:0:0:0:
192,192,48576,1,0,0:0:0:0:
64,192,48576,1,0,0:0:0:0:
448,192,48664,1,0,0:0:0:0:
320,192,48753,1,0,0:0:0:0:
64,192,48753,1,0,0:0:0:0:
192,192,48841,1,0,0:0:0:0:
320,192,48929,1,0,0:0:0:0:
448,192,48929,1,0,0:0:0:0:
64,192,49017,1,0,0:0:0:0:
192,192,49106,1,0,0:0:0:0:
448,192,49106,1,0,0:0:0:0:
320,192,49194,1,0,0:0:0:0:
64,192,49282,1,0,0:0:0:0:
448,192,49282,1,0,0:0:0:0:
192,192,49370,1,0,0:0:0:0:
320,192,49458,1,0,0:0:0:0:
448,192,49458,1,0,0:0:0:0:
64,192,49547,1,0,0:0:0:0:
192,192,49635,1,0,0:0:0:0:
448,192,49635,1,0,0:0:0:0:
320,192,49723,1,0,0:0:0:0:
192,192,49811,1,0,0:0:0:0:
64,192,49811,1,0,0:0:0:0:
448,192,49900,1,0,0:0:0:0:
320,192,49988,1,0,0:0:0:0:
64,192,49988,1,0,0:0:0:0:
192,192,50076,1,0,0:0:0:0:
320,192,50164,1,0,0:0:0:0:
448,192,50164,1,0,0:0:0:0:
64,192,50253,1,0,0:0:0:0:
192,192,50341,1,0,0:0:0:0:
448,192,50341,1,0,0:0:0:0:
320,192,50429,1,0,0:0:0:0:
192,192,50517,1,0,0:0:0:0:
64,192,50517,1,0,0:0:0:0:
448,192,50606,1,0,0:0:0:0:
320,192,50694,1,0,0:0:0:0:
64,192,50694,1,0,0:0:0:0:
192,192,50782,1,0,0:0:0:0:
64,192,50870,1,0,0:0:0:0:
448,192,50870,1,0,0:0:0:0:
320,192,50958,1,0,0:0:0:0:
192,192,51047,1,0,0:0:0:0:
64,192,51047,1,0,0:0:0:0:
320,192,51135,1,0,0:0:0:0:
448,192,51223,1,0,0:0:0:0:
192,192,51223,1,0,0:0:0:0:
320,192,51311,1,0,0:0:0:0:
448,192,51400,1,0,0:0:0:0:
64,192,51400,1,0,0:0:0:0:
192,192,51488,1,0,0:0:0:0:
320,192,51576,1,0,0:0:0:0:
448,192,51576,128,0,51929:0:0:0:0:
64,192,51929,1,0,0:0:0:0:
192,192,51973,1,0,0:0:0:0:
320,192,52017,1,0,0:0:0:0:
448,192,52061,1,0,0:0:0:0:
64,192,52106,1,0,0:0:0:0:
192,192,52150,1,0,0:0:0:0:
320,192,52194,1,0,0:0:0:0:
448,192,52238,1,0,0:0:0:0:
320,192,52282,1,0,0:0:0:0:
192,192,52282,1,0,0:0:0:0:
64,192,52282,1,0,0:0:0:0:
64,192,52988,1,0,0:0:0:0:
320,192,52988,1,0,0:0:0:0:
448,192,52988,1,0,0:0:0:0:
64,192,53694,1,0,0:0:0:0:
192,192,53694,1,0,0:0:0:0:
448,192,53694,1,0,0:0:0:0:
192,192,54047,1,0,0:0:0:0:
320,192,54047,1,0,0:0:0:0:
448,192,54047,1,0,0:0:0:0:
64,192,54400,1,0,0:0:0:0:
320,192,54400,1,0,0:0:0:0:
448,192,54400,1,0,0:0:0:0:
64,192,54753,1,0,0:0:0:0:
192,192,54753,1,0,0:0:0:0:
320,192,54753,1,0,0:0:0:0:
64,192,55106,1,0,0:0:0:0:
448,192,55106,1,0,0:0:0:0:
320,192,55106,1,0,0:0:0:0:
192,192,55282,1,0,0:0:0:0:
320,192,55370,1,0,0:0:0:0:
64,192,55458,1,0,0:0:0:0:
192,192,55458,1,0,0:0:0:0:
448,192,55458,1,0,0:0:0:0:
192,192,55635,1,0,0:0:0:0:
64,192,55723,1,0,0:0:0:0:
448,192,55811,1,0,0:0:0:0:
192,192,55811,1,0,0:0:0:0:
320,192,55811,1,0,0:0:0:0:
64,192,55988,1,0,0:0:0:0:
192,192,56076,1,0,0:0:0:0:
64,192,56164,1,0,0:0:0:0:
320,192,56164,1,0,0:0:0:0:
448,192,56164,1,0,0:0:0:0:
192,192,56341,1,0,0:0:0:0:
320,192,56429,1,0,0:0:0:0:
64,192,56517,1,0,0:0:0:0:
448,192,56517,1,0,0:0:0:0:
192,192,56517,1,0,0:0:0:0:
192,192,56694,1,0,0:0:0:0:
64,192,56782,1,0,0:0:0:0:
320,192,56870,1,0,0:0:0:0:
448,192,56870,1,0,0:0:0:0:
192,192,56870,1,0,0:0:0:0:
192,192,57047,1,0,0:0:0:0:
320,192,57135,1,0,0:0:0:0:
64,192,57223,1,0,0:0:0:0:
192,192,57223,1,0,0:0:0:0:
448,192,57223,1,0,0:0:0:0:
64,192,57576,1,0,0:0:0:0:
192,192,57635,1,0,0:0:0:0:
448,192,57694,1,0,0:0:0:0:
320,192,57753,1,0,0:0:0:0:
64,192,57811,1,0,0:0:0:0:
192,192,57870,1,0,0:0:0:0:
448,192,57929,128,0,59341:0:0:0:0:
320,192,58017,1,0,0:0:0:0:
192,192,58106,1,0,0:0:0:0:
64,192,58194,1,0,0:0:0:0:
320,192,58282,1,0,0:0:0:0:
192,192,58370,1,0,0:0:0:0:
64,192,58458,1,0,0:0:0:0:
320,192,58547,1,0,0:0:0:0:
192,192,58635,1,0,0:0:0:0:
64,192,58723,1,0,0:0:0:0:
192,192,58811,1,0,0:0:0:0:
320,192,58900,1,0,0:0:0:0:
192,192,58988,1,0,0:0:0:0:
64,192,59076,1,0,0:0:0:0:
192,192,59164,1,0,0:0:0:0:
320,192,59253,1,0,0:0:0:0:
64,192,59341,1,0,0:0:0:0:
192,192,59341,1,0,0:0:0:0:
320,192,59429,1,0,0:0:0:0:
448,192,59429,1,0,0:0:0:0:
64,192,59517,1,0,0:0:0:0:
192,192,59517,1,0,0:0:0:0:
320,192,59606,1,0,0:0:0:0:
448,192,59606,1,0,0:0:0:0:
64,192,59694,1,0,0:0:0:0:
192,192,59694,1,0,0:0:0:0:
320,192,59782,1,0,0:0:0:0:
448,192,59782,1,0,0:0:0:0:
192,192,59870,1,0,0:0:0:0:
64,192,59870,1,0,0:0:0:0:
320,192,59958,1,0,0:0:0:0:
448,192,59958,1,0,0:0:0:0:
64,192,60047,1,0,0:0:0:0:
192,192,60106,1,0,0:0:0:0:
448,192,60164,1,0,0:0:0:0:
320,192,60223,1,0,0:0:0:0:
192,192,60282,1,0,0:0:0:0:
64,192,60341,1,0,0:0:0:0:
448,192,60400,1,0,0:0:0:0:
320,192,60458,1,0,0:0:0:0:
192,192,60517,1,0,0:0:0:0:
64,192,60576,1,0,0:0:0:0:
448,192,60635,1,0,0:0:0:0:
320,192,60694,1,0,0:0:0:0:
192,192,60753,1,0,0:0:0:0:
64,192,60753,1,0,0:0:0:0:
448,192,60753,1,0,0:0:0:0:
320,192,60841,1,0,0:0:0:0:
192,192,60929,1,0,0:0:0:0:
448,192,60929,1,0,0:0:0:0:
320,192,61017,1,0,0:0:0:0:
192,192,61106,1,0,0:0:0:0:
64,192,61106,1,0,0:0:0:0:
448,192,61194,1,0,0:0:0:0:
320,192,61282,1,0,0:0:0:0:
64,192,61282,1,0,0:0:0:0:
192,192,61370,1,0,0:0:0:0:
64,192,61458,1,0,0:0:0:0:
320,192,61458,1,0,0:0:0:0:
448,192,61547,1,0,0:0:0:0:
320,192,61635,1,0,0:0:0:0:
64,192,61635,1,0,0:0:0:0:
192,192,61723,1,0,0:0:0:0:
320,192,61811,1,0,0:0:0:0:
448,192,61811,1,0,0:0:0:0:
192,192,61900,1,0,0:0:0:0:
64,192,61988,1,0,0:0:0:0:
448,192,61988,1,0,0:0:0:0:
320,192,62076,1,0,0:0:0:0:
64,192,62164,1,0,0:0:0:0:
448,192,62164,128,0,62341:0:0:0:0:
320,192,62341,1,0,0:0:0:0:
64,192,62341,128,0,62517:0:0:0:0:
448,192,62517,1,0,0:0:0:0:
192,192,62517,128,0,62694:0:0:0:0:
64,192,62694,1,0,0:0:0:0:
320,192,62694,128,0,62870:0:0:0:0:
64,192,62870,1,0,0:0:0:0:
448,192,62870,128,0,63047:0:0:0:0:
320,192,63047,1,0,0:0:0:0:
192,192,63047,128,0,63223:0:0:0:0:
448,192,63223,128,0,63400:0:0:0:0:
64,192,63223,1,0,0:0:0:0:
320,192,63400,128,0,63576:0:0:0:0:
192,192,63400,1,0,0:0:0:0:
64,192,63576,1,0,0:0:0:0:
192,192,63576,1,0,0:0:0:0:
64,192,63753,1,0,0:0:0:0:
448,192,63753,1,0,0:0:0:0:
192,192,63841,1,0,0:0:0:0:
64,192,63929,1,0,0:0:0:0:
320,192,63929,1,0,0:0:0:0:
192,192,64017,1,0,0:0:0:0:
320,192,64106,1,0,0:0:0:0:
448,192,64106,1,0,0:0:0:0:
64,192,64194,1,0,0:0:0:0:
192,192,64282,1,0,0:0:0:0:
448,192,64282,1,0,0:0:0:0:
320,192,64370,1,0,0:0:0:0:
64,192,64458,1,0,0:0:0:0:
448,192,64458,1,0,0:0:0:0:
192,192,64547,1,0,0:0:0:0:
64,192,64635,1,0,0:0:0:0:
320,192,64635,1,0,0:0:0:0:
192,192,64723,1,0,0:0:0:0:
320,192,64811,1,0,0:0:0:0:
448,192,64811,1,0,0:0:0:0:
64,192,64900,1,0,0:0:0:0:
192,192,64988,1,0,0:0:0:0:
448,192,64988,1,0,0:0:0:0:
320,192,65076,1,0,0:0:0:0:
64,192,65164,1,0,0:0:0:0:
448,192,65164,1,0,0:0:0:0:
192,192,65253,1,0,0:0:0:0:
320,192,65341,1,0,0:0:0:0:
448,192,65341,1,0,0:0:0:0:
64,192,65429,1,0,0:0:0:0:
192,192,65517,1,0,0:0:0:0:
448,192,65517,1,0,0:0:0:0:
320,192,65606,1,0,0:0:0:0:
64,192,65694,1,0,0:0:0:0:
448,192,65694,1,0,0:0:0:0:
192,192,65782,1,0,0:0:0:0:
320,192,65870,1,0,0:0:0:0:
448,192,65870,1,0,0:0:0:0:
192,192,65958,1,0,0:0:0:0:
64,192,66047,1,0,0:0:0:0:
448,192,66047,1,0,0:0:0:0:
192,192,66135,1,0,0:0:0:0:
64,192,66223,1,0,0:0:0:0:
320,192,66223,1,0,0:0:0:0:
192,192,66311,1,0,0:0:0:0:
64,192,66400,1,0,0:0:0:0:
448,192,66400,1,0,0:0:0:0:
320,192,66488,1,0,0:0:0:0:
64,192,66576,1,0,0:0:0:0:
192,192,66576,1,0,0:0:0:0:
448,192,66664,1,0,0:0:0:0:
64,192,66753,1,0,0:0:0:0:
320,192,66753,1,0,0:0:0:0:
192,192,66841,1,0,0:0:0:0:
64,192,66929,1,0,0:0:0:0:
448,192,66929,1,0,0:0:0:0:
320,192,67017,1,0,0:0:0:0:
192,192,67106,1,0,0:0:0:0:
64,192,67106,1,0,0:0:0:0:
448,192,67194,1,0,0:0:0:0:
320,192,67282,1,0,0:0:0:0:
64,192,67282,1,0,0:0:0:0:
192,192,67370,1,0,0:0:0:0:
64,192,67458,1,0,0:0:0:0:
448,192,67458,1,0,0:0:0:0:
320,192,67547,1,0,0:0:0:0:
192,192,67635,1,0,0:0:0:0:
64,192,67635,1,0,0:0:0:0:
320,192,67723,1,0,0:0:0:0:
448,192,67811,1,0,0:0:0:0:
64,192,67811,1,0,0:0:0:0:
320,192,67900,1,0,0:0:0:0:
192,192,67988,1,0,0:0:0:0:
64,192,67988,1,0,0:0:0:0:
448,192,68076,1,0,0:0:0:0:
320,192,68164,1,0,0:0:0:0:
64,192,68164,1,0,0:0:0:0:
192,192,68253,1,0,0:0:0:0:
64,192,68341,1,0,0:0:0:0:
448,192,68341,1,0,0:0:0:0:
320,192,68429,1,0,0:0:0:0:
192,192,68517,1,0,0:0:0:0:
64,192,68517,1,0,0:0:0:0:
448,192,68606,1,0,0:0:0:0:
320,192,68694,1,0,0:0:0:0:
64,192,68694,1,0,0:0:0:0:
192,192,68782,1,0,0:0:0:0:
64,192,68870,1,0,0:0:0:0:
448,192,68870,1,0,0:0:0:0:
320,192,68958,1,0,0:0:0:0:
192,192,69047,1,0,0:0:0:0:
64,192,69047,1,0,0:0:0:0:
448,192,69135,1,0,0:0:0:0:
320,192,69223,1,0,0:0:0:0:
64,192,69223,1,0,0:0:0:0:
192,192,69311,1,0,0:0:0:0:
64,192,69400,1,0,0:0:0:0:
448,192,69400,1,0,0:0:0:0:
320,192,69488,1,0,0:0:0:0:
192,192,69576,1,0,0:0:0:0:
64,192,69576,1,0,0:0:0:0:
448,192,69664,1,0,0:0:0:0:
320,192,69753,1,0,0:0:0:0:
64,192,69753,1,0,0:0:0:0:
192,192,69841,1,0,0:0:0:0:
64,192,69929,1,0,0:0:0:0:
448,192,69929,1,0,0:0:0:0:
320,192,70017,1,0,0:0:0:0:
64,192,70106,1,0,0:0:0:0:
192,192,70106,1,0,0:0:0:0:
320,192,70194,1,0,0:0:0:0:
192,192,70282,1,0,0:0:0:0:
448,192,70282,128,0,70635:0:0:0:0:
192,192,70635,1,0,0:0:0:0:
320,192,70723,1,0,0:0:0:0:
448,192,70811,1,0,0:0:0:0:
64,192,70811,1,0,0:0:0:0:
192,192,70900,1,0,0:0:0:0:
320,192,70988,128,0,71341:0:0:0:0:
64,192,71341,1,0,0:0:0:0:
192,192,71429,1,0,0:0:0:0:
64,192,71517,1,0,0:0:0:0:
448,192,71517,1,0,0:0:0:0:
320,192,71606,1,0,0:0:0:0:
192,192,71694,1,0,0:0:0:0:
448,192,71694,1,0,0:0:0:0:
320,192,71782,1,0,0:0:0:0:
448,192,71870,1,0,0:0:0:0:
64,192,71870,1,0,0:0:0:0:
192,192,71958,1,0,0:0:0:0:
320,192,72047,1,0,0:0:0:0:
448,192,72047,1,0,0:0:0:0:
64,192,72047,1,0,0:0:0:0:
64,192,72311,1,0,0:0:0:0:
192,192,72311,1,0,0:0:0:0:
448,192,72311,1,0,0:0:0:0:
64,192,72488,1,0,0:0:0:0:
320,192,72488,1,0,0:0:0:0:
448,192,72488,1,0,0:0:0:0:
320,192,72753,1,0,0:0:0:0:
448,192,72753,1,0,0:0:0:0:
192,192,72753,1,0,0:0:0:0:
64,192,73106,1,0,0:0:0:0:
320,192,73106,1,0,0:0:0:0:
448,192,73106,1,0,0:0:0:0:
64,192,73458,1,0,0:0:0:0:
192,192,73458,1,0,0:0:0:0:
320,192,73458,1,0,0:0:0:0:
64,192,73723,1,0,0:0:0:0:
192,192,73723,1,0,0:0:0:0:
448,192,73723,1,0,0:0:0:0:
64,192,73900,1,0,0:0:0:0:
320,192,73900,1,0,0:0:0:0:
448,192,73900,1,0,0:0:0:0:
192,192,74164,1,0,0:0:0:0:
320,192,74164,1,0,0:0:0:0:
448,192,74164,1,0,0:0:0:0:
64,192,74517,1,0,0:0:0:0:
192,192,74517,1,0,0:0:0:0:
448,192,74517,1,0,0:0:0:0:
64,192,74870,1,0,0:0:0:0:
192,192,74870,1,0,0:0:0:0:
448,192,74870,1,0,0:0:0:0:
320,192,74958,1,0,0:0:0:0:
192,192,75047,1,0,0:0:0:0:
448,192,75047,1,0,0:0:0:0:
320,192,75135,1,0,0:0:0:0:
192,192,75223,1,0,0:0:0:0:
64,192,75223,1,0,0:0:0:0:
448,192,75311,1,0,0:0:0:0:
320,192,75400,1,0,0:0:0:0:
64,192,75400,1,0,0:0:0:0:
192,192,75488,1,0,0:0:0:0:
64,192,75576,1,0,0:0:0:0:
320,192,75576,1,0,0:0:0:0:
448,192,75576,1,0,0:0:0:0:
192,192,75664,1,0,0:0:0:0:
320,192,75753,1,0,0:0:0:0:
448,192,75753,1,0,0:0:0:0:
64,192,75841,1,0,0:0:0:0:
192,192,75929,1,0,0:0:0:0:
448,192,75929,1,0,0:0:0:0:
320,192,76017,1,0,0:0:0:0:
64,192,76106,1,0,0:0:0:0:
448,192,76106,1,0,0:0:0:0:
192,192,76194,1,0,0:0:0:0:
448,192,76282,1,0,0:0:0:0:
64,192,76282,1,0,0:0:0:0:
320,192,76282,1,0,0:0:0:0:
192,192,76370,1,0,0:0:0:0:
320,192,76458,1,0,0:0:0:0:
64,192,76458,1,0,0:0:0:0:
192,192,76547,1,0,0:0:0:0:
64,192,76635,1,0,0:0:0:0:
320,192,76635,1,0,0:0:0:0:
448,192,76635,1,0,0:0:0:0:
192,192,76723,1,0,0:0:0:0:
448,192,76811,1,0,0:0:0:0:
64,192,76811,1,0,0:0:0:0:
320,192,76900,1,0,0:0:0:0:
192,192,76988,1,0,0:0:0:0:
64,192,76988,1,0,0:0:0:0:
448,192,76988,1,0,0:0:0:0:
320,192,77076,1,0,0:0:0:0:
192,192,77164,1,0,0:0:0:0:
448,192,77164,1,0,0:0:0:0:
320,192,77253,1,0,0:0:0:0:
192,192,77341,1,0,0:0:0:0:
64,192,77400,1,0,0:0:0:0:
320,192,77458,1,0,0:0:0:0:
448,192,77517,1,0,0:0:0:0:
192,192,77576,1,0,0:0:0:0:
64,192,77635,1,0,0:0:0:0:
448,192,77694,1,0,0:0:0:0:
320,192,77694,1,0,0:0:0:0:
192,192,77694,1,0,0:0:0:0:
320,192,78047,1,0,0:0:0:0:
64,192,78400,1,0,0:0:0:0:
192,192,78753,1,0,0:0:0:0:
64,192,79106,1,0,0:0:0:0:
192,192,79458,1,0,0:0:0:0:
448,192,79811,1,0,0:0:0:0:
320,192,80164,1,0,0:0:0:0:
64,192,80517,1,0,0:0:0:0:
192,192,80606,1,0,0:0:0:0:
320,192,80694,1,0,0:0:0:0:
448,192,80782,1,0,0:0:0:0:
320,192,80870,1,0,0:0:0:0:
192,192,80958,1,0,0:0:0:0:
64,192,81047,1,0,0:0:0:0:
448,192,81135,1,0,0:0:0:0:
320,192,81223,1,0,0:0:0:0:
192,192,81311,1,0,0:0:0:0:
64,192,81400,1,0,0:0:0:0:
192,192,81488,1,0,0:0:0:0:
320,192,81576,1,0,0:0:0:0:
448,192,81664,1,0,0:0:0:0:
64,192,81753,1,0,0:0:0:0:
192,192,81841,1,0,0:0:0:0:
320,192,81929,1,0,0:0:0:0:
448,192,82017,1,0,0:0:0:0:
320,192,82106,1,0,0:0:0:0:
192,192,82194,1,0,0:0:0:0:
64,192,82282,1,0,0:0:0:0:
448,192,82370,1,0,0:0:0:0:
320,192,82458,1,0,0:0:0:0:
192,192,82547,1,0,0:0:0:0:
64,192,82635,1,0,0:0:0:0:
192,192,82723,1,0,0:0:0:0:
320,192,82811,1,0,0:0:0:0:
448,192,82900,1,0,0:0:0:0:
320,192,82988,1,0,0:0:0:0:
64,192,83076,1,0,0:0:0:0:
192,192,83164,1,0,0:0:0:0:
320,192,83253,1,0,0:0:0:0:
192,192,83341,1,0,0:0:0:0:
448,192,83341,1,0,0:0:0:0:
320,192,83429,1,0,0:0:0:0:
192,192,83517,1,0,0:0:0:0:
64,192,83606,1,0,0:0:0:0:
192,192,83694,1,0,0:0:0:0:
448,192,83694,1,0,0:0:0:0:
320,192,83782,1,0,0:0:0:0:
192,192,83870,1,0,0:0:0:0:
64,192,83958,1,0,0:0:0:0:
192,192,84047,1,0,0:0:0:0:
448,192,84047,1,0,0:0:0:0:
320,192,84135,1,0,0:0:0:0:
192,192,84223,1,0,0:0:0:0:
64,192,84311,1,0,0:0:0:0:
320,192,84400,1,0,0:0:0:0:
192,192,84488,1,0,0:0:0:0:
320,192,84576,1,0,0:0:0:0:
192,192,84664,1,0,0:0:0:0:
64,192,84753,1,0,0:0:0:0:
448,192,84753,1,0,0:0:0:0:
320,192,84841,1,0,0:0:0:0:
192,192,84929,1,0,0:0:0:0:
64,192,85017,1,0,0:0:0:0:
192,192,85106,1,0,0:0:0:0:
448,192,85106,1,0,0:0:0:0:
320,192,85194,1,0,0:0:0:0:
192,192,85282,1,0,0:0:0:0:
64,192,85370,1,0,0:0:0:0:
192,192,85458,1,0,0:0:0:0:
448,192,85458,1,0,0:0:0:0:
320,192,85547,1,0,0:0:0:0:
192,192,85635,1,0,0:0:0:0:
64,192,85723,1,0,0:0:0:0:
192,192,85811,1,0,0:0:0:0:
320,192,85900,1,0,0:0:0:0:
192,192,85988,1,0,0:0:0:0:
64,192,86076,1,0,0:0:0:0:
320,192,86164,1,0,0:0:0:0:
448,192,86164,1,0,0:0:0:0:
64,192,86341,1,0,0:0:0:0:
192,192,86341,1,0,0:0:0:0:
320,192,86429,1,0,0:0:0:0:
448,192,86429,1,0,0:0:0:0:
64,192,86517,1,0,0:0:0:0:
192,192,86517,1,0,0:0:0:0:
448,192,86517,1,0,0:0:0:0:
192,192,86870,1,0,0:0:0:0:
320,192,86870,1,0,0:0:0:0:
320,192,87047,1,0,0:0:0:0:
448,192,87047,1,0,0:0:0:0:
64,192,87135,1,0,0:0:0:0:
192,192,87135,1,0,0:0:0:0:
64,192,87223,1,0,0:0:0:0:
320,192,87223,1,0,0:0:0:0:
448,192,87223,1,0,0:0:0:0:
192,192,87576,1,0,0:0:0:0:
320,192,87576,1,0,0:0:0:0:
64,192,87753,1,0,0:0:0:0:
192,192,87753,1,0,0:0:0:0:
320,192,87841,1,0,0:0:0:0:
448,192,87841,1,0,0:0:0:0:
64,192,87929,1,0,0:0:0:0:
192,192,87929,1,0,0:0:0:0:
448,192,87929,1,0,0:0:0:0:
64,192,88282,1,0,0:0:0:0:
192,192,88370,1,0,0:0:0:0:
320,192,88458,1,0,0:0:0:0:
448,192,88458,1,0,0:0:0:0:
64,192,88547,1,0,0:0:0:0:
192,192,88547,1,0,0:0:0:0:
320,192,88635,1,0,0:0:0:0:
448,192,88635,1,0,0:0:0:0:
64,192,88635,1,0,0:0:0:0:
192,192,88723,1,0,0:0:0:0:
64,192,88811,1,0,0:0:0:0:
448,192,88811,1,0,0:0:0:0:
320,192,88900,1,0,0:0:0:0:
192,192,88988,1,0,0:0:0:0:
64,192,88988,1,0,0:0:0:0:
320,192,89253,1,0,0:0:0:0:
448,192,89253,1,0,0:0:0:0:
64,192,89429,1,0,0:0:0:0:
192,192,89429,1,0,0:0:0:0:
320,192,89606,1,0,0:0:0:0:
64,192,89694,1,0,0:0:0:0:
192,192,89694,1,0,0:0:0:0:
448,192,89694,1,0,0:0:0:0:
320,192,89782,1,0,0:0:0:0:
64,192,89870,1,0,0:0:0:0:
192,192,89958,1,0,0:0:0:0:
320,192,90047,1,0,0:0:0:0:
448,192,90047,1,0,0:0:0:0:
64,192,90047,1,0,0:0:0:0:
192,192,90135,1,0,0:0:0:0:
320,192,90223,1,0,0:0:0:0:
448,192,90311,1,0,0:0:0:0:
320,192,90400,1,0,0:0:0:0:
192,192,90400,1,0,0:0:0:0:
64,192,90664,1,0,0:0:0:0:
320,192,90664,1,0,0:0:0:0:
192,192,90841,1,0,0:0:0:0:
448,192,90841,1,0,0:0:0:0:
320,192,91017,1,0,0:0:0:0:
192,192,91106,1,0,0:0:0:0:
64,192,91106,1,0,0:0:0:0:
448,192,91106,128,0,91458:0:0:0:0:
320,192,91458,1,0,0:0:0:0:
192,192,91458,1,0,0:0:0:0:
64,192,91458,1,0,0:0:0:0:
64,192,91811,1,0,0:0:0:0:
320,192,91811,1,0,0:0:0:0:
448,192,91811,1,0,0:0:0:0:
64,192,92076,1,0,0:0:0:0:
448,192,92076,1,0,0:0:0:0:
192,192,92253,1,0,0:0:0:0:
320,192,92253,1,0,0:0:0:0:
192,192,92429,1,0,0:0:0:0:
64,192,92517,1,0,0:0:0:0:
320,192,92517,1,0,0:0:0:0:
448,192,92517,1,0,0:0:0:0:
64,192,92782,1,0,0:0:0:0:
320,192,92782,1,0,0:0:0:0:
192,192,92958,1,0,0:0:0:0:
448,192,92958,1,0,0:0:0:0:
320,192,93135,1,0,0:0:0:0:
192,192,93223,1,0,0:0:0:0:
64,192,93223,1,0,0:0:0:0:
448,192,93223,1,0,0:0:0:0:
192,192,93488,1,0,0:0:0:0:
64,192,93576,1,0,0:0:0:0:
320,192,93576,1,0,0:0:0:0:
448,192,93576,1,0,0:0:0:0:
320,192,93841,1,0,0:0:0:0:
192,192,93929,1,0,0:0:0:0:
64,192,93929,1,0,0:0:0:0:
64,192,94017,1,0,0:0:0:0:
192,192,94017,1,0,0:0:0:0:
64,192,94106,1,0,0:0:0:0:
192,192,94106,1,0,0:0:0:0:
64,192,94194,1,0,0:0:0:0:
192,192,94194,1,0,0:0:0:0:
448,192,94282,1,0,0:0:0:0:
64,192,94282,1,0,0:0:0:0:
64,192,94458,1,0,0:0:0:0:
448,192,94458,1,0,0:0:0:0:
64,192,94635,1,0,0:0:0:0:
320,192,94635,1,0,0:0:0:0:
448,192,94635,128,0,96047:0:0:0:0:
192,192,96047,1,0,0:0:0:0:
320,192,96135,1,0,0:0:0:0:
448,192,96223,1,0,0:0:0:0:
64,192,96311,1,0,0:0:0:0:
192,192,96400,1,0,0:0:0:0:
320,192,96488,1,0,0:0:0:0:
448,192,96576,1,0,0:0:0:0:
192,192,96664,1,0,0:0:0:0:
320,192,96753,1,0,0:0:0:0:
448,192,96841,1,0,0:0:0:0:
192,192,96929,1,0,0:0:0:0:
320,192,97017,1,0,0:0:0:0:
64,192,97106,1,0,0:0:0:0:
448,192,97106,1,0,0:0:0:0:
192,192,97106,1,0,0:0:0:0:
320,192,97164,1,0,0:0:0:0:
192,192,97223,1,0,0:0:0:0:
64,192,97282,1,0,0:0:0:0:
448,192,97341,1,0,0:0:0:0:
320,192,97400,1,0,0:0:0:0:
192,192,97458,1,0,0:0:0:0:
64,192,97458,1,0,0:0:0:0:
448,192,97458,1,0,0:0:0:0:
320,192,97547,1,0,0:0:0:0:
448,192,97635,1,0,0:0:0:0:
192,192,97635,1,0,0:0:0:0:
320,192,97723,1,0,0:0:0:0:
64,192,97811,1,0,0:0:0:0:
448,192,97811,1,0,0:0:0:0:
192,192,97900,1,0,0:0:0:0:
448,192,97988,1,0,0:0:0:0:
64,192,97988,1,0,0:0:0:0:
320,192,98076,1,0,0:0:0:0:
192,192,98164,1,0,0:0:0:0:
64,192,98164,1,0,0:0:0:0:
448,192,98253,1,0,0:0:0:0:
320,192,98341,1,0,0:0:0:0:
64,192,98341,1,0,0:0:0:0:
192,192,98429,1,0,0:0:0:0:
448,192,98517,1,0,0:0:0:0:
64,192,98517,1,0,0:0:0:0:
192,192,98606,1,0,0:0:0:0:
448,192,98694,1,0,0:0:0:0:
320,192,98694,1,0,0:0:0:0:
192,192,98782,1,0,0:0:0:0:
64,192,98870,1,0,0:0:0:0:
320,192,98870,1,0,0:0:0:0:
192,192,98958,1,0,0:0:0:0:
64,192,99047,1,0,0:0:0:0:
448,192,99135,1,0,0:0:0:0:
320,192,99223,1,0,0:0:0:0:
64,192,99223,1,0,0:0:0:0:
192,192,99311,1,0,0:0:0:0:
320,192,99400,1,0,0:0:0:0:
64,192,99400,1,0,0:0:0:0:
192,192,99488,1,0,0:0:0:0:
320,192,99576,1,0,0:0:0:0:
448,192,99576,1,0,0:0:0:0:
192,192,99664,1,0,0:0:0:0:
64,192,99753,1,0,0:0:0:0:
448,192,99753,1,0,0:0:0:0:
320,192,99841,1,0,0:0:0:0:
192,192,99929,1,0,0:0:0:0:
448,192,99929,1,0,0:0:0:0:
320,192,100017,1,0,0:0:0:0:
448,192,100106,1,0,0:0:0:0:
192,192,100106,1,0,0:0:0:0:
320,192,100194,1,0,0:0:0:0:
192,192,100282,1,0,0:0:0:0:
64,192,100282,1,0,0:0:0:0:
320,192,100370,1,0,0:0:0:0:
448,192,100458,1,0,0:0:0:0:
64,192,100458,1,0,0:0:0:0:
192,192,100547,1,0,0:0:0:0:
320,192,100635,1,0,0:0:0:0:
448,192,100635,1,0,0:0:0:0:
192,192,100723,1,0,0:0:0:0:
448,192,100811,1,0,0:0:0:0:
64,192,100811,1,0,0:0:0:0:
192,192,100900,1,0,0:0:0:0:
448,192,100988,1,0,0:0:0:0:
320,192,100988,1,0,0:0:0:0:
64,192,101076,1,0,0:0:0:0:
192,192,101164,1,0,0:0:0:0:
448,192,101164,1,0,0:0:0:0:
320,192,101253,1,0,0:0:0:0:
448,192,101341,1,0,0:0:0:0:
64,192,101341,1,0,0:0:0:0:
192,192,101429,1,0,0:0:0:0:
320,192,101517,1,0,0:0:0:0:
448,192,101517,1,0,0:0:0:0:
192,192,101606,1,0,0:0:0:0:
64,192,101694,1,0,0:0:0:0:
320,192,101694,1,0,0:0:0:0:
192,192,101782,1,0,0:0:0:0:
320,192,101870,1,0,0:0:0:0:
448,192,101870,1,0,0:0:0:0:
192,192,101958,1,0,0:0:0:0:
64,192,102047,1,0,0:0:0:0:
320,192,102047,1,0,0:0:0:0:
192,192,102135,1,0,0:0:0:0:
64,192,102223,1,0,0:0:0:0:
320,192,102223,1,0,0:0:0:0:
192,192,102311,1,0,0:0:0:0:
320,192,102400,1,0,0:0:0:0:
448,192,102400,1,0,0:0:0:0:
192,192,102488,1,0,0:0:0:0:
64,192,102576,1,0,0:0:0:0:
448,192,102576,1,0,0:0:0:0:
320,192,102664,1,0,0:0:0:0:
192,192,102753,1,0,0:0:0:0:
448,192,102753,1,0,0:0:0:0:
320,192,102841,1,0,0:0:0:0:
192,192,102929,1,0,0:0:0:0:
448,192,102929,1,0,0:0:0:0:
320,192,103017,1,0,0:0:0:0:
64,192,103106,1,0,0:0:0:0:
448,192,103106,1,0,0:0:0:0:
192,192,103194,1,0,0:0:0:0:
320,192,103282,1,0,0:0:0:0:
448,192,103370,1,0,0:0:0:0:
320,192,103458,1,0,0:0:0:0:
64,192,103458,1,0,0:0:0:0:
448,192,103547,1,0,0:0:0:0:
320,192,103635,1,0,0:0:0:0:
448,192,103723,1,0,0:0:0:0:
320,192,103811,1,0,0:0:0:0:
64,192,103811,1,0,0:0:0:0:
192,192,103900,1,0,0:0:0:0:
64,192,103988,1,0,0:0:0:0:
192,192,104076,1,0,0:0:0:0:
64,192,104164,1,0,0:0:0:0:
448,192,104164,1,0,0:0:0:0:
192,192,104253,1,0,0:0:0:0:
64,192,104341,1,0,0:0:0:0:
192,192,104429,1,0,0:0:0:0:
64,192,104517,1,0,0:0:0:0:
192,192,104606,1,0,0:0:0:0:
448,192,104694,1,0,0:0:0:0:
64,192,104782,1,0,0:0:0:0:
192,192,104870,1,0,0:0:0:0:
448,192,104870,1,0,0:0:0:0:
320,192,104958,1,0,0:0:0:0:
192,192,105047,1,0,0:0:0:0:
64,192,105135,1,0,0:0:0:0:
448,192,105223,1,0,0:0:0:0:
320,192,105311,1,0,0:0:0:0:
192,192,105400,1,0,0:0:0:0:
64,192,105488,1,0,0:0:0:0:
192,192,105576,1,0,0:0:0:0:
448,192,105576,1,0,0:0:0:0:
320,192,105664,1,0,0:0:0:0:
192,192,105753,1,0,0:0:0:0:
64,192,105841,1,0,0:0:0:0:
192,192,105929,1,0,0:0:0:0:
320,192,106017,1,0,0:0:0:0:
192,192,106106,1,0,0:0:0:0:
320,192,106194,1,0,0:0:0:0:
192,192,106282,1,0,0:0:0:0:
64,192,106282,1,0,0:0:0:0:
448,192,106370,1,0,0:0:0:0:
64,192,106458,1,0,0:0:0:0:
448,192,106547,1,0,0:0:0:0:
64,192,106635,1,0,0:0:0:0:
448,192,106723,1,0,0:0:0:0:
320,192,106811,1,0,0:0:0:0:
192,192,106900,1,0,0:0:0:0:
64,192,106988,1,0,0:0:0:0:
320,192,106988,1,0,0:0:0:0:
192,192,107076,1,0,0:0:0:0:
320,192,107164,1,0,0:0:0:0:
448,192,107253,1,0,0:0:0:0:
320,192,107341,1,0,0:0:0:0:
192,192,107429,1,0,0:0:0:0:
320,192,107517,1,0,0:0:0:0:
448,192,107606,1,0,0:0:0:0:
320,192,107694,1,0,0:0:0:0:
192,192,107694,1,0,0:0:0:0:
64,192,107782,1,0,0:0:0:0:
448,192,107870,1,0,0:0:0:0:
320,192,107958,1,0,0:0:0:0:
192,192,108047,1,0,0:0:0:0:
64,192,108135,1,0,0:0:0:0:
448,192,108223,1,0,0:0:0:0:
320,192,108311,1,0,0:0:0:0:
192,192,108400,1,0,0:0:0:0:
64,192,108400,1,0,0:0:0:0:
320,192,108576,1,0,0:0:0:0:
448,192,108576,1,0,0:0:0:0:
64,192,108753,1,0,0:0:0:0:
192,192,108753,1,0,0:0:0:0:
448,192,108753,1,0,0:0:0:0:
192,192,108929,1,0,0:0:0:0:
320,192,108929,1,0,0:0:0:0:
320,192,109106,1,0,0:0:0:0:
448,192,109106,1,0,0:0:0:0:
64,192,109282,1,0,0:0:0:0:
320,192,109282,1,0,0:0:0:0:
192,192,109458,1,0,0:0:0:0:
448,192,109458,1,0,0:0:0:0:
64,192,109635,1,0,0:0:0:0:
320,192,109635,1,0,0:0:0:0:
192,192,109723,1,0,0:0:0:0:
64,192,109811,1,0,0:0:0:0:
320,192,109811,1,0,0:0:0:0:
64,192,109988,1,0,0:0:0:0:
448,192,109988,1,0,0:0:0:0:
192,192,110164,1,0,0:0:0:0:
64,192,110253,1,0,0:0:0:0:
192,192,110341,1,0,0:0:0:0:
320,192,110429,1,0,0:0:0:0:
192,192,110517,1,0,0:0:0:0:
448,192,110517,1,0,0:0:0:0:
320,192,110606,1,0,0:0:0:0:
192,192,110694,1,0,0:0:0:0:
448,192,110694,1,0,0:0:0:0:
320,192,110782,1,0,0:0:0:0:
192,192,110870,1,0,0:0:0:0:
64,192,110870,1,0,0:0:0:0:
192,192,111047,1,0,0:0:0:0:
320,192,111135,1,0,0:0:0:0:
448,192,111223,1,0,0:0:0:0:
64,192,111223,1,0,0:0:0:0:
320,192,111311,1,0,0:0:0:0:
192,192,111400,1,0,0:0:0:0:
320,192,111488,1,0,0:0:0:0:
192,192,111576,1,0,0:0:0:0:
448,192,111576,1,0,0:0:0:0:
320,192,111664,1,0,0:0:0:0:
192,192,111753,1,0,0:0:0:0:
64,192,111841,1,0,0:0:0:0:
192,192,111929,1,0,0:0:0:0:
448,192,111929,1,0,0:0:0:0:
320,192,112017,1,0,0:0:0:0:
192,192,112106,1,0,0:0:0:0:
64,192,112194,1,0,0:0:0:0:
192,192,112282,1,0,0:0:0:0:
448,192,112282,1,0,0:0:0:0:
320,192,112370,1,0,0:0:0:0:
192,192,112458,1,0,0:0:0:0:
64,192,112547,1,0,0:0:0:0:
192,192,112635,1,0,0:0:0:0:
448,192,112635,1,0,0:0:0:0:
320,192,112723,1,0,0:0:0:0:
192,192,112811,1,0,0:0:0:0:
64,192,112900,1,0,0:0:0:0:
192,192,112988,1,0,0:0:0:0:
448,192,112988,1,0,0:0:0:0:
320,192,113076,1,0,0:0:0:0:
192,192,113164,1,0,0:0:0:0:
320,192,113253,1,0,0:0:0:0:
192,192,113341,1,0,0:0:0:0:
64,192,113429,1,0,0:0:0:0:
192,192,113517,1,0,0:0:0:0:
320,192,113606,1,0,0:0:0:0:
192,192,113694,1,0,0:0:0:0:
64,192,113694,1,0,0:0:0:0:
320,192,113782,1,0,0:0:0:0:
448,192,113870,1,0,0:0:0:0:
320,192,113958,1,0,0:0:0:0:
192,192,114047,1,0,0:0:0:0:
448,192,114047,1,0,0:0:0:0:
192,192,114223,1,0,0:0:0:0:
320,192,114223,1,0,0:0:0:0:
64,192,114400,1,0,0:0:0:0:
320,192,114400,1,0,0:0:0:0:
192,192,114488,1,0,0:0:0:0:
64,192,114576,1,0,0:0:0:0:
448,192,114664,1,0,0:0:0:0:
320,192,114753,1,0,0:0:0:0:
64,192,114753,1,0,0:0:0:0:
192,192,114841,1,0,0:0:0:0:
64,192,114929,1,0,0:0:0:0:
320,192,115017,1,0,0:0:0:0:
192,192,115106,1,0,0:0:0:0:
64,192,115106,1,0,0:0:0:0:
448,192,115194,1,0,0:0:0:0:
320,192,115282,1,0,0:0:0:0:
192,192,115370,1,0,0:0:0:0:
64,192,115458,1,0,0:0:0:0:
320,192,115458,1,0,0:0:0:0:
192,192,115547,1,0,0:0:0:0:
64,192,115635,1,0,0:0:0:0:
192,192,115723,1,0,0:0:0:0:
64,192,115811,1,0,0:0:0:0:
320,192,115811,1,0,0:0:0:0:
64,192,115988,1,0,0:0:0:0:
320,192,115988,1,0,0:0:0:0:
192,192,116076,1,0,0:0:0:0:
64,192,116164,1,0,0:0:0:0:
320,192,116164,1,0,0:0:0:0:
448,192,116164,1,0,0:0:0:0:
448,192,116517,1,0,0:0:0:0:
320,192,116517,1,0,0:0:0:0:
64,192,116606,1,0,0:0:0:0:
192,192,116606,1,0,0:0:0:0:
320,192,116694,1,0,0:0:0:0:
192,192,116782,1,0,0:0:0:0:
64,192,116870,1,0,0:0:0:0:
320,192,116870,1,0,0:0:0:0:
448,192,116870,1,0,0:0:0:0:
192,192,117223,1,0,0:0:0:0:
320,192,117223,1,0,0:0:0:0:
64,192,117400,1,0,0:0:0:0:
192,192,117488,1,0,0:0:0:0:
320,192,117576,1,0,0:0:0:0:
448,192,117576,1,0,0:0:0:0:
64,192,117576,1,0,0:0:0:0:
64,192,117929,1,0,0:0:0:0:
192,192,117929,1,0,0:0:0:0:
320,192,118017,1,0,0:0:0:0:
448,192,118017,1,0,0:0:0:0:
192,192,118106,1,0,0:0:0:0:
320,192,118194,1,0,0:0:0:0:
64,192,118282,1,0,0:0:0:0:
448,192,118282,1,0,0:0:0:0:
192,192,118282,1,0,0:0:0:0:
64,192,118635,1,0,0:0:0:0:
320,192,118635,1,0,0:0:0:0:
192,192,118723,1,0,0:0:0:0:
320,192,118811,1,0,0:0:0:0:
192,192,118900,1,0,0:0:0:0:
64,192,118988,1,0,0:0:0:0:
320,192,118988,1,0,0:0:0:0:
448,192,118988,1,0,0:0:0:0:
192,192,119164,1,0,0:0:0:0:
320,192,119164,1,0,0:0:0:0:
320,192,119341,128,0,121458:0:0:0:0:
64,192,119341,128,0,121458:0:0:0:0:
448,192,119341,128,0,121458:0:0:0:0:
