osu file format v14

[General]
AudioFilename: Internet.mp3
AudioLeadIn: 0
PreviewTime: 71944
Countdown: 1
SampleSet: None
StackLeniency: 0.7
Mode: 3
LetterboxInBreaks: 0
SpecialStyle: 1
WidescreenStoryboard: 1

[Editor]
DistanceSpacing: 1
BeatDivisor: 4
GridSize: 4
TimelineZoom: 4.199998

[Metadata]
Title:Demitoo 4k Practice pack
TitleUnicode:Demitoo 4k Practice pack
Artist:Various Artist
ArtistUnicode:Various Artist
Creator:Demitoo
Version:Internet bitch (Medium) - 175 bpm
Source:
Tags:
BeatmapID:871531
BeatmapSetID:400528

[Difficulty]
HPDrainRate:8
CircleSize:4
OverallDifficulty:8
ApproachRate:5
SliderMultiplier:1.4
SliderTickRate:1

[Events]
//Background and Video events
0,0,"Konachan.com - 210156 animal aqua_eyes aqua_hair bai_yemeng breasts cat chibi cleavage computer glasses hatsune_miku headphones leaves long_hair twintails vocaloid.jpg",0,0
//Break Periods
//Storyboard Layer 0 (Background)
//Storyboard Layer 1 (Fail)
//Storyboard Layer 2 (Pass)
//Storyboard Layer 3 (Foreground)
//Storyboard Sound Samples

[TimingPoints]
630,342.857142857143,4,1,0,10,1,0

[HitObjects]
64,192,630,5,0,0:0:0:0:
192,192,630,1,0,0:0:0:0:
320,192,715,1,0,0:0:0:0:
448,192,801,1,0,0:0:0:0:
320,192,887,1,0,0:0:0:0:
192,192,972,1,0,0:0:0:0:
448,192,972,1,0,0:0:0:0:
320,192,1144,1,0,0:0:0:0:
320,192,1315,1,0,0:0:0:0:
448,192,1315,1,0,0:0:0:0:
192,192,1401,1,0,0:0:0:0:
64,192,1487,1,0,0:0:0:0:
192,192,1572,1,0,0:0:0:0:
64,192,1658,1,0,0:0:0:0:
320,192,1658,1,0,0:0:0:0:
192,192,2001,1,0,0:0:0:0:
320,192,2001,1,0,0:0:0:0:
448,192,2087,1,0,0:0:0:0:
320,192,2172,1,0,0:0:0:0:
192,192,2258,1,0,0:0:0:0:
320,192,2344,1,0,0:0:0:0:
64,192,2344,1,0,0:0:0:0:
192,192,2515,1,0,0:0:0:0:
64,192,2687,1,0,0:0:0:0:
448,192,2687,1,0,0:0:0:0:
320,192,2772,1,0,0:0:0:0:
192,192,2858,1,0,0:0:0:0:
64,192,2944,1,0,0:0:0:0:
448,192,3030,1,0,0:0:0:0:
192,192,3030,1,0,0:0:0:0:
320,192,3115,1,0,0:0:0:0:
448,192,3201,128,0,3372:0:0:0:0:
64,192,3372,128,0,3715:0:0:0:0:
192,192,3372,128,0,3715:0:0:0:0:
448,192,3715,1,0,0:0:0:0:
64,192,3887,1,0,0:0:0:0:
192,192,4058,1,0,0:0:0:0:
448,192,4058,1,0,0:0:0:0:
320,192,4144,1,0,0:0:0:0:
192,192,4230,1,0,0:0:0:0:
64,192,4315,1,0,0:0:0:0:
192,192,4401,1,0,0:0:0:0:
320,192,4401,1,0,0:0:0:0:
192,192,4572,1,0,0:0:0:0:
64,192,4744,1,0,0:0:0:0:
320,192,4744,1,0,0:0:0:0:
192,192,4830,1,0,0:0:0:0:
320,192,4915,1,0,0:0:0:0:
448,192,5001,1,0,0:0:0:0:
64,192,5087,1,0,0:0:0:0:
192,192,5087,1,0,0:0:0:0:
320,192,5172,1,0,0:0:0:0:
192,192,5258,1,0,0:0:0:0:
64,192,5344,1,0,0:0:0:0:
192,192,5430,1,0,0:0:0:0:
448,192,5430,1,0,0:0:0:0:
320,192,5515,1,0,0:0:0:0:
192,192,5601,1,0,0:0:0:0:
64,192,5687,1,0,0:0:0:0:
448,192,5772,128,0,6115:0:0:0:0:
192,192,6115,128,0,6458:0:0:0:0:
320,192,6115,128,0,6458:0:0:0:0:
448,192,6458,1,0,0:0:0:0:
64,192,6630,1,0,0:0:0:0:
448,192,6801,1,0,0:0:0:0:
320,192,6801,1,0,0:0:0:0:
192,192,6887,1,0,0:0:0:0:
64,192,6972,1,0,0:0:0:0:
192,192,7058,1,0,0:0:0:0:
320,192,7144,1,0,0:0:0:0:
448,192,7144,1,0,0:0:0:0:
192,192,7315,1,0,0:0:0:0:
64,192,7487,1,0,0:0:0:0:
192,192,7487,1,0,0:0:0:0:
320,192,7572,1,0,0:0:0:0:
192,192,7658,1,0,0:0:0:0:
64,192,7744,1,0,0:0:0:0:
448,192,7830,1,0,0:0:0:0:
192,192,7830,1,0,0:0:0:0:
320,192,7915,1,0,0:0:0:0:
192,192,8001,1,0,0:0:0:0:
64,192,8087,1,0,0:0:0:0:
192,192,8172,1,0,0:0:0:0:
320,192,8172,1,0,0:0:0:0:
448,192,8258,1,0,0:0:0:0:
320,192,8344,1,0,0:0:0:0:
192,192,8430,1,0,0:0:0:0:
320,192,8515,1,0,0:0:0:0:
448,192,8515,1,0,0:0:0:0:
192,192,8601,1,0,0:0:0:0:
64,192,8687,1,0,0:0:0:0:
192,192,8772,1,0,0:0:0:0:
64,192,8858,1,0,0:0:0:0:
320,192,8858,128,0,9201:0:0:0:0:
448,192,8858,128,0,9201:0:0:0:0:
64,192,9201,1,0,0:0:0:0:
192,192,9201,1,0,0:0:0:0:
64,192,9544,1,0,0:0:0:0:
192,192,9544,1,0,0:0:0:0:
320,192,9630,1,0,0:0:0:0:
448,192,9630,1,0,0:0:0:0:
64,192,9715,1,0,0:0:0:0:
192,192,9715,1,0,0:0:0:0:
320,192,9801,1,0,0:0:0:0:
448,192,9801,1,0,0:0:0:0:
64,192,9887,128,0,10230:0:0:0:0:
192,192,9887,128,0,10230:0:0:0:0:
320,192,10230,128,0,10401:0:0:0:0:
448,192,10230,128,0,10401:0:0:0:0:
64,192,10572,128,0,10744:0:0:0:0:
192,192,10572,128,0,10744:0:0:0:0:
320,192,10915,1,0,0:0:0:0:
448,192,10915,1,0,0:0:0:0:
64,192,11001,1,0,0:0:0:0:
192,192,11001,1,0,0:0:0:0:
320,192,11087,1,0,0:0:0:0:
448,192,11087,1,0,0:0:0:0:
64,192,11172,1,0,0:0:0:0:
192,192,11172,1,0,0:0:0:0:
320,192,11258,1,0,0:0:0:0:
448,192,11258,1,0,0:0:0:0:
192,192,11430,1,0,0:0:0:0:
320,192,11430,1,0,0:0:0:0:
64,192,11601,1,0,0:0:0:0:
320,192,11601,1,0,0:0:0:0:
448,192,11601,1,0,0:0:0:0:
192,192,11772,1,0,0:0:0:0:
320,192,11944,1,0,0:0:0:0:
448,192,11944,1,0,0:0:0:0:
64,192,11944,1,0,0:0:0:0:
192,192,12115,1,0,0:0:0:0:
64,192,12287,1,0,0:0:0:0:
448,192,12287,1,0,0:0:0:0:
320,192,12287,1,0,0:0:0:0:
192,192,12372,1,0,0:0:0:0:
320,192,12458,1,0,0:0:0:0:
320,192,12630,1,0,0:0:0:0:
448,192,12630,1,0,0:0:0:0:
64,192,12630,1,0,0:0:0:0:
192,192,12801,1,0,0:0:0:0:
448,192,12972,1,0,0:0:0:0:
64,192,12972,1,0,0:0:0:0:
192,192,12972,1,0,0:0:0:0:
320,192,13144,1,0,0:0:0:0:
64,192,13315,1,0,0:0:0:0:
192,192,13315,1,0,0:0:0:0:
320,192,13487,1,0,0:0:0:0:
192,192,13658,1,0,0:0:0:0:
448,192,13658,1,0,0:0:0:0:
320,192,13744,1,0,0:0:0:0:
192,192,13830,1,0,0:0:0:0:
192,192,14001,1,0,0:0:0:0:
64,192,14001,1,0,0:0:0:0:
320,192,14172,1,0,0:0:0:0:
192,192,14344,1,0,0:0:0:0:
448,192,14344,1,0,0:0:0:0:
320,192,14515,1,0,0:0:0:0:
192,192,14687,1,0,0:0:0:0:
64,192,14687,1,0,0:0:0:0:
320,192,14858,1,0,0:0:0:0:
192,192,15030,1,0,0:0:0:0:
448,192,15030,1,0,0:0:0:0:
320,192,15115,1,0,0:0:0:0:
192,192,15201,1,0,0:0:0:0:
320,192,15372,1,0,0:0:0:0:
448,192,15372,1,0,0:0:0:0:
192,192,15544,1,0,0:0:0:0:
64,192,15715,1,0,0:0:0:0:
320,192,15715,1,0,0:0:0:0:
192,192,15887,1,0,0:0:0:0:
64,192,16058,1,0,0:0:0:0:
320,192,16058,1,0,0:0:0:0:
448,192,16058,1,0,0:0:0:0:
192,192,16230,1,0,0:0:0:0:
64,192,16401,1,0,0:0:0:0:
192,192,16401,1,0,0:0:0:0:
320,192,16487,1,0,0:0:0:0:
448,192,16572,1,0,0:0:0:0:
64,192,16744,128,0,16915:0:0:0:0:
192,192,16744,128,0,16915:0:0:0:0:
448,192,16744,128,0,16915:0:0:0:0:
192,192,17087,1,0,0:0:0:0:
448,192,17087,1,0,0:0:0:0:
320,192,17172,1,0,0:0:0:0:
192,192,17258,1,0,0:0:0:0:
320,192,17344,1,0,0:0:0:0:
64,192,17430,1,0,0:0:0:0:
192,192,17430,1,0,0:0:0:0:
448,192,17515,1,0,0:0:0:0:
320,192,17601,1,0,0:0:0:0:
192,192,17687,1,0,0:0:0:0:
320,192,17772,1,0,0:0:0:0:
448,192,17772,1,0,0:0:0:0:
192,192,17858,1,0,0:0:0:0:
64,192,17944,1,0,0:0:0:0:
320,192,18030,1,0,0:0:0:0:
192,192,18115,1,0,0:0:0:0:
448,192,18115,1,0,0:0:0:0:
320,192,18201,1,0,0:0:0:0:
192,192,18287,1,0,0:0:0:0:
64,192,18372,1,0,0:0:0:0:
320,192,18458,1,0,0:0:0:0:
448,192,18458,1,0,0:0:0:0:
192,192,18544,1,0,0:0:0:0:
448,192,18630,1,0,0:0:0:0:
320,192,18715,1,0,0:0:0:0:
192,192,18801,1,0,0:0:0:0:
64,192,18801,1,0,0:0:0:0:
448,192,18801,1,0,0:0:0:0:
320,192,18887,1,0,0:0:0:0:
192,192,18972,1,0,0:0:0:0:
64,192,19058,1,0,0:0:0:0:
320,192,19144,1,0,0:0:0:0:
448,192,19144,1,0,0:0:0:0:
64,192,19230,1,0,0:0:0:0:
192,192,19230,1,0,0:0:0:0:
320,192,19315,1,0,0:0:0:0:
448,192,19315,1,0,0:0:0:0:
64,192,19401,1,0,0:0:0:0:
192,192,19401,1,0,0:0:0:0:
320,192,19487,128,0,19658:0:0:0:0:
448,192,19487,128,0,19658:0:0:0:0:
64,192,19830,1,0,0:0:0:0:
320,192,19830,1,0,0:0:0:0:
192,192,19915,1,0,0:0:0:0:
320,192,20001,1,0,0:0:0:0:
192,192,20087,1,0,0:0:0:0:
64,192,20172,1,0,0:0:0:0:
320,192,20172,1,0,0:0:0:0:
192,192,20258,1,0,0:0:0:0:
320,192,20344,1,0,0:0:0:0:
448,192,20430,1,0,0:0:0:0:
64,192,20515,1,0,0:0:0:0:
320,192,20515,1,0,0:0:0:0:
192,192,20601,1,0,0:0:0:0:
64,192,20687,1,0,0:0:0:0:
192,192,20772,1,0,0:0:0:0:
320,192,20858,1,0,0:0:0:0:
64,192,20858,1,0,0:0:0:0:
192,192,20944,1,0,0:0:0:0:
320,192,21030,1,0,0:0:0:0:
448,192,21115,1,0,0:0:0:0:
320,192,21201,1,0,0:0:0:0:
64,192,21201,1,0,0:0:0:0:
192,192,21287,1,0,0:0:0:0:
64,192,21372,1,0,0:0:0:0:
192,192,21430,1,0,0:0:0:0:
320,192,21487,1,0,0:0:0:0:
448,192,21544,1,0,0:0:0:0:
320,192,21630,1,0,0:0:0:0:
192,192,21715,1,0,0:0:0:0:
64,192,21801,1,0,0:0:0:0:
448,192,21887,1,0,0:0:0:0:
320,192,21944,1,0,0:0:0:0:
192,192,22001,1,0,0:0:0:0:
64,192,22058,1,0,0:0:0:0:
448,192,22115,1,0,0:0:0:0:
320,192,22172,1,0,0:0:0:0:
192,192,22230,1,0,0:0:0:0:
64,192,22287,1,0,0:0:0:0:
448,192,22344,1,0,0:0:0:0:
320,192,22401,1,0,0:0:0:0:
192,192,22458,1,0,0:0:0:0:
64,192,22515,1,0,0:0:0:0:
320,192,22572,1,0,0:0:0:0:
320,192,22744,1,0,0:0:0:0:
320,192,22915,1,0,0:0:0:0:
448,192,23087,1,0,0:0:0:0:
448,192,23258,1,0,0:0:0:0:
448,192,23430,1,0,0:0:0:0:
192,192,23601,1,0,0:0:0:0:
192,192,23772,1,0,0:0:0:0:
192,192,23944,1,0,0:0:0:0:
320,192,24115,1,0,0:0:0:0:
320,192,24287,1,0,0:0:0:0:
320,192,24458,1,0,0:0:0:0:
192,192,24630,1,0,0:0:0:0:
192,192,24801,1,0,0:0:0:0:
320,192,24972,1,0,0:0:0:0:
64,192,25144,1,0,0:0:0:0:
192,192,25315,1,0,0:0:0:0:
192,192,25487,1,0,0:0:0:0:
192,192,25658,1,0,0:0:0:0:
320,192,25830,1,0,0:0:0:0:
320,192,26001,1,0,0:0:0:0:
320,192,26172,1,0,0:0:0:0:
448,192,26344,1,0,0:0:0:0:
448,192,26515,1,0,0:0:0:0:
448,192,26687,1,0,0:0:0:0:
320,192,26858,1,0,0:0:0:0:
320,192,27030,1,0,0:0:0:0:
320,192,27201,1,0,0:0:0:0:
192,192,27372,1,0,0:0:0:0:
192,192,27544,1,0,0:0:0:0:
64,192,27715,1,0,0:0:0:0:
64,192,27887,1,0,0:0:0:0:
320,192,28058,1,0,0:0:0:0:
320,192,28230,1,0,0:0:0:0:
320,192,28401,1,0,0:0:0:0:
448,192,28572,1,0,0:0:0:0:
448,192,28744,1,0,0:0:0:0:
448,192,28915,1,0,0:0:0:0:
192,192,29087,1,0,0:0:0:0:
192,192,29258,1,0,0:0:0:0:
192,192,29430,1,0,0:0:0:0:
448,192,29601,1,0,0:0:0:0:
448,192,29772,1,0,0:0:0:0:
448,192,29944,1,0,0:0:0:0:
320,192,30115,1,0,0:0:0:0:
320,192,30287,1,0,0:0:0:0:
320,192,30458,1,0,0:0:0:0:
64,192,30630,1,0,0:0:0:0:
192,192,30801,1,0,0:0:0:0:
192,192,30972,1,0,0:0:0:0:
192,192,31144,1,0,0:0:0:0:
320,192,31315,1,0,0:0:0:0:
320,192,31487,1,0,0:0:0:0:
320,192,31658,1,0,0:0:0:0:
448,192,31830,1,0,0:0:0:0:
448,192,32001,1,0,0:0:0:0:
448,192,32172,1,0,0:0:0:0:
320,192,32344,1,0,0:0:0:0:
320,192,32515,1,0,0:0:0:0:
320,192,32687,1,0,0:0:0:0:
192,192,32858,1,0,0:0:0:0:
192,192,33030,1,0,0:0:0:0:
192,192,33201,1,0,0:0:0:0:
320,192,33372,1,0,0:0:0:0:
64,192,33544,1,0,0:0:0:0:
192,192,33544,1,0,0:0:0:0:
64,192,33715,1,0,0:0:0:0:
192,192,33715,1,0,0:0:0:0:
64,192,33887,1,0,0:0:0:0:
192,192,33887,1,0,0:0:0:0:
320,192,34058,1,0,0:0:0:0:
448,192,34058,1,0,0:0:0:0:
320,192,34230,1,0,0:0:0:0:
448,192,34230,1,0,0:0:0:0:
320,192,34401,1,0,0:0:0:0:
448,192,34401,1,0,0:0:0:0:
192,192,34572,1,0,0:0:0:0:
320,192,34572,1,0,0:0:0:0:
192,192,34744,1,0,0:0:0:0:
320,192,34744,1,0,0:0:0:0:
192,192,34915,1,0,0:0:0:0:
320,192,34915,1,0,0:0:0:0:
320,192,35087,1,0,0:0:0:0:
448,192,35087,1,0,0:0:0:0:
320,192,35258,1,0,0:0:0:0:
448,192,35258,1,0,0:0:0:0:
320,192,35430,1,0,0:0:0:0:
448,192,35430,1,0,0:0:0:0:
64,192,35601,1,0,0:0:0:0:
192,192,35601,1,0,0:0:0:0:
64,192,35772,1,0,0:0:0:0:
192,192,35772,1,0,0:0:0:0:
192,192,35944,1,0,0:0:0:0:
448,192,35944,1,0,0:0:0:0:
64,192,36115,1,0,0:0:0:0:
192,192,36115,1,0,0:0:0:0:
64,192,36287,1,0,0:0:0:0:
320,192,36287,1,0,0:0:0:0:
64,192,36458,1,0,0:0:0:0:
320,192,36458,1,0,0:0:0:0:
64,192,36630,1,0,0:0:0:0:
320,192,36630,1,0,0:0:0:0:
192,192,36801,1,0,0:0:0:0:
320,192,36801,1,0,0:0:0:0:
192,192,36972,1,0,0:0:0:0:
320,192,36972,1,0,0:0:0:0:
192,192,37144,1,0,0:0:0:0:
320,192,37144,1,0,0:0:0:0:
448,192,37315,1,0,0:0:0:0:
64,192,37315,1,0,0:0:0:0:
448,192,37487,1,0,0:0:0:0:
64,192,37487,1,0,0:0:0:0:
448,192,37658,1,0,0:0:0:0:
64,192,37658,1,0,0:0:0:0:
64,192,37830,1,0,0:0:0:0:
320,192,37830,1,0,0:0:0:0:
64,192,38001,1,0,0:0:0:0:
320,192,38001,1,0,0:0:0:0:
64,192,38172,1,0,0:0:0:0:
320,192,38172,1,0,0:0:0:0:
192,192,38344,1,0,0:0:0:0:
320,192,38344,1,0,0:0:0:0:
192,192,38515,1,0,0:0:0:0:
320,192,38515,1,0,0:0:0:0:
192,192,38687,1,0,0:0:0:0:
320,192,38687,1,0,0:0:0:0:
64,192,38858,1,0,0:0:0:0:
320,192,38858,1,0,0:0:0:0:
64,192,39030,1,0,0:0:0:0:
192,192,39030,1,0,0:0:0:0:
64,192,39201,1,0,0:0:0:0:
192,192,39201,1,0,0:0:0:0:
64,192,39372,1,0,0:0:0:0:
192,192,39372,1,0,0:0:0:0:
192,192,39544,1,0,0:0:0:0:
448,192,39544,1,0,0:0:0:0:
192,192,39715,1,0,0:0:0:0:
448,192,39715,1,0,0:0:0:0:
192,192,39887,1,0,0:0:0:0:
448,192,39887,1,0,0:0:0:0:
64,192,40058,1,0,0:0:0:0:
320,192,40058,1,0,0:0:0:0:
64,192,40230,1,0,0:0:0:0:
320,192,40230,1,0,0:0:0:0:
64,192,40401,1,0,0:0:0:0:
320,192,40401,1,0,0:0:0:0:
320,192,40572,1,0,0:0:0:0:
448,192,40572,1,0,0:0:0:0:
320,192,40744,1,0,0:0:0:0:
448,192,40744,1,0,0:0:0:0:
320,192,40915,1,0,0:0:0:0:
448,192,40915,1,0,0:0:0:0:
192,192,41087,1,0,0:0:0:0:
320,192,41087,1,0,0:0:0:0:
192,192,41258,1,0,0:0:0:0:
320,192,41258,1,0,0:0:0:0:
64,192,41430,1,0,0:0:0:0:
192,192,41430,1,0,0:0:0:0:
192,192,41601,1,0,0:0:0:0:
448,192,41601,1,0,0:0:0:0:
64,192,41772,1,0,0:0:0:0:
448,192,41772,1,0,0:0:0:0:
64,192,41944,1,0,0:0:0:0:
448,192,41944,1,0,0:0:0:0:
64,192,42115,1,0,0:0:0:0:
448,192,42115,1,0,0:0:0:0:
64,192,42287,1,0,0:0:0:0:
448,192,42287,1,0,0:0:0:0:
64,192,42458,1,0,0:0:0:0:
448,192,42458,1,0,0:0:0:0:
64,192,42630,1,0,0:0:0:0:
448,192,42630,1,0,0:0:0:0:
64,192,42801,1,0,0:0:0:0:
448,192,42801,1,0,0:0:0:0:
64,192,42972,1,0,0:0:0:0:
448,192,42972,1,0,0:0:0:0:
320,192,43830,1,0,0:0:0:0:
64,192,43830,1,0,0:0:0:0:
192,192,43915,1,0,0:0:0:0:
320,192,44001,1,0,0:0:0:0:
448,192,44087,1,0,0:0:0:0:
192,192,44172,128,0,44430:0:0:0:0:
320,192,44172,128,0,44430:0:0:0:0:
64,192,44515,1,0,0:0:0:0:
320,192,44515,1,0,0:0:0:0:
448,192,44515,1,0,0:0:0:0:
192,192,44601,1,0,0:0:0:0:
320,192,44687,1,0,0:0:0:0:
448,192,44772,1,0,0:0:0:0:
64,192,44858,1,0,0:0:0:0:
192,192,44858,1,0,0:0:0:0:
64,192,45030,128,0,45201:0:0:0:0:
448,192,45201,1,0,0:0:0:0:
192,192,45201,1,0,0:0:0:0:
320,192,45258,1,0,0:0:0:0:
192,192,45315,1,0,0:0:0:0:
64,192,45372,1,0,0:0:0:0:
448,192,45430,1,0,0:0:0:0:
320,192,45487,1,0,0:0:0:0:
192,192,45544,1,0,0:0:0:0:
64,192,45544,1,0,0:0:0:0:
192,192,45715,1,0,0:0:0:0:
320,192,45715,1,0,0:0:0:0:
64,192,45887,1,0,0:0:0:0:
448,192,45887,1,0,0:0:0:0:
192,192,45887,128,0,46230:0:0:0:0:
320,192,46230,128,0,46572:0:0:0:0:
64,192,46230,1,0,0:0:0:0:
448,192,46230,1,0,0:0:0:0:
64,192,46572,1,0,0:0:0:0:
448,192,46572,1,0,0:0:0:0:
192,192,46658,1,0,0:0:0:0:
320,192,46744,1,0,0:0:0:0:
448,192,46744,1,0,0:0:0:0:
192,192,46830,1,0,0:0:0:0:
320,192,46915,128,0,47172:0:0:0:0:
448,192,46915,128,0,47172:0:0:0:0:
64,192,46915,128,0,47172:0:0:0:0:
64,192,47258,128,0,47430:0:0:0:0:
192,192,47258,128,0,47430:0:0:0:0:
448,192,47258,128,0,47430:0:0:0:0:
64,192,47601,1,0,0:0:0:0:
320,192,47601,1,0,0:0:0:0:
192,192,47687,1,0,0:0:0:0:
320,192,47772,1,0,0:0:0:0:
448,192,47858,1,0,0:0:0:0:
192,192,47944,1,0,0:0:0:0:
320,192,47944,1,0,0:0:0:0:
64,192,48030,1,0,0:0:0:0:
448,192,48030,1,0,0:0:0:0:
192,192,48115,1,0,0:0:0:0:
320,192,48115,1,0,0:0:0:0:
64,192,48287,1,0,0:0:0:0:
320,192,48287,1,0,0:0:0:0:
448,192,48287,1,0,0:0:0:0:
192,192,48458,1,0,0:0:0:0:
64,192,48630,1,0,0:0:0:0:
448,192,48630,1,0,0:0:0:0:
192,192,48630,128,0,48972:0:0:0:0:
448,192,48972,1,0,0:0:0:0:
320,192,48972,128,0,49315:0:0:0:0:
64,192,48972,1,0,0:0:0:0:
64,192,49315,1,0,0:0:0:0:
448,192,49315,1,0,0:0:0:0:
192,192,49401,1,0,0:0:0:0:
320,192,49401,1,0,0:0:0:0:
64,192,49487,1,0,0:0:0:0:
448,192,49487,1,0,0:0:0:0:
192,192,49572,1,0,0:0:0:0:
320,192,49572,1,0,0:0:0:0:
64,192,49658,1,0,0:0:0:0:
448,192,49658,1,0,0:0:0:0:
192,192,49830,1,0,0:0:0:0:
320,192,49830,1,0,0:0:0:0:
64,192,50001,1,0,0:0:0:0:
320,192,50001,1,0,0:0:0:0:
448,192,50001,1,0,0:0:0:0:
192,192,50087,1,0,0:0:0:0:
320,192,50172,1,0,0:0:0:0:
448,192,50258,1,0,0:0:0:0:
320,192,50344,1,0,0:0:0:0:
64,192,50344,1,0,0:0:0:0:
192,192,50430,1,0,0:0:0:0:
64,192,50515,1,0,0:0:0:0:
192,192,50601,1,0,0:0:0:0:
64,192,50687,1,0,0:0:0:0:
448,192,50687,1,0,0:0:0:0:
192,192,50772,1,0,0:0:0:0:
64,192,50858,1,0,0:0:0:0:
192,192,50944,1,0,0:0:0:0:
320,192,51030,1,0,0:0:0:0:
64,192,51030,1,0,0:0:0:0:
192,192,51115,1,0,0:0:0:0:
320,192,51201,1,0,0:0:0:0:
448,192,51287,1,0,0:0:0:0:
320,192,51372,1,0,0:0:0:0:
192,192,51372,1,0,0:0:0:0:
64,192,51372,1,0,0:0:0:0:
448,192,51458,1,0,0:0:0:0:
64,192,51544,1,0,0:0:0:0:
192,192,51630,1,0,0:0:0:0:
320,192,51715,1,0,0:0:0:0:
64,192,51715,1,0,0:0:0:0:
448,192,51715,1,0,0:0:0:0:
192,192,51801,1,0,0:0:0:0:
64,192,51887,1,0,0:0:0:0:
320,192,51972,1,0,0:0:0:0:
64,192,52058,1,0,0:0:0:0:
448,192,52058,1,0,0:0:0:0:
192,192,52144,1,0,0:0:0:0:
320,192,52144,1,0,0:0:0:0:
64,192,52230,1,0,0:0:0:0:
448,192,52230,1,0,0:0:0:0:
192,192,52315,1,0,0:0:0:0:
320,192,52315,1,0,0:0:0:0:
64,192,52401,1,0,0:0:0:0:
448,192,52401,1,0,0:0:0:0:
320,192,52487,1,0,0:0:0:0:
192,192,52572,1,0,0:0:0:0:
64,192,52658,1,0,0:0:0:0:
192,192,52744,1,0,0:0:0:0:
64,192,52830,1,0,0:0:0:0:
320,192,52830,1,0,0:0:0:0:
448,192,52830,1,0,0:0:0:0:
192,192,52915,1,0,0:0:0:0:
320,192,53001,1,0,0:0:0:0:
448,192,53087,1,0,0:0:0:0:
192,192,53087,1,0,0:0:0:0:
64,192,53087,1,0,0:0:0:0:
320,192,53172,1,0,0:0:0:0:
64,192,53258,1,0,0:0:0:0:
192,192,53344,1,0,0:0:0:0:
320,192,53344,1,0,0:0:0:0:
448,192,53344,1,0,0:0:0:0:
64,192,53430,1,0,0:0:0:0:
192,192,53515,1,0,0:0:0:0:
64,192,53601,1,0,0:0:0:0:
320,192,53601,1,0,0:0:0:0:
448,192,53601,1,0,0:0:0:0:
64,192,53772,1,0,0:0:0:0:
448,192,53772,1,0,0:0:0:0:
320,192,53772,1,0,0:0:0:0:
192,192,53772,128,0,53944:0:0:0:0:
448,192,53944,1,0,0:0:0:0:
320,192,54001,1,0,0:0:0:0:
192,192,54058,1,0,0:0:0:0:
64,192,54115,1,0,0:0:0:0:
64,192,54458,1,0,0:0:0:0:
192,192,54501,1,0,0:0:0:0:
320,192,54544,1,0,0:0:0:0:
448,192,54587,1,0,0:0:0:0:
64,192,54630,1,0,0:0:0:0:
192,192,54672,1,0,0:0:0:0:
320,192,54715,1,0,0:0:0:0:
448,192,54758,1,0,0:0:0:0:
320,192,54801,1,0,0:0:0:0:
192,192,54844,1,0,0:0:0:0:
64,192,54887,1,0,0:0:0:0:
448,192,54930,1,0,0:0:0:0:
320,192,54972,1,0,0:0:0:0:
192,192,55015,1,0,0:0:0:0:
64,192,55058,1,0,0:0:0:0:
192,192,55101,1,0,0:0:0:0:
320,192,55144,1,0,0:0:0:0:
448,192,55144,128,0,55487:0:0:0:0:
64,192,55487,1,0,0:0:0:0:
320,192,55487,1,0,0:0:0:0:
192,192,55658,1,0,0:0:0:0:
320,192,55658,1,0,0:0:0:0:
64,192,55830,1,0,0:0:0:0:
448,192,55830,1,0,0:0:0:0:
192,192,56001,1,0,0:0:0:0:
320,192,56001,1,0,0:0:0:0:
64,192,56172,1,0,0:0:0:0:
320,192,56172,1,0,0:0:0:0:
64,192,56344,1,0,0:0:0:0:
192,192,56344,1,0,0:0:0:0:
64,192,56515,1,0,0:0:0:0:
320,192,56515,1,0,0:0:0:0:
192,192,56601,1,0,0:0:0:0:
320,192,56687,1,0,0:0:0:0:
448,192,56772,1,0,0:0:0:0:
320,192,56858,1,0,0:0:0:0:
64,192,56858,1,0,0:0:0:0:
192,192,57030,1,0,0:0:0:0:
320,192,57030,1,0,0:0:0:0:
64,192,57201,1,0,0:0:0:0:
448,192,57201,1,0,0:0:0:0:
192,192,57372,1,0,0:0:0:0:
320,192,57372,1,0,0:0:0:0:
64,192,57544,1,0,0:0:0:0:
320,192,57544,1,0,0:0:0:0:
448,192,57544,1,0,0:0:0:0:
64,192,57715,1,0,0:0:0:0:
192,192,57715,1,0,0:0:0:0:
64,192,57887,1,0,0:0:0:0:
448,192,57887,1,0,0:0:0:0:
320,192,57972,1,0,0:0:0:0:
192,192,58058,1,0,0:0:0:0:
64,192,58144,1,0,0:0:0:0:
448,192,58230,1,0,0:0:0:0:
192,192,58230,1,0,0:0:0:0:
192,192,58401,1,0,0:0:0:0:
320,192,58401,1,0,0:0:0:0:
64,192,58572,1,0,0:0:0:0:
448,192,58572,1,0,0:0:0:0:
320,192,58744,1,0,0:0:0:0:
64,192,58744,1,0,0:0:0:0:
192,192,58830,1,0,0:0:0:0:
64,192,58915,1,0,0:0:0:0:
448,192,58915,1,0,0:0:0:0:
192,192,59087,1,0,0:0:0:0:
320,192,59087,1,0,0:0:0:0:
64,192,59258,1,0,0:0:0:0:
192,192,59258,1,0,0:0:0:0:
448,192,59258,1,0,0:0:0:0:
192,192,59430,1,0,0:0:0:0:
448,192,59430,1,0,0:0:0:0:
320,192,59515,1,0,0:0:0:0:
64,192,59601,1,0,0:0:0:0:
192,192,59601,1,0,0:0:0:0:
192,192,59772,1,0,0:0:0:0:
320,192,59772,1,0,0:0:0:0:
64,192,59944,1,0,0:0:0:0:
448,192,59944,1,0,0:0:0:0:
320,192,60115,1,0,0:0:0:0:
64,192,60115,1,0,0:0:0:0:
192,192,60287,1,0,0:0:0:0:
448,192,60287,1,0,0:0:0:0:
192,192,60458,1,0,0:0:0:0:
320,192,60458,1,0,0:0:0:0:
448,192,60630,1,0,0:0:0:0:
64,192,60630,1,0,0:0:0:0:
320,192,60715,1,0,0:0:0:0:
192,192,60801,1,0,0:0:0:0:
448,192,60801,1,0,0:0:0:0:
320,192,60887,1,0,0:0:0:0:
64,192,60972,1,0,0:0:0:0:
192,192,60972,1,0,0:0:0:0:
192,192,61144,1,0,0:0:0:0:
320,192,61144,1,0,0:0:0:0:
320,192,61315,1,0,0:0:0:0:
448,192,61315,1,0,0:0:0:0:
320,192,61487,1,0,0:0:0:0:
448,192,61487,1,0,0:0:0:0:
64,192,61658,1,0,0:0:0:0:
320,192,61658,1,0,0:0:0:0:
192,192,61830,1,0,0:0:0:0:
320,192,61830,1,0,0:0:0:0:
448,192,62001,1,0,0:0:0:0:
64,192,62001,1,0,0:0:0:0:
192,192,62087,1,0,0:0:0:0:
320,192,62172,1,0,0:0:0:0:
64,192,62172,1,0,0:0:0:0:
192,192,62258,1,0,0:0:0:0:
448,192,62344,1,0,0:0:0:0:
320,192,62344,1,0,0:0:0:0:
64,192,62515,1,0,0:0:0:0:
192,192,62515,1,0,0:0:0:0:
320,192,62687,1,0,0:0:0:0:
448,192,62687,1,0,0:0:0:0:
192,192,62858,1,0,0:0:0:0:
320,192,62858,1,0,0:0:0:0:
64,192,63030,1,0,0:0:0:0:
448,192,63030,1,0,0:0:0:0:
320,192,63201,1,0,0:0:0:0:
64,192,63201,1,0,0:0:0:0:
320,192,63372,1,0,0:0:0:0:
64,192,63372,1,0,0:0:0:0:
192,192,63458,1,0,0:0:0:0:
320,192,63544,1,0,0:0:0:0:
448,192,63544,1,0,0:0:0:0:
64,192,63630,1,0,0:0:0:0:
192,192,63715,1,0,0:0:0:0:
320,192,63715,1,0,0:0:0:0:
320,192,63887,1,0,0:0:0:0:
64,192,63887,1,0,0:0:0:0:
448,192,63887,1,0,0:0:0:0:
320,192,64058,1,0,0:0:0:0:
192,192,64058,1,0,0:0:0:0:
320,192,64230,1,0,0:0:0:0:
64,192,64230,1,0,0:0:0:0:
192,192,64315,1,0,0:0:0:0:
320,192,64401,1,0,0:0:0:0:
448,192,64401,1,0,0:0:0:0:
192,192,64572,1,0,0:0:0:0:
320,192,64572,1,0,0:0:0:0:
64,192,64744,1,0,0:0:0:0:
320,192,64744,1,0,0:0:0:0:
320,192,64915,1,0,0:0:0:0:
448,192,64915,1,0,0:0:0:0:
192,192,65001,1,0,0:0:0:0:
64,192,65087,1,0,0:0:0:0:
320,192,65087,1,0,0:0:0:0:
192,192,65258,1,0,0:0:0:0:
320,192,65258,1,0,0:0:0:0:
448,192,65430,1,0,0:0:0:0:
64,192,65430,1,0,0:0:0:0:
192,192,65601,1,0,0:0:0:0:
448,192,65601,1,0,0:0:0:0:
64,192,65772,1,0,0:0:0:0:
320,192,65772,1,0,0:0:0:0:
448,192,65944,1,0,0:0:0:0:
64,192,65944,1,0,0:0:0:0:
320,192,66030,1,0,0:0:0:0:
448,192,66115,1,0,0:0:0:0:
192,192,66115,1,0,0:0:0:0:
320,192,66201,1,0,0:0:0:0:
448,192,66287,1,0,0:0:0:0:
64,192,66287,1,0,0:0:0:0:
192,192,66372,1,0,0:0:0:0:
448,192,66458,1,0,0:0:0:0:
64,192,66458,1,0,0:0:0:0:
320,192,66458,1,0,0:0:0:0:
192,192,66630,1,0,0:0:0:0:
320,192,66630,1,0,0:0:0:0:
448,192,66801,1,0,0:0:0:0:
192,192,66801,1,0,0:0:0:0:
64,192,66972,1,0,0:0:0:0:
320,192,66972,1,0,0:0:0:0:
320,192,67144,1,0,0:0:0:0:
448,192,67144,1,0,0:0:0:0:
64,192,67315,1,0,0:0:0:0:
192,192,67315,1,0,0:0:0:0:
448,192,67487,1,0,0:0:0:0:
192,192,67487,1,0,0:0:0:0:
320,192,67572,1,0,0:0:0:0:
192,192,67658,1,0,0:0:0:0:
64,192,67658,1,0,0:0:0:0:
448,192,67744,1,0,0:0:0:0:
64,192,67830,1,0,0:0:0:0:
320,192,67830,1,0,0:0:0:0:
192,192,68001,1,0,0:0:0:0:
320,192,68001,1,0,0:0:0:0:
448,192,68172,1,0,0:0:0:0:
64,192,68172,1,0,0:0:0:0:
320,192,68344,1,0,0:0:0:0:
192,192,68344,1,0,0:0:0:0:
448,192,68515,1,0,0:0:0:0:
192,192,68515,1,0,0:0:0:0:
192,192,68687,1,0,0:0:0:0:
320,192,68687,1,0,0:0:0:0:
448,192,68858,1,0,0:0:0:0:
192,192,68858,1,0,0:0:0:0:
320,192,68944,1,0,0:0:0:0:
448,192,69030,1,0,0:0:0:0:
192,192,69030,1,0,0:0:0:0:
320,192,69115,1,0,0:0:0:0:
64,192,69201,1,0,0:0:0:0:
192,192,69201,1,0,0:0:0:0:
192,192,69372,1,0,0:0:0:0:
448,192,69372,1,0,0:0:0:0:
64,192,69544,1,0,0:0:0:0:
192,192,69544,1,0,0:0:0:0:
448,192,69715,1,0,0:0:0:0:
192,192,69715,1,0,0:0:0:0:
320,192,69801,1,0,0:0:0:0:
192,192,69887,1,0,0:0:0:0:
64,192,69887,1,0,0:0:0:0:
64,192,70058,1,0,0:0:0:0:
320,192,70058,1,0,0:0:0:0:
192,192,70230,1,0,0:0:0:0:
320,192,70230,1,0,0:0:0:0:
320,192,70401,1,0,0:0:0:0:
64,192,70401,1,0,0:0:0:0:
192,192,70487,1,0,0:0:0:0:
320,192,70572,1,0,0:0:0:0:
448,192,70572,1,0,0:0:0:0:
192,192,70744,1,0,0:0:0:0:
320,192,70744,1,0,0:0:0:0:
64,192,70915,1,0,0:0:0:0:
192,192,70915,1,0,0:0:0:0:
448,192,70915,1,0,0:0:0:0:
320,192,71087,1,0,0:0:0:0:
192,192,71087,1,0,0:0:0:0:
448,192,71258,1,0,0:0:0:0:
64,192,71258,1,0,0:0:0:0:
192,192,71430,1,0,0:0:0:0:
448,192,71430,1,0,0:0:0:0:
320,192,71515,1,0,0:0:0:0:
192,192,71601,1,0,0:0:0:0:
64,192,71687,1,0,0:0:0:0:
448,192,71772,1,0,0:0:0:0:
320,192,71858,1,0,0:0:0:0:
64,192,71944,1,0,0:0:0:0:
192,192,71944,1,0,0:0:0:0:
448,192,71944,1,0,0:0:0:0:
320,192,72030,1,0,0:0:0:0:
192,192,72115,1,0,0:0:0:0:
64,192,72115,1,0,0:0:0:0:
448,192,72201,1,0,0:0:0:0:
320,192,72287,1,0,0:0:0:0:
192,192,72287,1,0,0:0:0:0:
448,192,72372,1,0,0:0:0:0:
320,192,72458,1,0,0:0:0:0:
64,192,72458,1,0,0:0:0:0:
192,192,72544,1,0,0:0:0:0:
320,192,72630,1,0,0:0:0:0:
448,192,72630,1,0,0:0:0:0:
192,192,72715,1,0,0:0:0:0:
64,192,72801,1,0,0:0:0:0:
320,192,72887,1,0,0:0:0:0:
64,192,72972,1,0,0:0:0:0:
448,192,72972,1,0,0:0:0:0:
192,192,72972,1,0,0:0:0:0:
320,192,73058,1,0,0:0:0:0:
192,192,73144,1,0,0:0:0:0:
64,192,73144,1,0,0:0:0:0:
320,192,73230,1,0,0:0:0:0:
192,192,73315,1,0,0:0:0:0:
448,192,73315,1,0,0:0:0:0:
320,192,73401,1,0,0:0:0:0:
192,192,73487,1,0,0:0:0:0:
448,192,73487,1,0,0:0:0:0:
64,192,73572,1,0,0:0:0:0:
448,192,73658,1,0,0:0:0:0:
192,192,73658,1,0,0:0:0:0:
64,192,73744,1,0,0:0:0:0:
448,192,73830,1,0,0:0:0:0:
192,192,73830,1,0,0:0:0:0:
320,192,73915,1,0,0:0:0:0:
64,192,74001,1,0,0:0:0:0:
448,192,74001,1,0,0:0:0:0:
320,192,74087,1,0,0:0:0:0:
192,192,74172,1,0,0:0:0:0:
448,192,74172,1,0,0:0:0:0:
320,192,74258,1,0,0:0:0:0:
64,192,74344,1,0,0:0:0:0:
192,192,74344,1,0,0:0:0:0:
448,192,74344,1,0,0:0:0:0:
320,192,74430,1,0,0:0:0:0:
192,192,74515,1,0,0:0:0:0:
64,192,74515,1,0,0:0:0:0:
320,192,74601,1,0,0:0:0:0:
192,192,74687,1,0,0:0:0:0:
448,192,74687,1,0,0:0:0:0:
320,192,74772,1,0,0:0:0:0:
448,192,74858,1,0,0:0:0:0:
192,192,74858,1,0,0:0:0:0:
320,192,74944,1,0,0:0:0:0:
192,192,75030,1,0,0:0:0:0:
64,192,75030,1,0,0:0:0:0:
320,192,75115,1,0,0:0:0:0:
192,192,75201,1,0,0:0:0:0:
448,192,75201,1,0,0:0:0:0:
320,192,75287,1,0,0:0:0:0:
64,192,75372,1,0,0:0:0:0:
448,192,75372,1,0,0:0:0:0:
320,192,75458,1,0,0:0:0:0:
448,192,75544,1,0,0:0:0:0:
192,192,75544,1,0,0:0:0:0:
64,192,75630,1,0,0:0:0:0:
192,192,75715,1,0,0:0:0:0:
448,192,75715,1,0,0:0:0:0:
320,192,75801,1,0,0:0:0:0:
192,192,75887,1,0,0:0:0:0:
64,192,75887,1,0,0:0:0:0:
320,192,75972,1,0,0:0:0:0:
64,192,76058,1,0,0:0:0:0:
192,192,76058,1,0,0:0:0:0:
448,192,76058,1,0,0:0:0:0:
64,192,76744,1,0,0:0:0:0:
192,192,76830,1,0,0:0:0:0:
320,192,76915,1,0,0:0:0:0:
448,192,77001,1,0,0:0:0:0:
320,192,77087,1,0,0:0:0:0:
192,192,77087,1,0,0:0:0:0:
64,192,77087,1,0,0:0:0:0:
64,192,77430,1,0,0:0:0:0:
320,192,77430,1,0,0:0:0:0:
192,192,77515,1,0,0:0:0:0:
320,192,77601,1,0,0:0:0:0:
64,192,77687,1,0,0:0:0:0:
448,192,77687,1,0,0:0:0:0:
192,192,77687,1,0,0:0:0:0:
192,192,77944,1,0,0:0:0:0:
320,192,77944,1,0,0:0:0:0:
64,192,78201,1,0,0:0:0:0:
192,192,78201,1,0,0:0:0:0:
448,192,78201,1,0,0:0:0:0:
192,192,78458,1,0,0:0:0:0:
448,192,78458,1,0,0:0:0:0:
320,192,78544,1,0,0:0:0:0:
192,192,78630,1,0,0:0:0:0:
64,192,78715,1,0,0:0:0:0:
192,192,78801,1,0,0:0:0:0:
320,192,78801,1,0,0:0:0:0:
448,192,78801,1,0,0:0:0:0:
192,192,79058,1,0,0:0:0:0:
448,192,79058,1,0,0:0:0:0:
64,192,79058,1,0,0:0:0:0:
64,192,79315,1,0,0:0:0:0:
192,192,79315,1,0,0:0:0:0:
320,192,79315,1,0,0:0:0:0:
64,192,79572,1,0,0:0:0:0:
448,192,79572,1,0,0:0:0:0:
320,192,79572,1,0,0:0:0:0:
192,192,79830,1,0,0:0:0:0:
448,192,79830,1,0,0:0:0:0:
320,192,79915,1,0,0:0:0:0:
192,192,80001,1,0,0:0:0:0:
320,192,80087,1,0,0:0:0:0:
64,192,80172,1,0,0:0:0:0:
448,192,80172,1,0,0:0:0:0:
192,192,80172,1,0,0:0:0:0:
192,192,80430,1,0,0:0:0:0:
320,192,80430,1,0,0:0:0:0:
64,192,80687,1,0,0:0:0:0:
192,192,80687,1,0,0:0:0:0:
448,192,80687,1,0,0:0:0:0:
192,192,80858,1,0,0:0:0:0:
320,192,80858,1,0,0:0:0:0:
448,192,80858,1,0,0:0:0:0:
320,192,81115,1,0,0:0:0:0:
64,192,81115,1,0,0:0:0:0:
448,192,81115,1,0,0:0:0:0:
192,192,81372,1,0,0:0:0:0:
320,192,81372,1,0,0:0:0:0:
64,192,81544,1,0,0:0:0:0:
320,192,81544,1,0,0:0:0:0:
448,192,81544,1,0,0:0:0:0:
192,192,81801,1,0,0:0:0:0:
320,192,81801,1,0,0:0:0:0:
64,192,81801,1,0,0:0:0:0:
192,192,82058,1,0,0:0:0:0:
320,192,82058,1,0,0:0:0:0:
64,192,82230,1,0,0:0:0:0:
320,192,82230,1,0,0:0:0:0:
448,192,82230,1,0,0:0:0:0:
64,192,82487,1,0,0:0:0:0:
320,192,82487,1,0,0:0:0:0:
192,192,82572,1,0,0:0:0:0:
64,192,82658,1,0,0:0:0:0:
448,192,82744,1,0,0:0:0:0:
192,192,82744,1,0,0:0:0:0:
320,192,82830,1,0,0:0:0:0:
192,192,82915,1,0,0:0:0:0:
64,192,82915,1,0,0:0:0:0:
448,192,82915,1,0,0:0:0:0:
320,192,83001,1,0,0:0:0:0:
192,192,83087,1,0,0:0:0:0:
448,192,83087,1,0,0:0:0:0:
64,192,83172,1,0,0:0:0:0:
192,192,83258,1,0,0:0:0:0:
320,192,83258,1,0,0:0:0:0:
448,192,83344,1,0,0:0:0:0:
320,192,83430,1,0,0:0:0:0:
192,192,83430,1,0,0:0:0:0:
64,192,83430,1,0,0:0:0:0:
448,192,83515,1,0,0:0:0:0:
64,192,83601,1,0,0:0:0:0:
320,192,83601,1,0,0:0:0:0:
192,192,83601,1,0,0:0:0:0:
448,192,83687,1,0,0:0:0:0:
320,192,83772,1,0,0:0:0:0:
64,192,83772,1,0,0:0:0:0:
192,192,83858,1,0,0:0:0:0:
320,192,83944,1,0,0:0:0:0:
448,192,83944,1,0,0:0:0:0:
192,192,84030,1,0,0:0:0:0:
64,192,84115,1,0,0:0:0:0:
320,192,84115,1,0,0:0:0:0:
448,192,84115,1,0,0:0:0:0:
192,192,84201,1,0,0:0:0:0:
320,192,84287,1,0,0:0:0:0:
64,192,84287,1,0,0:0:0:0:
448,192,84287,1,0,0:0:0:0:
192,192,84372,1,0,0:0:0:0:
64,192,84458,1,0,0:0:0:0:
448,192,84544,1,0,0:0:0:0:
320,192,84630,1,0,0:0:0:0:
192,192,84630,1,0,0:0:0:0:
448,192,84715,1,0,0:0:0:0:
320,192,84801,1,0,0:0:0:0:
192,192,84801,1,0,0:0:0:0:
64,192,84801,1,0,0:0:0:0:
448,192,84887,1,0,0:0:0:0:
320,192,84972,1,0,0:0:0:0:
64,192,84972,1,0,0:0:0:0:
192,192,84972,1,0,0:0:0:0:
448,192,85058,1,0,0:0:0:0:
64,192,85144,1,0,0:0:0:0:
192,192,85230,1,0,0:0:0:0:
320,192,85315,1,0,0:0:0:0:
64,192,85315,1,0,0:0:0:0:
192,192,85401,1,0,0:0:0:0:
320,192,85487,1,0,0:0:0:0:
448,192,85487,1,0,0:0:0:0:
64,192,85487,1,0,0:0:0:0:
192,192,85572,1,0,0:0:0:0:
320,192,85658,1,0,0:0:0:0:
64,192,85658,1,0,0:0:0:0:
448,192,85658,1,0,0:0:0:0:
192,192,85744,1,0,0:0:0:0:
64,192,85830,1,0,0:0:0:0:
192,192,85887,1,0,0:0:0:0:
320,192,85944,1,0,0:0:0:0:
448,192,86001,1,0,0:0:0:0:
64,192,86058,1,0,0:0:0:0:
192,192,86115,1,0,0:0:0:0:
320,192,86172,1,0,0:0:0:0:
448,192,86230,1,0,0:0:0:0:
64,192,86287,1,0,0:0:0:0:
192,192,86344,1,0,0:0:0:0:
320,192,86401,1,0,0:0:0:0:
448,192,86458,1,0,0:0:0:0:
64,192,86515,1,0,0:0:0:0:
192,192,86572,1,0,0:0:0:0:
320,192,86630,1,0,0:0:0:0:
448,192,86687,1,0,0:0:0:0:
320,192,86744,1,0,0:0:0:0:
192,192,86801,1,0,0:0:0:0:
64,192,86858,1,0,0:0:0:0:
64,192,87030,1,0,0:0:0:0:
192,192,87030,1,0,0:0:0:0:
448,192,87030,1,0,0:0:0:0:
320,192,87201,1,0,0:0:0:0:
192,192,87372,1,0,0:0:0:0:
448,192,87372,1,0,0:0:0:0:
320,192,87544,1,0,0:0:0:0:
448,192,87715,1,0,0:0:0:0:
320,192,87758,1,0,0:0:0:0:
192,192,87801,1,0,0:0:0:0:
64,192,87844,1,0,0:0:0:0:
448,192,87887,1,0,0:0:0:0:
320,192,87930,1,0,0:0:0:0:
192,192,87972,1,0,0:0:0:0:
64,192,88015,1,0,0:0:0:0:
320,192,88058,128,0,88401:0:0:0:0:
448,192,88058,128,0,88401:0:0:0:0:
