osu file format v14

[General]
AudioFilename: Yuruyuri.mp3
AudioLeadIn: 0
PreviewTime: 55839
Countdown: 1
SampleSet: None
StackLeniency: 0.7
Mode: 3
LetterboxInBreaks: 0
SpecialStyle: 1
WidescreenStoryboard: 0

[Editor]
DistanceSpacing: 1
BeatDivisor: 4
GridSize: 4
TimelineZoom: 4.199998

[Metadata]
Title:Demitoo 4k Practice pack
TitleUnicode:Demitoo 4k Practice pack
Artist:Various Artist
ArtistUnicode:Various Artist
Creator:Demitoo
Version:My Pace de Ikimashou (Medium) - 190bpm
Source:
Tags:
BeatmapID:871535
BeatmapSetID:400528

[Difficulty]
HPDrainRate:8
CircleSize:4
OverallDifficulty:8
ApproachRate:5
SliderMultiplier:1.4
SliderTickRate:1

[Events]
//Background and Video events
0,0,"Konachan.com - 206360 bed blonde_hair blue_eyes cropped drink novcel seifuku toshinou_kyouko yuru_yuri.jpg",0,0
//Break Periods
//Storyboard Layer 0 (Background)
//Storyboard Layer 1 (Fail)
//Storyboard Layer 2 (Pass)
//Storyboard Layer 3 (Foreground)
//Storyboard Sound Samples

[TimingPoints]
261,315.789473684211,4,1,0,5,1,0

[HitObjects]
64,192,1050,5,0,0:0:0:0:
192,192,1208,1,0,0:0:0:0:
320,192,1366,1,0,0:0:0:0:
448,192,1524,1,0,0:0:0:0:
320,192,1682,1,0,0:0:0:0:
192,192,1839,1,0,0:0:0:0:
448,192,1997,1,0,0:0:0:0:
192,192,2155,1,0,0:0:0:0:
320,192,2155,1,0,0:0:0:0:
192,192,2313,1,0,0:0:0:0:
320,192,2313,1,0,0:0:0:0:
192,192,2629,1,0,0:0:0:0:
320,192,2629,1,0,0:0:0:0:
64,192,2787,1,0,0:0:0:0:
448,192,2787,1,0,0:0:0:0:
192,192,2945,1,0,0:0:0:0:
320,192,2945,1,0,0:0:0:0:
192,192,3261,1,0,0:0:0:0:
320,192,3261,1,0,0:0:0:0:
64,192,3576,1,0,0:0:0:0:
320,192,3734,1,0,0:0:0:0:
448,192,3892,1,0,0:0:0:0:
320,192,4050,1,0,0:0:0:0:
192,192,4208,1,0,0:0:0:0:
320,192,4366,1,0,0:0:0:0:
64,192,4524,1,0,0:0:0:0:
192,192,4682,1,0,0:0:0:0:
320,192,4682,1,0,0:0:0:0:
192,192,4839,1,0,0:0:0:0:
320,192,4839,1,0,0:0:0:0:
192,192,5155,1,0,0:0:0:0:
320,192,5155,1,0,0:0:0:0:
64,192,5313,1,0,0:0:0:0:
448,192,5313,1,0,0:0:0:0:
192,192,5471,1,0,0:0:0:0:
320,192,5471,1,0,0:0:0:0:
192,192,5787,1,0,0:0:0:0:
320,192,5787,1,0,0:0:0:0:
64,192,6103,1,0,0:0:0:0:
192,192,6261,1,0,0:0:0:0:
320,192,6418,1,0,0:0:0:0:
448,192,6576,1,0,0:0:0:0:
320,192,6734,1,0,0:0:0:0:
192,192,6892,1,0,0:0:0:0:
64,192,7050,1,0,0:0:0:0:
192,192,7208,1,0,0:0:0:0:
320,192,7208,1,0,0:0:0:0:
192,192,7366,1,0,0:0:0:0:
320,192,7366,1,0,0:0:0:0:
64,192,7524,1,0,0:0:0:0:
192,192,7682,1,0,0:0:0:0:
448,192,7839,1,0,0:0:0:0:
320,192,7997,1,0,0:0:0:0:
192,192,8155,1,0,0:0:0:0:
64,192,8313,1,0,0:0:0:0:
192,192,8471,1,0,0:0:0:0:
320,192,8471,1,0,0:0:0:0:
192,192,8629,1,0,0:0:0:0:
320,192,8629,1,0,0:0:0:0:
64,192,8787,1,0,0:0:0:0:
320,192,8945,1,0,0:0:0:0:
192,192,9103,1,0,0:0:0:0:
448,192,9103,1,0,0:0:0:0:
320,192,9261,1,0,0:0:0:0:
64,192,9261,1,0,0:0:0:0:
448,192,9418,1,0,0:0:0:0:
320,192,9576,1,0,0:0:0:0:
192,192,9734,1,0,0:0:0:0:
64,192,9734,1,0,0:0:0:0:
192,192,9892,1,0,0:0:0:0:
448,192,9892,1,0,0:0:0:0:
320,192,10050,1,0,0:0:0:0:
192,192,10208,1,0,0:0:0:0:
448,192,10366,1,0,0:0:0:0:
320,192,10366,1,0,0:0:0:0:
192,192,10524,1,0,0:0:0:0:
64,192,10682,1,0,0:0:0:0:
448,192,10682,1,0,0:0:0:0:
320,192,10839,1,0,0:0:0:0:
64,192,10997,1,0,0:0:0:0:
448,192,10997,1,0,0:0:0:0:
192,192,11155,1,0,0:0:0:0:
320,192,11155,1,0,0:0:0:0:
64,192,11313,1,0,0:0:0:0:
448,192,11313,1,0,0:0:0:0:
192,192,11471,1,0,0:0:0:0:
320,192,11471,1,0,0:0:0:0:
64,192,12892,1,0,0:0:0:0:
320,192,12892,1,0,0:0:0:0:
448,192,12892,1,0,0:0:0:0:
192,192,13050,1,0,0:0:0:0:
448,192,13208,1,0,0:0:0:0:
64,192,13208,1,0,0:0:0:0:
192,192,13366,1,0,0:0:0:0:
448,192,13524,1,0,0:0:0:0:
320,192,13524,1,0,0:0:0:0:
192,192,13682,1,0,0:0:0:0:
64,192,13839,1,0,0:0:0:0:
448,192,13839,1,0,0:0:0:0:
192,192,13997,1,0,0:0:0:0:
320,192,14155,1,0,0:0:0:0:
64,192,14155,1,0,0:0:0:0:
192,192,14313,1,0,0:0:0:0:
64,192,14471,1,0,0:0:0:0:
448,192,14471,1,0,0:0:0:0:
320,192,14629,1,0,0:0:0:0:
448,192,14787,1,0,0:0:0:0:
192,192,14787,1,0,0:0:0:0:
320,192,14945,1,0,0:0:0:0:
64,192,15103,1,0,0:0:0:0:
448,192,15103,1,0,0:0:0:0:
192,192,15418,1,0,0:0:0:0:
320,192,15418,1,0,0:0:0:0:
64,192,15734,1,0,0:0:0:0:
448,192,15734,1,0,0:0:0:0:
192,192,16050,1,0,0:0:0:0:
320,192,16050,1,0,0:0:0:0:
64,192,16366,1,0,0:0:0:0:
448,192,16366,1,0,0:0:0:0:
64,192,16682,128,0,17313:0:0:0:0:
192,192,16839,1,0,0:0:0:0:
448,192,16839,1,0,0:0:0:0:
320,192,16997,1,0,0:0:0:0:
448,192,16997,1,0,0:0:0:0:
192,192,17313,1,0,0:0:0:0:
448,192,17313,128,0,17629:0:0:0:0:
320,192,17629,1,0,0:0:0:0:
64,192,17945,1,0,0:0:0:0:
192,192,17945,1,0,0:0:0:0:
448,192,17945,1,0,0:0:0:0:
64,192,18261,1,0,0:0:0:0:
448,192,18261,1,0,0:0:0:0:
320,192,18418,1,0,0:0:0:0:
192,192,18576,1,0,0:0:0:0:
64,192,18576,1,0,0:0:0:0:
320,192,18734,1,0,0:0:0:0:
64,192,18892,1,0,0:0:0:0:
448,192,18892,1,0,0:0:0:0:
192,192,19050,1,0,0:0:0:0:
448,192,19208,1,0,0:0:0:0:
320,192,19208,1,0,0:0:0:0:
192,192,19366,1,0,0:0:0:0:
64,192,19524,1,0,0:0:0:0:
448,192,19524,1,0,0:0:0:0:
320,192,19682,1,0,0:0:0:0:
192,192,19839,1,0,0:0:0:0:
448,192,19839,1,0,0:0:0:0:
320,192,19997,1,0,0:0:0:0:
64,192,20155,1,0,0:0:0:0:
448,192,20155,1,0,0:0:0:0:
192,192,20471,1,0,0:0:0:0:
320,192,20471,1,0,0:0:0:0:
64,192,20787,1,0,0:0:0:0:
448,192,20787,1,0,0:0:0:0:
192,192,21103,1,0,0:0:0:0:
320,192,21103,1,0,0:0:0:0:
64,192,21418,1,0,0:0:0:0:
448,192,21418,1,0,0:0:0:0:
192,192,21892,1,0,0:0:0:0:
320,192,21892,1,0,0:0:0:0:
64,192,22050,1,0,0:0:0:0:
448,192,22050,128,0,22366:0:0:0:0:
320,192,22366,1,0,0:0:0:0:
64,192,22366,1,0,0:0:0:0:
192,192,22445,1,0,0:0:0:0:
64,192,22524,1,0,0:0:0:0:
448,192,22603,1,0,0:0:0:0:
320,192,22682,1,0,0:0:0:0:
192,192,22761,1,0,0:0:0:0:
64,192,22839,1,0,0:0:0:0:
192,192,22918,1,0,0:0:0:0:
64,192,22997,1,0,0:0:0:0:
320,192,22997,1,0,0:0:0:0:
448,192,22997,1,0,0:0:0:0:
192,192,23155,1,0,0:0:0:0:
64,192,23313,1,0,0:0:0:0:
448,192,23313,1,0,0:0:0:0:
320,192,23471,1,0,0:0:0:0:
192,192,23629,1,0,0:0:0:0:
448,192,23629,1,0,0:0:0:0:
320,192,23787,1,0,0:0:0:0:
64,192,23945,1,0,0:0:0:0:
192,192,23945,1,0,0:0:0:0:
448,192,24103,1,0,0:0:0:0:
64,192,24261,1,0,0:0:0:0:
320,192,24261,1,0,0:0:0:0:
192,192,24418,1,0,0:0:0:0:
320,192,24576,1,0,0:0:0:0:
448,192,24576,1,0,0:0:0:0:
192,192,24734,1,0,0:0:0:0:
64,192,24892,1,0,0:0:0:0:
448,192,24892,1,0,0:0:0:0:
320,192,25050,1,0,0:0:0:0:
192,192,25208,1,0,0:0:0:0:
448,192,25208,1,0,0:0:0:0:
320,192,25366,1,0,0:0:0:0:
192,192,25524,1,0,0:0:0:0:
64,192,25524,1,0,0:0:0:0:
448,192,25682,1,0,0:0:0:0:
320,192,25839,1,0,0:0:0:0:
64,192,25839,1,0,0:0:0:0:
192,192,25997,1,0,0:0:0:0:
64,192,26155,1,0,0:0:0:0:
448,192,26155,1,0,0:0:0:0:
320,192,26313,1,0,0:0:0:0:
192,192,26471,1,0,0:0:0:0:
448,192,26471,1,0,0:0:0:0:
320,192,26629,1,0,0:0:0:0:
192,192,26787,1,0,0:0:0:0:
320,192,26945,1,0,0:0:0:0:
448,192,26945,1,0,0:0:0:0:
64,192,27103,1,0,0:0:0:0:
192,192,27103,1,0,0:0:0:0:
320,192,27261,1,0,0:0:0:0:
448,192,27261,1,0,0:0:0:0:
64,192,27418,1,0,0:0:0:0:
192,192,27418,1,0,0:0:0:0:
448,192,27655,128,0,28050:0:0:0:0:
64,192,28050,1,0,0:0:0:0:
192,192,28050,1,0,0:0:0:0:
320,192,28050,1,0,0:0:0:0:
448,192,28208,1,0,0:0:0:0:
64,192,28366,1,0,0:0:0:0:
320,192,28366,1,0,0:0:0:0:
192,192,28524,1,0,0:0:0:0:
64,192,28682,1,0,0:0:0:0:
448,192,28682,1,0,0:0:0:0:
320,192,28839,1,0,0:0:0:0:
192,192,28997,1,0,0:0:0:0:
448,192,28997,1,0,0:0:0:0:
320,192,29155,1,0,0:0:0:0:
192,192,29313,1,0,0:0:0:0:
64,192,29313,1,0,0:0:0:0:
448,192,29471,1,0,0:0:0:0:
320,192,29629,1,0,0:0:0:0:
192,192,29629,1,0,0:0:0:0:
64,192,29787,1,0,0:0:0:0:
192,192,29945,1,0,0:0:0:0:
448,192,29945,1,0,0:0:0:0:
320,192,30103,1,0,0:0:0:0:
64,192,30261,1,0,0:0:0:0:
448,192,30261,1,0,0:0:0:0:
320,192,30418,1,0,0:0:0:0:
192,192,30576,1,0,0:0:0:0:
64,192,30576,1,0,0:0:0:0:
448,192,30734,1,0,0:0:0:0:
320,192,30892,1,0,0:0:0:0:
64,192,30892,1,0,0:0:0:0:
192,192,31050,1,0,0:0:0:0:
64,192,31208,1,0,0:0:0:0:
448,192,31208,1,0,0:0:0:0:
320,192,31366,1,0,0:0:0:0:
192,192,31524,1,0,0:0:0:0:
448,192,31524,1,0,0:0:0:0:
320,192,31682,1,0,0:0:0:0:
192,192,31839,1,0,0:0:0:0:
64,192,31997,1,0,0:0:0:0:
448,192,31997,1,0,0:0:0:0:
192,192,32155,1,0,0:0:0:0:
320,192,32155,1,0,0:0:0:0:
64,192,32313,1,0,0:0:0:0:
448,192,32313,1,0,0:0:0:0:
192,192,32471,1,0,0:0:0:0:
320,192,32471,1,0,0:0:0:0:
448,192,32787,128,0,33103:0:0:0:0:
64,192,33103,1,0,0:0:0:0:
192,192,33103,1,0,0:0:0:0:
320,192,33103,1,0,0:0:0:0:
64,192,33418,1,0,0:0:0:0:
448,192,33418,1,0,0:0:0:0:
64,192,33734,1,0,0:0:0:0:
192,192,33734,1,0,0:0:0:0:
320,192,33892,1,0,0:0:0:0:
64,192,34050,1,0,0:0:0:0:
448,192,34050,1,0,0:0:0:0:
320,192,34208,1,0,0:0:0:0:
448,192,34366,1,0,0:0:0:0:
192,192,34366,1,0,0:0:0:0:
320,192,34524,1,0,0:0:0:0:
64,192,34682,1,0,0:0:0:0:
448,192,34682,1,0,0:0:0:0:
192,192,34839,1,0,0:0:0:0:
448,192,34997,1,0,0:0:0:0:
320,192,34997,1,0,0:0:0:0:
192,192,35155,1,0,0:0:0:0:
64,192,35313,1,0,0:0:0:0:
448,192,35313,1,0,0:0:0:0:
320,192,35471,1,0,0:0:0:0:
64,192,35629,1,0,0:0:0:0:
192,192,35629,1,0,0:0:0:0:
64,192,35945,1,0,0:0:0:0:
448,192,35945,1,0,0:0:0:0:
192,192,36261,1,0,0:0:0:0:
320,192,36261,1,0,0:0:0:0:
64,192,36576,1,0,0:0:0:0:
448,192,36576,1,0,0:0:0:0:
64,192,36892,1,0,0:0:0:0:
320,192,36892,1,0,0:0:0:0:
448,192,37050,1,0,0:0:0:0:
192,192,37050,128,0,37524:0:0:0:0:
448,192,37524,1,0,0:0:0:0:
64,192,37682,1,0,0:0:0:0:
320,192,37682,1,0,0:0:0:0:
64,192,38155,1,0,0:0:0:0:
320,192,38155,1,0,0:0:0:0:
448,192,38155,1,0,0:0:0:0:
192,192,38313,1,0,0:0:0:0:
64,192,38471,1,0,0:0:0:0:
448,192,38471,1,0,0:0:0:0:
320,192,38629,1,0,0:0:0:0:
192,192,38787,1,0,0:0:0:0:
64,192,38787,1,0,0:0:0:0:
448,192,38945,1,0,0:0:0:0:
320,192,39103,1,0,0:0:0:0:
64,192,39103,1,0,0:0:0:0:
192,192,39261,1,0,0:0:0:0:
320,192,39418,1,0,0:0:0:0:
448,192,39418,1,0,0:0:0:0:
64,192,39576,1,0,0:0:0:0:
192,192,39734,1,0,0:0:0:0:
448,192,39734,1,0,0:0:0:0:
320,192,39892,1,0,0:0:0:0:
192,192,40050,1,0,0:0:0:0:
448,192,40050,1,0,0:0:0:0:
320,192,40208,1,0,0:0:0:0:
192,192,40366,1,0,0:0:0:0:
64,192,40366,1,0,0:0:0:0:
320,192,40524,1,0,0:0:0:0:
192,192,40682,1,0,0:0:0:0:
448,192,40682,1,0,0:0:0:0:
320,192,40839,1,0,0:0:0:0:
64,192,40997,1,0,0:0:0:0:
192,192,40997,1,0,0:0:0:0:
320,192,41155,1,0,0:0:0:0:
448,192,41313,1,0,0:0:0:0:
192,192,41313,1,0,0:0:0:0:
64,192,41471,1,0,0:0:0:0:
192,192,41629,1,0,0:0:0:0:
320,192,41629,1,0,0:0:0:0:
448,192,41787,1,0,0:0:0:0:
320,192,41945,1,0,0:0:0:0:
64,192,42103,1,0,0:0:0:0:
320,192,42103,1,0,0:0:0:0:
448,192,42261,1,0,0:0:0:0:
192,192,42261,1,0,0:0:0:0:
320,192,42418,1,0,0:0:0:0:
64,192,42418,1,0,0:0:0:0:
192,192,42576,1,0,0:0:0:0:
448,192,42576,1,0,0:0:0:0:
448,192,42892,128,0,43208:0:0:0:0:
64,192,43208,1,0,0:0:0:0:
192,192,43208,1,0,0:0:0:0:
320,192,43208,1,0,0:0:0:0:
448,192,43366,1,0,0:0:0:0:
320,192,43524,1,0,0:0:0:0:
64,192,43524,1,0,0:0:0:0:
192,192,43682,1,0,0:0:0:0:
448,192,43839,1,0,0:0:0:0:
320,192,43839,1,0,0:0:0:0:
64,192,43997,1,0,0:0:0:0:
192,192,44155,1,0,0:0:0:0:
448,192,44155,1,0,0:0:0:0:
320,192,44313,1,0,0:0:0:0:
192,192,44471,1,0,0:0:0:0:
64,192,44471,1,0,0:0:0:0:
320,192,44629,1,0,0:0:0:0:
64,192,44787,1,0,0:0:0:0:
448,192,44787,1,0,0:0:0:0:
320,192,44945,1,0,0:0:0:0:
448,192,45103,1,0,0:0:0:0:
192,192,45103,1,0,0:0:0:0:
320,192,45261,1,0,0:0:0:0:
64,192,45418,1,0,0:0:0:0:
448,192,45418,1,0,0:0:0:0:
320,192,45576,1,0,0:0:0:0:
64,192,45734,1,0,0:0:0:0:
192,192,45734,1,0,0:0:0:0:
448,192,45892,1,0,0:0:0:0:
64,192,46050,1,0,0:0:0:0:
320,192,46050,1,0,0:0:0:0:
192,192,46208,1,0,0:0:0:0:
448,192,46366,1,0,0:0:0:0:
64,192,46366,1,0,0:0:0:0:
320,192,46524,1,0,0:0:0:0:
192,192,46682,1,0,0:0:0:0:
448,192,46682,1,0,0:0:0:0:
320,192,46839,1,0,0:0:0:0:
64,192,46997,1,0,0:0:0:0:
192,192,47155,1,0,0:0:0:0:
320,192,47155,1,0,0:0:0:0:
64,192,47313,1,0,0:0:0:0:
448,192,47313,1,0,0:0:0:0:
192,192,47471,1,0,0:0:0:0:
320,192,47471,1,0,0:0:0:0:
64,192,47629,1,0,0:0:0:0:
448,192,47629,1,0,0:0:0:0:
320,192,47708,1,0,0:0:0:0:
192,192,47787,1,0,0:0:0:0:
64,192,47866,1,0,0:0:0:0:
448,192,47945,1,0,0:0:0:0:
320,192,48024,1,0,0:0:0:0:
192,192,48103,1,0,0:0:0:0:
320,192,48182,1,0,0:0:0:0:
192,192,48261,1,0,0:0:0:0:
64,192,48261,1,0,0:0:0:0:
448,192,48261,1,0,0:0:0:0:
320,192,48418,1,0,0:0:0:0:
64,192,48576,1,0,0:0:0:0:
448,192,48576,1,0,0:0:0:0:
192,192,48734,1,0,0:0:0:0:
320,192,48892,1,0,0:0:0:0:
448,192,48892,1,0,0:0:0:0:
192,192,49050,1,0,0:0:0:0:
64,192,49208,1,0,0:0:0:0:
320,192,49208,1,0,0:0:0:0:
192,192,49366,1,0,0:0:0:0:
64,192,49524,1,0,0:0:0:0:
448,192,49524,1,0,0:0:0:0:
192,192,49682,1,0,0:0:0:0:
64,192,49839,1,0,0:0:0:0:
320,192,49839,1,0,0:0:0:0:
192,192,49997,1,0,0:0:0:0:
320,192,50155,1,0,0:0:0:0:
448,192,50155,1,0,0:0:0:0:
192,192,50313,1,0,0:0:0:0:
64,192,50471,1,0,0:0:0:0:
448,192,50471,1,0,0:0:0:0:
320,192,50629,1,0,0:0:0:0:
192,192,50787,1,0,0:0:0:0:
448,192,50787,1,0,0:0:0:0:
320,192,50945,1,0,0:0:0:0:
64,192,51103,1,0,0:0:0:0:
192,192,51103,1,0,0:0:0:0:
448,192,51261,1,0,0:0:0:0:
320,192,51418,1,0,0:0:0:0:
192,192,51418,1,0,0:0:0:0:
448,192,51576,1,0,0:0:0:0:
192,192,51734,1,0,0:0:0:0:
64,192,51734,1,0,0:0:0:0:
448,192,51892,1,0,0:0:0:0:
320,192,52050,1,0,0:0:0:0:
64,192,52050,1,0,0:0:0:0:
192,192,52208,1,0,0:0:0:0:
320,192,52366,1,0,0:0:0:0:
448,192,52366,1,0,0:0:0:0:
192,192,52524,1,0,0:0:0:0:
64,192,52682,1,0,0:0:0:0:
320,192,52682,1,0,0:0:0:0:
192,192,52839,1,0,0:0:0:0:
64,192,52997,1,0,0:0:0:0:
448,192,52997,1,0,0:0:0:0:
320,192,53155,1,0,0:0:0:0:
64,192,53313,1,0,0:0:0:0:
192,192,53313,1,0,0:0:0:0:
448,192,53313,1,0,0:0:0:0:
320,192,53471,1,0,0:0:0:0:
192,192,53629,1,0,0:0:0:0:
448,192,53629,1,0,0:0:0:0:
320,192,53787,1,0,0:0:0:0:
192,192,53945,1,0,0:0:0:0:
64,192,53945,1,0,0:0:0:0:
320,192,54103,1,0,0:0:0:0:
64,192,54261,1,0,0:0:0:0:
448,192,54261,1,0,0:0:0:0:
192,192,54418,1,0,0:0:0:0:
320,192,54576,1,0,0:0:0:0:
448,192,54576,1,0,0:0:0:0:
192,192,54734,1,0,0:0:0:0:
64,192,54892,1,0,0:0:0:0:
320,192,54892,1,0,0:0:0:0:
192,192,55050,1,0,0:0:0:0:
64,192,55208,1,0,0:0:0:0:
448,192,55208,1,0,0:0:0:0:
320,192,55366,1,0,0:0:0:0:
192,192,55524,1,0,0:0:0:0:
64,192,55524,1,0,0:0:0:0:
320,192,55682,1,0,0:0:0:0:
64,192,55839,1,0,0:0:0:0:
448,192,55839,1,0,0:0:0:0:
192,192,55997,1,0,0:0:0:0:
320,192,56155,1,0,0:0:0:0:
192,192,56313,1,0,0:0:0:0:
64,192,56471,1,0,0:0:0:0:
448,192,56471,1,0,0:0:0:0:
192,192,56629,1,0,0:0:0:0:
320,192,56787,1,0,0:0:0:0:
192,192,56945,1,0,0:0:0:0:
64,192,57103,1,0,0:0:0:0:
448,192,57103,1,0,0:0:0:0:
192,192,57261,1,0,0:0:0:0:
320,192,57418,1,0,0:0:0:0:
192,192,57576,1,0,0:0:0:0:
64,192,57734,1,0,0:0:0:0:
448,192,57734,1,0,0:0:0:0:
320,192,58050,1,0,0:0:0:0:
192,192,58208,1,0,0:0:0:0:
64,192,58366,1,0,0:0:0:0:
448,192,58366,1,0,0:0:0:0:
192,192,58682,1,0,0:0:0:0:
320,192,58682,1,0,0:0:0:0:
64,192,58997,1,0,0:0:0:0:
448,192,58997,1,0,0:0:0:0:
192,192,59313,1,0,0:0:0:0:
320,192,59313,1,0,0:0:0:0:
64,192,59629,1,0,0:0:0:0:
448,192,59629,1,0,0:0:0:0:
320,192,59629,1,0,0:0:0:0:
192,192,59787,1,0,0:0:0:0:
320,192,59787,1,0,0:0:0:0:
448,192,59945,1,0,0:0:0:0:
64,192,59945,1,0,0:0:0:0:
320,192,60103,1,0,0:0:0:0:
64,192,60103,1,0,0:0:0:0:
192,192,60261,1,0,0:0:0:0:
448,192,60261,1,0,0:0:0:0:
320,192,60339,1,0,0:0:0:0:
192,192,60418,1,0,0:0:0:0:
64,192,60497,1,0,0:0:0:0:
448,192,60576,1,0,0:0:0:0:
320,192,60655,1,0,0:0:0:0:
192,192,60734,1,0,0:0:0:0:
320,192,60813,1,0,0:0:0:0:
192,192,60892,1,0,0:0:0:0:
448,192,60892,1,0,0:0:0:0:
64,192,60892,1,0,0:0:0:0:
320,192,60971,1,0,0:0:0:0:
192,192,61050,1,0,0:0:0:0:
64,192,61129,1,0,0:0:0:0:
448,192,61208,1,0,0:0:0:0:
192,192,61208,1,0,0:0:0:0:
320,192,61287,1,0,0:0:0:0:
192,192,61366,1,0,0:0:0:0:
64,192,61445,1,0,0:0:0:0:
448,192,61524,1,0,0:0:0:0:
192,192,61524,1,0,0:0:0:0:
320,192,61603,1,0,0:0:0:0:
192,192,61682,1,0,0:0:0:0:
64,192,61761,1,0,0:0:0:0:
192,192,61839,1,0,0:0:0:0:
448,192,61839,1,0,0:0:0:0:
320,192,61918,1,0,0:0:0:0:
192,192,61997,1,0,0:0:0:0:
320,192,62076,1,0,0:0:0:0:
64,192,62155,1,0,0:0:0:0:
448,192,62155,1,0,0:0:0:0:
192,192,62155,1,0,0:0:0:0:
320,192,62234,1,0,0:0:0:0:
192,192,62313,1,0,0:0:0:0:
64,192,62392,1,0,0:0:0:0:
192,192,62471,1,0,0:0:0:0:
448,192,62471,1,0,0:0:0:0:
320,192,62550,1,0,0:0:0:0:
192,192,62629,1,0,0:0:0:0:
64,192,62708,1,0,0:0:0:0:
192,192,62787,1,0,0:0:0:0:
448,192,62787,1,0,0:0:0:0:
320,192,62866,1,0,0:0:0:0:
192,192,62945,1,0,0:0:0:0:
320,192,63024,1,0,0:0:0:0:
64,192,63103,1,0,0:0:0:0:
448,192,63103,1,0,0:0:0:0:
192,192,63182,1,0,0:0:0:0:
320,192,63261,1,0,0:0:0:0:
192,192,63339,1,0,0:0:0:0:
320,192,63418,1,0,0:0:0:0:
448,192,63418,1,0,0:0:0:0:
64,192,63418,128,0,63734:0:0:0:0:
192,192,63734,128,0,64050:0:0:0:0:
448,192,64050,128,0,64366:0:0:0:0:
320,192,64366,128,0,64682:0:0:0:0:
192,192,64682,1,0,0:0:0:0:
64,192,64682,1,0,0:0:0:0:
448,192,64682,1,0,0:0:0:0:
320,192,64839,1,0,0:0:0:0:
64,192,64997,1,0,0:0:0:0:
448,192,64997,1,0,0:0:0:0:
192,192,65155,1,0,0:0:0:0:
320,192,65313,1,0,0:0:0:0:
448,192,65471,1,0,0:0:0:0:
64,192,65629,1,0,0:0:0:0:
320,192,65629,1,0,0:0:0:0:
192,192,65787,1,0,0:0:0:0:
64,192,65945,1,0,0:0:0:0:
448,192,65945,1,0,0:0:0:0:
320,192,65945,1,0,0:0:0:0:
192,192,66024,1,0,0:0:0:0:
320,192,66103,1,0,0:0:0:0:
448,192,66182,1,0,0:0:0:0:
64,192,66261,1,0,0:0:0:0:
320,192,66261,1,0,0:0:0:0:
192,192,66339,1,0,0:0:0:0:
320,192,66418,1,0,0:0:0:0:
448,192,66497,1,0,0:0:0:0:
64,192,66576,1,0,0:0:0:0:
320,192,66576,1,0,0:0:0:0:
192,192,66655,1,0,0:0:0:0:
320,192,66734,1,0,0:0:0:0:
448,192,66813,1,0,0:0:0:0:
64,192,66892,1,0,0:0:0:0:
192,192,66892,1,0,0:0:0:0:
320,192,66971,1,0,0:0:0:0:
448,192,67050,1,0,0:0:0:0:
320,192,67129,1,0,0:0:0:0:
64,192,67208,1,0,0:0:0:0:
192,192,67208,1,0,0:0:0:0:
448,192,67208,1,0,0:0:0:0:
320,192,67287,1,0,0:0:0:0:
192,192,67366,1,0,0:0:0:0:
64,192,67445,1,0,0:0:0:0:
192,192,67524,1,0,0:0:0:0:
448,192,67524,1,0,0:0:0:0:
320,192,67603,1,0,0:0:0:0:
192,192,67682,1,0,0:0:0:0:
64,192,67761,1,0,0:0:0:0:
192,192,67839,1,0,0:0:0:0:
448,192,67839,1,0,0:0:0:0:
320,192,67918,1,0,0:0:0:0:
192,192,67997,1,0,0:0:0:0:
64,192,68076,1,0,0:0:0:0:
448,192,68155,1,0,0:0:0:0:
320,192,68155,1,0,0:0:0:0:
192,192,68234,1,0,0:0:0:0:
64,192,68313,1,0,0:0:0:0:
192,192,68392,1,0,0:0:0:0:
64,192,68471,1,0,0:0:0:0:
448,192,68471,1,0,0:0:0:0:
320,192,68471,128,0,68787:0:0:0:0:
64,192,68787,128,0,69103:0:0:0:0:
320,192,69103,128,0,69418:0:0:0:0:
448,192,69418,1,0,0:0:0:0:
192,192,69576,1,0,0:0:0:0:
320,192,69734,1,0,0:0:0:0:
448,192,69734,1,0,0:0:0:0:
64,192,69892,1,0,0:0:0:0:
192,192,69892,1,0,0:0:0:0:
320,192,70050,1,0,0:0:0:0:
448,192,70050,1,0,0:0:0:0:
192,192,70208,1,0,0:0:0:0:
64,192,70208,1,0,0:0:0:0:
448,192,70366,1,0,0:0:0:0:
320,192,70445,1,0,0:0:0:0:
192,192,70524,1,0,0:0:0:0:
64,192,70603,1,0,0:0:0:0:
448,192,70682,1,0,0:0:0:0:
192,192,70682,1,0,0:0:0:0:
320,192,70761,1,0,0:0:0:0:
192,192,70839,1,0,0:0:0:0:
320,192,70918,1,0,0:0:0:0:
448,192,70997,1,0,0:0:0:0:
64,192,70997,1,0,0:0:0:0:
192,192,70997,1,0,0:0:0:0:
320,192,71076,1,0,0:0:0:0:
448,192,71155,1,0,0:0:0:0:
320,192,71234,1,0,0:0:0:0:
64,192,71313,1,0,0:0:0:0:
448,192,71313,1,0,0:0:0:0:
192,192,71392,1,0,0:0:0:0:
320,192,71471,1,0,0:0:0:0:
192,192,71550,1,0,0:0:0:0:
64,192,71629,1,0,0:0:0:0:
448,192,71629,1,0,0:0:0:0:
320,192,71708,1,0,0:0:0:0:
192,192,71787,1,0,0:0:0:0:
64,192,71866,1,0,0:0:0:0:
448,192,71945,1,0,0:0:0:0:
192,192,71945,1,0,0:0:0:0:
320,192,72024,1,0,0:0:0:0:
192,192,72103,1,0,0:0:0:0:
320,192,72182,1,0,0:0:0:0:
192,192,72261,1,0,0:0:0:0:
64,192,72261,1,0,0:0:0:0:
448,192,72261,1,0,0:0:0:0:
320,192,72339,1,0,0:0:0:0:
192,192,72418,1,0,0:0:0:0:
320,192,72497,1,0,0:0:0:0:
64,192,72576,1,0,0:0:0:0:
448,192,72576,1,0,0:0:0:0:
192,192,72655,1,0,0:0:0:0:
320,192,72734,1,0,0:0:0:0:
448,192,72813,1,0,0:0:0:0:
320,192,72892,1,0,0:0:0:0:
64,192,72892,1,0,0:0:0:0:
192,192,72971,1,0,0:0:0:0:
320,192,73050,1,0,0:0:0:0:
192,192,73129,1,0,0:0:0:0:
448,192,73208,1,0,0:0:0:0:
64,192,73208,1,0,0:0:0:0:
320,192,73287,1,0,0:0:0:0:
192,192,73366,1,0,0:0:0:0:
320,192,73445,1,0,0:0:0:0:
64,192,73524,1,0,0:0:0:0:
192,192,73524,1,0,0:0:0:0:
448,192,73524,128,0,73839:0:0:0:0:
320,192,73839,128,0,74155:0:0:0:0:
192,192,74155,128,0,74471:0:0:0:0:
320,192,74471,128,0,74787:0:0:0:0:
64,192,74787,1,0,0:0:0:0:
192,192,74945,1,0,0:0:0:0:
448,192,75103,1,0,0:0:0:0:
64,192,75103,1,0,0:0:0:0:
320,192,75261,1,0,0:0:0:0:
192,192,75418,1,0,0:0:0:0:
64,192,75576,1,0,0:0:0:0:
320,192,75734,1,0,0:0:0:0:
192,192,75892,1,0,0:0:0:0:
64,192,76050,1,0,0:0:0:0:
448,192,76050,1,0,0:0:0:0:
320,192,76050,1,0,0:0:0:0:
192,192,76129,1,0,0:0:0:0:
320,192,76208,1,0,0:0:0:0:
448,192,76287,1,0,0:0:0:0:
64,192,76366,1,0,0:0:0:0:
320,192,76366,1,0,0:0:0:0:
192,192,76445,1,0,0:0:0:0:
320,192,76524,1,0,0:0:0:0:
448,192,76603,1,0,0:0:0:0:
64,192,76682,1,0,0:0:0:0:
320,192,76682,1,0,0:0:0:0:
192,192,76761,1,0,0:0:0:0:
320,192,76839,1,0,0:0:0:0:
448,192,76918,1,0,0:0:0:0:
64,192,76997,1,0,0:0:0:0:
192,192,76997,1,0,0:0:0:0:
320,192,77076,1,0,0:0:0:0:
448,192,77155,1,0,0:0:0:0:
320,192,77234,1,0,0:0:0:0:
192,192,77313,1,0,0:0:0:0:
64,192,77313,1,0,0:0:0:0:
448,192,77313,1,0,0:0:0:0:
320,192,77392,1,0,0:0:0:0:
192,192,77471,1,0,0:0:0:0:
64,192,77550,1,0,0:0:0:0:
192,192,77629,1,0,0:0:0:0:
448,192,77629,1,0,0:0:0:0:
320,192,77708,1,0,0:0:0:0:
192,192,77787,1,0,0:0:0:0:
64,192,77866,1,0,0:0:0:0:
192,192,77945,1,0,0:0:0:0:
448,192,77945,1,0,0:0:0:0:
320,192,78024,1,0,0:0:0:0:
192,192,78103,1,0,0:0:0:0:
64,192,78182,1,0,0:0:0:0:
320,192,78261,1,0,0:0:0:0:
448,192,78261,1,0,0:0:0:0:
192,192,78339,1,0,0:0:0:0:
64,192,78418,1,0,0:0:0:0:
192,192,78497,1,0,0:0:0:0:
64,192,78576,1,0,0:0:0:0:
448,192,78576,1,0,0:0:0:0:
320,192,78576,128,0,78892:0:0:0:0:
192,192,78892,128,0,79208:0:0:0:0:
448,192,79208,128,0,79524:0:0:0:0:
192,192,79524,1,0,0:0:0:0:
320,192,79682,1,0,0:0:0:0:
192,192,79839,1,0,0:0:0:0:
448,192,79839,1,0,0:0:0:0:
64,192,79997,1,0,0:0:0:0:
320,192,79997,1,0,0:0:0:0:
192,192,80155,1,0,0:0:0:0:
448,192,80155,1,0,0:0:0:0:
64,192,80313,1,0,0:0:0:0:
320,192,80313,1,0,0:0:0:0:
192,192,80471,1,0,0:0:0:0:
448,192,80471,1,0,0:0:0:0:
320,192,80550,1,0,0:0:0:0:
192,192,80629,1,0,0:0:0:0:
320,192,80708,1,0,0:0:0:0:
64,192,80787,1,0,0:0:0:0:
448,192,80787,1,0,0:0:0:0:
64,192,81103,1,0,0:0:0:0:
192,192,81103,1,0,0:0:0:0:
448,192,81103,1,0,0:0:0:0:
320,192,81261,1,0,0:0:0:0:
64,192,81418,1,0,0:0:0:0:
448,192,81418,1,0,0:0:0:0:
192,192,81576,1,0,0:0:0:0:
320,192,81734,1,0,0:0:0:0:
448,192,81734,1,0,0:0:0:0:
192,192,81892,1,0,0:0:0:0:
64,192,82050,1,0,0:0:0:0:
448,192,82050,1,0,0:0:0:0:
320,192,82208,1,0,0:0:0:0:
192,192,82366,1,0,0:0:0:0:
64,192,82366,1,0,0:0:0:0:
320,192,82524,1,0,0:0:0:0:
64,192,82682,1,0,0:0:0:0:
448,192,82682,1,0,0:0:0:0:
192,192,82839,1,0,0:0:0:0:
320,192,82997,1,0,0:0:0:0:
64,192,82997,1,0,0:0:0:0:
192,192,83155,1,0,0:0:0:0:
64,192,83313,1,0,0:0:0:0:
448,192,83313,1,0,0:0:0:0:
192,192,83629,1,0,0:0:0:0:
320,192,83629,1,0,0:0:0:0:
64,192,83945,1,0,0:0:0:0:
448,192,83945,1,0,0:0:0:0:
192,192,84261,1,0,0:0:0:0:
320,192,84261,1,0,0:0:0:0:
64,192,84576,1,0,0:0:0:0:
448,192,84576,1,0,0:0:0:0:
192,192,85050,1,0,0:0:0:0:
320,192,85050,1,0,0:0:0:0:
192,192,85208,1,0,0:0:0:0:
320,192,85208,1,0,0:0:0:0:
64,192,85524,1,0,0:0:0:0:
448,192,85524,1,0,0:0:0:0:
64,192,85682,1,0,0:0:0:0:
448,192,85682,1,0,0:0:0:0:
192,192,85997,1,0,0:0:0:0:
320,192,85997,1,0,0:0:0:0:
64,192,86155,1,0,0:0:0:0:
448,192,86155,1,0,0:0:0:0:
64,192,86471,1,0,0:0:0:0:
448,192,86471,1,0,0:0:0:0:
64,192,86629,1,0,0:0:0:0:
448,192,86629,1,0,0:0:0:0:
64,192,86945,1,0,0:0:0:0:
320,192,86945,1,0,0:0:0:0:
192,192,87103,1,0,0:0:0:0:
64,192,87261,128,0,87734:0:0:0:0:
448,192,87261,128,0,87734:0:0:0:0:
