osu file format v14

[General]
AudioFilename: Diamond.mp3
AudioLeadIn: 0
PreviewTime: 46591
Countdown: 1
SampleSet: None
StackLeniency: 0.7
Mode: 3
LetterboxInBreaks: 0
SpecialStyle: 1
WidescreenStoryboard: 1

[Editor]
DistanceSpacing: 1
BeatDivisor: 4
GridSize: 4
TimelineZoom: 4.199998

[Metadata]
Title:Demitoo 4k Practice pack
TitleUnicode:Demitoo 4k Practice pack
Artist:Various Artist
ArtistUnicode:Various Artist
Creator:Demitoo
Version:Kuchizuke Diamond (Easy) - 160 Bpm
Source:
Tags:
BeatmapID:871533
BeatmapSetID:400528

[Difficulty]
HPDrainRate:8
CircleSize:4
OverallDifficulty:8
ApproachRate:5
SliderMultiplier:1.4
SliderTickRate:1

[Events]
//Background and Video events
0,0,"maxresdefault.jpg",0,0
//Break Periods
//Storyboard Layer 0 (Background)
//Storyboard Layer 1 (Fail)
//Storyboard Layer 2 (Pass)
//Storyboard Layer 3 (Foreground)
//Storyboard Sound Samples

[TimingPoints]
860,365.853658536585,4,2,0,10,1,0

[HitObjects]
64,192,860,5,0,0:0:0:0:
448,192,860,1,0,0:0:0:0:
192,192,1225,1,0,0:0:0:0:
320,192,1225,1,0,0:0:0:0:
64,192,1591,1,0,0:0:0:0:
320,192,1591,1,0,0:0:0:0:
192,192,1774,1,0,0:0:0:0:
320,192,1866,1,0,0:0:0:0:
192,192,1957,1,0,0:0:0:0:
448,192,1957,1,0,0:0:0:0:
320,192,2049,1,0,0:0:0:0:
192,192,2140,1,0,0:0:0:0:
64,192,2231,1,0,0:0:0:0:
320,192,2323,1,0,0:0:0:0:
192,192,2323,1,0,0:0:0:0:
320,192,2506,1,0,0:0:0:0:
192,192,2689,1,0,0:0:0:0:
448,192,2689,1,0,0:0:0:0:
320,192,2872,1,0,0:0:0:0:
64,192,3055,1,0,0:0:0:0:
192,192,3055,1,0,0:0:0:0:
448,192,3238,1,0,0:0:0:0:
320,192,3329,1,0,0:0:0:0:
192,192,3420,1,0,0:0:0:0:
64,192,3420,1,0,0:0:0:0:
192,192,3603,1,0,0:0:0:0:
448,192,3603,1,0,0:0:0:0:
192,192,3786,1,0,0:0:0:0:
320,192,3786,1,0,0:0:0:0:
448,192,3969,1,0,0:0:0:0:
64,192,4152,1,0,0:0:0:0:
320,192,4152,1,0,0:0:0:0:
192,192,4335,1,0,0:0:0:0:
448,192,4335,128,0,4701:0:0:0:0:
320,192,4518,1,0,0:0:0:0:
64,192,4518,1,0,0:0:0:0:
320,192,4701,128,0,5067:0:0:0:0:
64,192,4884,1,0,0:0:0:0:
192,192,4884,1,0,0:0:0:0:
192,192,5067,128,0,5433:0:0:0:0:
320,192,5250,1,0,0:0:0:0:
448,192,5250,1,0,0:0:0:0:
64,192,5433,128,0,5616:0:0:0:0:
192,192,5616,128,0,5799:0:0:0:0:
320,192,5799,1,0,0:0:0:0:
448,192,5799,128,0,6164:0:0:0:0:
320,192,6164,128,0,6530:0:0:0:0:
192,192,6164,128,0,6530:0:0:0:0:
64,192,6713,1,0,0:0:0:0:
448,192,6713,1,0,0:0:0:0:
320,192,6713,1,0,0:0:0:0:
192,192,6896,1,0,0:0:0:0:
448,192,7079,1,0,0:0:0:0:
64,192,7079,1,0,0:0:0:0:
320,192,7262,1,0,0:0:0:0:
192,192,7445,1,0,0:0:0:0:
448,192,7445,1,0,0:0:0:0:
320,192,7628,1,0,0:0:0:0:
448,192,7811,1,0,0:0:0:0:
192,192,7811,1,0,0:0:0:0:
320,192,7994,128,0,8177:0:0:0:0:
64,192,8177,1,0,0:0:0:0:
448,192,8177,128,0,8359:0:0:0:0:
320,192,8359,1,0,0:0:0:0:
192,192,8542,1,0,0:0:0:0:
448,192,8542,1,0,0:0:0:0:
320,192,8725,1,0,0:0:0:0:
448,192,8908,1,0,0:0:0:0:
64,192,8908,1,0,0:0:0:0:
192,192,9091,1,0,0:0:0:0:
64,192,9274,1,0,0:0:0:0:
320,192,9274,1,0,0:0:0:0:
192,192,9457,1,0,0:0:0:0:
64,192,9640,1,0,0:0:0:0:
448,192,9640,1,0,0:0:0:0:
320,192,10006,1,0,0:0:0:0:
448,192,10006,1,0,0:0:0:0:
192,192,10189,1,0,0:0:0:0:
64,192,10372,1,0,0:0:0:0:
320,192,10372,1,0,0:0:0:0:
192,192,10738,1,0,0:0:0:0:
448,192,10738,1,0,0:0:0:0:
64,192,11103,1,0,0:0:0:0:
192,192,11103,128,0,11286:0:0:0:0:
320,192,11286,1,0,0:0:0:0:
448,192,11469,1,0,0:0:0:0:
64,192,11469,1,0,0:0:0:0:
320,192,11652,1,0,0:0:0:0:
192,192,11835,1,0,0:0:0:0:
448,192,11835,1,0,0:0:0:0:
320,192,12018,1,0,0:0:0:0:
64,192,12201,1,0,0:0:0:0:
448,192,12201,1,0,0:0:0:0:
192,192,12567,1,0,0:0:0:0:
320,192,12567,1,0,0:0:0:0:
448,192,12750,1,0,0:0:0:0:
64,192,12933,1,0,0:0:0:0:
320,192,12933,1,0,0:0:0:0:
192,192,13116,1,0,0:0:0:0:
64,192,13299,1,0,0:0:0:0:
448,192,13299,128,0,13481:0:0:0:0:
320,192,13481,128,0,13664:0:0:0:0:
192,192,13664,1,0,0:0:0:0:
448,192,13664,1,0,0:0:0:0:
320,192,13847,1,0,0:0:0:0:
192,192,14030,1,0,0:0:0:0:
448,192,14030,1,0,0:0:0:0:
64,192,14213,1,0,0:0:0:0:
448,192,14396,1,0,0:0:0:0:
192,192,14396,1,0,0:0:0:0:
320,192,14579,1,0,0:0:0:0:
192,192,14762,1,0,0:0:0:0:
64,192,14762,1,0,0:0:0:0:
320,192,14945,1,0,0:0:0:0:
448,192,15128,1,0,0:0:0:0:
192,192,15128,1,0,0:0:0:0:
320,192,15311,1,0,0:0:0:0:
448,192,15494,1,0,0:0:0:0:
64,192,15494,1,0,0:0:0:0:
192,192,15677,128,0,15859:0:0:0:0:
64,192,15859,1,0,0:0:0:0:
320,192,15859,128,0,16225:0:0:0:0:
192,192,16042,1,0,0:0:0:0:
64,192,16225,1,0,0:0:0:0:
448,192,16225,1,0,0:0:0:0:
64,192,16591,1,0,0:0:0:0:
448,192,16591,1,0,0:0:0:0:
192,192,16957,1,0,0:0:0:0:
320,192,16957,1,0,0:0:0:0:
64,192,17140,1,0,0:0:0:0:
448,192,17140,1,0,0:0:0:0:
320,192,17140,128,0,17323:0:0:0:0:
448,192,17506,1,0,0:0:0:0:
320,192,17689,1,0,0:0:0:0:
448,192,17872,1,0,0:0:0:0:
192,192,17872,1,0,0:0:0:0:
320,192,17963,1,0,0:0:0:0:
192,192,18055,1,0,0:0:0:0:
64,192,18146,1,0,0:0:0:0:
448,192,18238,1,0,0:0:0:0:
192,192,18238,1,0,0:0:0:0:
320,192,18329,1,0,0:0:0:0:
192,192,18420,1,0,0:0:0:0:
64,192,18420,1,0,0:0:0:0:
448,192,18420,1,0,0:0:0:0:
320,192,18603,1,0,0:0:0:0:
192,192,18786,1,0,0:0:0:0:
448,192,18786,1,0,0:0:0:0:
64,192,18969,1,0,0:0:0:0:
320,192,19152,1,0,0:0:0:0:
64,192,19152,1,0,0:0:0:0:
192,192,19335,1,0,0:0:0:0:
320,192,19427,1,0,0:0:0:0:
448,192,19518,1,0,0:0:0:0:
64,192,19518,1,0,0:0:0:0:
320,192,19609,1,0,0:0:0:0:
192,192,19701,1,0,0:0:0:0:
320,192,19792,1,0,0:0:0:0:
192,192,19884,1,0,0:0:0:0:
448,192,19884,1,0,0:0:0:0:
320,192,20067,1,0,0:0:0:0:
448,192,20250,1,0,0:0:0:0:
64,192,20250,1,0,0:0:0:0:
192,192,20433,1,0,0:0:0:0:
64,192,20616,1,0,0:0:0:0:
320,192,20616,1,0,0:0:0:0:
448,192,20799,1,0,0:0:0:0:
320,192,20890,1,0,0:0:0:0:
64,192,20981,1,0,0:0:0:0:
192,192,20981,1,0,0:0:0:0:
192,192,21164,1,0,0:0:0:0:
320,192,21164,1,0,0:0:0:0:
64,192,21347,1,0,0:0:0:0:
320,192,21347,1,0,0:0:0:0:
192,192,21530,1,0,0:0:0:0:
448,192,21713,1,0,0:0:0:0:
64,192,21713,1,0,0:0:0:0:
320,192,21896,128,0,22262:0:0:0:0:
64,192,22079,1,0,0:0:0:0:
192,192,22079,1,0,0:0:0:0:
192,192,22262,128,0,22628:0:0:0:0:
320,192,22445,1,0,0:0:0:0:
448,192,22445,1,0,0:0:0:0:
64,192,22628,128,0,22994:0:0:0:0:
192,192,22811,1,0,0:0:0:0:
448,192,22811,1,0,0:0:0:0:
192,192,22994,128,0,23177:0:0:0:0:
320,192,23177,128,0,23359:0:0:0:0:
64,192,23177,1,0,0:0:0:0:
448,192,23359,128,0,23725:0:0:0:0:
192,192,23725,128,0,24091:0:0:0:0:
320,192,23725,128,0,24091:0:0:0:0:
64,192,24274,1,0,0:0:0:0:
192,192,24274,1,0,0:0:0:0:
448,192,24274,1,0,0:0:0:0:
320,192,24457,1,0,0:0:0:0:
192,192,24640,1,0,0:0:0:0:
448,192,24640,1,0,0:0:0:0:
320,192,24823,1,0,0:0:0:0:
64,192,25006,1,0,0:0:0:0:
192,192,25006,1,0,0:0:0:0:
320,192,25189,1,0,0:0:0:0:
64,192,25372,1,0,0:0:0:0:
448,192,25372,1,0,0:0:0:0:
320,192,25555,1,0,0:0:0:0:
64,192,25738,1,0,0:0:0:0:
448,192,25738,1,0,0:0:0:0:
320,192,25920,128,0,26103:0:0:0:0:
64,192,26103,1,0,0:0:0:0:
192,192,26103,1,0,0:0:0:0:
448,192,26286,1,0,0:0:0:0:
320,192,26469,1,0,0:0:0:0:
64,192,26469,1,0,0:0:0:0:
192,192,26652,1,0,0:0:0:0:
64,192,26835,1,0,0:0:0:0:
448,192,26835,1,0,0:0:0:0:
320,192,27018,1,0,0:0:0:0:
448,192,27201,1,0,0:0:0:0:
192,192,27201,1,0,0:0:0:0:
320,192,27384,1,0,0:0:0:0:
192,192,27567,128,0,27750:0:0:0:0:
448,192,27567,1,0,0:0:0:0:
64,192,27750,128,0,28116:0:0:0:0:
192,192,27933,1,0,0:0:0:0:
448,192,27933,1,0,0:0:0:0:
320,192,28116,1,0,0:0:0:0:
192,192,28299,1,0,0:0:0:0:
448,192,28299,128,0,28664:0:0:0:0:
64,192,28664,1,0,0:0:0:0:
192,192,28664,128,0,28847:0:0:0:0:
320,192,28847,128,0,29030:0:0:0:0:
192,192,29030,1,0,0:0:0:0:
448,192,29030,1,0,0:0:0:0:
448,192,29213,1,0,0:0:0:0:
64,192,29396,1,0,0:0:0:0:
320,192,29396,1,0,0:0:0:0:
448,192,29579,1,0,0:0:0:0:
64,192,29762,1,0,0:0:0:0:
192,192,29762,128,0,30128:0:0:0:0:
64,192,30128,1,0,0:0:0:0:
448,192,30128,1,0,0:0:0:0:
320,192,30128,1,0,0:0:0:0:
320,192,30311,1,0,0:0:0:0:
192,192,30494,1,0,0:0:0:0:
448,192,30494,1,0,0:0:0:0:
320,192,30677,1,0,0:0:0:0:
64,192,30859,1,0,0:0:0:0:
448,192,30859,1,0,0:0:0:0:
320,192,31042,128,0,31408:0:0:0:0:
64,192,31225,1,0,0:0:0:0:
192,192,31225,1,0,0:0:0:0:
448,192,31408,128,0,31774:0:0:0:0:
64,192,31591,1,0,0:0:0:0:
320,192,31591,1,0,0:0:0:0:
320,192,31774,128,0,31957:0:0:0:0:
64,192,31957,1,0,0:0:0:0:
192,192,31957,1,0,0:0:0:0:
448,192,32140,1,0,0:0:0:0:
320,192,32323,1,0,0:0:0:0:
64,192,32323,1,0,0:0:0:0:
192,192,32506,1,0,0:0:0:0:
64,192,32689,1,0,0:0:0:0:
448,192,32689,1,0,0:0:0:0:
320,192,32872,1,0,0:0:0:0:
192,192,33055,1,0,0:0:0:0:
64,192,33055,128,0,33420:0:0:0:0:
320,192,33238,1,0,0:0:0:0:
448,192,33420,128,0,33603:0:0:0:0:
192,192,33420,1,0,0:0:0:0:
320,192,33603,128,0,34152:0:0:0:0:
192,192,33786,1,0,0:0:0:0:
64,192,33786,1,0,0:0:0:0:
64,192,34152,1,0,0:0:0:0:
448,192,34152,128,0,34518:0:0:0:0:
64,192,34518,1,0,0:0:0:0:
320,192,34518,128,0,34701:0:0:0:0:
448,192,34701,128,0,34884:0:0:0:0:
64,192,34884,1,0,0:0:0:0:
192,192,34884,1,0,0:0:0:0:
320,192,35067,1,0,0:0:0:0:
448,192,35250,1,0,0:0:0:0:
64,192,35250,1,0,0:0:0:0:
320,192,35433,1,0,0:0:0:0:
64,192,35616,1,0,0:0:0:0:
448,192,35616,1,0,0:0:0:0:
192,192,35799,1,0,0:0:0:0:
64,192,35981,1,0,0:0:0:0:
448,192,35981,1,0,0:0:0:0:
320,192,35981,128,0,36530:0:0:0:0:
64,192,36347,1,0,0:0:0:0:
192,192,36347,1,0,0:0:0:0:
64,192,36530,128,0,37079:0:0:0:0:
192,192,36713,1,0,0:0:0:0:
448,192,36713,1,0,0:0:0:0:
320,192,36896,1,0,0:0:0:0:
192,192,37079,128,0,37445:0:0:0:0:
448,192,37079,1,0,0:0:0:0:
320,192,37262,1,0,0:0:0:0:
448,192,37445,128,0,37994:0:0:0:0:
64,192,37445,1,0,0:0:0:0:
64,192,37811,1,0,0:0:0:0:
192,192,37811,1,0,0:0:0:0:
320,192,37994,128,0,38542:0:0:0:0:
64,192,38177,1,0,0:0:0:0:
448,192,38177,1,0,0:0:0:0:
192,192,38542,128,0,38908:0:0:0:0:
64,192,38542,1,0,0:0:0:0:
320,192,38908,1,0,0:0:0:0:
448,192,38908,128,0,39457:0:0:0:0:
320,192,39274,1,0,0:0:0:0:
192,192,39274,1,0,0:0:0:0:
64,192,39457,1,0,0:0:0:0:
448,192,39640,1,0,0:0:0:0:
192,192,39640,1,0,0:0:0:0:
192,192,40006,1,0,0:0:0:0:
320,192,40006,1,0,0:0:0:0:
448,192,40189,1,0,0:0:0:0:
64,192,40372,1,0,0:0:0:0:
320,192,40372,128,0,40555:0:0:0:0:
192,192,40555,128,0,40738:0:0:0:0:
64,192,40738,1,0,0:0:0:0:
448,192,40738,1,0,0:0:0:0:
320,192,40920,1,0,0:0:0:0:
192,192,41103,1,0,0:0:0:0:
64,192,41103,1,0,0:0:0:0:
448,192,41286,1,0,0:0:0:0:
64,192,41286,1,0,0:0:0:0:
320,192,41286,1,0,0:0:0:0:
320,192,41469,1,0,0:0:0:0:
64,192,41469,1,0,0:0:0:0:
192,192,41652,1,0,0:0:0:0:
64,192,41835,1,0,0:0:0:0:
448,192,41835,1,0,0:0:0:0:
320,192,41835,128,0,42384:0:0:0:0:
64,192,42201,1,0,0:0:0:0:
192,192,42201,1,0,0:0:0:0:
192,192,42384,128,0,42933:0:0:0:0:
320,192,42567,1,0,0:0:0:0:
448,192,42567,1,0,0:0:0:0:
64,192,42750,1,0,0:0:0:0:
320,192,42933,128,0,43299:0:0:0:0:
448,192,42933,1,0,0:0:0:0:
192,192,43116,1,0,0:0:0:0:
448,192,43299,128,0,43847:0:0:0:0:
64,192,43299,1,0,0:0:0:0:
192,192,43664,1,0,0:0:0:0:
320,192,43664,1,0,0:0:0:0:
320,192,43847,128,0,44396:0:0:0:0:
64,192,44030,1,0,0:0:0:0:
448,192,44030,1,0,0:0:0:0:
192,192,44396,1,0,0:0:0:0:
64,192,44396,1,0,0:0:0:0:
448,192,44396,128,0,44579:0:0:0:0:
64,192,44762,1,0,0:0:0:0:
192,192,44762,1,0,0:0:0:0:
448,192,44762,1,0,0:0:0:0:
320,192,44945,1,0,0:0:0:0:
448,192,45128,1,0,0:0:0:0:
192,192,45128,1,0,0:0:0:0:
64,192,45311,1,0,0:0:0:0:
320,192,45311,1,0,0:0:0:0:
192,192,45494,1,0,0:0:0:0:
320,192,45494,1,0,0:0:0:0:
448,192,45677,1,0,0:0:0:0:
320,192,45859,1,0,0:0:0:0:
64,192,45859,1,0,0:0:0:0:
192,192,46042,1,0,0:0:0:0:
64,192,46225,1,0,0:0:0:0:
448,192,46225,1,0,0:0:0:0:
64,192,46408,1,0,0:0:0:0:
192,192,46469,1,0,0:0:0:0:
320,192,46530,1,0,0:0:0:0:
448,192,46591,1,0,0:0:0:0:
192,192,46591,1,0,0:0:0:0:
64,192,46591,1,0,0:0:0:0:
320,192,46774,1,0,0:0:0:0:
64,192,46957,1,0,0:0:0:0:
448,192,47140,1,0,0:0:0:0:
64,192,47323,128,0,47689:0:0:0:0:
192,192,47689,1,0,0:0:0:0:
320,192,47689,1,0,0:0:0:0:
448,192,47689,1,0,0:0:0:0:
320,192,47872,1,0,0:0:0:0:
64,192,48055,1,0,0:0:0:0:
448,192,48055,1,0,0:0:0:0:
192,192,48238,1,0,0:0:0:0:
320,192,48238,1,0,0:0:0:0:
64,192,48420,1,0,0:0:0:0:
448,192,48420,1,0,0:0:0:0:
320,192,48603,1,0,0:0:0:0:
448,192,48786,1,0,0:0:0:0:
64,192,48786,1,0,0:0:0:0:
320,192,48878,1,0,0:0:0:0:
192,192,48969,128,0,49152:0:0:0:0:
64,192,49152,128,0,49518:0:0:0:0:
320,192,49152,1,0,0:0:0:0:
448,192,49335,1,0,0:0:0:0:
192,192,49518,1,0,0:0:0:0:
320,192,49518,1,0,0:0:0:0:
448,192,49701,1,0,0:0:0:0:
64,192,49701,1,0,0:0:0:0:
320,192,49884,1,0,0:0:0:0:
192,192,49884,1,0,0:0:0:0:
448,192,50067,1,0,0:0:0:0:
64,192,50250,1,0,0:0:0:0:
320,192,50250,1,0,0:0:0:0:
448,192,50433,1,0,0:0:0:0:
320,192,50524,1,0,0:0:0:0:
192,192,50616,1,0,0:0:0:0:
64,192,50616,128,0,50799:0:0:0:0:
320,192,50799,128,0,51164:0:0:0:0:
64,192,50981,1,0,0:0:0:0:
192,192,50981,1,0,0:0:0:0:
448,192,51164,128,0,51530:0:0:0:0:
192,192,51164,1,0,0:0:0:0:
64,192,51347,1,0,0:0:0:0:
320,192,51347,1,0,0:0:0:0:
64,192,51530,128,0,51896:0:0:0:0:
448,192,51713,1,0,0:0:0:0:
192,192,51713,1,0,0:0:0:0:
320,192,51805,1,0,0:0:0:0:
192,192,51896,128,0,52079:0:0:0:0:
320,192,52079,128,0,52445:0:0:0:0:
448,192,52079,1,0,0:0:0:0:
192,192,52262,1,0,0:0:0:0:
64,192,52445,1,0,0:0:0:0:
448,192,52445,1,0,0:0:0:0:
192,192,52628,1,0,0:0:0:0:
64,192,52811,1,0,0:0:0:0:
448,192,52811,1,0,0:0:0:0:
320,192,52994,1,0,0:0:0:0:
64,192,53177,1,0,0:0:0:0:
448,192,53177,1,0,0:0:0:0:
192,192,53359,1,0,0:0:0:0:
64,192,53542,1,0,0:0:0:0:
448,192,53542,128,0,54091:0:0:0:0:
192,192,53725,1,0,0:0:0:0:
64,192,53908,1,0,0:0:0:0:
320,192,53908,1,0,0:0:0:0:
320,192,54091,128,0,54274:0:0:0:0:
192,192,54274,128,0,54823:0:0:0:0:
64,192,54274,1,0,0:0:0:0:
448,192,54457,1,0,0:0:0:0:
64,192,54640,1,0,0:0:0:0:
320,192,54640,1,0,0:0:0:0:
448,192,54823,128,0,55006:0:0:0:0:
320,192,55006,128,0,55372:0:0:0:0:
192,192,55006,1,0,0:0:0:0:
64,192,55372,1,0,0:0:0:0:
192,192,55372,1,0,0:0:0:0:
448,192,55555,1,0,0:0:0:0:
64,192,55738,1,0,0:0:0:0:
320,192,55738,1,0,0:0:0:0:
192,192,55920,1,0,0:0:0:0:
64,192,56103,1,0,0:0:0:0:
320,192,56103,1,0,0:0:0:0:
192,192,56286,1,0,0:0:0:0:
448,192,56286,1,0,0:0:0:0:
320,192,56378,1,0,0:0:0:0:
192,192,56469,1,0,0:0:0:0:
448,192,56652,128,0,57018:0:0:0:0:
64,192,56835,1,0,0:0:0:0:
320,192,56835,1,0,0:0:0:0:
320,192,57018,128,0,57384:0:0:0:0:
64,192,57201,1,0,0:0:0:0:
192,192,57201,1,0,0:0:0:0:
448,192,57384,128,0,57567:0:0:0:0:
320,192,57567,1,0,0:0:0:0:
64,192,57567,1,0,0:0:0:0:
192,192,57658,1,0,0:0:0:0:
64,192,57750,128,0,58116:0:0:0:0:
448,192,57933,1,0,0:0:0:0:
192,192,57933,1,0,0:0:0:0:
320,192,58116,1,0,0:0:0:0:
64,192,58299,1,0,0:0:0:0:
448,192,58299,1,0,0:0:0:0:
320,192,58481,1,0,0:0:0:0:
192,192,58481,1,0,0:0:0:0:
64,192,58664,1,0,0:0:0:0:
448,192,58664,1,0,0:0:0:0:
448,192,58847,1,0,0:0:0:0:
320,192,58939,1,0,0:0:0:0:
64,192,59030,1,0,0:0:0:0:
192,192,59030,1,0,0:0:0:0:
64,192,59213,1,0,0:0:0:0:
192,192,59305,1,0,0:0:0:0:
320,192,59396,1,0,0:0:0:0:
448,192,59396,128,0,59945:0:0:0:0:
192,192,59579,1,0,0:0:0:0:
64,192,59762,1,0,0:0:0:0:
320,192,59762,1,0,0:0:0:0:
192,192,59945,128,0,60128:0:0:0:0:
448,192,60128,128,0,60677:0:0:0:0:
320,192,60128,1,0,0:0:0:0:
192,192,60311,1,0,0:0:0:0:
64,192,60494,1,0,0:0:0:0:
320,192,60494,1,0,0:0:0:0:
192,192,60585,1,0,0:0:0:0:
320,192,60677,128,0,60859:0:0:0:0:
192,192,60859,128,0,61225:0:0:0:0:
64,192,60859,1,0,0:0:0:0:
320,192,61225,1,0,0:0:0:0:
448,192,61225,1,0,0:0:0:0:
64,192,61408,1,0,0:0:0:0:
192,192,61591,1,0,0:0:0:0:
448,192,61591,1,0,0:0:0:0:
320,192,61774,1,0,0:0:0:0:
64,192,61957,1,0,0:0:0:0:
448,192,61957,1,0,0:0:0:0:
64,192,62140,1,0,0:0:0:0:
192,192,62231,1,0,0:0:0:0:
320,192,62323,1,0,0:0:0:0:
448,192,62323,128,0,62506:0:0:0:0:
320,192,62506,128,0,62872:0:0:0:0:
64,192,62689,1,0,0:0:0:0:
192,192,62689,1,0,0:0:0:0:
448,192,62872,128,0,63238:0:0:0:0:
64,192,63055,1,0,0:0:0:0:
320,192,63055,1,0,0:0:0:0:
64,192,63238,128,0,63603:0:0:0:0:
192,192,63420,1,0,0:0:0:0:
448,192,63420,1,0,0:0:0:0:
320,192,63512,1,0,0:0:0:0:
192,192,63603,128,0,63786:0:0:0:0:
320,192,63786,128,0,64152:0:0:0:0:
448,192,63786,1,0,0:0:0:0:
192,192,63969,1,0,0:0:0:0:
64,192,64152,1,0,0:0:0:0:
448,192,64152,1,0,0:0:0:0:
192,192,64335,1,0,0:0:0:0:
320,192,64335,1,0,0:0:0:0:
64,192,64518,1,0,0:0:0:0:
448,192,64518,1,0,0:0:0:0:
320,192,64701,1,0,0:0:0:0:
64,192,64884,1,0,0:0:0:0:
448,192,64884,1,0,0:0:0:0:
192,192,65067,1,0,0:0:0:0:
64,192,65250,1,0,0:0:0:0:
448,192,65250,128,0,65799:0:0:0:0:
192,192,65433,1,0,0:0:0:0:
64,192,65616,1,0,0:0:0:0:
320,192,65616,1,0,0:0:0:0:
320,192,65799,128,0,65981:0:0:0:0:
192,192,65799,1,0,0:0:0:0:
192,192,65981,1,0,0:0:0:0:
64,192,65981,128,0,66530:0:0:0:0:
320,192,66164,1,0,0:0:0:0:
192,192,66347,1,0,0:0:0:0:
448,192,66347,1,0,0:0:0:0:
320,192,66439,1,0,0:0:0:0:
192,192,66530,128,0,66713:0:0:0:0:
320,192,66713,128,0,67079:0:0:0:0:
448,192,66713,1,0,0:0:0:0:
192,192,66896,1,0,0:0:0:0:
64,192,67079,1,0,0:0:0:0:
448,192,67079,1,0,0:0:0:0:
192,192,67262,1,0,0:0:0:0:
64,192,67445,1,0,0:0:0:0:
448,192,67445,1,0,0:0:0:0:
192,192,67628,1,0,0:0:0:0:
64,192,67811,1,0,0:0:0:0:
320,192,67811,1,0,0:0:0:0:
448,192,67994,1,0,0:0:0:0:
320,192,68085,1,0,0:0:0:0:
192,192,68177,1,0,0:0:0:0:
64,192,68177,1,0,0:0:0:0:
448,192,68359,128,0,68725:0:0:0:0:
64,192,68542,1,0,0:0:0:0:
320,192,68542,1,0,0:0:0:0:
320,192,68725,128,0,69091:0:0:0:0:
64,192,68908,1,0,0:0:0:0:
448,192,68908,1,0,0:0:0:0:
64,192,69091,128,0,69274:0:0:0:0:
192,192,69274,1,0,0:0:0:0:
448,192,69274,1,0,0:0:0:0:
320,192,69366,1,0,0:0:0:0:
192,192,69457,128,0,69640:0:0:0:0:
320,192,69640,1,0,0:0:0:0:
448,192,69640,1,0,0:0:0:0:
64,192,69823,1,0,0:0:0:0:
192,192,70006,1,0,0:0:0:0:
448,192,70006,1,0,0:0:0:0:
192,192,70189,1,0,0:0:0:0:
320,192,70189,1,0,0:0:0:0:
64,192,70372,1,0,0:0:0:0:
448,192,70372,1,0,0:0:0:0:
320,192,70555,1,0,0:0:0:0:
192,192,70646,1,0,0:0:0:0:
64,192,70738,1,0,0:0:0:0:
320,192,70738,1,0,0:0:0:0:
192,192,70920,1,0,0:0:0:0:
320,192,71012,1,0,0:0:0:0:
192,192,71103,1,0,0:0:0:0:
448,192,71103,1,0,0:0:0:0:
64,192,71103,1,0,0:0:0:0:
320,192,71286,1,0,0:0:0:0:
64,192,71469,1,0,0:0:0:0:
448,192,71469,1,0,0:0:0:0:
192,192,71652,1,0,0:0:0:0:
320,192,71652,1,0,0:0:0:0:
64,192,71835,1,0,0:0:0:0:
448,192,71835,1,0,0:0:0:0:
192,192,72018,1,0,0:0:0:0:
64,192,72201,1,0,0:0:0:0:
448,192,72201,1,0,0:0:0:0:
320,192,72384,128,0,72567:0:0:0:0:
448,192,72567,1,0,0:0:0:0:
192,192,72567,128,0,72933:0:0:0:0:
320,192,72750,1,0,0:0:0:0:
448,192,72933,1,0,0:0:0:0:
64,192,72933,1,0,0:0:0:0:
320,192,73116,1,0,0:0:0:0:
64,192,73116,1,0,0:0:0:0:
192,192,73299,1,0,0:0:0:0:
448,192,73299,1,0,0:0:0:0:
320,192,73481,1,0,0:0:0:0:
64,192,73664,1,0,0:0:0:0:
448,192,73664,1,0,0:0:0:0:
448,192,73847,1,0,0:0:0:0:
320,192,73939,1,0,0:0:0:0:
192,192,74030,1,0,0:0:0:0:
64,192,74030,128,0,74213:0:0:0:0:
192,192,74213,128,0,74579:0:0:0:0:
448,192,74396,1,0,0:0:0:0:
64,192,74396,1,0,0:0:0:0:
320,192,74579,128,0,74945:0:0:0:0:
64,192,74762,1,0,0:0:0:0:
192,192,74762,1,0,0:0:0:0:
448,192,74945,128,0,75128:0:0:0:0:
320,192,75128,1,0,0:0:0:0:
64,192,75128,1,0,0:0:0:0:
192,192,75219,1,0,0:0:0:0:
64,192,75311,128,0,75494:0:0:0:0:
192,192,75494,128,0,75859:0:0:0:0:
320,192,75494,1,0,0:0:0:0:
448,192,75677,1,0,0:0:0:0:
64,192,75859,1,0,0:0:0:0:
320,192,75859,1,0,0:0:0:0:
448,192,76042,1,0,0:0:0:0:
192,192,76042,1,0,0:0:0:0:
64,192,76225,1,0,0:0:0:0:
320,192,76225,1,0,0:0:0:0:
192,192,76408,1,0,0:0:0:0:
64,192,76591,1,0,0:0:0:0:
448,192,76591,1,0,0:0:0:0:
320,192,76774,1,0,0:0:0:0:
192,192,76866,1,0,0:0:0:0:
64,192,76957,1,0,0:0:0:0:
320,192,76957,128,0,77506:0:0:0:0:
192,192,77140,1,0,0:0:0:0:
64,192,77323,1,0,0:0:0:0:
448,192,77323,1,0,0:0:0:0:
192,192,77506,1,0,0:0:0:0:
448,192,77506,128,0,77689:0:0:0:0:
64,192,77689,128,0,78055:0:0:0:0:
192,192,77689,1,0,0:0:0:0:
320,192,77872,1,0,0:0:0:0:
192,192,78055,1,0,0:0:0:0:
448,192,78055,128,0,78238:0:0:0:0:
320,192,78238,128,0,78420:0:0:0:0:
448,192,78420,1,0,0:0:0:0:
64,192,78420,128,0,78786:0:0:0:0:
192,192,78420,1,0,0:0:0:0:
192,192,78786,128,0,79152:0:0:0:0:
448,192,78786,1,0,0:0:0:0:
448,192,79152,128,0,79518:0:0:0:0:
64,192,79152,1,0,0:0:0:0:
64,192,79518,128,0,79884:0:0:0:0:
192,192,79518,1,0,0:0:0:0:
448,192,79701,1,0,0:0:0:0:
320,192,79792,1,0,0:0:0:0:
192,192,79884,1,0,0:0:0:0:
448,192,79884,1,0,0:0:0:0:
320,192,80067,128,0,80433:0:0:0:0:
64,192,80250,1,0,0:0:0:0:
448,192,80250,1,0,0:0:0:0:
448,192,80433,128,0,80799:0:0:0:0:
192,192,80433,1,0,0:0:0:0:
64,192,80616,1,0,0:0:0:0:
320,192,80616,1,0,0:0:0:0:
64,192,80799,128,0,81347:0:0:0:0:
192,192,80981,1,0,0:0:0:0:
448,192,80981,1,0,0:0:0:0:
320,192,81073,1,0,0:0:0:0:
192,192,81164,1,0,0:0:0:0:
448,192,81347,1,0,0:0:0:0:
192,192,81347,1,0,0:0:0:0:
320,192,81530,1,0,0:0:0:0:
64,192,81713,1,0,0:0:0:0:
448,192,81713,1,0,0:0:0:0:
192,192,81896,1,0,0:0:0:0:
320,192,81896,1,0,0:0:0:0:
64,192,82079,1,0,0:0:0:0:
448,192,82079,1,0,0:0:0:0:
320,192,82262,1,0,0:0:0:0:
192,192,82353,1,0,0:0:0:0:
64,192,82445,1,0,0:0:0:0:
448,192,82445,1,0,0:0:0:0:
192,192,82628,1,0,0:0:0:0:
320,192,82719,1,0,0:0:0:0:
448,192,82811,1,0,0:0:0:0:
192,192,82811,1,0,0:0:0:0:
320,192,82994,1,0,0:0:0:0:
64,192,83177,1,0,0:0:0:0:
192,192,83177,1,0,0:0:0:0:
320,192,83359,1,0,0:0:0:0:
64,192,83542,1,0,0:0:0:0:
192,192,83542,1,0,0:0:0:0:
320,192,83725,1,0,0:0:0:0:
448,192,83908,1,0,0:0:0:0:
192,192,83908,1,0,0:0:0:0:
320,192,84091,1,0,0:0:0:0:
448,192,84274,1,0,0:0:0:0:
64,192,84274,1,0,0:0:0:0:
192,192,84457,1,0,0:0:0:0:
64,192,84640,1,0,0:0:0:0:
448,192,84640,1,0,0:0:0:0:
320,192,84823,1,0,0:0:0:0:
64,192,85006,1,0,0:0:0:0:
448,192,85006,1,0,0:0:0:0:
320,192,85189,1,0,0:0:0:0:
64,192,85372,1,0,0:0:0:0:
192,192,85372,1,0,0:0:0:0:
320,192,85555,1,0,0:0:0:0:
192,192,85738,1,0,0:0:0:0:
64,192,85738,1,0,0:0:0:0:
320,192,85920,1,0,0:0:0:0:
448,192,86103,1,0,0:0:0:0:
64,192,86103,1,0,0:0:0:0:
192,192,86286,1,0,0:0:0:0:
64,192,86469,1,0,0:0:0:0:
320,192,86469,1,0,0:0:0:0:
192,192,86652,1,0,0:0:0:0:
64,192,86835,1,0,0:0:0:0:
448,192,86835,1,0,0:0:0:0:
320,192,87018,1,0,0:0:0:0:
448,192,87201,1,0,0:0:0:0:
192,192,87201,1,0,0:0:0:0:
320,192,87384,1,0,0:0:0:0:
64,192,87567,1,0,0:0:0:0:
448,192,87567,1,0,0:0:0:0:
192,192,87750,1,0,0:0:0:0:
448,192,87933,1,0,0:0:0:0:
64,192,87933,1,0,0:0:0:0:
192,192,88116,1,0,0:0:0:0:
64,192,88299,1,0,0:0:0:0:
320,192,88299,1,0,0:0:0:0:
448,192,88299,1,0,0:0:0:0:
192,192,88481,1,0,0:0:0:0:
