osu file format v14

[General]
AudioFilename: Joint.mp3
AudioLeadIn: 0
PreviewTime: 83728
Countdown: 1
SampleSet: None
StackLeniency: 0.7
Mode: 3
LetterboxInBreaks: 0
SpecialStyle: 1
WidescreenStoryboard: 1

[Editor]
DistanceSpacing: 1
BeatDivisor: 4
GridSize: 4
TimelineZoom: 4.199998

[Metadata]
Title:Demitoo 4k Practice pack
TitleUnicode:Demitoo 4k Practice pack
Artist:Various Artist
ArtistUnicode:Various Artist
Creator:Demitoo
Version:Joint Struggle (Hard) - 187 bpm
Source:
Tags:
BeatmapID:871532
BeatmapSetID:400528

[Difficulty]
HPDrainRate:8
CircleSize:4
OverallDifficulty:8
ApproachRate:5
SliderMultiplier:1.4
SliderTickRate:1

[Events]
//Background and Video events
0,0,"Konachan.com - 211092 bow bunny_ears bunnygirl garter_belt group hakurei_reimu hat kamisa kochiya_sanae long_hair miko skirt thighhighs touhou witch witch_hat.jpg",0,0
//Break Periods
//Storyboard Layer 0 (Background)
//Storyboard Layer 1 (Fail)
//Storyboard Layer 2 (Pass)
//Storyboard Layer 3 (Foreground)
//Storyboard Sound Samples

[TimingPoints]
306,320.855614973262,4,2,1,15,1,0

[HitObjects]
64,192,306,5,0,0:0:0:0:
448,192,306,1,0,0:0:0:0:
192,192,626,1,0,0:0:0:0:
320,192,626,1,0,0:0:0:0:
192,192,947,1,0,0:0:0:0:
448,192,947,1,0,0:0:0:0:
64,192,1268,1,0,0:0:0:0:
320,192,1268,1,0,0:0:0:0:
192,192,1589,1,0,0:0:0:0:
320,192,1589,1,0,0:0:0:0:
320,192,1910,1,0,0:0:0:0:
448,192,1910,1,0,0:0:0:0:
64,192,2231,1,0,0:0:0:0:
192,192,2231,1,0,0:0:0:0:
192,192,2551,1,0,0:0:0:0:
320,192,2551,1,0,0:0:0:0:
64,192,2872,1,0,0:0:0:0:
448,192,2872,1,0,0:0:0:0:
64,192,3193,1,0,0:0:0:0:
320,192,3193,1,0,0:0:0:0:
192,192,3514,1,0,0:0:0:0:
448,192,3514,1,0,0:0:0:0:
64,192,3835,1,0,0:0:0:0:
448,192,3835,1,0,0:0:0:0:
192,192,3835,1,0,0:0:0:0:
320,192,4156,128,0,4316:0:0:0:0:
192,192,4316,128,0,4477:0:0:0:0:
64,192,4477,1,0,0:0:0:0:
320,192,4477,1,0,0:0:0:0:
448,192,4477,1,0,0:0:0:0:
320,192,4797,1,0,0:0:0:0:
448,192,4797,1,0,0:0:0:0:
64,192,4797,1,0,0:0:0:0:
192,192,4878,1,0,0:0:0:0:
320,192,4958,1,0,0:0:0:0:
448,192,5038,1,0,0:0:0:0:
192,192,5118,1,0,0:0:0:0:
320,192,5118,1,0,0:0:0:0:
64,192,5199,1,0,0:0:0:0:
192,192,5279,1,0,0:0:0:0:
320,192,5359,1,0,0:0:0:0:
64,192,5439,1,0,0:0:0:0:
192,192,5439,1,0,0:0:0:0:
448,192,5439,1,0,0:0:0:0:
320,192,5600,1,0,0:0:0:0:
448,192,5760,1,0,0:0:0:0:
192,192,5760,1,0,0:0:0:0:
64,192,5760,1,0,0:0:0:0:
320,192,5920,1,0,0:0:0:0:
64,192,6081,1,0,0:0:0:0:
448,192,6081,1,0,0:0:0:0:
320,192,6241,1,0,0:0:0:0:
64,192,6402,1,0,0:0:0:0:
448,192,6402,1,0,0:0:0:0:
192,192,6402,1,0,0:0:0:0:
320,192,6562,1,0,0:0:0:0:
64,192,6723,1,0,0:0:0:0:
192,192,6723,1,0,0:0:0:0:
448,192,6883,1,0,0:0:0:0:
320,192,7043,1,0,0:0:0:0:
192,192,7043,1,0,0:0:0:0:
64,192,7043,1,0,0:0:0:0:
448,192,7204,1,0,0:0:0:0:
192,192,7364,1,0,0:0:0:0:
320,192,7364,1,0,0:0:0:0:
64,192,7525,1,0,0:0:0:0:
192,192,7685,1,0,0:0:0:0:
448,192,7685,1,0,0:0:0:0:
320,192,7685,1,0,0:0:0:0:
64,192,7846,1,0,0:0:0:0:
192,192,8006,1,0,0:0:0:0:
448,192,8006,1,0,0:0:0:0:
320,192,8166,1,0,0:0:0:0:
64,192,8327,1,0,0:0:0:0:
192,192,8327,1,0,0:0:0:0:
448,192,8327,1,0,0:0:0:0:
320,192,8487,1,0,0:0:0:0:
64,192,8648,1,0,0:0:0:0:
448,192,8648,1,0,0:0:0:0:
192,192,8808,1,0,0:0:0:0:
64,192,8969,1,0,0:0:0:0:
320,192,8969,1,0,0:0:0:0:
448,192,8969,1,0,0:0:0:0:
192,192,9129,1,0,0:0:0:0:
64,192,9289,1,0,0:0:0:0:
448,192,9289,128,0,9450:0:0:0:0:
320,192,9450,128,0,9610:0:0:0:0:
64,192,9610,1,0,0:0:0:0:
192,192,9610,1,0,0:0:0:0:
448,192,9610,1,0,0:0:0:0:
320,192,9771,1,0,0:0:0:0:
448,192,9931,1,0,0:0:0:0:
64,192,9931,1,0,0:0:0:0:
320,192,10011,1,0,0:0:0:0:
192,192,10092,1,0,0:0:0:0:
64,192,10092,1,0,0:0:0:0:
64,192,10252,1,0,0:0:0:0:
320,192,10252,1,0,0:0:0:0:
448,192,10252,1,0,0:0:0:0:
192,192,10412,1,0,0:0:0:0:
64,192,10573,1,0,0:0:0:0:
320,192,10573,1,0,0:0:0:0:
448,192,10573,1,0,0:0:0:0:
192,192,10733,1,0,0:0:0:0:
320,192,10733,1,0,0:0:0:0:
192,192,10894,1,0,0:0:0:0:
448,192,10894,1,0,0:0:0:0:
64,192,10894,1,0,0:0:0:0:
192,192,11054,1,0,0:0:0:0:
320,192,11054,1,0,0:0:0:0:
448,192,11215,1,0,0:0:0:0:
64,192,11215,1,0,0:0:0:0:
64,192,11375,1,0,0:0:0:0:
320,192,11375,1,0,0:0:0:0:
192,192,11535,1,0,0:0:0:0:
448,192,11535,1,0,0:0:0:0:
64,192,11535,1,0,0:0:0:0:
320,192,11696,1,0,0:0:0:0:
64,192,11696,1,0,0:0:0:0:
192,192,11856,1,0,0:0:0:0:
320,192,11856,1,0,0:0:0:0:
64,192,12017,1,0,0:0:0:0:
448,192,12017,1,0,0:0:0:0:
64,192,12177,1,0,0:0:0:0:
192,192,12177,1,0,0:0:0:0:
448,192,12177,1,0,0:0:0:0:
192,192,12338,1,0,0:0:0:0:
320,192,12338,1,0,0:0:0:0:
192,192,12498,1,0,0:0:0:0:
448,192,12498,1,0,0:0:0:0:
64,192,12658,1,0,0:0:0:0:
320,192,12658,1,0,0:0:0:0:
320,192,12819,1,0,0:0:0:0:
64,192,12819,1,0,0:0:0:0:
448,192,12819,1,0,0:0:0:0:
192,192,12979,1,0,0:0:0:0:
320,192,12979,1,0,0:0:0:0:
64,192,13140,1,0,0:0:0:0:
448,192,13140,1,0,0:0:0:0:
320,192,13300,1,0,0:0:0:0:
192,192,13300,1,0,0:0:0:0:
64,192,13461,1,0,0:0:0:0:
448,192,13461,1,0,0:0:0:0:
192,192,13461,1,0,0:0:0:0:
448,192,13621,1,0,0:0:0:0:
192,192,13621,1,0,0:0:0:0:
64,192,13781,1,0,0:0:0:0:
320,192,13781,1,0,0:0:0:0:
192,192,13942,1,0,0:0:0:0:
448,192,13942,1,0,0:0:0:0:
64,192,14102,1,0,0:0:0:0:
448,192,14102,1,0,0:0:0:0:
320,192,14102,1,0,0:0:0:0:
192,192,14263,1,0,0:0:0:0:
320,192,14263,1,0,0:0:0:0:
64,192,14423,1,0,0:0:0:0:
320,192,14423,1,0,0:0:0:0:
448,192,14423,1,0,0:0:0:0:
192,192,14584,1,0,0:0:0:0:
64,192,14744,1,0,0:0:0:0:
320,192,14744,1,0,0:0:0:0:
448,192,14744,1,0,0:0:0:0:
192,192,14744,1,0,0:0:0:0:
448,192,15065,1,0,0:0:0:0:
320,192,15118,1,0,0:0:0:0:
192,192,15172,1,0,0:0:0:0:
64,192,15225,1,0,0:0:0:0:
448,192,15279,1,0,0:0:0:0:
320,192,15332,1,0,0:0:0:0:
64,192,15386,1,0,0:0:0:0:
192,192,15386,1,0,0:0:0:0:
448,192,15546,1,0,0:0:0:0:
320,192,15546,1,0,0:0:0:0:
64,192,15707,1,0,0:0:0:0:
448,192,15707,1,0,0:0:0:0:
192,192,15707,1,0,0:0:0:0:
320,192,15787,1,0,0:0:0:0:
192,192,15867,1,0,0:0:0:0:
64,192,15947,1,0,0:0:0:0:
448,192,16027,1,0,0:0:0:0:
192,192,16027,1,0,0:0:0:0:
320,192,16108,1,0,0:0:0:0:
192,192,16188,1,0,0:0:0:0:
64,192,16268,1,0,0:0:0:0:
192,192,16348,1,0,0:0:0:0:
320,192,16348,1,0,0:0:0:0:
448,192,16428,1,0,0:0:0:0:
64,192,16509,1,0,0:0:0:0:
192,192,16589,1,0,0:0:0:0:
320,192,16669,1,0,0:0:0:0:
448,192,16669,1,0,0:0:0:0:
192,192,16749,1,0,0:0:0:0:
64,192,16830,1,0,0:0:0:0:
448,192,16910,1,0,0:0:0:0:
320,192,16990,1,0,0:0:0:0:
192,192,16990,1,0,0:0:0:0:
64,192,17070,1,0,0:0:0:0:
448,192,17150,1,0,0:0:0:0:
320,192,17231,1,0,0:0:0:0:
192,192,17311,1,0,0:0:0:0:
64,192,17311,1,0,0:0:0:0:
448,192,17391,1,0,0:0:0:0:
320,192,17471,1,0,0:0:0:0:
192,192,17551,1,0,0:0:0:0:
64,192,17632,1,0,0:0:0:0:
448,192,17632,1,0,0:0:0:0:
192,192,17712,1,0,0:0:0:0:
320,192,17792,1,0,0:0:0:0:
448,192,17872,1,0,0:0:0:0:
64,192,17953,1,0,0:0:0:0:
320,192,17953,1,0,0:0:0:0:
192,192,18033,1,0,0:0:0:0:
320,192,18113,1,0,0:0:0:0:
448,192,18193,1,0,0:0:0:0:
320,192,18273,1,0,0:0:0:0:
192,192,18273,1,0,0:0:0:0:
64,192,18354,1,0,0:0:0:0:
448,192,18434,1,0,0:0:0:0:
320,192,18514,1,0,0:0:0:0:
192,192,18594,1,0,0:0:0:0:
64,192,18594,1,0,0:0:0:0:
448,192,18674,1,0,0:0:0:0:
320,192,18755,1,0,0:0:0:0:
192,192,18835,1,0,0:0:0:0:
64,192,18915,1,0,0:0:0:0:
448,192,18915,1,0,0:0:0:0:
192,192,18995,1,0,0:0:0:0:
320,192,19076,1,0,0:0:0:0:
448,192,19156,1,0,0:0:0:0:
64,192,19236,1,0,0:0:0:0:
320,192,19236,1,0,0:0:0:0:
192,192,19316,1,0,0:0:0:0:
320,192,19396,1,0,0:0:0:0:
448,192,19477,1,0,0:0:0:0:
64,192,19557,1,0,0:0:0:0:
192,192,19557,1,0,0:0:0:0:
320,192,19717,1,0,0:0:0:0:
448,192,19717,1,0,0:0:0:0:
64,192,19878,1,0,0:0:0:0:
192,192,19878,1,0,0:0:0:0:
448,192,19878,1,0,0:0:0:0:
192,192,20038,1,0,0:0:0:0:
320,192,20038,1,0,0:0:0:0:
64,192,20199,1,0,0:0:0:0:
192,192,20199,1,0,0:0:0:0:
448,192,20199,1,0,0:0:0:0:
320,192,20279,1,0,0:0:0:0:
192,192,20359,1,0,0:0:0:0:
64,192,20359,1,0,0:0:0:0:
64,192,20519,1,0,0:0:0:0:
192,192,20519,1,0,0:0:0:0:
320,192,20519,1,0,0:0:0:0:
448,192,20519,1,0,0:0:0:0:
192,192,20680,1,0,0:0:0:0:
320,192,20680,1,0,0:0:0:0:
64,192,20840,1,0,0:0:0:0:
448,192,20840,1,0,0:0:0:0:
192,192,20840,1,0,0:0:0:0:
320,192,20920,1,0,0:0:0:0:
192,192,21001,1,0,0:0:0:0:
64,192,21081,1,0,0:0:0:0:
192,192,21161,1,0,0:0:0:0:
448,192,21161,1,0,0:0:0:0:
320,192,21241,1,0,0:0:0:0:
192,192,21322,1,0,0:0:0:0:
64,192,21402,1,0,0:0:0:0:
448,192,21482,1,0,0:0:0:0:
320,192,21482,1,0,0:0:0:0:
192,192,21562,1,0,0:0:0:0:
64,192,21642,1,0,0:0:0:0:
192,192,21723,1,0,0:0:0:0:
64,192,21803,1,0,0:0:0:0:
448,192,21803,1,0,0:0:0:0:
320,192,21883,1,0,0:0:0:0:
192,192,21963,1,0,0:0:0:0:
64,192,22043,1,0,0:0:0:0:
448,192,22124,1,0,0:0:0:0:
320,192,22124,1,0,0:0:0:0:
192,192,22204,1,0,0:0:0:0:
64,192,22284,1,0,0:0:0:0:
448,192,22364,1,0,0:0:0:0:
320,192,22445,1,0,0:0:0:0:
192,192,22445,1,0,0:0:0:0:
64,192,22525,1,0,0:0:0:0:
192,192,22605,1,0,0:0:0:0:
320,192,22685,1,0,0:0:0:0:
448,192,22765,1,0,0:0:0:0:
64,192,22765,1,0,0:0:0:0:
320,192,22846,1,0,0:0:0:0:
192,192,22926,1,0,0:0:0:0:
64,192,23006,1,0,0:0:0:0:
192,192,23086,1,0,0:0:0:0:
448,192,23086,1,0,0:0:0:0:
320,192,23166,1,0,0:0:0:0:
192,192,23247,1,0,0:0:0:0:
64,192,23327,1,0,0:0:0:0:
192,192,23407,1,0,0:0:0:0:
320,192,23407,1,0,0:0:0:0:
448,192,23487,1,0,0:0:0:0:
64,192,23568,1,0,0:0:0:0:
192,192,23648,1,0,0:0:0:0:
320,192,23728,1,0,0:0:0:0:
448,192,23728,1,0,0:0:0:0:
64,192,23808,1,0,0:0:0:0:
192,192,23888,1,0,0:0:0:0:
320,192,23969,1,0,0:0:0:0:
448,192,24049,1,0,0:0:0:0:
64,192,24049,1,0,0:0:0:0:
192,192,24129,1,0,0:0:0:0:
320,192,24209,1,0,0:0:0:0:
448,192,24289,1,0,0:0:0:0:
64,192,24370,1,0,0:0:0:0:
192,192,24370,1,0,0:0:0:0:
320,192,24450,1,0,0:0:0:0:
448,192,24530,1,0,0:0:0:0:
64,192,24610,1,0,0:0:0:0:
192,192,24691,1,0,0:0:0:0:
448,192,24691,1,0,0:0:0:0:
320,192,24771,1,0,0:0:0:0:
192,192,24851,1,0,0:0:0:0:
64,192,24931,1,0,0:0:0:0:
448,192,25011,1,0,0:0:0:0:
192,192,25011,1,0,0:0:0:0:
320,192,25092,1,0,0:0:0:0:
192,192,25172,1,0,0:0:0:0:
320,192,25252,1,0,0:0:0:0:
64,192,25332,1,0,0:0:0:0:
192,192,25332,1,0,0:0:0:0:
448,192,25332,1,0,0:0:0:0:
320,192,25412,1,0,0:0:0:0:
192,192,25493,1,0,0:0:0:0:
64,192,25493,1,0,0:0:0:0:
320,192,25573,1,0,0:0:0:0:
64,192,25653,1,0,0:0:0:0:
448,192,25653,1,0,0:0:0:0:
192,192,25733,1,0,0:0:0:0:
320,192,25814,1,0,0:0:0:0:
448,192,25814,1,0,0:0:0:0:
64,192,25814,1,0,0:0:0:0:
448,192,25974,1,0,0:0:0:0:
64,192,25974,1,0,0:0:0:0:
192,192,25974,128,0,26134:0:0:0:0:
320,192,26134,128,0,26295:0:0:0:0:
448,192,26295,128,0,26455:0:0:0:0:
64,192,26295,1,0,0:0:0:0:
192,192,26295,1,0,0:0:0:0:
320,192,26455,1,0,0:0:0:0:
192,192,26535,1,0,0:0:0:0:
64,192,26616,1,0,0:0:0:0:
320,192,26616,1,0,0:0:0:0:
448,192,26616,1,0,0:0:0:0:
192,192,26776,1,0,0:0:0:0:
64,192,26937,1,0,0:0:0:0:
448,192,26937,1,0,0:0:0:0:
320,192,26937,1,0,0:0:0:0:
192,192,27097,1,0,0:0:0:0:
320,192,27097,1,0,0:0:0:0:
64,192,27257,1,0,0:0:0:0:
192,192,27257,1,0,0:0:0:0:
448,192,27257,1,0,0:0:0:0:
320,192,27338,1,0,0:0:0:0:
192,192,27418,1,0,0:0:0:0:
64,192,27418,1,0,0:0:0:0:
448,192,27578,1,0,0:0:0:0:
64,192,27578,1,0,0:0:0:0:
192,192,27578,1,0,0:0:0:0:
320,192,27658,1,0,0:0:0:0:
192,192,27739,1,0,0:0:0:0:
64,192,27739,1,0,0:0:0:0:
448,192,27819,1,0,0:0:0:0:
64,192,27899,1,0,0:0:0:0:
320,192,27899,1,0,0:0:0:0:
192,192,27899,1,0,0:0:0:0:
448,192,28220,1,0,0:0:0:0:
320,192,28300,1,0,0:0:0:0:
192,192,28380,1,0,0:0:0:0:
320,192,28461,1,0,0:0:0:0:
448,192,28541,1,0,0:0:0:0:
64,192,28541,1,0,0:0:0:0:
192,192,28541,1,0,0:0:0:0:
320,192,28621,1,0,0:0:0:0:
192,192,28701,1,0,0:0:0:0:
64,192,28781,1,0,0:0:0:0:
192,192,28862,1,0,0:0:0:0:
448,192,28862,1,0,0:0:0:0:
320,192,28862,1,0,0:0:0:0:
64,192,29022,1,0,0:0:0:0:
192,192,29022,1,0,0:0:0:0:
448,192,29022,1,0,0:0:0:0:
320,192,29183,1,0,0:0:0:0:
448,192,29183,1,0,0:0:0:0:
64,192,29183,1,0,0:0:0:0:
64,192,29343,1,0,0:0:0:0:
192,192,29343,1,0,0:0:0:0:
448,192,29343,1,0,0:0:0:0:
64,192,29664,1,0,0:0:0:0:
192,192,29664,1,0,0:0:0:0:
448,192,29664,1,0,0:0:0:0:
320,192,29664,1,0,0:0:0:0:
64,192,29985,1,0,0:0:0:0:
448,192,29985,1,0,0:0:0:0:
320,192,29985,1,0,0:0:0:0:
192,192,30145,1,0,0:0:0:0:
320,192,30145,1,0,0:0:0:0:
64,192,30305,1,0,0:0:0:0:
448,192,30305,1,0,0:0:0:0:
192,192,30305,1,0,0:0:0:0:
320,192,30386,1,0,0:0:0:0:
192,192,30466,1,0,0:0:0:0:
448,192,30466,1,0,0:0:0:0:
64,192,30546,1,0,0:0:0:0:
448,192,30626,1,0,0:0:0:0:
320,192,30626,1,0,0:0:0:0:
192,192,30707,1,0,0:0:0:0:
64,192,30787,1,0,0:0:0:0:
320,192,30787,1,0,0:0:0:0:
448,192,30787,1,0,0:0:0:0:
64,192,30947,1,0,0:0:0:0:
192,192,30947,1,0,0:0:0:0:
448,192,30947,1,0,0:0:0:0:
64,192,31108,1,0,0:0:0:0:
320,192,31108,1,0,0:0:0:0:
448,192,31108,1,0,0:0:0:0:
192,192,31268,1,0,0:0:0:0:
320,192,31268,1,0,0:0:0:0:
64,192,31428,1,0,0:0:0:0:
320,192,31428,1,0,0:0:0:0:
448,192,31428,1,0,0:0:0:0:
64,192,31589,1,0,0:0:0:0:
320,192,31589,1,0,0:0:0:0:
192,192,31669,1,0,0:0:0:0:
64,192,31749,1,0,0:0:0:0:
320,192,31749,1,0,0:0:0:0:
448,192,31749,1,0,0:0:0:0:
64,192,31910,1,0,0:0:0:0:
320,192,31910,1,0,0:0:0:0:
192,192,32070,1,0,0:0:0:0:
448,192,32070,1,0,0:0:0:0:
64,192,32070,1,0,0:0:0:0:
64,192,32231,1,0,0:0:0:0:
192,192,32231,1,0,0:0:0:0:
320,192,32311,1,0,0:0:0:0:
64,192,32391,1,0,0:0:0:0:
448,192,32391,1,0,0:0:0:0:
192,192,32391,1,0,0:0:0:0:
64,192,32551,1,0,0:0:0:0:
192,192,32551,1,0,0:0:0:0:
448,192,32551,1,0,0:0:0:0:
320,192,32712,1,0,0:0:0:0:
64,192,32872,1,0,0:0:0:0:
320,192,32872,1,0,0:0:0:0:
448,192,32872,1,0,0:0:0:0:
192,192,33033,1,0,0:0:0:0:
64,192,33193,1,0,0:0:0:0:
192,192,33193,1,0,0:0:0:0:
448,192,33193,1,0,0:0:0:0:
320,192,33354,1,0,0:0:0:0:
64,192,33514,1,0,0:0:0:0:
448,192,33514,1,0,0:0:0:0:
320,192,33514,1,0,0:0:0:0:
64,192,33674,1,0,0:0:0:0:
448,192,33674,1,0,0:0:0:0:
192,192,33674,1,0,0:0:0:0:
320,192,33755,1,0,0:0:0:0:
192,192,33835,1,0,0:0:0:0:
64,192,33915,1,0,0:0:0:0:
192,192,33995,1,0,0:0:0:0:
448,192,33995,1,0,0:0:0:0:
320,192,34076,1,0,0:0:0:0:
192,192,34156,1,0,0:0:0:0:
64,192,34236,1,0,0:0:0:0:
320,192,34316,1,0,0:0:0:0:
448,192,34316,1,0,0:0:0:0:
192,192,34396,1,0,0:0:0:0:
64,192,34477,1,0,0:0:0:0:
192,192,34557,1,0,0:0:0:0:
64,192,34637,1,0,0:0:0:0:
448,192,34637,1,0,0:0:0:0:
320,192,34637,1,0,0:0:0:0:
64,192,34797,1,0,0:0:0:0:
192,192,34797,1,0,0:0:0:0:
448,192,34797,1,0,0:0:0:0:
320,192,34958,1,0,0:0:0:0:
64,192,35118,1,0,0:0:0:0:
320,192,35118,1,0,0:0:0:0:
448,192,35118,1,0,0:0:0:0:
64,192,35279,1,0,0:0:0:0:
192,192,35279,1,0,0:0:0:0:
448,192,35279,1,0,0:0:0:0:
64,192,35600,1,0,0:0:0:0:
320,192,35600,1,0,0:0:0:0:
448,192,35600,1,0,0:0:0:0:
192,192,35680,1,0,0:0:0:0:
64,192,35760,1,0,0:0:0:0:
320,192,35760,1,0,0:0:0:0:
192,192,35840,1,0,0:0:0:0:
64,192,35920,1,0,0:0:0:0:
320,192,35920,1,0,0:0:0:0:
448,192,35920,1,0,0:0:0:0:
192,192,36081,1,0,0:0:0:0:
320,192,36081,1,0,0:0:0:0:
64,192,36241,1,0,0:0:0:0:
192,192,36241,1,0,0:0:0:0:
448,192,36241,1,0,0:0:0:0:
192,192,36402,1,0,0:0:0:0:
320,192,36402,1,0,0:0:0:0:
64,192,36562,1,0,0:0:0:0:
320,192,36562,1,0,0:0:0:0:
448,192,36562,1,0,0:0:0:0:
320,192,36723,1,0,0:0:0:0:
448,192,36723,1,0,0:0:0:0:
192,192,36803,1,0,0:0:0:0:
64,192,36883,1,0,0:0:0:0:
448,192,36883,1,0,0:0:0:0:
320,192,36883,1,0,0:0:0:0:
192,192,37043,1,0,0:0:0:0:
320,192,37043,1,0,0:0:0:0:
64,192,37204,1,0,0:0:0:0:
192,192,37204,1,0,0:0:0:0:
448,192,37204,1,0,0:0:0:0:
64,192,37364,1,0,0:0:0:0:
320,192,37364,1,0,0:0:0:0:
320,192,37525,1,0,0:0:0:0:
64,192,37525,1,0,0:0:0:0:
448,192,37525,1,0,0:0:0:0:
192,192,37685,1,0,0:0:0:0:
320,192,37685,1,0,0:0:0:0:
64,192,37846,1,0,0:0:0:0:
448,192,37846,1,0,0:0:0:0:
192,192,37846,1,0,0:0:0:0:
320,192,37926,1,0,0:0:0:0:
192,192,38006,1,0,0:0:0:0:
64,192,38006,1,0,0:0:0:0:
448,192,38086,1,0,0:0:0:0:
320,192,38166,1,0,0:0:0:0:
192,192,38166,1,0,0:0:0:0:
64,192,38166,1,0,0:0:0:0:
448,192,38487,1,0,0:0:0:0:
320,192,38568,1,0,0:0:0:0:
192,192,38648,1,0,0:0:0:0:
320,192,38728,1,0,0:0:0:0:
192,192,38808,1,0,0:0:0:0:
448,192,38808,1,0,0:0:0:0:
64,192,38808,1,0,0:0:0:0:
320,192,38888,1,0,0:0:0:0:
192,192,38969,1,0,0:0:0:0:
64,192,39049,1,0,0:0:0:0:
192,192,39129,1,0,0:0:0:0:
448,192,39129,1,0,0:0:0:0:
320,192,39209,1,0,0:0:0:0:
192,192,39289,1,0,0:0:0:0:
64,192,39370,1,0,0:0:0:0:
320,192,39450,1,0,0:0:0:0:
448,192,39450,1,0,0:0:0:0:
192,192,39450,1,0,0:0:0:0:
64,192,39610,1,0,0:0:0:0:
320,192,39610,1,0,0:0:0:0:
448,192,39610,1,0,0:0:0:0:
64,192,39931,1,0,0:0:0:0:
192,192,39931,1,0,0:0:0:0:
320,192,39931,1,0,0:0:0:0:
448,192,39931,1,0,0:0:0:0:
320,192,40252,1,0,0:0:0:0:
448,192,40252,1,0,0:0:0:0:
192,192,40332,1,0,0:0:0:0:
64,192,40412,1,0,0:0:0:0:
320,192,40412,1,0,0:0:0:0:
448,192,40412,1,0,0:0:0:0:
192,192,40493,1,0,0:0:0:0:
64,192,40573,1,0,0:0:0:0:
448,192,40573,1,0,0:0:0:0:
64,192,40733,1,0,0:0:0:0:
448,192,40733,1,0,0:0:0:0:
192,192,40814,1,0,0:0:0:0:
320,192,40814,1,0,0:0:0:0:
64,192,40894,1,0,0:0:0:0:
448,192,40894,1,0,0:0:0:0:
320,192,41054,1,0,0:0:0:0:
448,192,41054,1,0,0:0:0:0:
64,192,41054,1,0,0:0:0:0:
64,192,41215,1,0,0:0:0:0:
192,192,41215,1,0,0:0:0:0:
448,192,41215,1,0,0:0:0:0:
64,192,41375,1,0,0:0:0:0:
320,192,41375,1,0,0:0:0:0:
448,192,41375,1,0,0:0:0:0:
192,192,41535,1,0,0:0:0:0:
64,192,41535,1,0,0:0:0:0:
320,192,41616,1,0,0:0:0:0:
64,192,41696,1,0,0:0:0:0:
192,192,41696,1,0,0:0:0:0:
448,192,41696,1,0,0:0:0:0:
320,192,41856,1,0,0:0:0:0:
192,192,41856,1,0,0:0:0:0:
448,192,41937,1,0,0:0:0:0:
64,192,42017,1,0,0:0:0:0:
320,192,42017,1,0,0:0:0:0:
192,192,42017,1,0,0:0:0:0:
192,192,42177,1,0,0:0:0:0:
320,192,42177,1,0,0:0:0:0:
64,192,42338,1,0,0:0:0:0:
320,192,42338,1,0,0:0:0:0:
448,192,42338,1,0,0:0:0:0:
448,192,42498,1,0,0:0:0:0:
320,192,42498,1,0,0:0:0:0:
192,192,42578,1,0,0:0:0:0:
64,192,42658,1,0,0:0:0:0:
320,192,42658,1,0,0:0:0:0:
448,192,42658,1,0,0:0:0:0:
64,192,42819,1,0,0:0:0:0:
448,192,42819,1,0,0:0:0:0:
192,192,42819,1,0,0:0:0:0:
192,192,42979,1,0,0:0:0:0:
64,192,43140,1,0,0:0:0:0:
320,192,43140,1,0,0:0:0:0:
448,192,43140,1,0,0:0:0:0:
320,192,43300,1,0,0:0:0:0:
64,192,43461,1,0,0:0:0:0:
192,192,43461,1,0,0:0:0:0:
448,192,43461,1,0,0:0:0:0:
320,192,43621,1,0,0:0:0:0:
64,192,43781,1,0,0:0:0:0:
192,192,43781,1,0,0:0:0:0:
448,192,43781,1,0,0:0:0:0:
320,192,43942,1,0,0:0:0:0:
448,192,43942,1,0,0:0:0:0:
64,192,43942,1,0,0:0:0:0:
448,192,44102,1,0,0:0:0:0:
320,192,44183,1,0,0:0:0:0:
192,192,44263,1,0,0:0:0:0:
64,192,44263,1,0,0:0:0:0:
448,192,44343,1,0,0:0:0:0:
320,192,44423,1,0,0:0:0:0:
192,192,44503,1,0,0:0:0:0:
320,192,44584,1,0,0:0:0:0:
448,192,44584,1,0,0:0:0:0:
64,192,44664,1,0,0:0:0:0:
192,192,44744,1,0,0:0:0:0:
320,192,44824,1,0,0:0:0:0:
192,192,44904,1,0,0:0:0:0:
64,192,44904,1,0,0:0:0:0:
448,192,44904,1,0,0:0:0:0:
192,192,45065,1,0,0:0:0:0:
320,192,45065,1,0,0:0:0:0:
448,192,45065,1,0,0:0:0:0:
64,192,45225,1,0,0:0:0:0:
320,192,45225,1,0,0:0:0:0:
448,192,45225,1,0,0:0:0:0:
192,192,45386,1,0,0:0:0:0:
448,192,45386,1,0,0:0:0:0:
64,192,45546,1,0,0:0:0:0:
192,192,45546,1,0,0:0:0:0:
448,192,45546,1,0,0:0:0:0:
192,192,45707,1,0,0:0:0:0:
320,192,45707,1,0,0:0:0:0:
64,192,45867,1,0,0:0:0:0:
448,192,45867,1,0,0:0:0:0:
192,192,45867,1,0,0:0:0:0:
320,192,45947,1,0,0:0:0:0:
192,192,46027,1,0,0:0:0:0:
64,192,46027,1,0,0:0:0:0:
320,192,46108,1,0,0:0:0:0:
192,192,46188,1,0,0:0:0:0:
64,192,46188,1,0,0:0:0:0:
448,192,46188,1,0,0:0:0:0:
320,192,46268,1,0,0:0:0:0:
64,192,46348,1,0,0:0:0:0:
448,192,46348,1,0,0:0:0:0:
192,192,46428,1,0,0:0:0:0:
64,192,46509,1,0,0:0:0:0:
320,192,46509,1,0,0:0:0:0:
448,192,46509,1,0,0:0:0:0:
192,192,46669,1,0,0:0:0:0:
320,192,46669,1,0,0:0:0:0:
64,192,46830,1,0,0:0:0:0:
192,192,46830,1,0,0:0:0:0:
448,192,46830,1,0,0:0:0:0:
320,192,46910,1,0,0:0:0:0:
192,192,46990,1,0,0:0:0:0:
64,192,46990,1,0,0:0:0:0:
64,192,47150,1,0,0:0:0:0:
320,192,47150,1,0,0:0:0:0:
448,192,47150,1,0,0:0:0:0:
192,192,47231,1,0,0:0:0:0:
320,192,47311,1,0,0:0:0:0:
448,192,47311,1,0,0:0:0:0:
64,192,47391,1,0,0:0:0:0:
192,192,47471,1,0,0:0:0:0:
320,192,47471,1,0,0:0:0:0:
448,192,47471,1,0,0:0:0:0:
192,192,47632,1,0,0:0:0:0:
320,192,47632,1,0,0:0:0:0:
64,192,47792,1,0,0:0:0:0:
448,192,47792,1,0,0:0:0:0:
192,192,47792,1,0,0:0:0:0:
320,192,47872,1,0,0:0:0:0:
192,192,47953,1,0,0:0:0:0:
64,192,47953,1,0,0:0:0:0:
448,192,48033,1,0,0:0:0:0:
320,192,48113,1,0,0:0:0:0:
192,192,48113,1,0,0:0:0:0:
64,192,48113,1,0,0:0:0:0:
64,192,48434,1,0,0:0:0:0:
192,192,48434,1,0,0:0:0:0:
320,192,48434,1,0,0:0:0:0:
448,192,48434,1,0,0:0:0:0:
64,192,48755,1,0,0:0:0:0:
192,192,48755,1,0,0:0:0:0:
320,192,48755,1,0,0:0:0:0:
448,192,48755,1,0,0:0:0:0:
64,192,49076,1,0,0:0:0:0:
192,192,49076,1,0,0:0:0:0:
448,192,49076,1,0,0:0:0:0:
320,192,49156,1,0,0:0:0:0:
64,192,49236,1,0,0:0:0:0:
448,192,49236,1,0,0:0:0:0:
192,192,49316,1,0,0:0:0:0:
320,192,49396,1,0,0:0:0:0:
448,192,49396,1,0,0:0:0:0:
64,192,49396,1,0,0:0:0:0:
192,192,49477,1,0,0:0:0:0:
64,192,49557,1,0,0:0:0:0:
320,192,49557,1,0,0:0:0:0:
192,192,49637,1,0,0:0:0:0:
64,192,49717,1,0,0:0:0:0:
320,192,49717,1,0,0:0:0:0:
448,192,49717,1,0,0:0:0:0:
192,192,49797,1,0,0:0:0:0:
64,192,49878,1,0,0:0:0:0:
448,192,49878,1,0,0:0:0:0:
320,192,49958,1,0,0:0:0:0:
192,192,50038,1,0,0:0:0:0:
64,192,50038,1,0,0:0:0:0:
448,192,50038,1,0,0:0:0:0:
320,192,50118,1,0,0:0:0:0:
192,192,50199,1,0,0:0:0:0:
64,192,50199,1,0,0:0:0:0:
448,192,50279,1,0,0:0:0:0:
320,192,50359,1,0,0:0:0:0:
192,192,50359,1,0,0:0:0:0:
64,192,50359,1,0,0:0:0:0:
448,192,50439,1,0,0:0:0:0:
64,192,50519,1,0,0:0:0:0:
320,192,50519,1,0,0:0:0:0:
192,192,50600,1,0,0:0:0:0:
448,192,50680,1,0,0:0:0:0:
320,192,50680,1,0,0:0:0:0:
64,192,50680,1,0,0:0:0:0:
192,192,50760,1,0,0:0:0:0:
64,192,50840,1,0,0:0:0:0:
448,192,50840,1,0,0:0:0:0:
320,192,50920,1,0,0:0:0:0:
192,192,51001,1,0,0:0:0:0:
64,192,51001,1,0,0:0:0:0:
448,192,51001,1,0,0:0:0:0:
64,192,51322,1,0,0:0:0:0:
320,192,51322,1,0,0:0:0:0:
192,192,51322,1,0,0:0:0:0:
448,192,51322,1,0,0:0:0:0:
64,192,51642,1,0,0:0:0:0:
320,192,51642,1,0,0:0:0:0:
448,192,51642,1,0,0:0:0:0:
192,192,51723,1,0,0:0:0:0:
64,192,51803,1,0,0:0:0:0:
320,192,51803,1,0,0:0:0:0:
192,192,51883,1,0,0:0:0:0:
320,192,51963,1,0,0:0:0:0:
448,192,51963,1,0,0:0:0:0:
64,192,51963,1,0,0:0:0:0:
192,192,52043,1,0,0:0:0:0:
64,192,52124,1,0,0:0:0:0:
448,192,52124,1,0,0:0:0:0:
320,192,52204,1,0,0:0:0:0:
192,192,52284,1,0,0:0:0:0:
64,192,52284,1,0,0:0:0:0:
448,192,52284,1,0,0:0:0:0:
320,192,52364,1,0,0:0:0:0:
192,192,52445,1,0,0:0:0:0:
64,192,52445,1,0,0:0:0:0:
448,192,52525,1,0,0:0:0:0:
320,192,52605,1,0,0:0:0:0:
192,192,52605,1,0,0:0:0:0:
64,192,52605,1,0,0:0:0:0:
64,192,52765,1,0,0:0:0:0:
448,192,52765,1,0,0:0:0:0:
192,192,52765,1,0,0:0:0:0:
64,192,52926,1,0,0:0:0:0:
320,192,52926,1,0,0:0:0:0:
448,192,52926,1,0,0:0:0:0:
192,192,53086,1,0,0:0:0:0:
320,192,53086,1,0,0:0:0:0:
64,192,53247,1,0,0:0:0:0:
192,192,53247,1,0,0:0:0:0:
448,192,53247,1,0,0:0:0:0:
320,192,53327,1,0,0:0:0:0:
64,192,53407,1,0,0:0:0:0:
448,192,53407,1,0,0:0:0:0:
192,192,53487,1,0,0:0:0:0:
320,192,53568,1,0,0:0:0:0:
448,192,53568,1,0,0:0:0:0:
64,192,53568,1,0,0:0:0:0:
192,192,53648,1,0,0:0:0:0:
320,192,53728,1,0,0:0:0:0:
448,192,53728,1,0,0:0:0:0:
64,192,53808,1,0,0:0:0:0:
192,192,53888,1,0,0:0:0:0:
320,192,53888,1,0,0:0:0:0:
448,192,53888,1,0,0:0:0:0:
64,192,53969,1,0,0:0:0:0:
192,192,54049,1,0,0:0:0:0:
448,192,54049,1,0,0:0:0:0:
320,192,54129,1,0,0:0:0:0:
64,192,54209,1,0,0:0:0:0:
192,192,54209,1,0,0:0:0:0:
448,192,54209,1,0,0:0:0:0:
64,192,54450,1,0,0:0:0:0:
320,192,54450,1,0,0:0:0:0:
448,192,54450,1,0,0:0:0:0:
64,192,54691,1,0,0:0:0:0:
192,192,54691,1,0,0:0:0:0:
448,192,54691,1,0,0:0:0:0:
64,192,54931,1,0,0:0:0:0:
320,192,54931,1,0,0:0:0:0:
448,192,54931,1,0,0:0:0:0:
64,192,55172,1,0,0:0:0:0:
192,192,55172,1,0,0:0:0:0:
448,192,55172,1,0,0:0:0:0:
64,192,55332,1,0,0:0:0:0:
320,192,55332,1,0,0:0:0:0:
448,192,55332,1,0,0:0:0:0:
64,192,55493,1,0,0:0:0:0:
448,192,55493,1,0,0:0:0:0:
192,192,55573,1,0,0:0:0:0:
320,192,55573,1,0,0:0:0:0:
64,192,55814,1,0,0:0:0:0:
320,192,55814,1,0,0:0:0:0:
448,192,55814,1,0,0:0:0:0:
192,192,56054,1,0,0:0:0:0:
320,192,56054,1,0,0:0:0:0:
448,192,56054,1,0,0:0:0:0:
64,192,56295,1,0,0:0:0:0:
192,192,56295,1,0,0:0:0:0:
320,192,56295,1,0,0:0:0:0:
64,192,56455,1,0,0:0:0:0:
320,192,56455,1,0,0:0:0:0:
448,192,56455,1,0,0:0:0:0:
64,192,56616,1,0,0:0:0:0:
192,192,56616,1,0,0:0:0:0:
448,192,56616,1,0,0:0:0:0:
64,192,56776,1,0,0:0:0:0:
192,192,56776,1,0,0:0:0:0:
448,192,56776,1,0,0:0:0:0:
320,192,56856,1,0,0:0:0:0:
64,192,56937,1,0,0:0:0:0:
448,192,56937,1,0,0:0:0:0:
192,192,57017,1,0,0:0:0:0:
320,192,57097,1,0,0:0:0:0:
448,192,57097,1,0,0:0:0:0:
64,192,57097,1,0,0:0:0:0:
192,192,57177,1,0,0:0:0:0:
64,192,57257,1,0,0:0:0:0:
448,192,57257,1,0,0:0:0:0:
320,192,57338,1,0,0:0:0:0:
192,192,57418,1,0,0:0:0:0:
64,192,57418,1,0,0:0:0:0:
448,192,57418,1,0,0:0:0:0:
320,192,57498,1,0,0:0:0:0:
64,192,57578,1,0,0:0:0:0:
192,192,57578,1,0,0:0:0:0:
320,192,57658,1,0,0:0:0:0:
448,192,57739,1,0,0:0:0:0:
192,192,57739,1,0,0:0:0:0:
64,192,57739,1,0,0:0:0:0:
320,192,57819,1,0,0:0:0:0:
64,192,57899,1,0,0:0:0:0:
448,192,57899,1,0,0:0:0:0:
192,192,57979,1,0,0:0:0:0:
320,192,58060,1,0,0:0:0:0:
448,192,58060,1,0,0:0:0:0:
64,192,58060,1,0,0:0:0:0:
192,192,58140,1,0,0:0:0:0:
64,192,58220,1,0,0:0:0:0:
448,192,58220,1,0,0:0:0:0:
320,192,58300,1,0,0:0:0:0:
64,192,58380,1,0,0:0:0:0:
192,192,58380,1,0,0:0:0:0:
448,192,58380,1,0,0:0:0:0:
320,192,58461,1,0,0:0:0:0:
192,192,58541,1,0,0:0:0:0:
64,192,58541,1,0,0:0:0:0:
64,192,58701,1,0,0:0:0:0:
448,192,58701,1,0,0:0:0:0:
192,192,58701,1,0,0:0:0:0:
320,192,58781,1,0,0:0:0:0:
64,192,58862,1,0,0:0:0:0:
448,192,58862,1,0,0:0:0:0:
192,192,58942,1,0,0:0:0:0:
448,192,59022,1,0,0:0:0:0:
320,192,59022,1,0,0:0:0:0:
64,192,59022,1,0,0:0:0:0:
192,192,59102,1,0,0:0:0:0:
64,192,59183,1,0,0:0:0:0:
448,192,59183,1,0,0:0:0:0:
320,192,59263,1,0,0:0:0:0:
64,192,59343,1,0,0:0:0:0:
448,192,59343,1,0,0:0:0:0:
192,192,59343,1,0,0:0:0:0:
320,192,59423,1,0,0:0:0:0:
64,192,59503,1,0,0:0:0:0:
448,192,59503,1,0,0:0:0:0:
192,192,59584,1,0,0:0:0:0:
64,192,59664,1,0,0:0:0:0:
448,192,59664,1,0,0:0:0:0:
320,192,59664,1,0,0:0:0:0:
192,192,59744,1,0,0:0:0:0:
64,192,59824,1,0,0:0:0:0:
320,192,59824,1,0,0:0:0:0:
192,192,59904,1,0,0:0:0:0:
64,192,59985,1,0,0:0:0:0:
320,192,59985,1,0,0:0:0:0:
448,192,59985,1,0,0:0:0:0:
192,192,60065,1,0,0:0:0:0:
64,192,60145,1,0,0:0:0:0:
448,192,60145,1,0,0:0:0:0:
320,192,60225,1,0,0:0:0:0:
192,192,60305,1,0,0:0:0:0:
64,192,60305,1,0,0:0:0:0:
448,192,60305,1,0,0:0:0:0:
320,192,60386,1,0,0:0:0:0:
192,192,60466,1,0,0:0:0:0:
64,192,60466,1,0,0:0:0:0:
448,192,60546,1,0,0:0:0:0:
320,192,60626,1,0,0:0:0:0:
192,192,60626,1,0,0:0:0:0:
64,192,60626,1,0,0:0:0:0:
448,192,60707,1,0,0:0:0:0:
64,192,60787,1,0,0:0:0:0:
320,192,60787,1,0,0:0:0:0:
192,192,60867,1,0,0:0:0:0:
320,192,60947,1,0,0:0:0:0:
448,192,60947,1,0,0:0:0:0:
64,192,60947,1,0,0:0:0:0:
192,192,61027,1,0,0:0:0:0:
64,192,61108,1,0,0:0:0:0:
448,192,61108,1,0,0:0:0:0:
192,192,61188,1,0,0:0:0:0:
64,192,61268,1,0,0:0:0:0:
448,192,61268,1,0,0:0:0:0:
320,192,61268,1,0,0:0:0:0:
192,192,61348,1,0,0:0:0:0:
64,192,61428,1,0,0:0:0:0:
320,192,61428,1,0,0:0:0:0:
192,192,61509,1,0,0:0:0:0:
320,192,61589,1,0,0:0:0:0:
448,192,61589,1,0,0:0:0:0:
64,192,61589,1,0,0:0:0:0:
192,192,61642,1,0,0:0:0:0:
320,192,61696,1,0,0:0:0:0:
448,192,61749,1,0,0:0:0:0:
64,192,61803,1,0,0:0:0:0:
192,192,61856,1,0,0:0:0:0:
320,192,61910,1,0,0:0:0:0:
64,192,61910,1,0,0:0:0:0:
448,192,61910,1,0,0:0:0:0:
192,192,61990,1,0,0:0:0:0:
448,192,62070,1,0,0:0:0:0:
64,192,62070,1,0,0:0:0:0:
320,192,62150,1,0,0:0:0:0:
448,192,62231,1,0,0:0:0:0:
64,192,62231,1,0,0:0:0:0:
192,192,62231,1,0,0:0:0:0:
320,192,62311,1,0,0:0:0:0:
64,192,62391,1,0,0:0:0:0:
448,192,62391,1,0,0:0:0:0:
192,192,62471,1,0,0:0:0:0:
320,192,62551,1,0,0:0:0:0:
448,192,62551,1,0,0:0:0:0:
64,192,62551,1,0,0:0:0:0:
192,192,62632,1,0,0:0:0:0:
64,192,62712,1,0,0:0:0:0:
448,192,62712,1,0,0:0:0:0:
320,192,62792,1,0,0:0:0:0:
192,192,62872,1,0,0:0:0:0:
64,192,62872,1,0,0:0:0:0:
448,192,62872,1,0,0:0:0:0:
192,192,63033,1,0,0:0:0:0:
320,192,63033,1,0,0:0:0:0:
64,192,63193,1,0,0:0:0:0:
320,192,63193,1,0,0:0:0:0:
448,192,63193,1,0,0:0:0:0:
192,192,63354,1,0,0:0:0:0:
320,192,63354,1,0,0:0:0:0:
64,192,63514,1,0,0:0:0:0:
448,192,63514,1,0,0:0:0:0:
192,192,63514,1,0,0:0:0:0:
320,192,63594,1,0,0:0:0:0:
64,192,63674,1,0,0:0:0:0:
192,192,63674,1,0,0:0:0:0:
448,192,63755,1,0,0:0:0:0:
320,192,63835,1,0,0:0:0:0:
64,192,63835,1,0,0:0:0:0:
192,192,63835,1,0,0:0:0:0:
448,192,63915,1,0,0:0:0:0:
64,192,63995,1,0,0:0:0:0:
320,192,63995,1,0,0:0:0:0:
192,192,64076,1,0,0:0:0:0:
64,192,64156,1,0,0:0:0:0:
320,192,64156,1,0,0:0:0:0:
448,192,64156,1,0,0:0:0:0:
192,192,64236,1,0,0:0:0:0:
64,192,64316,1,0,0:0:0:0:
320,192,64316,1,0,0:0:0:0:
192,192,64396,1,0,0:0:0:0:
64,192,64477,1,0,0:0:0:0:
320,192,64477,1,0,0:0:0:0:
448,192,64477,1,0,0:0:0:0:
192,192,64717,1,0,0:0:0:0:
64,192,64717,1,0,0:0:0:0:
448,192,64717,1,0,0:0:0:0:
64,192,64958,1,0,0:0:0:0:
320,192,64958,1,0,0:0:0:0:
448,192,64958,1,0,0:0:0:0:
64,192,65199,1,0,0:0:0:0:
192,192,65199,1,0,0:0:0:0:
320,192,65199,1,0,0:0:0:0:
64,192,65439,1,0,0:0:0:0:
320,192,65439,1,0,0:0:0:0:
448,192,65439,1,0,0:0:0:0:
64,192,65600,1,0,0:0:0:0:
192,192,65600,1,0,0:0:0:0:
448,192,65600,1,0,0:0:0:0:
64,192,65760,1,0,0:0:0:0:
448,192,65760,1,0,0:0:0:0:
192,192,65840,1,0,0:0:0:0:
320,192,65840,1,0,0:0:0:0:
192,192,66081,1,0,0:0:0:0:
64,192,66081,1,0,0:0:0:0:
448,192,66081,1,0,0:0:0:0:
64,192,66322,1,0,0:0:0:0:
192,192,66322,1,0,0:0:0:0:
320,192,66322,1,0,0:0:0:0:
64,192,66562,1,0,0:0:0:0:
320,192,66562,1,0,0:0:0:0:
448,192,66562,1,0,0:0:0:0:
192,192,66723,1,0,0:0:0:0:
320,192,66723,1,0,0:0:0:0:
448,192,66723,1,0,0:0:0:0:
64,192,66883,1,0,0:0:0:0:
192,192,66883,1,0,0:0:0:0:
448,192,66883,1,0,0:0:0:0:
64,192,67043,1,0,0:0:0:0:
448,192,67043,1,0,0:0:0:0:
320,192,67043,1,0,0:0:0:0:
192,192,67204,1,0,0:0:0:0:
320,192,67204,1,0,0:0:0:0:
64,192,67364,1,0,0:0:0:0:
448,192,67364,1,0,0:0:0:0:
192,192,67364,1,0,0:0:0:0:
64,192,67525,1,0,0:0:0:0:
320,192,67525,1,0,0:0:0:0:
192,192,67605,1,0,0:0:0:0:
64,192,67685,1,0,0:0:0:0:
320,192,67685,1,0,0:0:0:0:
448,192,67685,1,0,0:0:0:0:
64,192,67926,1,0,0:0:0:0:
192,192,67926,1,0,0:0:0:0:
448,192,67926,1,0,0:0:0:0:
64,192,68166,1,0,0:0:0:0:
320,192,68166,1,0,0:0:0:0:
448,192,68166,1,0,0:0:0:0:
448,192,68407,1,0,0:0:0:0:
64,192,68407,1,0,0:0:0:0:
320,192,68487,1,0,0:0:0:0:
192,192,68487,1,0,0:0:0:0:
64,192,68648,1,0,0:0:0:0:
192,192,68648,1,0,0:0:0:0:
448,192,68648,1,0,0:0:0:0:
64,192,68808,1,0,0:0:0:0:
320,192,68808,1,0,0:0:0:0:
448,192,68808,1,0,0:0:0:0:
64,192,68969,1,0,0:0:0:0:
448,192,68969,1,0,0:0:0:0:
192,192,68969,1,0,0:0:0:0:
64,192,69209,1,0,0:0:0:0:
192,192,69209,1,0,0:0:0:0:
320,192,69209,1,0,0:0:0:0:
192,192,69450,1,0,0:0:0:0:
320,192,69450,1,0,0:0:0:0:
448,192,69450,1,0,0:0:0:0:
64,192,69610,1,0,0:0:0:0:
320,192,69610,1,0,0:0:0:0:
448,192,69610,1,0,0:0:0:0:
64,192,69851,1,0,0:0:0:0:
448,192,69851,1,0,0:0:0:0:
192,192,69851,1,0,0:0:0:0:
192,192,70092,1,0,0:0:0:0:
320,192,70092,1,0,0:0:0:0:
448,192,70092,1,0,0:0:0:0:
64,192,70252,1,0,0:0:0:0:
192,192,70252,1,0,0:0:0:0:
320,192,70252,1,0,0:0:0:0:
64,192,70493,1,0,0:0:0:0:
320,192,70493,1,0,0:0:0:0:
448,192,70493,1,0,0:0:0:0:
64,192,70733,1,0,0:0:0:0:
192,192,70733,1,0,0:0:0:0:
448,192,70733,1,0,0:0:0:0:
192,192,70894,1,0,0:0:0:0:
320,192,70894,1,0,0:0:0:0:
64,192,70894,1,0,0:0:0:0:
448,192,70894,1,0,0:0:0:0:
448,192,71054,1,0,0:0:0:0:
320,192,71054,1,0,0:0:0:0:
192,192,71134,1,0,0:0:0:0:
64,192,71215,1,0,0:0:0:0:
448,192,71215,1,0,0:0:0:0:
320,192,71215,1,0,0:0:0:0:
64,192,71375,1,0,0:0:0:0:
192,192,71375,1,0,0:0:0:0:
320,192,71455,1,0,0:0:0:0:
192,192,71535,1,0,0:0:0:0:
64,192,71535,1,0,0:0:0:0:
448,192,71535,1,0,0:0:0:0:
64,192,71776,1,0,0:0:0:0:
448,192,71776,1,0,0:0:0:0:
192,192,71856,1,0,0:0:0:0:
320,192,71856,1,0,0:0:0:0:
64,192,72017,1,0,0:0:0:0:
192,192,72017,1,0,0:0:0:0:
448,192,72017,1,0,0:0:0:0:
64,192,72177,1,0,0:0:0:0:
320,192,72177,1,0,0:0:0:0:
448,192,72177,1,0,0:0:0:0:
64,192,72418,1,0,0:0:0:0:
448,192,72418,1,0,0:0:0:0:
192,192,72498,1,0,0:0:0:0:
320,192,72498,1,0,0:0:0:0:
64,192,72658,1,0,0:0:0:0:
192,192,72658,1,0,0:0:0:0:
320,192,72739,1,0,0:0:0:0:
448,192,72819,1,0,0:0:0:0:
192,192,72819,1,0,0:0:0:0:
64,192,72819,1,0,0:0:0:0:
64,192,73060,1,0,0:0:0:0:
192,192,73060,1,0,0:0:0:0:
448,192,73060,1,0,0:0:0:0:
64,192,73300,1,0,0:0:0:0:
320,192,73300,1,0,0:0:0:0:
448,192,73300,1,0,0:0:0:0:
64,192,73461,1,0,0:0:0:0:
192,192,73461,1,0,0:0:0:0:
320,192,73461,1,0,0:0:0:0:
448,192,73461,1,0,0:0:0:0:
64,192,73701,1,0,0:0:0:0:
448,192,73701,1,0,0:0:0:0:
192,192,73781,1,0,0:0:0:0:
320,192,73781,1,0,0:0:0:0:
448,192,73942,1,0,0:0:0:0:
320,192,73942,1,0,0:0:0:0:
192,192,74022,1,0,0:0:0:0:
64,192,74102,1,0,0:0:0:0:
320,192,74102,1,0,0:0:0:0:
448,192,74102,1,0,0:0:0:0:
64,192,74343,1,0,0:0:0:0:
192,192,74343,1,0,0:0:0:0:
448,192,74343,1,0,0:0:0:0:
64,192,74584,1,0,0:0:0:0:
320,192,74584,1,0,0:0:0:0:
448,192,74584,1,0,0:0:0:0:
64,192,74744,1,0,0:0:0:0:
448,192,74744,1,0,0:0:0:0:
192,192,74744,1,0,0:0:0:0:
320,192,74824,1,0,0:0:0:0:
192,192,74904,1,0,0:0:0:0:
64,192,74904,1,0,0:0:0:0:
64,192,75065,1,0,0:0:0:0:
192,192,75065,1,0,0:0:0:0:
448,192,75065,1,0,0:0:0:0:
192,192,75225,1,0,0:0:0:0:
320,192,75225,1,0,0:0:0:0:
64,192,75386,1,0,0:0:0:0:
192,192,75386,1,0,0:0:0:0:
448,192,75386,1,0,0:0:0:0:
320,192,75466,1,0,0:0:0:0:
192,192,75546,1,0,0:0:0:0:
64,192,75546,1,0,0:0:0:0:
64,192,75707,1,0,0:0:0:0:
320,192,75707,1,0,0:0:0:0:
448,192,75707,1,0,0:0:0:0:
192,192,75867,1,0,0:0:0:0:
320,192,75867,1,0,0:0:0:0:
64,192,76027,1,0,0:0:0:0:
192,192,76027,1,0,0:0:0:0:
448,192,76027,1,0,0:0:0:0:
320,192,76108,1,0,0:0:0:0:
192,192,76188,1,0,0:0:0:0:
64,192,76188,1,0,0:0:0:0:
64,192,76348,1,0,0:0:0:0:
320,192,76348,1,0,0:0:0:0:
448,192,76348,1,0,0:0:0:0:
192,192,76509,1,0,0:0:0:0:
320,192,76509,1,0,0:0:0:0:
64,192,76669,1,0,0:0:0:0:
448,192,76669,1,0,0:0:0:0:
192,192,76669,1,0,0:0:0:0:
320,192,76749,1,0,0:0:0:0:
192,192,76830,1,0,0:0:0:0:
64,192,76830,1,0,0:0:0:0:
64,192,76990,1,0,0:0:0:0:
192,192,76990,1,0,0:0:0:0:
448,192,76990,1,0,0:0:0:0:
192,192,77150,1,0,0:0:0:0:
320,192,77150,1,0,0:0:0:0:
64,192,77311,1,0,0:0:0:0:
192,192,77311,1,0,0:0:0:0:
448,192,77311,1,0,0:0:0:0:
320,192,77391,1,0,0:0:0:0:
192,192,77471,1,0,0:0:0:0:
64,192,77471,1,0,0:0:0:0:
320,192,77551,1,0,0:0:0:0:
448,192,77632,1,0,0:0:0:0:
192,192,77632,1,0,0:0:0:0:
64,192,77632,1,0,0:0:0:0:
320,192,77712,1,0,0:0:0:0:
192,192,77792,1,0,0:0:0:0:
64,192,77792,1,0,0:0:0:0:
320,192,77872,1,0,0:0:0:0:
192,192,77953,1,0,0:0:0:0:
448,192,77953,1,0,0:0:0:0:
64,192,77953,1,0,0:0:0:0:
320,192,78033,1,0,0:0:0:0:
192,192,78113,1,0,0:0:0:0:
64,192,78113,1,0,0:0:0:0:
320,192,78193,1,0,0:0:0:0:
192,192,78273,1,0,0:0:0:0:
448,192,78273,1,0,0:0:0:0:
64,192,78273,1,0,0:0:0:0:
320,192,78354,1,0,0:0:0:0:
192,192,78434,1,0,0:0:0:0:
64,192,78434,1,0,0:0:0:0:
320,192,78514,1,0,0:0:0:0:
64,192,78594,1,0,0:0:0:0:
192,192,78594,1,0,0:0:0:0:
448,192,78594,1,0,0:0:0:0:
320,192,78674,1,0,0:0:0:0:
192,192,78755,1,0,0:0:0:0:
64,192,78755,1,0,0:0:0:0:
320,192,78835,1,0,0:0:0:0:
448,192,78915,1,0,0:0:0:0:
192,192,78915,1,0,0:0:0:0:
64,192,78915,1,0,0:0:0:0:
320,192,78995,1,0,0:0:0:0:
192,192,79076,1,0,0:0:0:0:
64,192,79076,1,0,0:0:0:0:
320,192,79156,1,0,0:0:0:0:
64,192,79236,1,0,0:0:0:0:
192,192,79236,1,0,0:0:0:0:
448,192,79236,1,0,0:0:0:0:
320,192,79316,1,0,0:0:0:0:
64,192,79396,1,0,0:0:0:0:
192,192,79396,1,0,0:0:0:0:
320,192,79477,1,0,0:0:0:0:
448,192,79557,1,0,0:0:0:0:
192,192,79557,1,0,0:0:0:0:
64,192,79557,1,0,0:0:0:0:
320,192,79637,1,0,0:0:0:0:
192,192,79717,1,0,0:0:0:0:
64,192,79717,1,0,0:0:0:0:
320,192,79797,1,0,0:0:0:0:
448,192,79878,1,0,0:0:0:0:
192,192,79878,1,0,0:0:0:0:
64,192,79878,1,0,0:0:0:0:
320,192,79958,1,0,0:0:0:0:
64,192,80038,1,0,0:0:0:0:
192,192,80038,1,0,0:0:0:0:
320,192,80118,1,0,0:0:0:0:
448,192,80118,1,0,0:0:0:0:
64,192,80199,1,0,0:0:0:0:
192,192,80199,1,0,0:0:0:0:
320,192,80279,1,0,0:0:0:0:
448,192,80279,1,0,0:0:0:0:
192,192,80359,1,0,0:0:0:0:
64,192,80359,1,0,0:0:0:0:
320,192,80439,1,0,0:0:0:0:
448,192,80439,1,0,0:0:0:0:
64,192,80519,1,0,0:0:0:0:
192,192,80519,1,0,0:0:0:0:
320,192,80600,1,0,0:0:0:0:
448,192,80600,1,0,0:0:0:0:
192,192,80680,1,0,0:0:0:0:
64,192,80680,1,0,0:0:0:0:
320,192,80760,1,0,0:0:0:0:
448,192,80760,1,0,0:0:0:0:
64,192,80840,1,0,0:0:0:0:
192,192,80840,1,0,0:0:0:0:
320,192,80920,1,0,0:0:0:0:
448,192,80920,1,0,0:0:0:0:
64,192,81001,1,0,0:0:0:0:
192,192,81001,1,0,0:0:0:0:
320,192,81081,1,0,0:0:0:0:
448,192,81081,1,0,0:0:0:0:
64,192,81161,1,0,0:0:0:0:
192,192,81161,1,0,0:0:0:0:
320,192,81241,1,0,0:0:0:0:
448,192,81241,1,0,0:0:0:0:
64,192,81322,1,0,0:0:0:0:
192,192,81322,1,0,0:0:0:0:
320,192,81402,1,0,0:0:0:0:
448,192,81402,1,0,0:0:0:0:
64,192,81482,1,0,0:0:0:0:
192,192,81482,1,0,0:0:0:0:
320,192,81562,1,0,0:0:0:0:
448,192,81562,1,0,0:0:0:0:
64,192,81642,1,0,0:0:0:0:
192,192,81642,1,0,0:0:0:0:
320,192,81723,1,0,0:0:0:0:
448,192,81723,1,0,0:0:0:0:
64,192,81803,1,0,0:0:0:0:
192,192,81803,1,0,0:0:0:0:
448,192,81856,1,0,0:0:0:0:
320,192,81910,1,0,0:0:0:0:
64,192,81963,1,0,0:0:0:0:
192,192,82017,1,0,0:0:0:0:
448,192,82070,1,0,0:0:0:0:
320,192,82124,1,0,0:0:0:0:
64,192,82177,1,0,0:0:0:0:
192,192,82231,1,0,0:0:0:0:
320,192,82284,1,0,0:0:0:0:
448,192,82338,1,0,0:0:0:0:
320,192,82391,1,0,0:0:0:0:
192,192,82445,1,0,0:0:0:0:
64,192,82445,1,0,0:0:0:0:
448,192,82445,1,0,0:0:0:0:
192,192,83728,1,0,0:0:0:0:
64,192,83728,1,0,0:0:0:0:
448,192,83728,1,0,0:0:0:0:
320,192,83808,1,0,0:0:0:0:
448,192,83888,1,0,0:0:0:0:
64,192,83969,1,0,0:0:0:0:
192,192,84049,1,0,0:0:0:0:
320,192,84049,1,0,0:0:0:0:
448,192,84049,1,0,0:0:0:0:
192,192,84289,1,0,0:0:0:0:
64,192,84370,1,0,0:0:0:0:
320,192,84370,1,0,0:0:0:0:
448,192,84370,1,0,0:0:0:0:
192,192,84530,1,0,0:0:0:0:
64,192,84691,1,0,0:0:0:0:
448,192,84691,1,0,0:0:0:0:
192,192,84851,1,0,0:0:0:0:
320,192,84851,1,0,0:0:0:0:
64,192,85011,1,0,0:0:0:0:
448,192,85011,1,0,0:0:0:0:
192,192,85011,1,0,0:0:0:0:
192,192,85172,1,0,0:0:0:0:
448,192,85172,1,0,0:0:0:0:
64,192,85332,1,0,0:0:0:0:
448,192,85332,1,0,0:0:0:0:
320,192,85332,1,0,0:0:0:0:
192,192,85493,1,0,0:0:0:0:
448,192,85493,1,0,0:0:0:0:
320,192,85573,1,0,0:0:0:0:
64,192,85653,1,0,0:0:0:0:
192,192,85653,1,0,0:0:0:0:
448,192,85653,1,0,0:0:0:0:
64,192,85814,1,0,0:0:0:0:
320,192,85814,1,0,0:0:0:0:
192,192,85894,1,0,0:0:0:0:
64,192,85974,1,0,0:0:0:0:
448,192,85974,1,0,0:0:0:0:
320,192,85974,1,0,0:0:0:0:
192,192,86134,1,0,0:0:0:0:
320,192,86134,1,0,0:0:0:0:
64,192,86295,1,0,0:0:0:0:
448,192,86295,1,0,0:0:0:0:
320,192,86295,1,0,0:0:0:0:
192,192,86375,1,0,0:0:0:0:
64,192,86455,1,0,0:0:0:0:
448,192,86535,1,0,0:0:0:0:
64,192,86616,1,0,0:0:0:0:
320,192,86616,1,0,0:0:0:0:
192,192,86616,1,0,0:0:0:0:
320,192,86856,1,0,0:0:0:0:
64,192,86937,1,0,0:0:0:0:
448,192,86937,1,0,0:0:0:0:
192,192,86937,1,0,0:0:0:0:
192,192,87097,1,0,0:0:0:0:
320,192,87097,1,0,0:0:0:0:
64,192,87257,1,0,0:0:0:0:
448,192,87257,1,0,0:0:0:0:
192,192,87257,1,0,0:0:0:0:
192,192,87418,1,0,0:0:0:0:
448,192,87418,1,0,0:0:0:0:
64,192,87578,1,0,0:0:0:0:
192,192,87578,1,0,0:0:0:0:
448,192,87578,1,0,0:0:0:0:
64,192,87739,1,0,0:0:0:0:
448,192,87739,1,0,0:0:0:0:
320,192,87739,1,0,0:0:0:0:
192,192,88060,1,0,0:0:0:0:
320,192,88060,1,0,0:0:0:0:
448,192,88060,1,0,0:0:0:0:
64,192,88380,1,0,0:0:0:0:
192,192,88380,1,0,0:0:0:0:
320,192,88380,1,0,0:0:0:0:
64,192,88701,1,0,0:0:0:0:
192,192,88701,1,0,0:0:0:0:
320,192,88701,1,0,0:0:0:0:
448,192,88701,1,0,0:0:0:0:
64,192,88862,1,0,0:0:0:0:
448,192,88862,1,0,0:0:0:0:
192,192,88862,1,0,0:0:0:0:
320,192,88942,1,0,0:0:0:0:
64,192,89022,1,0,0:0:0:0:
192,192,89102,1,0,0:0:0:0:
64,192,89183,1,0,0:0:0:0:
320,192,89183,1,0,0:0:0:0:
448,192,89183,1,0,0:0:0:0:
192,192,89263,1,0,0:0:0:0:
448,192,89343,1,0,0:0:0:0:
320,192,89423,1,0,0:0:0:0:
64,192,89503,1,0,0:0:0:0:
192,192,89503,1,0,0:0:0:0:
448,192,89503,1,0,0:0:0:0:
320,192,89584,1,0,0:0:0:0:
64,192,89664,1,0,0:0:0:0:
192,192,89744,1,0,0:0:0:0:
448,192,89824,1,0,0:0:0:0:
64,192,89824,1,0,0:0:0:0:
320,192,89824,1,0,0:0:0:0:
64,192,89985,1,0,0:0:0:0:
448,192,89985,1,0,0:0:0:0:
192,192,89985,1,0,0:0:0:0:
448,192,90145,1,0,0:0:0:0:
192,192,90145,1,0,0:0:0:0:
64,192,90145,1,0,0:0:0:0:
320,192,90225,1,0,0:0:0:0:
64,192,90305,1,0,0:0:0:0:
448,192,90305,1,0,0:0:0:0:
192,192,90386,1,0,0:0:0:0:
448,192,90466,1,0,0:0:0:0:
64,192,90466,1,0,0:0:0:0:
320,192,90466,1,0,0:0:0:0:
192,192,90546,1,0,0:0:0:0:
448,192,90626,1,0,0:0:0:0:
64,192,90626,1,0,0:0:0:0:
320,192,90707,1,0,0:0:0:0:
192,192,90787,1,0,0:0:0:0:
448,192,90787,1,0,0:0:0:0:
64,192,90787,1,0,0:0:0:0:
320,192,90867,1,0,0:0:0:0:
64,192,90947,1,0,0:0:0:0:
448,192,90947,1,0,0:0:0:0:
192,192,91027,1,0,0:0:0:0:
64,192,91108,1,0,0:0:0:0:
320,192,91108,1,0,0:0:0:0:
448,192,91108,1,0,0:0:0:0:
192,192,91268,1,0,0:0:0:0:
320,192,91268,1,0,0:0:0:0:
64,192,91428,1,0,0:0:0:0:
448,192,91428,1,0,0:0:0:0:
192,192,91428,1,0,0:0:0:0:
320,192,91509,1,0,0:0:0:0:
192,192,91589,1,0,0:0:0:0:
448,192,91669,1,0,0:0:0:0:
320,192,91749,1,0,0:0:0:0:
192,192,91749,1,0,0:0:0:0:
64,192,91749,1,0,0:0:0:0:
192,192,91990,1,0,0:0:0:0:
64,192,92070,1,0,0:0:0:0:
320,192,92070,1,0,0:0:0:0:
448,192,92070,1,0,0:0:0:0:
192,192,92231,1,0,0:0:0:0:
320,192,92231,1,0,0:0:0:0:
64,192,92391,1,0,0:0:0:0:
448,192,92391,1,0,0:0:0:0:
192,192,92391,1,0,0:0:0:0:
320,192,92551,1,0,0:0:0:0:
64,192,92712,1,0,0:0:0:0:
448,192,92712,1,0,0:0:0:0:
320,192,92712,1,0,0:0:0:0:
64,192,93033,1,0,0:0:0:0:
192,192,93033,1,0,0:0:0:0:
448,192,93033,1,0,0:0:0:0:
64,192,93354,1,0,0:0:0:0:
192,192,93354,1,0,0:0:0:0:
320,192,93354,1,0,0:0:0:0:
192,192,93674,1,0,0:0:0:0:
320,192,93674,1,0,0:0:0:0:
448,192,93674,1,0,0:0:0:0:
64,192,93995,1,0,0:0:0:0:
192,192,93995,1,0,0:0:0:0:
448,192,93995,1,0,0:0:0:0:
320,192,94076,1,0,0:0:0:0:
448,192,94156,1,0,0:0:0:0:
64,192,94236,1,0,0:0:0:0:
192,192,94316,1,0,0:0:0:0:
320,192,94316,1,0,0:0:0:0:
448,192,94316,1,0,0:0:0:0:
192,192,94557,1,0,0:0:0:0:
64,192,94637,1,0,0:0:0:0:
320,192,94637,1,0,0:0:0:0:
448,192,94637,1,0,0:0:0:0:
192,192,94797,1,0,0:0:0:0:
64,192,94958,1,0,0:0:0:0:
320,192,94958,1,0,0:0:0:0:
448,192,94958,1,0,0:0:0:0:
192,192,95118,1,0,0:0:0:0:
320,192,95118,1,0,0:0:0:0:
448,192,95279,1,0,0:0:0:0:
192,192,95279,1,0,0:0:0:0:
64,192,95279,1,0,0:0:0:0:
320,192,95359,1,0,0:0:0:0:
64,192,95439,1,0,0:0:0:0:
448,192,95439,1,0,0:0:0:0:
192,192,95519,1,0,0:0:0:0:
64,192,95600,1,0,0:0:0:0:
320,192,95600,1,0,0:0:0:0:
448,192,95600,1,0,0:0:0:0:
192,192,95680,1,0,0:0:0:0:
64,192,95760,1,0,0:0:0:0:
448,192,95760,1,0,0:0:0:0:
320,192,95840,1,0,0:0:0:0:
192,192,95920,1,0,0:0:0:0:
64,192,95920,1,0,0:0:0:0:
448,192,95920,1,0,0:0:0:0:
192,192,96081,1,0,0:0:0:0:
448,192,96081,1,0,0:0:0:0:
320,192,96161,1,0,0:0:0:0:
64,192,96241,1,0,0:0:0:0:
192,192,96241,1,0,0:0:0:0:
448,192,96241,1,0,0:0:0:0:
192,192,96402,1,0,0:0:0:0:
320,192,96402,1,0,0:0:0:0:
64,192,96562,1,0,0:0:0:0:
320,192,96562,1,0,0:0:0:0:
448,192,96562,1,0,0:0:0:0:
192,192,96642,1,0,0:0:0:0:
448,192,96723,1,0,0:0:0:0:
320,192,96803,1,0,0:0:0:0:
192,192,96883,1,0,0:0:0:0:
64,192,96883,1,0,0:0:0:0:
448,192,96883,1,0,0:0:0:0:
320,192,97124,1,0,0:0:0:0:
64,192,97204,1,0,0:0:0:0:
192,192,97204,1,0,0:0:0:0:
448,192,97204,1,0,0:0:0:0:
320,192,97364,1,0,0:0:0:0:
64,192,97525,1,0,0:0:0:0:
448,192,97525,1,0,0:0:0:0:
320,192,97525,1,0,0:0:0:0:
192,192,97685,1,0,0:0:0:0:
320,192,97685,1,0,0:0:0:0:
64,192,97846,1,0,0:0:0:0:
192,192,97846,1,0,0:0:0:0:
448,192,97846,1,0,0:0:0:0:
64,192,98006,1,0,0:0:0:0:
320,192,98006,1,0,0:0:0:0:
448,192,98006,1,0,0:0:0:0:
64,192,98327,1,0,0:0:0:0:
192,192,98327,1,0,0:0:0:0:
448,192,98327,1,0,0:0:0:0:
64,192,98648,1,0,0:0:0:0:
448,192,98648,1,0,0:0:0:0:
320,192,98648,1,0,0:0:0:0:
64,192,98969,1,0,0:0:0:0:
192,192,98969,1,0,0:0:0:0:
320,192,98969,1,0,0:0:0:0:
448,192,98969,1,0,0:0:0:0:
192,192,99129,1,0,0:0:0:0:
448,192,99129,1,0,0:0:0:0:
64,192,99129,1,0,0:0:0:0:
320,192,99289,1,0,0:0:0:0:
448,192,99289,1,0,0:0:0:0:
64,192,99289,1,0,0:0:0:0:
192,192,99450,1,0,0:0:0:0:
320,192,99450,1,0,0:0:0:0:
448,192,99450,1,0,0:0:0:0:
64,192,99610,1,0,0:0:0:0:
192,192,99610,1,0,0:0:0:0:
320,192,99610,1,0,0:0:0:0:
64,192,99771,1,0,0:0:0:0:
320,192,99771,1,0,0:0:0:0:
448,192,99771,1,0,0:0:0:0:
64,192,99931,1,0,0:0:0:0:
192,192,99931,1,0,0:0:0:0:
448,192,99931,1,0,0:0:0:0:
64,192,100092,1,0,0:0:0:0:
192,192,100092,1,0,0:0:0:0:
320,192,100092,1,0,0:0:0:0:
192,192,100252,1,0,0:0:0:0:
320,192,100252,1,0,0:0:0:0:
448,192,100252,1,0,0:0:0:0:
448,192,100412,1,0,0:0:0:0:
64,192,100412,1,0,0:0:0:0:
192,192,100412,1,0,0:0:0:0:
320,192,100493,1,0,0:0:0:0:
64,192,100573,1,0,0:0:0:0:
448,192,100573,1,0,0:0:0:0:
192,192,100653,1,0,0:0:0:0:
64,192,100733,1,0,0:0:0:0:
320,192,100733,1,0,0:0:0:0:
448,192,100733,1,0,0:0:0:0:
192,192,100814,1,0,0:0:0:0:
448,192,100894,1,0,0:0:0:0:
64,192,100894,1,0,0:0:0:0:
320,192,100974,1,0,0:0:0:0:
192,192,101054,1,0,0:0:0:0:
64,192,101054,1,0,0:0:0:0:
320,192,101134,1,0,0:0:0:0:
64,192,101215,1,0,0:0:0:0:
448,192,101215,1,0,0:0:0:0:
192,192,101295,1,0,0:0:0:0:
320,192,101375,1,0,0:0:0:0:
64,192,101375,1,0,0:0:0:0:
448,192,101375,1,0,0:0:0:0:
64,192,101535,1,0,0:0:0:0:
192,192,101535,1,0,0:0:0:0:
320,192,101535,1,0,0:0:0:0:
448,192,101535,1,0,0:0:0:0:
448,192,101696,1,0,0:0:0:0:
192,192,101696,1,0,0:0:0:0:
320,192,101776,1,0,0:0:0:0:
192,192,101856,1,0,0:0:0:0:
64,192,101937,1,0,0:0:0:0:
448,192,102017,1,0,0:0:0:0:
192,192,102017,1,0,0:0:0:0:
320,192,102097,1,0,0:0:0:0:
192,192,102177,1,0,0:0:0:0:
64,192,102257,1,0,0:0:0:0:
192,192,102338,1,0,0:0:0:0:
448,192,102338,1,0,0:0:0:0:
320,192,102418,1,0,0:0:0:0:
192,192,102498,1,0,0:0:0:0:
64,192,102578,1,0,0:0:0:0:
192,192,102658,1,0,0:0:0:0:
448,192,102658,1,0,0:0:0:0:
320,192,102739,1,0,0:0:0:0:
192,192,102819,1,0,0:0:0:0:
64,192,102899,1,0,0:0:0:0:
448,192,102979,1,0,0:0:0:0:
192,192,102979,1,0,0:0:0:0:
64,192,103060,1,0,0:0:0:0:
320,192,103060,1,0,0:0:0:0:
64,192,103220,1,0,0:0:0:0:
320,192,103220,1,0,0:0:0:0:
192,192,103300,1,0,0:0:0:0:
448,192,103300,1,0,0:0:0:0:
192,192,103461,1,0,0:0:0:0:
448,192,103461,1,0,0:0:0:0:
320,192,103541,1,0,0:0:0:0:
64,192,103541,1,0,0:0:0:0:
64,192,104263,1,0,0:0:0:0:
448,192,104263,1,0,0:0:0:0:
64,192,104584,1,0,0:0:0:0:
192,192,104584,1,0,0:0:0:0:
448,192,104584,1,0,0:0:0:0:
320,192,104664,1,0,0:0:0:0:
64,192,104744,1,0,0:0:0:0:
192,192,104797,1,0,0:0:0:0:
320,192,104851,1,0,0:0:0:0:
64,192,104904,1,0,0:0:0:0:
192,192,104904,1,0,0:0:0:0:
448,192,104904,1,0,0:0:0:0:
320,192,104985,1,0,0:0:0:0:
64,192,105065,1,0,0:0:0:0:
448,192,105065,1,0,0:0:0:0:
192,192,105145,1,0,0:0:0:0:
320,192,105225,1,0,0:0:0:0:
448,192,105225,1,0,0:0:0:0:
64,192,105225,1,0,0:0:0:0:
192,192,105305,1,0,0:0:0:0:
64,192,105386,1,0,0:0:0:0:
448,192,105386,1,0,0:0:0:0:
320,192,105466,1,0,0:0:0:0:
192,192,105546,1,0,0:0:0:0:
64,192,105546,1,0,0:0:0:0:
448,192,105546,1,0,0:0:0:0:
320,192,105626,1,0,0:0:0:0:
192,192,105707,1,0,0:0:0:0:
64,192,105707,1,0,0:0:0:0:
448,192,105787,1,0,0:0:0:0:
320,192,105867,1,0,0:0:0:0:
192,192,105867,1,0,0:0:0:0:
64,192,105867,1,0,0:0:0:0:
448,192,105947,1,0,0:0:0:0:
64,192,106027,1,0,0:0:0:0:
320,192,106027,1,0,0:0:0:0:
192,192,106108,1,0,0:0:0:0:
64,192,106188,1,0,0:0:0:0:
320,192,106188,1,0,0:0:0:0:
448,192,106188,1,0,0:0:0:0:
192,192,106268,1,0,0:0:0:0:
448,192,106348,1,0,0:0:0:0:
64,192,106348,1,0,0:0:0:0:
320,192,106428,1,0,0:0:0:0:
64,192,106509,1,0,0:0:0:0:
192,192,106509,1,0,0:0:0:0:
448,192,106509,1,0,0:0:0:0:
320,192,106589,1,0,0:0:0:0:
64,192,106669,1,0,0:0:0:0:
192,192,106749,1,0,0:0:0:0:
320,192,106830,1,0,0:0:0:0:
448,192,106830,1,0,0:0:0:0:
64,192,106830,1,0,0:0:0:0:
192,192,106910,1,0,0:0:0:0:
64,192,106990,1,0,0:0:0:0:
448,192,106990,1,0,0:0:0:0:
320,192,107070,1,0,0:0:0:0:
64,192,107150,1,0,0:0:0:0:
192,192,107150,1,0,0:0:0:0:
448,192,107150,1,0,0:0:0:0:
448,192,107311,1,0,0:0:0:0:
192,192,107311,1,0,0:0:0:0:
320,192,107391,1,0,0:0:0:0:
64,192,107471,1,0,0:0:0:0:
192,192,107471,1,0,0:0:0:0:
448,192,107471,1,0,0:0:0:0:
64,192,107632,1,0,0:0:0:0:
320,192,107632,1,0,0:0:0:0:
192,192,107712,1,0,0:0:0:0:
320,192,107792,1,0,0:0:0:0:
448,192,107792,1,0,0:0:0:0:
64,192,107792,1,0,0:0:0:0:
192,192,107953,1,0,0:0:0:0:
320,192,107953,1,0,0:0:0:0:
64,192,108113,1,0,0:0:0:0:
320,192,108113,1,0,0:0:0:0:
448,192,108113,1,0,0:0:0:0:
64,192,108273,1,0,0:0:0:0:
192,192,108273,1,0,0:0:0:0:
448,192,108273,1,0,0:0:0:0:
64,192,108594,1,0,0:0:0:0:
320,192,108594,1,0,0:0:0:0:
448,192,108594,1,0,0:0:0:0:
64,192,108915,1,0,0:0:0:0:
192,192,108915,1,0,0:0:0:0:
320,192,108915,1,0,0:0:0:0:
192,192,109236,1,0,0:0:0:0:
320,192,109236,1,0,0:0:0:0:
448,192,109236,1,0,0:0:0:0:
64,192,109396,1,0,0:0:0:0:
192,192,109396,1,0,0:0:0:0:
448,192,109396,1,0,0:0:0:0:
320,192,109477,1,0,0:0:0:0:
64,192,109557,1,0,0:0:0:0:
192,192,109557,1,0,0:0:0:0:
448,192,109637,1,0,0:0:0:0:
320,192,109717,1,0,0:0:0:0:
192,192,109717,1,0,0:0:0:0:
64,192,109717,1,0,0:0:0:0:
192,192,109878,1,0,0:0:0:0:
448,192,109878,1,0,0:0:0:0:
320,192,109958,1,0,0:0:0:0:
64,192,110038,1,0,0:0:0:0:
448,192,110038,1,0,0:0:0:0:
192,192,110038,1,0,0:0:0:0:
64,192,110279,1,0,0:0:0:0:
320,192,110279,1,0,0:0:0:0:
448,192,110279,1,0,0:0:0:0:
64,192,110519,1,0,0:0:0:0:
192,192,110519,1,0,0:0:0:0:
448,192,110519,1,0,0:0:0:0:
192,192,110760,1,0,0:0:0:0:
64,192,110760,1,0,0:0:0:0:
448,192,110840,1,0,0:0:0:0:
320,192,110840,1,0,0:0:0:0:
192,192,110920,1,0,0:0:0:0:
64,192,111001,1,0,0:0:0:0:
320,192,111001,1,0,0:0:0:0:
448,192,111001,1,0,0:0:0:0:
192,192,111081,1,0,0:0:0:0:
64,192,111161,1,0,0:0:0:0:
448,192,111161,1,0,0:0:0:0:
320,192,111241,1,0,0:0:0:0:
192,192,111322,1,0,0:0:0:0:
64,192,111322,1,0,0:0:0:0:
448,192,111322,1,0,0:0:0:0:
320,192,111402,1,0,0:0:0:0:
192,192,111482,1,0,0:0:0:0:
448,192,111482,1,0,0:0:0:0:
320,192,111562,1,0,0:0:0:0:
192,192,111642,1,0,0:0:0:0:
64,192,111642,1,0,0:0:0:0:
448,192,111642,1,0,0:0:0:0:
64,192,111803,1,0,0:0:0:0:
192,192,111803,1,0,0:0:0:0:
320,192,111803,1,0,0:0:0:0:
448,192,111803,1,0,0:0:0:0:
192,192,111963,1,0,0:0:0:0:
320,192,111963,1,0,0:0:0:0:
64,192,112124,1,0,0:0:0:0:
192,192,112124,1,0,0:0:0:0:
320,192,112204,1,0,0:0:0:0:
64,192,112284,1,0,0:0:0:0:
192,192,112284,1,0,0:0:0:0:
448,192,112284,1,0,0:0:0:0:
320,192,112445,1,0,0:0:0:0:
448,192,112445,1,0,0:0:0:0:
192,192,112525,1,0,0:0:0:0:
320,192,112605,1,0,0:0:0:0:
448,192,112605,1,0,0:0:0:0:
64,192,112605,1,0,0:0:0:0:
64,192,112765,1,0,0:0:0:0:
320,192,112765,1,0,0:0:0:0:
192,192,112846,1,0,0:0:0:0:
64,192,112926,1,0,0:0:0:0:
320,192,112926,1,0,0:0:0:0:
448,192,112926,1,0,0:0:0:0:
64,192,113086,1,0,0:0:0:0:
192,192,113086,1,0,0:0:0:0:
448,192,113086,1,0,0:0:0:0:
64,192,113247,1,0,0:0:0:0:
320,192,113247,1,0,0:0:0:0:
448,192,113247,1,0,0:0:0:0:
64,192,113568,1,0,0:0:0:0:
192,192,113568,1,0,0:0:0:0:
448,192,113568,1,0,0:0:0:0:
64,192,113888,1,0,0:0:0:0:
320,192,113888,1,0,0:0:0:0:
448,192,113888,1,0,0:0:0:0:
64,192,114209,1,0,0:0:0:0:
192,192,114209,1,0,0:0:0:0:
448,192,114209,1,0,0:0:0:0:
64,192,114530,1,0,0:0:0:0:
192,192,114530,1,0,0:0:0:0:
320,192,114691,1,0,0:0:0:0:
448,192,114691,1,0,0:0:0:0:
64,192,114851,1,0,0:0:0:0:
192,192,114851,1,0,0:0:0:0:
320,192,115011,1,0,0:0:0:0:
448,192,115011,1,0,0:0:0:0:
64,192,115172,1,0,0:0:0:0:
192,192,115172,1,0,0:0:0:0:
64,192,115332,1,0,0:0:0:0:
448,192,115332,1,0,0:0:0:0:
192,192,115493,1,0,0:0:0:0:
320,192,115493,1,0,0:0:0:0:
64,192,115653,1,0,0:0:0:0:
448,192,115653,1,0,0:0:0:0:
192,192,115814,1,0,0:0:0:0:
320,192,115814,1,0,0:0:0:0:
192,192,115974,1,0,0:0:0:0:
448,192,115974,1,0,0:0:0:0:
64,192,116134,1,0,0:0:0:0:
320,192,116134,1,0,0:0:0:0:
192,192,116295,1,0,0:0:0:0:
448,192,116295,1,0,0:0:0:0:
64,192,116455,1,0,0:0:0:0:
320,192,116455,1,0,0:0:0:0:
320,192,116616,1,0,0:0:0:0:
448,192,116616,1,0,0:0:0:0:
64,192,116776,1,0,0:0:0:0:
192,192,116776,1,0,0:0:0:0:
320,192,116937,1,0,0:0:0:0:
448,192,116937,1,0,0:0:0:0:
64,192,117097,1,0,0:0:0:0:
192,192,117097,1,0,0:0:0:0:
320,192,117257,1,0,0:0:0:0:
448,192,117257,1,0,0:0:0:0:
64,192,117418,1,0,0:0:0:0:
192,192,117418,1,0,0:0:0:0:
448,192,117578,1,0,0:0:0:0:
320,192,117578,1,0,0:0:0:0:
64,192,117739,1,0,0:0:0:0:
320,192,117739,1,0,0:0:0:0:
192,192,117899,1,0,0:0:0:0:
448,192,117899,1,0,0:0:0:0:
64,192,118060,1,0,0:0:0:0:
320,192,118060,1,0,0:0:0:0:
192,192,118220,1,0,0:0:0:0:
448,192,118220,1,0,0:0:0:0:
64,192,118380,1,0,0:0:0:0:
320,192,118380,1,0,0:0:0:0:
192,192,118541,1,0,0:0:0:0:
448,192,118541,1,0,0:0:0:0:
64,192,118541,1,0,0:0:0:0:
320,192,118701,1,0,0:0:0:0:
192,192,118701,1,0,0:0:0:0:
320,192,118862,1,0,0:0:0:0:
448,192,118862,1,0,0:0:0:0:
64,192,118862,1,0,0:0:0:0:
64,192,119022,1,0,0:0:0:0:
192,192,119022,1,0,0:0:0:0:
320,192,119183,1,0,0:0:0:0:
448,192,119183,1,0,0:0:0:0:
64,192,119183,1,0,0:0:0:0:
64,192,119343,1,0,0:0:0:0:
448,192,119343,1,0,0:0:0:0:
192,192,119503,1,0,0:0:0:0:
320,192,119503,1,0,0:0:0:0:
64,192,119503,1,0,0:0:0:0:
64,192,119664,1,0,0:0:0:0:
192,192,119664,1,0,0:0:0:0:
448,192,119664,1,0,0:0:0:0:
320,192,119744,1,0,0:0:0:0:
192,192,119824,1,0,0:0:0:0:
64,192,119824,1,0,0:0:0:0:
320,192,119904,1,0,0:0:0:0:
64,192,119985,1,0,0:0:0:0:
192,192,119985,1,0,0:0:0:0:
448,192,119985,1,0,0:0:0:0:
320,192,120065,1,0,0:0:0:0:
64,192,120145,1,0,0:0:0:0:
448,192,120145,1,0,0:0:0:0:
192,192,120225,1,0,0:0:0:0:
64,192,120305,1,0,0:0:0:0:
448,192,120305,1,0,0:0:0:0:
320,192,120305,1,0,0:0:0:0:
192,192,120386,1,0,0:0:0:0:
64,192,120466,1,0,0:0:0:0:
448,192,120466,1,0,0:0:0:0:
192,192,120546,1,0,0:0:0:0:
64,192,120626,1,0,0:0:0:0:
448,192,120626,1,0,0:0:0:0:
320,192,120626,1,0,0:0:0:0:
192,192,120707,1,0,0:0:0:0:
64,192,120787,1,0,0:0:0:0:
448,192,120787,1,0,0:0:0:0:
320,192,120867,1,0,0:0:0:0:
192,192,120947,1,0,0:0:0:0:
64,192,120947,1,0,0:0:0:0:
448,192,120947,1,0,0:0:0:0:
320,192,121027,1,0,0:0:0:0:
64,192,121108,1,0,0:0:0:0:
192,192,121108,1,0,0:0:0:0:
448,192,121188,1,0,0:0:0:0:
320,192,121268,1,0,0:0:0:0:
192,192,121268,1,0,0:0:0:0:
64,192,121268,1,0,0:0:0:0:
448,192,121348,1,0,0:0:0:0:
320,192,121428,1,0,0:0:0:0:
64,192,121428,1,0,0:0:0:0:
192,192,121509,1,0,0:0:0:0:
64,192,121589,1,0,0:0:0:0:
320,192,121589,1,0,0:0:0:0:
448,192,121589,1,0,0:0:0:0:
192,192,121669,1,0,0:0:0:0:
320,192,121749,1,0,0:0:0:0:
448,192,121749,1,0,0:0:0:0:
64,192,121749,1,0,0:0:0:0:
192,192,121830,1,0,0:0:0:0:
448,192,121910,1,0,0:0:0:0:
64,192,121910,1,0,0:0:0:0:
320,192,121910,1,0,0:0:0:0:
64,192,122070,1,0,0:0:0:0:
192,192,122070,1,0,0:0:0:0:
320,192,122150,1,0,0:0:0:0:
448,192,122150,1,0,0:0:0:0:
64,192,122231,1,0,0:0:0:0:
192,192,122231,1,0,0:0:0:0:
320,192,122311,1,0,0:0:0:0:
448,192,122311,1,0,0:0:0:0:
64,192,122391,1,0,0:0:0:0:
192,192,122391,1,0,0:0:0:0:
320,192,122471,1,0,0:0:0:0:
448,192,122471,1,0,0:0:0:0:
64,192,122551,1,0,0:0:0:0:
192,192,122551,1,0,0:0:0:0:
320,192,122632,1,0,0:0:0:0:
448,192,122632,1,0,0:0:0:0:
64,192,122712,1,0,0:0:0:0:
448,192,122712,1,0,0:0:0:0:
192,192,122792,1,0,0:0:0:0:
320,192,122792,1,0,0:0:0:0:
64,192,122872,1,0,0:0:0:0:
448,192,122872,1,0,0:0:0:0:
192,192,122953,1,0,0:0:0:0:
320,192,122953,1,0,0:0:0:0:
64,192,123033,1,0,0:0:0:0:
448,192,123033,1,0,0:0:0:0:
192,192,123113,1,0,0:0:0:0:
320,192,123113,1,0,0:0:0:0:
64,192,123193,1,0,0:0:0:0:
192,192,123193,1,0,0:0:0:0:
320,192,123273,1,0,0:0:0:0:
448,192,123273,1,0,0:0:0:0:
64,192,123354,1,0,0:0:0:0:
192,192,123354,1,0,0:0:0:0:
320,192,123434,1,0,0:0:0:0:
448,192,123434,1,0,0:0:0:0:
64,192,123514,1,0,0:0:0:0:
192,192,123514,1,0,0:0:0:0:
320,192,123594,1,0,0:0:0:0:
448,192,123594,1,0,0:0:0:0:
64,192,123674,1,0,0:0:0:0:
192,192,123674,1,0,0:0:0:0:
320,192,123755,1,0,0:0:0:0:
448,192,123755,1,0,0:0:0:0:
64,192,123835,1,0,0:0:0:0:
448,192,123835,1,0,0:0:0:0:
192,192,123915,1,0,0:0:0:0:
320,192,123915,1,0,0:0:0:0:
64,192,123995,1,0,0:0:0:0:
448,192,123995,1,0,0:0:0:0:
192,192,124076,1,0,0:0:0:0:
320,192,124076,1,0,0:0:0:0:
64,192,124156,1,0,0:0:0:0:
448,192,124156,1,0,0:0:0:0:
192,192,124236,1,0,0:0:0:0:
448,192,124236,1,0,0:0:0:0:
64,192,124316,1,0,0:0:0:0:
320,192,124316,1,0,0:0:0:0:
192,192,124396,1,0,0:0:0:0:
448,192,124396,1,0,0:0:0:0:
64,192,124477,1,0,0:0:0:0:
320,192,124477,1,0,0:0:0:0:
192,192,124557,1,0,0:0:0:0:
448,192,124557,1,0,0:0:0:0:
64,192,124637,1,0,0:0:0:0:
320,192,124637,1,0,0:0:0:0:
192,192,124717,1,0,0:0:0:0:
448,192,124717,1,0,0:0:0:0:
64,192,124797,1,0,0:0:0:0:
320,192,124797,1,0,0:0:0:0:
448,192,124797,1,0,0:0:0:0:
