osu file format v14

[General]
AudioFilename: Illya.mp3
AudioLeadIn: 0
PreviewTime: 12255
Countdown: 0
SampleSet: None
StackLeniency: 0.7
Mode: 3
LetterboxInBreaks: 0
SpecialStyle: 1
WidescreenStoryboard: 0

[Editor]
DistanceSpacing: 1
BeatDivisor: 4
GridSize: 4
TimelineZoom: 4.199998

[Metadata]
Title:Demitoo 4k Practice pack
TitleUnicode:Demitoo 4k Practice pack
Artist:Various Artist
ArtistUnicode:Various Artist
Creator:Demitoo
Version:Illya Hammer zone - (Troll challenge)
Source:
Tags:
BeatmapID:871530
BeatmapSetID:400528

[Difficulty]
HPDrainRate:8
CircleSize:4
OverallDifficulty:8
ApproachRate:5
SliderMultiplier:1.4
SliderTickRate:1

[Events]
//Background and Video events
0,0,"baby-ilya.jpg",0,0
//Break Periods
//Storyboard Layer 0 (Background)
//Storyboard Layer 1 (Fail)
//Storyboard Layer 2 (Pass)
//Storyboard Layer 3 (Foreground)
//Storyboard Sound Samples

[TimingPoints]
12256,315.789473684211,4,1,1,5,1,0

[HitObjects]
64,192,12255,5,0,0:0:0:0:
192,192,12255,1,0,0:0:0:0:
320,192,12255,1,0,0:0:0:0:
448,192,12255,1,0,0:0:0:0:
320,192,12413,1,0,0:0:0:0:
64,192,12413,1,0,0:0:0:0:
192,192,12492,1,0,0:0:0:0:
64,192,12571,1,0,0:0:0:0:
320,192,12571,1,0,0:0:0:0:
448,192,12571,1,0,0:0:0:0:
64,192,12729,1,0,0:0:0:0:
448,192,12729,1,0,0:0:0:0:
192,192,12729,1,0,0:0:0:0:
192,192,12887,1,0,0:0:0:0:
320,192,12887,1,0,0:0:0:0:
64,192,13045,1,0,0:0:0:0:
448,192,13045,1,0,0:0:0:0:
320,192,13045,1,0,0:0:0:0:
64,192,13203,1,0,0:0:0:0:
192,192,13203,1,0,0:0:0:0:
448,192,13361,1,0,0:0:0:0:
192,192,13361,1,0,0:0:0:0:
320,192,13361,1,0,0:0:0:0:
192,192,13519,1,0,0:0:0:0:
448,192,13519,1,0,0:0:0:0:
320,192,13677,1,0,0:0:0:0:
64,192,13677,1,0,0:0:0:0:
192,192,13755,1,0,0:0:0:0:
64,192,13834,1,0,0:0:0:0:
320,192,13834,1,0,0:0:0:0:
448,192,13834,1,0,0:0:0:0:
64,192,13992,1,0,0:0:0:0:
192,192,13992,1,0,0:0:0:0:
448,192,13992,1,0,0:0:0:0:
320,192,14150,1,0,0:0:0:0:
448,192,14150,1,0,0:0:0:0:
64,192,14308,1,0,0:0:0:0:
192,192,14308,1,0,0:0:0:0:
320,192,14308,1,0,0:0:0:0:
64,192,14466,1,0,0:0:0:0:
448,192,14466,1,0,0:0:0:0:
320,192,14624,1,0,0:0:0:0:
448,192,14624,1,0,0:0:0:0:
64,192,14624,1,0,0:0:0:0:
64,192,14782,1,0,0:0:0:0:
192,192,14782,1,0,0:0:0:0:
320,192,14782,1,0,0:0:0:0:
448,192,14782,1,0,0:0:0:0:
320,192,14940,1,0,0:0:0:0:
448,192,14940,1,0,0:0:0:0:
192,192,15019,1,0,0:0:0:0:
64,192,15098,1,0,0:0:0:0:
320,192,15098,1,0,0:0:0:0:
448,192,15098,1,0,0:0:0:0:
64,192,15255,1,0,0:0:0:0:
448,192,15255,1,0,0:0:0:0:
192,192,15255,1,0,0:0:0:0:
448,192,15413,1,0,0:0:0:0:
64,192,15413,1,0,0:0:0:0:
192,192,15571,1,0,0:0:0:0:
320,192,15571,1,0,0:0:0:0:
64,192,15571,1,0,0:0:0:0:
320,192,15729,1,0,0:0:0:0:
448,192,15729,1,0,0:0:0:0:
192,192,15887,1,0,0:0:0:0:
448,192,15887,1,0,0:0:0:0:
64,192,15887,1,0,0:0:0:0:
64,192,16045,1,0,0:0:0:0:
192,192,16045,1,0,0:0:0:0:
64,192,16203,1,0,0:0:0:0:
320,192,16203,1,0,0:0:0:0:
192,192,16282,1,0,0:0:0:0:
64,192,16361,1,0,0:0:0:0:
320,192,16361,1,0,0:0:0:0:
448,192,16361,1,0,0:0:0:0:
64,192,16519,1,0,0:0:0:0:
448,192,16519,1,0,0:0:0:0:
192,192,16519,1,0,0:0:0:0:
192,192,16677,1,0,0:0:0:0:
320,192,16677,1,0,0:0:0:0:
320,192,16834,1,0,0:0:0:0:
448,192,16834,1,0,0:0:0:0:
192,192,16834,1,0,0:0:0:0:
64,192,16992,1,0,0:0:0:0:
320,192,16992,1,0,0:0:0:0:
64,192,17150,1,0,0:0:0:0:
192,192,17150,1,0,0:0:0:0:
448,192,17150,1,0,0:0:0:0:
64,192,17308,128,0,17545:0:0:0:0:
192,192,17308,1,0,0:0:0:0:
320,192,17466,1,0,0:0:0:0:
448,192,17466,1,0,0:0:0:0:
192,192,17545,1,0,0:0:0:0:
320,192,17624,1,0,0:0:0:0:
448,192,17624,1,0,0:0:0:0:
64,192,17624,1,0,0:0:0:0:
448,192,17782,1,0,0:0:0:0:
64,192,17782,1,0,0:0:0:0:
192,192,17782,1,0,0:0:0:0:
192,192,17940,1,0,0:0:0:0:
448,192,17940,128,0,18571:0:0:0:0:
64,192,18098,1,0,0:0:0:0:
320,192,18098,1,0,0:0:0:0:
192,192,18098,1,0,0:0:0:0:
64,192,18256,1,0,0:0:0:0:
192,192,18256,1,0,0:0:0:0:
64,192,18413,1,0,0:0:0:0:
192,192,18413,1,0,0:0:0:0:
320,192,18413,1,0,0:0:0:0:
192,192,18571,1,0,0:0:0:0:
320,192,18571,1,0,0:0:0:0:
64,192,18729,1,0,0:0:0:0:
320,192,18729,1,0,0:0:0:0:
192,192,18808,1,0,0:0:0:0:
448,192,18887,1,0,0:0:0:0:
320,192,18887,1,0,0:0:0:0:
64,192,18887,1,0,0:0:0:0:
64,192,19045,1,0,0:0:0:0:
448,192,19045,1,0,0:0:0:0:
192,192,19045,1,0,0:0:0:0:
320,192,19203,1,0,0:0:0:0:
448,192,19203,1,0,0:0:0:0:
192,192,19361,1,0,0:0:0:0:
64,192,19361,1,0,0:0:0:0:
448,192,19361,1,0,0:0:0:0:
64,192,19519,1,0,0:0:0:0:
320,192,19519,1,0,0:0:0:0:
192,192,19677,1,0,0:0:0:0:
64,192,19677,1,0,0:0:0:0:
448,192,19677,1,0,0:0:0:0:
64,192,19834,1,0,0:0:0:0:
320,192,19834,1,0,0:0:0:0:
448,192,19834,1,0,0:0:0:0:
192,192,19834,1,0,0:0:0:0:
320,192,19992,1,0,0:0:0:0:
448,192,19992,1,0,0:0:0:0:
192,192,20071,1,0,0:0:0:0:
64,192,20150,1,0,0:0:0:0:
320,192,20150,1,0,0:0:0:0:
448,192,20150,1,0,0:0:0:0:
64,192,20308,1,0,0:0:0:0:
192,192,20308,1,0,0:0:0:0:
448,192,20308,1,0,0:0:0:0:
64,192,20466,1,0,0:0:0:0:
448,192,20466,1,0,0:0:0:0:
192,192,20624,1,0,0:0:0:0:
320,192,20624,1,0,0:0:0:0:
64,192,20624,1,0,0:0:0:0:
64,192,20782,1,0,0:0:0:0:
448,192,20782,1,0,0:0:0:0:
320,192,20940,1,0,0:0:0:0:
448,192,20940,1,0,0:0:0:0:
192,192,20940,1,0,0:0:0:0:
192,192,21098,1,0,0:0:0:0:
320,192,21098,1,0,0:0:0:0:
192,192,21256,1,0,0:0:0:0:
320,192,21334,1,0,0:0:0:0:
192,192,21413,1,0,0:0:0:0:
448,192,21413,1,0,0:0:0:0:
64,192,21413,128,0,21571:0:0:0:0:
320,192,21571,1,0,0:0:0:0:
448,192,21571,1,0,0:0:0:0:
192,192,21571,128,0,21729:0:0:0:0:
64,192,21729,1,0,0:0:0:0:
448,192,21729,1,0,0:0:0:0:
320,192,21887,1,0,0:0:0:0:
448,192,21887,1,0,0:0:0:0:
64,192,21887,128,0,21966:0:0:0:0:
320,192,22045,1,0,0:0:0:0:
192,192,22045,128,0,22124:0:0:0:0:
320,192,22203,1,0,0:0:0:0:
448,192,22203,1,0,0:0:0:0:
64,192,22203,128,0,22282:0:0:0:0:
64,192,22361,1,0,0:0:0:0:
192,192,22361,1,0,0:0:0:0:
448,192,22361,1,0,0:0:0:0:
192,192,22440,1,0,0:0:0:0:
448,192,22519,1,0,0:0:0:0:
64,192,22519,1,0,0:0:0:0:
320,192,22598,1,0,0:0:0:0:
64,192,22677,1,0,0:0:0:0:
192,192,22677,1,0,0:0:0:0:
448,192,22677,1,0,0:0:0:0:
192,192,22834,1,0,0:0:0:0:
320,192,22834,1,0,0:0:0:0:
64,192,22992,1,0,0:0:0:0:
320,192,22992,1,0,0:0:0:0:
448,192,22992,1,0,0:0:0:0:
320,192,23071,1,0,0:0:0:0:
64,192,23150,1,0,0:0:0:0:
192,192,23150,1,0,0:0:0:0:
320,192,23229,1,0,0:0:0:0:
64,192,23308,1,0,0:0:0:0:
448,192,23308,1,0,0:0:0:0:
192,192,23308,1,0,0:0:0:0:
320,192,23387,1,0,0:0:0:0:
320,192,23466,1,0,0:0:0:0:
192,192,23545,1,0,0:0:0:0:
64,192,23624,1,0,0:0:0:0:
320,192,23624,1,0,0:0:0:0:
448,192,23624,1,0,0:0:0:0:
64,192,23703,1,0,0:0:0:0:
192,192,23782,1,0,0:0:0:0:
320,192,23782,1,0,0:0:0:0:
448,192,23861,1,0,0:0:0:0:
320,192,23940,1,0,0:0:0:0:
192,192,23940,1,0,0:0:0:0:
64,192,23940,1,0,0:0:0:0:
192,192,24098,1,0,0:0:0:0:
320,192,24098,1,0,0:0:0:0:
64,192,24256,1,0,0:0:0:0:
448,192,24256,1,0,0:0:0:0:
320,192,24256,1,0,0:0:0:0:
320,192,24334,1,0,0:0:0:0:
192,192,24413,1,0,0:0:0:0:
448,192,24413,1,0,0:0:0:0:
320,192,24492,1,0,0:0:0:0:
64,192,24571,1,0,0:0:0:0:
192,192,24571,1,0,0:0:0:0:
448,192,24571,1,0,0:0:0:0:
320,192,24650,1,0,0:0:0:0:
448,192,24729,1,0,0:0:0:0:
64,192,24729,1,0,0:0:0:0:
192,192,24808,1,0,0:0:0:0:
64,192,24887,1,0,0:0:0:0:
448,192,24887,1,0,0:0:0:0:
320,192,24887,1,0,0:0:0:0:
192,192,25045,1,0,0:0:0:0:
320,192,25045,1,0,0:0:0:0:
320,192,25203,1,0,0:0:0:0:
448,192,25203,1,0,0:0:0:0:
192,192,25203,1,0,0:0:0:0:
64,192,25361,1,0,0:0:0:0:
320,192,25361,1,0,0:0:0:0:
64,192,25519,1,0,0:0:0:0:
320,192,25519,1,0,0:0:0:0:
448,192,25519,1,0,0:0:0:0:
320,192,25598,1,0,0:0:0:0:
192,192,25677,1,0,0:0:0:0:
448,192,25677,1,0,0:0:0:0:
320,192,25756,1,0,0:0:0:0:
64,192,25834,1,0,0:0:0:0:
192,192,25834,1,0,0:0:0:0:
448,192,25834,1,0,0:0:0:0:
192,192,25992,1,0,0:0:0:0:
320,192,25992,1,0,0:0:0:0:
64,192,26150,1,0,0:0:0:0:
192,192,26150,1,0,0:0:0:0:
448,192,26150,1,0,0:0:0:0:
320,192,26229,1,0,0:0:0:0:
448,192,26308,1,0,0:0:0:0:
64,192,26308,1,0,0:0:0:0:
192,192,26387,1,0,0:0:0:0:
64,192,26466,1,0,0:0:0:0:
448,192,26466,1,0,0:0:0:0:
320,192,26466,1,0,0:0:0:0:
192,192,26624,1,0,0:0:0:0:
320,192,26624,1,0,0:0:0:0:
64,192,26782,1,0,0:0:0:0:
192,192,26782,1,0,0:0:0:0:
448,192,26782,1,0,0:0:0:0:
192,192,26861,1,0,0:0:0:0:
320,192,26940,1,0,0:0:0:0:
64,192,26940,1,0,0:0:0:0:
448,192,27019,1,0,0:0:0:0:
64,192,27098,1,0,0:0:0:0:
192,192,27098,1,0,0:0:0:0:
320,192,27098,1,0,0:0:0:0:
448,192,27177,1,0,0:0:0:0:
320,192,27256,1,0,0:0:0:0:
192,192,27256,1,0,0:0:0:0:
320,192,27334,1,0,0:0:0:0:
192,192,27413,1,0,0:0:0:0:
64,192,27413,1,0,0:0:0:0:
448,192,27413,1,0,0:0:0:0:
448,192,27492,1,0,0:0:0:0:
320,192,27571,1,0,0:0:0:0:
64,192,27571,1,0,0:0:0:0:
320,192,27650,1,0,0:0:0:0:
192,192,27729,1,0,0:0:0:0:
64,192,27729,1,0,0:0:0:0:
448,192,27729,1,0,0:0:0:0:
320,192,27808,1,0,0:0:0:0:
448,192,27887,1,0,0:0:0:0:
64,192,27887,1,0,0:0:0:0:
192,192,27966,1,0,0:0:0:0:
64,192,28045,1,0,0:0:0:0:
320,192,28045,1,0,0:0:0:0:
448,192,28045,1,0,0:0:0:0:
192,192,28124,1,0,0:0:0:0:
320,192,28203,1,0,0:0:0:0:
448,192,28203,1,0,0:0:0:0:
320,192,28282,1,0,0:0:0:0:
64,192,28361,1,0,0:0:0:0:
192,192,28361,1,0,0:0:0:0:
448,192,28361,1,0,0:0:0:0:
320,192,28440,1,0,0:0:0:0:
192,192,28519,1,0,0:0:0:0:
64,192,28519,1,0,0:0:0:0:
192,192,28598,1,0,0:0:0:0:
64,192,28677,1,0,0:0:0:0:
320,192,28677,1,0,0:0:0:0:
448,192,28677,128,0,29150:0:0:0:0:
320,192,28834,1,0,0:0:0:0:
192,192,28913,1,0,0:0:0:0:
64,192,28992,1,0,0:0:0:0:
320,192,28992,1,0,0:0:0:0:
64,192,29150,1,0,0:0:0:0:
192,192,29150,1,0,0:0:0:0:
192,192,29308,1,0,0:0:0:0:
448,192,29308,128,0,29624:0:0:0:0:
320,192,29466,1,0,0:0:0:0:
64,192,29466,1,0,0:0:0:0:
64,192,29624,1,0,0:0:0:0:
320,192,29624,1,0,0:0:0:0:
192,192,29703,1,0,0:0:0:0:
64,192,29782,1,0,0:0:0:0:
448,192,29782,1,0,0:0:0:0:
320,192,29861,1,0,0:0:0:0:
192,192,29940,1,0,0:0:0:0:
448,192,29940,1,0,0:0:0:0:
64,192,29940,1,0,0:0:0:0:
320,192,30019,1,0,0:0:0:0:
64,192,30098,1,0,0:0:0:0:
448,192,30098,1,0,0:0:0:0:
192,192,30177,1,0,0:0:0:0:
320,192,30256,1,0,0:0:0:0:
448,192,30256,1,0,0:0:0:0:
64,192,30256,1,0,0:0:0:0:
192,192,30334,1,0,0:0:0:0:
448,192,30413,1,0,0:0:0:0:
64,192,30413,1,0,0:0:0:0:
320,192,30492,1,0,0:0:0:0:
192,192,30571,1,0,0:0:0:0:
64,192,30571,1,0,0:0:0:0:
448,192,30571,1,0,0:0:0:0:
192,192,30650,1,0,0:0:0:0:
64,192,30729,1,0,0:0:0:0:
448,192,30729,1,0,0:0:0:0:
320,192,30808,1,0,0:0:0:0:
192,192,30887,1,0,0:0:0:0:
64,192,30887,1,0,0:0:0:0:
448,192,30887,1,0,0:0:0:0:
320,192,30966,1,0,0:0:0:0:
448,192,31045,1,0,0:0:0:0:
192,192,31045,1,0,0:0:0:0:
320,192,31124,1,0,0:0:0:0:
192,192,31203,1,0,0:0:0:0:
448,192,31203,1,0,0:0:0:0:
64,192,31203,1,0,0:0:0:0:
448,192,31361,1,0,0:0:0:0:
64,192,31361,1,0,0:0:0:0:
320,192,31361,1,0,0:0:0:0:
64,192,31519,1,0,0:0:0:0:
192,192,31519,1,0,0:0:0:0:
448,192,31519,1,0,0:0:0:0:
192,192,31677,1,0,0:0:0:0:
320,192,31677,1,0,0:0:0:0:
64,192,31677,1,0,0:0:0:0:
64,192,31834,1,0,0:0:0:0:
192,192,31834,1,0,0:0:0:0:
448,192,31834,1,0,0:0:0:0:
320,192,31913,1,0,0:0:0:0:
192,192,31992,1,0,0:0:0:0:
448,192,31992,128,0,32466:0:0:0:0:
64,192,32466,1,0,0:0:0:0:
320,192,32466,128,0,32624:0:0:0:0:
192,192,32466,1,0,0:0:0:0:
448,192,32624,1,0,0:0:0:0:
192,192,32624,128,0,32782:0:0:0:0:
64,192,32782,1,0,0:0:0:0:
448,192,32782,128,0,32940:0:0:0:0:
320,192,32782,1,0,0:0:0:0:
64,192,32940,128,0,33098:0:0:0:0:
320,192,32940,1,0,0:0:0:0:
320,192,33019,1,0,0:0:0:0:
320,192,33098,128,0,33256:0:0:0:0:
448,192,33098,1,0,0:0:0:0:
192,192,33098,1,0,0:0:0:0:
448,192,33256,1,0,0:0:0:0:
192,192,33256,128,0,33413:0:0:0:0:
64,192,33413,1,0,0:0:0:0:
448,192,33413,1,0,0:0:0:0:
320,192,33413,128,0,33571:0:0:0:0:
64,192,33571,128,0,33729:0:0:0:0:
192,192,33571,1,0,0:0:0:0:
192,192,33729,1,0,0:0:0:0:
448,192,33729,1,0,0:0:0:0:
320,192,33808,1,0,0:0:0:0:
192,192,33887,1,0,0:0:0:0:
192,192,34045,1,0,0:0:0:0:
448,192,34045,1,0,0:0:0:0:
64,192,34045,1,0,0:0:0:0:
192,192,34203,1,0,0:0:0:0:
320,192,34203,1,0,0:0:0:0:
64,192,34282,1,0,0:0:0:0:
448,192,34361,1,0,0:0:0:0:
192,192,34361,1,0,0:0:0:0:
320,192,34361,1,0,0:0:0:0:
64,192,34571,1,0,0:0:0:0:
448,192,34571,1,0,0:0:0:0:
192,192,34624,1,0,0:0:0:0:
320,192,34624,1,0,0:0:0:0:
448,192,34992,1,0,0:0:0:0:
64,192,34992,128,0,35229:0:0:0:0:
192,192,34992,1,0,0:0:0:0:
320,192,35071,1,0,0:0:0:0:
192,192,35150,1,0,0:0:0:0:
448,192,35150,1,0,0:0:0:0:
320,192,35229,1,0,0:0:0:0:
64,192,35308,1,0,0:0:0:0:
192,192,35308,1,0,0:0:0:0:
448,192,35308,1,0,0:0:0:0:
320,192,35387,1,0,0:0:0:0:
448,192,35466,128,0,35703:0:0:0:0:
192,192,35466,1,0,0:0:0:0:
64,192,35545,1,0,0:0:0:0:
320,192,35624,1,0,0:0:0:0:
192,192,35624,1,0,0:0:0:0:
64,192,35624,1,0,0:0:0:0:
192,192,35703,1,0,0:0:0:0:
64,192,35782,1,0,0:0:0:0:
448,192,35782,1,0,0:0:0:0:
192,192,35861,1,0,0:0:0:0:
192,192,35940,128,0,36177:0:0:0:0:
64,192,35940,1,0,0:0:0:0:
320,192,35940,1,0,0:0:0:0:
448,192,36019,1,0,0:0:0:0:
64,192,36098,1,0,0:0:0:0:
320,192,36098,1,0,0:0:0:0:
448,192,36177,1,0,0:0:0:0:
64,192,36256,1,0,0:0:0:0:
192,192,36256,1,0,0:0:0:0:
320,192,36256,128,0,36492:0:0:0:0:
448,192,36334,1,0,0:0:0:0:
64,192,36413,1,0,0:0:0:0:
192,192,36413,1,0,0:0:0:0:
448,192,36492,1,0,0:0:0:0:
64,192,36571,1,0,0:0:0:0:
192,192,36571,1,0,0:0:0:0:
320,192,36571,1,0,0:0:0:0:
448,192,36650,1,0,0:0:0:0:
192,192,36729,1,0,0:0:0:0:
64,192,36729,1,0,0:0:0:0:
192,192,36808,1,0,0:0:0:0:
64,192,36887,1,0,0:0:0:0:
320,192,36887,1,0,0:0:0:0:
448,192,36887,1,0,0:0:0:0:
192,192,36966,1,0,0:0:0:0:
320,192,37045,1,0,0:0:0:0:
448,192,37124,1,0,0:0:0:0:
192,192,37203,1,0,0:0:0:0:
320,192,37203,1,0,0:0:0:0:
64,192,37203,1,0,0:0:0:0:
448,192,37256,1,0,0:0:0:0:
192,192,37256,1,0,0:0:0:0:
64,192,37519,128,0,37677:0:0:0:0:
320,192,37519,1,0,0:0:0:0:
448,192,37519,1,0,0:0:0:0:
192,192,37677,128,0,37834:0:0:0:0:
320,192,37677,1,0,0:0:0:0:
320,192,37834,128,0,37992:0:0:0:0:
64,192,37834,1,0,0:0:0:0:
448,192,37834,1,0,0:0:0:0:
64,192,37992,128,0,38071:0:0:0:0:
192,192,37992,1,0,0:0:0:0:
192,192,38071,128,0,38150:0:0:0:0:
320,192,38150,128,0,38308:0:0:0:0:
448,192,38150,1,0,0:0:0:0:
64,192,38150,1,0,0:0:0:0:
192,192,38308,1,0,0:0:0:0:
64,192,38308,1,0,0:0:0:0:
192,192,38466,128,0,38624:0:0:0:0:
320,192,38466,1,0,0:0:0:0:
448,192,38466,1,0,0:0:0:0:
64,192,38466,1,0,0:0:0:0:
320,192,38624,128,0,38782:0:0:0:0:
448,192,38624,1,0,0:0:0:0:
64,192,38782,1,0,0:0:0:0:
192,192,38782,1,0,0:0:0:0:
448,192,38782,1,0,0:0:0:0:
320,192,38861,1,0,0:0:0:0:
192,192,38940,1,0,0:0:0:0:
64,192,39019,1,0,0:0:0:0:
448,192,39098,1,0,0:0:0:0:
320,192,39137,1,0,0:0:0:0:
192,192,39177,1,0,0:0:0:0:
64,192,39216,1,0,0:0:0:0:
320,192,39256,1,0,0:0:0:0:
192,192,39295,1,0,0:0:0:0:
448,192,39334,1,0,0:0:0:0:
320,192,39374,1,0,0:0:0:0:
192,192,39413,1,0,0:0:0:0:
64,192,39453,1,0,0:0:0:0:
320,192,39492,1,0,0:0:0:0:
448,192,39532,1,0,0:0:0:0:
64,192,39571,1,0,0:0:0:0:
192,192,39611,1,0,0:0:0:0:
320,192,39650,1,0,0:0:0:0:
448,192,39690,1,0,0:0:0:0:
192,192,39729,1,0,0:0:0:0:
320,192,39769,1,0,0:0:0:0:
64,192,39808,1,0,0:0:0:0:
192,192,39848,1,0,0:0:0:0:
320,192,39887,1,0,0:0:0:0:
448,192,39927,1,0,0:0:0:0:
192,192,39966,1,0,0:0:0:0:
320,192,40006,1,0,0:0:0:0:
64,192,40045,1,0,0:0:0:0:
192,192,40084,1,0,0:0:0:0:
320,192,40124,1,0,0:0:0:0:
448,192,40163,1,0,0:0:0:0:
192,192,40203,1,0,0:0:0:0:
320,192,40242,1,0,0:0:0:0:
64,192,40282,1,0,0:0:0:0:
192,192,40321,1,0,0:0:0:0:
320,192,40361,1,0,0:0:0:0:
448,192,40400,1,0,0:0:0:0:
192,192,40440,1,0,0:0:0:0:
320,192,40479,1,0,0:0:0:0:
64,192,40558,1,0,0:0:0:0:
192,192,40598,1,0,0:0:0:0:
320,192,40637,1,0,0:0:0:0:
448,192,40677,1,0,0:0:0:0:
320,192,40729,1,0,0:0:0:0:
192,192,40782,1,0,0:0:0:0:
320,192,40834,1,0,0:0:0:0:
448,192,40834,1,0,0:0:0:0:
64,192,40834,1,0,0:0:0:0:
64,192,40992,1,0,0:0:0:0:
192,192,40992,1,0,0:0:0:0:
448,192,40992,1,0,0:0:0:0:
320,192,41150,1,0,0:0:0:0:
448,192,41150,1,0,0:0:0:0:
64,192,41308,1,0,0:0:0:0:
192,192,41308,1,0,0:0:0:0:
448,192,41308,1,0,0:0:0:0:
320,192,41387,1,0,0:0:0:0:
192,192,41387,1,0,0:0:0:0:
64,192,41466,1,0,0:0:0:0:
192,192,41466,1,0,0:0:0:0:
64,192,41624,1,0,0:0:0:0:
448,192,41624,1,0,0:0:0:0:
320,192,41624,128,0,41703:0:0:0:0:
192,192,41782,1,0,0:0:0:0:
64,192,41782,1,0,0:0:0:0:
64,192,41940,1,0,0:0:0:0:
448,192,41940,1,0,0:0:0:0:
192,192,41940,128,0,42177:0:0:0:0:
64,192,42177,1,0,0:0:0:0:
448,192,42177,1,0,0:0:0:0:
320,192,42177,128,0,42413:0:0:0:0:
64,192,42413,1,0,0:0:0:0:
192,192,42413,1,0,0:0:0:0:
448,192,42413,128,0,42887:0:0:0:0:
