osu file format v14

[General]
AudioFilename: ineedyou.mp3
AudioLeadIn: 0
PreviewTime: 32057
Countdown: 0
SampleSet: None
StackLeniency: 0.7
Mode: 3
LetterboxInBreaks: 0
SpecialStyle: 0
WidescreenStoryboard: 0

[Editor]
DistanceSpacing: 1.1
BeatDivisor: 4
GridSize: 32
TimelineZoom: 1.5

[Metadata]
Title:CBF Vibromania Pack Arc I
TitleUnicode:CBF Vibromania Pack Arc I
Artist:Various Artist
ArtistUnicode:Various Artist
Creator:arcwinolivirus
Version:(wallwap) I Need You - [I Vibro You]
Source:Hand Vibro Pack
Tags:jack vibro notes vibrate smash spam
BeatmapID:1996856
BeatmapSetID:955897

[Difficulty]
HPDrainRate:6
CircleSize:4
OverallDifficulty:6
ApproachRate:5
SliderMultiplier:1.4
SliderTickRate:1

[Events]
//Background and Video events
0,0,"Ineedyou.jpg",0,0
//Break Periods
//Storyboard Layer 0 (Background)
//Storyboard Layer 1 (Fail)
//Storyboard Layer 2 (Pass)
//Storyboard Layer 3 (Foreground)
//Storyboard Sound Samples

[TimingPoints]
10805.09112951,333.333333333333,4,2,1,10,1,0

[HitObjects]
448,192,138,128,0,2805:0:0:0:0:
64,192,471,1,0,0:0:0:0:
192,192,805,1,0,0:0:0:0:
64,192,1138,1,0,0:0:0:0:
64,192,1805,1,0,0:0:0:0:
192,192,1971,1,0,0:0:0:0:
64,192,2138,1,0,0:0:0:0:
320,192,2471,1,0,0:0:0:0:
192,192,2638,1,0,0:0:0:0:
64,192,2805,128,0,3805:0:0:0:0:
320,192,2805,1,0,0:0:0:0:
192,192,3138,1,0,0:0:0:0:
320,192,3471,1,0,0:0:0:0:
192,192,3805,1,0,0:0:0:0:
448,192,3805,128,0,4805:0:0:0:0:
192,192,4805,128,0,5471:0:0:0:0:
64,192,4805,1,0,0:0:0:0:
448,192,4971,1,0,0:0:0:0:
64,192,5138,1,0,0:0:0:0:
320,192,5305,1,0,0:0:0:0:
448,192,5471,128,0,8138:0:0:0:0:
64,192,5471,1,0,0:0:0:0:
320,192,5805,1,0,0:0:0:0:
64,192,6138,1,0,0:0:0:0:
320,192,6471,1,0,0:0:0:0:
64,192,7138,1,0,0:0:0:0:
192,192,7305,1,0,0:0:0:0:
64,192,7471,1,0,0:0:0:0:
192,192,7805,1,0,0:0:0:0:
320,192,7971,1,0,0:0:0:0:
192,192,8138,1,0,0:0:0:0:
64,192,8138,128,0,9138:0:0:0:0:
320,192,8471,1,0,0:0:0:0:
448,192,8638,1,0,0:0:0:0:
320,192,8805,1,0,0:0:0:0:
192,192,8971,1,0,0:0:0:0:
320,192,9138,1,0,0:0:0:0:
448,192,9138,128,0,10138:0:0:0:0:
192,192,9305,1,0,0:0:0:0:
64,192,9388,1,0,0:0:0:0:
320,192,9805,128,0,10138:0:0:0:0:
64,192,10138,1,0,0:0:0:0:
320,192,10305,1,0,0:0:0:0:
192,192,10471,1,0,0:0:0:0:
448,192,10638,1,0,0:0:0:0:
320,192,10805,1,0,0:0:0:0:
192,192,10805,1,0,0:0:0:0:
64,192,10805,1,0,0:0:0:0:
448,192,10971,1,0,0:0:0:0:
192,192,11138,1,0,0:0:0:0:
64,192,11305,1,0,0:0:0:0:
192,192,11471,1,0,0:0:0:0:
320,192,11471,1,0,0:0:0:0:
448,192,11638,1,0,0:0:0:0:
320,192,11805,1,0,0:0:0:0:
64,192,11805,128,0,12471:0:0:0:0:
192,192,11971,1,0,0:0:0:0:
320,192,12138,1,0,0:0:0:0:
448,192,12305,1,0,0:0:0:0:
320,192,12471,1,0,0:0:0:0:
64,192,12638,1,0,0:0:0:0:
320,192,12805,1,0,0:0:0:0:
192,192,12805,1,0,0:0:0:0:
448,192,12805,128,0,13138:0:0:0:0:
64,192,12971,1,0,0:0:0:0:
320,192,13138,1,0,0:0:0:0:
64,192,13305,1,0,0:0:0:0:
192,192,13471,1,0,0:0:0:0:
448,192,13471,128,0,13805:0:0:0:0:
320,192,13638,1,0,0:0:0:0:
64,192,13805,1,0,0:0:0:0:
192,192,13805,128,0,14138:0:0:0:0:
448,192,13971,1,0,0:0:0:0:
64,192,14138,128,0,14471:0:0:0:0:
320,192,14138,1,0,0:0:0:0:
448,192,14305,1,0,0:0:0:0:
192,192,14471,1,0,0:0:0:0:
448,192,14638,128,0,15471:0:0:0:0:
64,192,14638,1,0,0:0:0:0:
320,192,14805,1,0,0:0:0:0:
192,192,14971,1,0,0:0:0:0:
320,192,15138,1,0,0:0:0:0:
64,192,15305,1,0,0:0:0:0:
192,192,15471,1,0,0:0:0:0:
64,192,15471,128,0,15638:0:0:0:0:
320,192,15638,128,0,15805:0:0:0:0:
192,192,15805,128,0,15971:0:0:0:0:
448,192,15971,128,0,16138:0:0:0:0:
320,192,16138,128,0,16471:0:0:0:0:
192,192,16305,1,0,0:0:0:0:
64,192,16471,128,0,16805:0:0:0:0:
192,192,16638,1,0,0:0:0:0:
448,192,16805,1,0,0:0:0:0:
320,192,16805,1,0,0:0:0:0:
192,192,16971,1,0,0:0:0:0:
448,192,17138,128,0,17971:0:0:0:0:
64,192,17138,1,0,0:0:0:0:
192,192,17305,1,0,0:0:0:0:
64,192,17471,1,0,0:0:0:0:
192,192,17638,1,0,0:0:0:0:
320,192,17805,1,0,0:0:0:0:
192,192,17971,1,0,0:0:0:0:
64,192,17971,128,0,18305:0:0:0:0:
448,192,18138,1,0,0:0:0:0:
320,192,18305,1,0,0:0:0:0:
448,192,18471,1,0,0:0:0:0:
320,192,18638,1,0,0:0:0:0:
64,192,18638,128,0,18971:0:0:0:0:
192,192,18805,1,0,0:0:0:0:
448,192,18971,1,0,0:0:0:0:
320,192,18971,128,0,19305:0:0:0:0:
64,192,19138,1,0,0:0:0:0:
448,192,19305,128,0,19638:0:0:0:0:
192,192,19305,1,0,0:0:0:0:
64,192,19471,1,0,0:0:0:0:
320,192,19638,128,0,19805:0:0:0:0:
192,192,19638,1,0,0:0:0:0:
64,192,19805,128,0,20638:0:0:0:0:
448,192,19805,1,0,0:0:0:0:
192,192,19971,1,0,0:0:0:0:
320,192,20138,1,0,0:0:0:0:
192,192,20305,1,0,0:0:0:0:
448,192,20471,1,0,0:0:0:0:
320,192,20638,1,0,0:0:0:0:
448,192,20638,128,0,20805:0:0:0:0:
192,192,20805,128,0,20971:0:0:0:0:
320,192,20971,128,0,21138:0:0:0:0:
64,192,21138,128,0,21305:0:0:0:0:
192,192,21305,128,0,21638:0:0:0:0:
320,192,21471,1,0,0:0:0:0:
448,192,21638,128,0,21971:0:0:0:0:
320,192,21805,1,0,0:0:0:0:
64,192,21805,1,0,0:0:0:0:
192,192,21805,1,0,0:0:0:0:
192,192,21971,1,0,0:0:0:0:
64,192,21971,1,0,0:0:0:0:
320,192,22138,1,0,0:0:0:0:
192,192,22138,1,0,0:0:0:0:
448,192,22305,1,0,0:0:0:0:
64,192,22471,1,0,0:0:0:0:
192,192,22471,1,0,0:0:0:0:
448,192,22638,1,0,0:0:0:0:
320,192,22805,1,0,0:0:0:0:
192,192,22805,1,0,0:0:0:0:
448,192,22971,1,0,0:0:0:0:
192,192,23138,1,0,0:0:0:0:
64,192,23138,1,0,0:0:0:0:
320,192,23305,1,0,0:0:0:0:
64,192,23471,1,0,0:0:0:0:
192,192,23471,1,0,0:0:0:0:
448,192,23638,1,0,0:0:0:0:
192,192,23805,1,0,0:0:0:0:
320,192,23805,1,0,0:0:0:0:
64,192,23971,1,0,0:0:0:0:
320,192,24138,1,0,0:0:0:0:
192,192,24138,1,0,0:0:0:0:
64,192,24305,1,0,0:0:0:0:
192,192,24471,1,0,0:0:0:0:
448,192,24471,1,0,0:0:0:0:
64,192,24638,1,0,0:0:0:0:
320,192,24805,1,0,0:0:0:0:
192,192,24805,1,0,0:0:0:0:
448,192,24971,1,0,0:0:0:0:
192,192,25138,1,0,0:0:0:0:
320,192,25138,1,0,0:0:0:0:
448,192,25305,1,0,0:0:0:0:
64,192,25471,1,0,0:0:0:0:
192,192,25471,1,0,0:0:0:0:
320,192,25638,1,0,0:0:0:0:
192,192,25805,1,0,0:0:0:0:
448,192,25805,1,0,0:0:0:0:
64,192,25971,1,0,0:0:0:0:
448,192,26138,1,0,0:0:0:0:
192,192,26138,1,0,0:0:0:0:
64,192,26305,1,0,0:0:0:0:
192,192,26471,1,0,0:0:0:0:
320,192,26471,1,0,0:0:0:0:
64,192,26638,1,0,0:0:0:0:
448,192,26805,1,0,0:0:0:0:
192,192,26805,1,0,0:0:0:0:
320,192,26971,1,0,0:0:0:0:
192,192,27138,1,0,0:0:0:0:
64,192,27138,1,0,0:0:0:0:
320,192,27305,1,0,0:0:0:0:
448,192,27471,1,0,0:0:0:0:
192,192,27471,1,0,0:0:0:0:
64,192,27638,1,0,0:0:0:0:
448,192,27805,1,0,0:0:0:0:
320,192,27805,1,0,0:0:0:0:
192,192,27971,1,0,0:0:0:0:
320,192,28138,1,0,0:0:0:0:
64,192,28138,1,0,0:0:0:0:
448,192,28305,1,0,0:0:0:0:
320,192,28471,1,0,0:0:0:0:
192,192,28471,1,0,0:0:0:0:
64,192,28638,1,0,0:0:0:0:
192,192,28805,1,0,0:0:0:0:
320,192,28805,1,0,0:0:0:0:
448,192,28971,1,0,0:0:0:0:
64,192,29138,1,0,0:0:0:0:
192,192,29138,1,0,0:0:0:0:
320,192,29305,1,0,0:0:0:0:
448,192,29471,1,0,0:0:0:0:
64,192,29471,1,0,0:0:0:0:
192,192,29555,1,0,0:0:0:0:
320,192,29638,1,0,0:0:0:0:
448,192,29638,1,0,0:0:0:0:
64,192,29721,1,0,0:0:0:0:
192,192,29805,1,0,0:0:0:0:
320,192,29805,1,0,0:0:0:0:
448,192,29888,1,0,0:0:0:0:
192,192,29971,1,0,0:0:0:0:
64,192,29971,1,0,0:0:0:0:
320,192,30055,1,0,0:0:0:0:
448,192,30138,1,0,0:0:0:0:
64,192,30138,1,0,0:0:0:0:
192,192,30221,1,0,0:0:0:0:
320,192,30305,1,0,0:0:0:0:
448,192,30305,1,0,0:0:0:0:
64,192,30388,1,0,0:0:0:0:
192,192,30471,1,0,0:0:0:0:
320,192,30471,1,0,0:0:0:0:
448,192,30555,1,0,0:0:0:0:
64,192,30638,1,0,0:0:0:0:
192,192,30638,1,0,0:0:0:0:
320,192,30721,1,0,0:0:0:0:
448,192,30805,1,0,0:0:0:0:
64,192,30805,1,0,0:0:0:0:
192,192,30805,1,0,0:0:0:0:
320,192,30971,1,0,0:0:0:0:
448,192,30971,1,0,0:0:0:0:
192,192,30971,1,0,0:0:0:0:
192,192,31138,1,0,0:0:0:0:
320,192,31138,1,0,0:0:0:0:
64,192,31138,1,0,0:0:0:0:
448,192,31305,1,0,0:0:0:0:
320,192,31305,1,0,0:0:0:0:
192,192,31305,1,0,0:0:0:0:
320,192,31471,1,0,0:0:0:0:
64,192,31471,1,0,0:0:0:0:
448,192,31471,1,0,0:0:0:0:
192,192,31471,1,0,0:0:0:0:
192,192,32138,5,0,0:0:0:0:
320,192,32138,1,0,0:0:0:0:
448,192,32138,1,0,0:0:0:0:
64,192,32138,1,0,0:0:0:0:
320,192,32221,1,0,0:0:0:0:
448,192,32221,1,0,0:0:0:0:
192,192,32221,1,0,0:0:0:0:
192,192,32305,1,0,0:0:0:0:
448,192,32305,1,0,0:0:0:0:
320,192,32305,1,0,0:0:0:0:
320,192,32388,1,0,0:0:0:0:
192,192,32388,1,0,0:0:0:0:
448,192,32388,1,0,0:0:0:0:
192,192,32471,1,0,0:0:0:0:
448,192,32471,1,0,0:0:0:0:
320,192,32471,1,0,0:0:0:0:
320,192,32555,1,0,0:0:0:0:
448,192,32555,1,0,0:0:0:0:
192,192,32555,1,0,0:0:0:0:
192,192,32638,1,0,0:0:0:0:
320,192,32638,1,0,0:0:0:0:
448,192,32638,1,0,0:0:0:0:
448,192,32721,1,0,0:0:0:0:
192,192,32721,1,0,0:0:0:0:
320,192,32721,1,0,0:0:0:0:
448,192,32805,1,0,0:0:0:0:
320,192,32805,1,0,0:0:0:0:
64,192,32805,1,0,0:0:0:0:
192,192,32805,1,0,0:0:0:0:
320,192,33138,1,0,0:0:0:0:
64,192,33138,1,0,0:0:0:0:
192,192,33138,1,0,0:0:0:0:
448,192,33138,1,0,0:0:0:0:
320,192,33221,1,0,0:0:0:0:
192,192,33221,1,0,0:0:0:0:
64,192,33221,1,0,0:0:0:0:
64,192,33305,1,0,0:0:0:0:
192,192,33305,1,0,0:0:0:0:
320,192,33305,1,0,0:0:0:0:
320,192,33388,1,0,0:0:0:0:
192,192,33388,1,0,0:0:0:0:
64,192,33388,1,0,0:0:0:0:
320,192,33471,1,0,0:0:0:0:
64,192,33471,1,0,0:0:0:0:
192,192,33471,1,0,0:0:0:0:
320,192,33555,1,0,0:0:0:0:
64,192,33555,1,0,0:0:0:0:
192,192,33555,1,0,0:0:0:0:
320,192,33638,1,0,0:0:0:0:
64,192,33638,1,0,0:0:0:0:
192,192,33638,1,0,0:0:0:0:
192,192,33721,1,0,0:0:0:0:
64,192,33721,1,0,0:0:0:0:
320,192,33721,1,0,0:0:0:0:
192,192,33805,1,0,0:0:0:0:
320,192,33805,1,0,0:0:0:0:
64,192,33805,1,0,0:0:0:0:
64,192,33888,1,0,0:0:0:0:
192,192,33888,1,0,0:0:0:0:
320,192,33888,1,0,0:0:0:0:
192,192,33971,1,0,0:0:0:0:
320,192,33971,1,0,0:0:0:0:
64,192,33971,1,0,0:0:0:0:
64,192,34055,1,0,0:0:0:0:
320,192,34055,1,0,0:0:0:0:
192,192,34055,1,0,0:0:0:0:
448,192,34138,1,0,0:0:0:0:
320,192,34138,1,0,0:0:0:0:
192,192,34138,1,0,0:0:0:0:
64,192,34138,1,0,0:0:0:0:
192,192,34805,5,0,0:0:0:0:
64,192,34805,1,0,0:0:0:0:
320,192,34805,1,0,0:0:0:0:
448,192,34805,1,0,0:0:0:0:
320,192,34888,1,0,0:0:0:0:
64,192,34888,1,0,0:0:0:0:
448,192,34888,1,0,0:0:0:0:
448,192,34971,1,0,0:0:0:0:
64,192,34971,1,0,0:0:0:0:
320,192,34971,1,0,0:0:0:0:
64,192,35055,1,0,0:0:0:0:
448,192,35055,1,0,0:0:0:0:
320,192,35055,1,0,0:0:0:0:
448,192,35138,1,0,0:0:0:0:
64,192,35138,1,0,0:0:0:0:
320,192,35138,1,0,0:0:0:0:
448,192,35221,1,0,0:0:0:0:
320,192,35221,1,0,0:0:0:0:
64,192,35221,1,0,0:0:0:0:
64,192,35305,1,0,0:0:0:0:
320,192,35305,1,0,0:0:0:0:
448,192,35305,1,0,0:0:0:0:
448,192,35388,1,0,0:0:0:0:
320,192,35388,1,0,0:0:0:0:
64,192,35388,1,0,0:0:0:0:
448,192,35471,128,0,35638:0:0:0:0:
320,192,35471,128,0,35638:0:0:0:0:
192,192,35471,128,0,35638:0:0:0:0:
64,192,35471,128,0,35638:0:0:0:0:
320,192,35805,5,0,0:0:0:0:
448,192,35805,1,0,0:0:0:0:
192,192,35805,1,0,0:0:0:0:
64,192,35805,1,0,0:0:0:0:
192,192,35888,1,0,0:0:0:0:
448,192,35888,1,0,0:0:0:0:
64,192,35888,1,0,0:0:0:0:
64,192,35971,1,0,0:0:0:0:
448,192,35971,1,0,0:0:0:0:
192,192,35971,1,0,0:0:0:0:
448,192,36055,1,0,0:0:0:0:
64,192,36055,1,0,0:0:0:0:
192,192,36055,1,0,0:0:0:0:
64,192,36138,1,0,0:0:0:0:
448,192,36138,1,0,0:0:0:0:
192,192,36138,1,0,0:0:0:0:
64,192,36221,1,0,0:0:0:0:
192,192,36221,1,0,0:0:0:0:
448,192,36221,1,0,0:0:0:0:
448,192,36305,1,0,0:0:0:0:
192,192,36305,1,0,0:0:0:0:
64,192,36305,1,0,0:0:0:0:
64,192,36388,1,0,0:0:0:0:
320,192,36388,1,0,0:0:0:0:
448,192,36388,1,0,0:0:0:0:
320,192,36471,5,0,0:0:0:0:
448,192,36471,1,0,0:0:0:0:
64,192,36471,1,0,0:0:0:0:
448,192,36555,1,0,0:0:0:0:
64,192,36555,1,0,0:0:0:0:
320,192,36555,1,0,0:0:0:0:
64,192,36638,1,0,0:0:0:0:
320,192,36638,1,0,0:0:0:0:
448,192,36638,1,0,0:0:0:0:
320,192,36721,1,0,0:0:0:0:
448,192,36721,1,0,0:0:0:0:
64,192,36721,1,0,0:0:0:0:
192,192,36805,1,0,0:0:0:0:
320,192,36805,1,0,0:0:0:0:
448,192,36805,1,0,0:0:0:0:
64,192,36805,128,0,36888:0:0:0:0:
192,192,36971,128,0,37055:0:0:0:0:
64,192,37138,1,0,0:0:0:0:
320,192,37138,128,0,37221:0:0:0:0:
448,192,37305,128,0,37388:0:0:0:0:
448,192,37471,1,0,0:0:0:0:
320,192,37471,1,0,0:0:0:0:
192,192,37471,1,0,0:0:0:0:
64,192,37471,1,0,0:0:0:0:
192,192,37555,1,0,0:0:0:0:
320,192,37555,1,0,0:0:0:0:
64,192,37555,1,0,0:0:0:0:
192,192,37638,1,0,0:0:0:0:
64,192,37638,1,0,0:0:0:0:
320,192,37638,1,0,0:0:0:0:
320,192,37721,1,0,0:0:0:0:
192,192,37721,1,0,0:0:0:0:
64,192,37721,1,0,0:0:0:0:
192,192,37805,1,0,0:0:0:0:
64,192,37805,1,0,0:0:0:0:
320,192,37805,1,0,0:0:0:0:
64,192,37888,1,0,0:0:0:0:
192,192,37888,1,0,0:0:0:0:
320,192,37888,1,0,0:0:0:0:
64,192,37971,1,0,0:0:0:0:
320,192,37971,1,0,0:0:0:0:
192,192,37971,1,0,0:0:0:0:
192,192,38055,1,0,0:0:0:0:
64,192,38055,1,0,0:0:0:0:
320,192,38055,1,0,0:0:0:0:
448,192,38138,1,0,0:0:0:0:
320,192,38138,1,0,0:0:0:0:
192,192,38138,1,0,0:0:0:0:
64,192,38138,1,0,0:0:0:0:
192,192,38471,1,0,0:0:0:0:
64,192,38471,1,0,0:0:0:0:
448,192,38471,1,0,0:0:0:0:
320,192,38471,1,0,0:0:0:0:
448,192,38555,1,0,0:0:0:0:
192,192,38555,1,0,0:0:0:0:
320,192,38555,1,0,0:0:0:0:
192,192,38638,1,0,0:0:0:0:
448,192,38638,1,0,0:0:0:0:
320,192,38638,1,0,0:0:0:0:
448,192,38721,1,0,0:0:0:0:
192,192,38721,1,0,0:0:0:0:
320,192,38721,1,0,0:0:0:0:
448,192,38805,1,0,0:0:0:0:
192,192,38805,1,0,0:0:0:0:
320,192,38805,1,0,0:0:0:0:
192,192,38888,1,0,0:0:0:0:
448,192,38888,1,0,0:0:0:0:
320,192,38888,1,0,0:0:0:0:
448,192,38971,1,0,0:0:0:0:
192,192,38971,1,0,0:0:0:0:
320,192,38971,1,0,0:0:0:0:
192,192,39055,1,0,0:0:0:0:
448,192,39055,1,0,0:0:0:0:
320,192,39055,1,0,0:0:0:0:
448,192,39138,1,0,0:0:0:0:
320,192,39138,1,0,0:0:0:0:
192,192,39138,1,0,0:0:0:0:
192,192,39221,1,0,0:0:0:0:
448,192,39221,1,0,0:0:0:0:
320,192,39221,1,0,0:0:0:0:
320,192,39305,1,0,0:0:0:0:
192,192,39305,1,0,0:0:0:0:
448,192,39305,1,0,0:0:0:0:
448,192,39388,1,0,0:0:0:0:
192,192,39388,1,0,0:0:0:0:
320,192,39388,1,0,0:0:0:0:
192,192,39471,1,0,0:0:0:0:
64,192,39471,1,0,0:0:0:0:
448,192,39471,1,0,0:0:0:0:
320,192,39471,1,0,0:0:0:0:
64,192,39555,1,0,0:0:0:0:
192,192,39555,1,0,0:0:0:0:
320,192,39555,1,0,0:0:0:0:
64,192,39638,1,0,0:0:0:0:
320,192,39638,1,0,0:0:0:0:
192,192,39638,1,0,0:0:0:0:
192,192,39721,1,0,0:0:0:0:
64,192,39721,1,0,0:0:0:0:
320,192,39721,1,0,0:0:0:0:
320,192,39805,1,0,0:0:0:0:
192,192,39805,1,0,0:0:0:0:
64,192,39805,1,0,0:0:0:0:
192,192,39888,1,0,0:0:0:0:
320,192,39888,1,0,0:0:0:0:
64,192,39888,1,0,0:0:0:0:
192,192,39971,1,0,0:0:0:0:
64,192,39971,1,0,0:0:0:0:
320,192,39971,1,0,0:0:0:0:
320,192,40055,1,0,0:0:0:0:
192,192,40055,1,0,0:0:0:0:
64,192,40055,1,0,0:0:0:0:
320,192,40138,1,0,0:0:0:0:
192,192,40138,1,0,0:0:0:0:
448,192,40138,1,0,0:0:0:0:
64,192,40138,1,0,0:0:0:0:
448,192,40221,1,0,0:0:0:0:
64,192,40221,1,0,0:0:0:0:
192,192,40221,1,0,0:0:0:0:
192,192,40305,1,0,0:0:0:0:
448,192,40305,1,0,0:0:0:0:
64,192,40305,1,0,0:0:0:0:
64,192,40388,1,0,0:0:0:0:
448,192,40388,1,0,0:0:0:0:
192,192,40388,1,0,0:0:0:0:
448,192,40471,1,0,0:0:0:0:
64,192,40471,1,0,0:0:0:0:
192,192,40471,1,0,0:0:0:0:
192,192,40555,1,0,0:0:0:0:
448,192,40555,1,0,0:0:0:0:
64,192,40555,1,0,0:0:0:0:
64,192,40638,1,0,0:0:0:0:
448,192,40638,1,0,0:0:0:0:
192,192,40638,1,0,0:0:0:0:
192,192,40721,1,0,0:0:0:0:
448,192,40721,1,0,0:0:0:0:
64,192,40721,1,0,0:0:0:0:
320,192,40805,1,0,0:0:0:0:
448,192,40805,1,0,0:0:0:0:
192,192,40805,1,0,0:0:0:0:
64,192,40805,1,0,0:0:0:0:
320,192,40971,1,0,0:0:0:0:
192,192,40971,1,0,0:0:0:0:
64,192,41138,1,0,0:0:0:0:
192,192,41138,1,0,0:0:0:0:
448,192,41138,1,0,0:0:0:0:
320,192,41138,1,0,0:0:0:0:
448,192,41221,5,0,0:0:0:0:
192,192,41221,1,0,0:0:0:0:
320,192,41221,1,0,0:0:0:0:
320,192,41305,1,0,0:0:0:0:
448,192,41305,1,0,0:0:0:0:
192,192,41305,1,0,0:0:0:0:
320,192,41388,1,0,0:0:0:0:
448,192,41388,1,0,0:0:0:0:
192,192,41388,1,0,0:0:0:0:
448,192,41471,5,0,0:0:0:0:
320,192,41471,1,0,0:0:0:0:
192,192,41471,1,0,0:0:0:0:
192,192,41555,1,0,0:0:0:0:
448,192,41555,1,0,0:0:0:0:
320,192,41555,1,0,0:0:0:0:
192,192,41638,1,0,0:0:0:0:
448,192,41638,1,0,0:0:0:0:
320,192,41638,1,0,0:0:0:0:
448,192,41721,5,0,0:0:0:0:
192,192,41721,1,0,0:0:0:0:
320,192,41721,1,0,0:0:0:0:
320,192,41805,1,0,0:0:0:0:
448,192,41805,1,0,0:0:0:0:
192,192,41805,1,0,0:0:0:0:
320,192,41888,1,0,0:0:0:0:
448,192,41888,1,0,0:0:0:0:
192,192,41888,1,0,0:0:0:0:
448,192,41971,5,0,0:0:0:0:
320,192,41971,1,0,0:0:0:0:
192,192,41971,1,0,0:0:0:0:
192,192,42055,1,0,0:0:0:0:
448,192,42055,1,0,0:0:0:0:
320,192,42055,1,0,0:0:0:0:
192,192,42138,1,0,0:0:0:0:
320,192,42138,1,0,0:0:0:0:
448,192,42138,128,0,42221:0:0:0:0:
192,192,42305,1,0,0:0:0:0:
320,192,42305,1,0,0:0:0:0:
64,192,42305,128,0,42388:0:0:0:0:
320,192,42471,1,0,0:0:0:0:
192,192,42471,1,0,0:0:0:0:
448,192,42471,128,0,42555:0:0:0:0:
320,192,42638,1,0,0:0:0:0:
192,192,42638,1,0,0:0:0:0:
64,192,42638,128,0,42721:0:0:0:0:
320,192,42805,5,0,0:0:0:0:
64,192,42805,1,0,0:0:0:0:
448,192,42805,1,0,0:0:0:0:
192,192,42805,1,0,0:0:0:0:
192,192,42888,1,0,0:0:0:0:
320,192,42888,1,0,0:0:0:0:
64,192,42888,1,0,0:0:0:0:
192,192,42971,1,0,0:0:0:0:
320,192,42971,1,0,0:0:0:0:
64,192,42971,1,0,0:0:0:0:
320,192,43055,5,0,0:0:0:0:
192,192,43055,1,0,0:0:0:0:
64,192,43055,1,0,0:0:0:0:
64,192,43138,1,0,0:0:0:0:
320,192,43138,1,0,0:0:0:0:
192,192,43138,1,0,0:0:0:0:
64,192,43221,1,0,0:0:0:0:
320,192,43221,1,0,0:0:0:0:
192,192,43221,1,0,0:0:0:0:
320,192,43305,5,0,0:0:0:0:
64,192,43305,1,0,0:0:0:0:
192,192,43305,1,0,0:0:0:0:
192,192,43388,1,0,0:0:0:0:
320,192,43388,1,0,0:0:0:0:
64,192,43388,1,0,0:0:0:0:
448,192,43471,1,0,0:0:0:0:
192,192,43471,1,0,0:0:0:0:
320,192,43471,1,0,0:0:0:0:
64,192,43471,1,0,0:0:0:0:
192,192,43805,5,0,0:0:0:0:
64,192,43805,1,0,0:0:0:0:
320,192,43805,1,0,0:0:0:0:
448,192,43805,1,0,0:0:0:0:
448,192,43888,1,0,0:0:0:0:
192,192,43888,1,0,0:0:0:0:
320,192,43888,1,0,0:0:0:0:
448,192,43971,1,0,0:0:0:0:
192,192,43971,1,0,0:0:0:0:
320,192,43971,1,0,0:0:0:0:
192,192,44055,5,0,0:0:0:0:
448,192,44055,1,0,0:0:0:0:
320,192,44055,1,0,0:0:0:0:
320,192,44138,1,0,0:0:0:0:
192,192,44138,1,0,0:0:0:0:
448,192,44138,1,0,0:0:0:0:
320,192,44221,1,0,0:0:0:0:
192,192,44221,1,0,0:0:0:0:
448,192,44221,1,0,0:0:0:0:
192,192,44305,5,0,0:0:0:0:
320,192,44305,1,0,0:0:0:0:
448,192,44305,1,0,0:0:0:0:
448,192,44388,1,0,0:0:0:0:
192,192,44388,1,0,0:0:0:0:
320,192,44388,1,0,0:0:0:0:
448,192,44471,1,0,0:0:0:0:
192,192,44471,1,0,0:0:0:0:
320,192,44471,1,0,0:0:0:0:
192,192,44555,5,0,0:0:0:0:
448,192,44555,1,0,0:0:0:0:
320,192,44555,1,0,0:0:0:0:
320,192,44638,1,0,0:0:0:0:
192,192,44638,1,0,0:0:0:0:
448,192,44638,1,0,0:0:0:0:
320,192,44721,1,0,0:0:0:0:
192,192,44721,1,0,0:0:0:0:
448,192,44721,1,0,0:0:0:0:
64,192,44805,1,0,0:0:0:0:
192,192,44805,1,0,0:0:0:0:
320,192,44805,1,0,0:0:0:0:
448,192,44805,1,0,0:0:0:0:
320,192,45138,128,0,45305:0:0:0:0:
192,192,45138,128,0,45305:0:0:0:0:
192,192,45471,5,0,0:0:0:0:
64,192,45471,1,0,0:0:0:0:
320,192,45471,1,0,0:0:0:0:
448,192,45471,1,0,0:0:0:0:
448,192,45555,1,0,0:0:0:0:
64,192,45555,1,0,0:0:0:0:
192,192,45555,1,0,0:0:0:0:
448,192,45638,1,0,0:0:0:0:
64,192,45638,1,0,0:0:0:0:
192,192,45638,1,0,0:0:0:0:
64,192,45721,5,0,0:0:0:0:
448,192,45721,1,0,0:0:0:0:
192,192,45721,1,0,0:0:0:0:
192,192,45805,1,0,0:0:0:0:
64,192,45805,1,0,0:0:0:0:
448,192,45805,1,0,0:0:0:0:
192,192,45888,1,0,0:0:0:0:
64,192,45888,1,0,0:0:0:0:
448,192,45888,1,0,0:0:0:0:
64,192,45971,5,0,0:0:0:0:
192,192,45971,1,0,0:0:0:0:
448,192,45971,1,0,0:0:0:0:
448,192,46055,1,0,0:0:0:0:
64,192,46055,1,0,0:0:0:0:
192,192,46055,1,0,0:0:0:0:
448,192,46138,128,0,46305:0:0:0:0:
320,192,46138,128,0,46305:0:0:0:0:
192,192,46138,128,0,46305:0:0:0:0:
64,192,46138,128,0,46305:0:0:0:0:
192,192,46471,5,0,0:0:0:0:
448,192,46471,1,0,0:0:0:0:
64,192,46471,1,0,0:0:0:0:
320,192,46471,1,0,0:0:0:0:
320,192,46555,1,0,0:0:0:0:
192,192,46555,1,0,0:0:0:0:
448,192,46555,1,0,0:0:0:0:
320,192,46638,1,0,0:0:0:0:
192,192,46638,1,0,0:0:0:0:
448,192,46638,1,0,0:0:0:0:
192,192,46721,5,0,0:0:0:0:
320,192,46721,1,0,0:0:0:0:
448,192,46721,1,0,0:0:0:0:
448,192,46805,1,0,0:0:0:0:
192,192,46805,1,0,0:0:0:0:
320,192,46805,1,0,0:0:0:0:
448,192,46888,1,0,0:0:0:0:
192,192,46888,1,0,0:0:0:0:
320,192,46888,1,0,0:0:0:0:
192,192,46971,5,0,0:0:0:0:
448,192,46971,1,0,0:0:0:0:
320,192,46971,1,0,0:0:0:0:
320,192,47055,1,0,0:0:0:0:
192,192,47055,1,0,0:0:0:0:
448,192,47055,1,0,0:0:0:0:
320,192,47138,1,0,0:0:0:0:
192,192,47138,1,0,0:0:0:0:
448,192,47138,1,0,0:0:0:0:
192,192,47221,5,0,0:0:0:0:
320,192,47221,1,0,0:0:0:0:
448,192,47221,1,0,0:0:0:0:
448,192,47305,1,0,0:0:0:0:
192,192,47305,1,0,0:0:0:0:
320,192,47305,1,0,0:0:0:0:
448,192,47388,1,0,0:0:0:0:
192,192,47388,1,0,0:0:0:0:
320,192,47388,1,0,0:0:0:0:
192,192,47471,5,0,0:0:0:0:
448,192,47471,1,0,0:0:0:0:
64,192,47471,1,0,0:0:0:0:
320,192,47471,1,0,0:0:0:0:
64,192,47555,1,0,0:0:0:0:
192,192,47555,1,0,0:0:0:0:
320,192,47555,1,0,0:0:0:0:
64,192,47638,1,0,0:0:0:0:
192,192,47638,1,0,0:0:0:0:
320,192,47638,1,0,0:0:0:0:
192,192,47721,5,0,0:0:0:0:
64,192,47721,1,0,0:0:0:0:
320,192,47721,1,0,0:0:0:0:
320,192,47805,1,0,0:0:0:0:
192,192,47805,1,0,0:0:0:0:
64,192,47805,1,0,0:0:0:0:
448,192,47805,1,0,0:0:0:0:
320,192,47888,1,0,0:0:0:0:
192,192,47888,1,0,0:0:0:0:
64,192,47888,1,0,0:0:0:0:
192,192,47971,5,0,0:0:0:0:
320,192,47971,1,0,0:0:0:0:
64,192,47971,1,0,0:0:0:0:
64,192,48055,1,0,0:0:0:0:
192,192,48055,1,0,0:0:0:0:
320,192,48055,1,0,0:0:0:0:
192,192,48138,1,0,0:0:0:0:
320,192,48138,1,0,0:0:0:0:
64,192,48138,1,0,0:0:0:0:
448,192,48138,1,0,0:0:0:0:
448,192,48221,5,0,0:0:0:0:
64,192,48221,1,0,0:0:0:0:
320,192,48221,1,0,0:0:0:0:
320,192,48305,1,0,0:0:0:0:
448,192,48305,1,0,0:0:0:0:
64,192,48305,1,0,0:0:0:0:
320,192,48388,1,0,0:0:0:0:
448,192,48388,1,0,0:0:0:0:
64,192,48388,1,0,0:0:0:0:
448,192,48471,5,0,0:0:0:0:
320,192,48471,1,0,0:0:0:0:
64,192,48471,1,0,0:0:0:0:
64,192,48555,1,0,0:0:0:0:
448,192,48555,1,0,0:0:0:0:
320,192,48555,1,0,0:0:0:0:
64,192,48638,1,0,0:0:0:0:
448,192,48638,1,0,0:0:0:0:
320,192,48638,1,0,0:0:0:0:
448,192,48721,5,0,0:0:0:0:
64,192,48721,1,0,0:0:0:0:
320,192,48721,1,0,0:0:0:0:
448,192,48805,1,0,0:0:0:0:
320,192,48805,1,0,0:0:0:0:
192,192,48805,1,0,0:0:0:0:
64,192,48805,1,0,0:0:0:0:
192,192,48971,1,0,0:0:0:0:
192,192,49138,5,0,0:0:0:0:
448,192,49138,1,0,0:0:0:0:
64,192,49138,1,0,0:0:0:0:
320,192,49138,1,0,0:0:0:0:
64,192,49221,1,0,0:0:0:0:
192,192,49221,1,0,0:0:0:0:
448,192,49221,1,0,0:0:0:0:
64,192,49305,1,0,0:0:0:0:
192,192,49305,1,0,0:0:0:0:
448,192,49305,1,0,0:0:0:0:
192,192,49388,5,0,0:0:0:0:
64,192,49388,1,0,0:0:0:0:
448,192,49388,1,0,0:0:0:0:
448,192,49471,1,0,0:0:0:0:
192,192,49471,1,0,0:0:0:0:
64,192,49471,1,0,0:0:0:0:
448,192,49555,1,0,0:0:0:0:
192,192,49555,1,0,0:0:0:0:
64,192,49555,1,0,0:0:0:0:
192,192,49638,5,0,0:0:0:0:
448,192,49638,1,0,0:0:0:0:
64,192,49638,1,0,0:0:0:0:
64,192,49721,1,0,0:0:0:0:
192,192,49721,1,0,0:0:0:0:
448,192,49721,1,0,0:0:0:0:
64,192,49805,1,0,0:0:0:0:
192,192,49805,1,0,0:0:0:0:
448,192,49805,1,0,0:0:0:0:
192,192,49888,5,0,0:0:0:0:
64,192,49888,1,0,0:0:0:0:
448,192,49888,1,0,0:0:0:0:
448,192,49971,1,0,0:0:0:0:
192,192,49971,1,0,0:0:0:0:
64,192,49971,1,0,0:0:0:0:
448,192,50055,1,0,0:0:0:0:
192,192,50055,1,0,0:0:0:0:
64,192,50055,1,0,0:0:0:0:
320,192,50138,5,0,0:0:0:0:
64,192,50138,1,0,0:0:0:0:
448,192,50138,1,0,0:0:0:0:
192,192,50138,1,0,0:0:0:0:
448,192,50221,1,0,0:0:0:0:
320,192,50221,1,0,0:0:0:0:
64,192,50221,1,0,0:0:0:0:
448,192,50305,1,0,0:0:0:0:
320,192,50305,1,0,0:0:0:0:
64,192,50305,1,0,0:0:0:0:
320,192,50388,5,0,0:0:0:0:
448,192,50388,1,0,0:0:0:0:
64,192,50388,1,0,0:0:0:0:
64,192,50471,1,0,0:0:0:0:
320,192,50471,1,0,0:0:0:0:
448,192,50471,1,0,0:0:0:0:
64,192,50555,1,0,0:0:0:0:
320,192,50555,1,0,0:0:0:0:
448,192,50555,1,0,0:0:0:0:
320,192,50638,5,0,0:0:0:0:
64,192,50638,1,0,0:0:0:0:
448,192,50638,1,0,0:0:0:0:
448,192,50721,1,0,0:0:0:0:
320,192,50721,1,0,0:0:0:0:
64,192,50721,1,0,0:0:0:0:
64,192,50805,1,0,0:0:0:0:
192,192,50805,1,0,0:0:0:0:
448,192,50805,1,0,0:0:0:0:
320,192,50805,1,0,0:0:0:0:
192,192,50888,5,0,0:0:0:0:
320,192,50888,1,0,0:0:0:0:
448,192,50888,1,0,0:0:0:0:
448,192,50971,1,0,0:0:0:0:
192,192,50971,1,0,0:0:0:0:
320,192,50971,1,0,0:0:0:0:
448,192,51055,1,0,0:0:0:0:
192,192,51055,1,0,0:0:0:0:
320,192,51055,1,0,0:0:0:0:
192,192,51138,5,0,0:0:0:0:
448,192,51138,1,0,0:0:0:0:
320,192,51138,1,0,0:0:0:0:
320,192,51221,1,0,0:0:0:0:
192,192,51221,1,0,0:0:0:0:
448,192,51221,1,0,0:0:0:0:
320,192,51305,1,0,0:0:0:0:
192,192,51305,1,0,0:0:0:0:
448,192,51305,1,0,0:0:0:0:
192,192,51388,1,0,0:0:0:0:
320,192,51388,1,0,0:0:0:0:
448,192,51388,1,0,0:0:0:0:
448,192,51471,1,0,0:0:0:0:
64,192,51471,1,0,0:0:0:0:
192,192,51471,1,0,0:0:0:0:
320,192,51471,1,0,0:0:0:0:
192,192,51638,1,0,0:0:0:0:
320,192,51638,1,0,0:0:0:0:
192,192,51805,5,0,0:0:0:0:
64,192,51805,1,0,0:0:0:0:
320,192,51805,1,0,0:0:0:0:
448,192,51805,1,0,0:0:0:0:
448,192,51888,1,0,0:0:0:0:
64,192,51888,1,0,0:0:0:0:
320,192,51888,1,0,0:0:0:0:
448,192,51971,1,0,0:0:0:0:
64,192,51971,1,0,0:0:0:0:
320,192,51971,1,0,0:0:0:0:
64,192,52055,5,0,0:0:0:0:
448,192,52055,1,0,0:0:0:0:
320,192,52055,1,0,0:0:0:0:
448,192,52138,1,0,0:0:0:0:
320,192,52138,1,0,0:0:0:0:
64,192,52138,1,0,0:0:0:0:
448,192,52221,1,0,0:0:0:0:
320,192,52221,1,0,0:0:0:0:
64,192,52221,1,0,0:0:0:0:
64,192,52305,5,0,0:0:0:0:
448,192,52305,1,0,0:0:0:0:
320,192,52305,1,0,0:0:0:0:
192,192,52305,1,0,0:0:0:0:
64,192,52388,1,0,0:0:0:0:
320,192,52388,1,0,0:0:0:0:
448,192,52388,1,0,0:0:0:0:
64,192,52471,1,0,0:0:0:0:
320,192,52471,1,0,0:0:0:0:
448,192,52471,1,0,0:0:0:0:
192,192,52471,1,0,0:0:0:0:
448,192,52555,1,0,0:0:0:0:
320,192,52555,1,0,0:0:0:0:
64,192,52555,1,0,0:0:0:0:
64,192,52638,1,0,0:0:0:0:
192,192,52638,1,0,0:0:0:0:
320,192,52638,1,0,0:0:0:0:
448,192,52638,1,0,0:0:0:0:
320,192,52721,1,0,0:0:0:0:
448,192,52721,1,0,0:0:0:0:
64,192,52721,1,0,0:0:0:0:
64,192,52805,1,0,0:0:0:0:
192,192,52805,1,0,0:0:0:0:
320,192,52805,1,0,0:0:0:0:
448,192,52805,1,0,0:0:0:0:
192,192,52971,1,0,0:0:0:0:
320,192,52971,1,0,0:0:0:0:
448,192,52971,1,0,0:0:0:0:
192,192,53138,1,0,0:0:0:0:
320,192,53138,1,0,0:0:0:0:
64,192,53138,1,0,0:0:0:0:
448,192,53305,1,0,0:0:0:0:
320,192,53305,1,0,0:0:0:0:
192,192,53305,1,0,0:0:0:0:
320,192,53471,1,0,0:0:0:0:
448,192,53471,1,0,0:0:0:0:
64,192,53471,128,0,53638:0:0:0:0:
192,192,53638,1,0,0:0:0:0:
320,192,53805,1,0,0:0:0:0:
448,192,53805,128,0,53971:0:0:0:0:
64,192,53971,1,0,0:0:0:0:
448,192,54138,1,0,0:0:0:0:
192,192,54138,1,0,0:0:0:0:
320,192,54138,128,0,54305:0:0:0:0:
64,192,54305,1,0,0:0:0:0:
320,192,54471,1,0,0:0:0:0:
192,192,54471,128,0,55138:0:0:0:0:
448,192,54638,1,0,0:0:0:0:
64,192,54805,1,0,0:0:0:0:
320,192,54971,1,0,0:0:0:0:
448,192,55138,1,0,0:0:0:0:
64,192,55138,1,0,0:0:0:0:
448,192,55305,1,0,0:0:0:0:
192,192,55471,1,0,0:0:0:0:
64,192,55471,1,0,0:0:0:0:
320,192,55471,128,0,55805:0:0:0:0:
448,192,55638,1,0,0:0:0:0:
64,192,55805,1,0,0:0:0:0:
192,192,55805,1,0,0:0:0:0:
448,192,55888,1,0,0:0:0:0:
320,192,55971,1,0,0:0:0:0:
192,192,55971,1,0,0:0:0:0:
64,192,56055,1,0,0:0:0:0:
448,192,56138,1,0,0:0:0:0:
320,192,56138,128,0,56471:0:0:0:0:
192,192,56305,1,0,0:0:0:0:
448,192,56471,1,0,0:0:0:0:
64,192,56471,128,0,56638:0:0:0:0:
192,192,56638,1,0,0:0:0:0:
448,192,56805,128,0,56971:0:0:0:0:
320,192,56805,1,0,0:0:0:0:
64,192,56805,1,0,0:0:0:0:
192,192,56971,1,0,0:0:0:0:
448,192,57138,1,0,0:0:0:0:
64,192,57138,1,0,0:0:0:0:
320,192,57305,128,0,58138:0:0:0:0:
192,192,57305,1,0,0:0:0:0:
64,192,57471,1,0,0:0:0:0:
448,192,57638,1,0,0:0:0:0:
192,192,57805,1,0,0:0:0:0:
64,192,57805,1,0,0:0:0:0:
448,192,57971,1,0,0:0:0:0:
64,192,58138,128,0,58221:0:0:0:0:
192,192,58138,1,0,0:0:0:0:
192,192,58305,128,0,58388:0:0:0:0:
320,192,58305,1,0,0:0:0:0:
320,192,58471,128,0,58555:0:0:0:0:
448,192,58471,1,0,0:0:0:0:
448,192,58638,128,0,58721:0:0:0:0:
64,192,58638,1,0,0:0:0:0:
192,192,58805,1,0,0:0:0:0:
64,192,58805,1,0,0:0:0:0:
320,192,58805,128,0,58971:0:0:0:0:
448,192,58971,1,0,0:0:0:0:
192,192,59138,1,0,0:0:0:0:
64,192,59138,128,0,59305:0:0:0:0:
448,192,59305,1,0,0:0:0:0:
64,192,59471,1,0,0:0:0:0:
320,192,59471,1,0,0:0:0:0:
192,192,59471,128,0,59638:0:0:0:0:
448,192,59638,1,0,0:0:0:0:
192,192,59805,1,0,0:0:0:0:
320,192,59805,128,0,60471:0:0:0:0:
64,192,59971,1,0,0:0:0:0:
448,192,60138,1,0,0:0:0:0:
192,192,60305,1,0,0:0:0:0:
64,192,60471,1,0,0:0:0:0:
448,192,60471,1,0,0:0:0:0:
64,192,60638,1,0,0:0:0:0:
320,192,60805,1,0,0:0:0:0:
448,192,60805,1,0,0:0:0:0:
192,192,60805,128,0,61138:0:0:0:0:
64,192,60971,1,0,0:0:0:0:
448,192,61138,1,0,0:0:0:0:
320,192,61138,1,0,0:0:0:0:
64,192,61221,1,0,0:0:0:0:
192,192,61305,1,0,0:0:0:0:
320,192,61305,1,0,0:0:0:0:
448,192,61388,1,0,0:0:0:0:
64,192,61471,1,0,0:0:0:0:
192,192,61471,128,0,61805:0:0:0:0:
320,192,61638,1,0,0:0:0:0:
64,192,61805,1,0,0:0:0:0:
448,192,61805,128,0,61971:0:0:0:0:
320,192,61971,1,0,0:0:0:0:
64,192,62138,128,0,62305:0:0:0:0:
192,192,62138,1,0,0:0:0:0:
448,192,62138,1,0,0:0:0:0:
320,192,62305,1,0,0:0:0:0:
64,192,62471,1,0,0:0:0:0:
448,192,62471,1,0,0:0:0:0:
192,192,62638,128,0,63471:0:0:0:0:
320,192,62638,1,0,0:0:0:0:
448,192,62805,1,0,0:0:0:0:
320,192,62971,5,0,0:0:0:0:
64,192,63138,1,0,0:0:0:0:
448,192,63138,1,0,0:0:0:0:
320,192,63221,1,0,0:0:0:0:
64,192,63305,1,0,0:0:0:0:
448,192,63471,128,0,63555:0:0:0:0:
320,192,63471,1,0,0:0:0:0:
320,192,63638,128,0,63721:0:0:0:0:
192,192,63638,1,0,0:0:0:0:
192,192,63805,128,0,63888:0:0:0:0:
64,192,63805,1,0,0:0:0:0:
64,192,63971,128,0,64055:0:0:0:0:
448,192,63971,1,0,0:0:0:0:
64,192,64138,5,0,0:0:0:0:
320,192,64138,1,0,0:0:0:0:
448,192,64138,1,0,0:0:0:0:
192,192,64138,1,0,0:0:0:0:
