osu file format v14

[General]
AudioFilename: sekai.mp3
AudioLeadIn: 0
PreviewTime: -1
Countdown: 0
SampleSet: None
StackLeniency: 0.7
Mode: 3
LetterboxInBreaks: 0
SpecialStyle: 0
WidescreenStoryboard: 0

[Editor]
DistanceSpacing: 0.9
BeatDivisor: 4
GridSize: 8
TimelineZoom: 1.9

[Metadata]
Title:CBF Vibromania Pack Arc I
TitleUnicode:CBF Vibromania Pack Arc I
Artist:Various Artist
ArtistUnicode:Various Artist
Creator:arcwinolivirus
Version:(gio2) Shinsekai - [Vibsekai]
Source:Hand Vibro Pack
Tags:jack vibro notes vibrate smash spam
BeatmapID:1996855
BeatmapSetID:955897

[Difficulty]
HPDrainRate:6
CircleSize:4
OverallDifficulty:6
ApproachRate:5
SliderMultiplier:1.4
SliderTickRate:1

[Events]
//Background and Video events
0,0,"shinsekai.jpg",0,0
//Break Periods
//Storyboard Layer 0 (Background)
//Storyboard Layer 1 (Fail)
//Storyboard Layer 2 (Pass)
//Storyboard Layer 3 (Foreground)
//Storyboard Sound Samples

[TimingPoints]
1257,310.877586206895,4,2,1,30,1,0

[HitObjects]
320,192,1257,5,0,0:0:0:0:
448,192,1257,1,0,0:0:0:0:
192,192,1257,1,0,0:0:0:0:
448,192,1412,1,0,0:0:0:0:
64,192,1412,1,0,0:0:0:0:
448,192,1567,1,0,0:0:0:0:
192,192,1567,1,0,0:0:0:0:
64,192,1723,1,0,0:0:0:0:
320,192,1723,1,0,0:0:0:0:
320,192,2189,1,0,0:0:0:0:
192,192,2189,1,0,0:0:0:0:
64,192,2500,1,0,0:0:0:0:
448,192,2500,1,0,0:0:0:0:
320,192,2500,1,0,0:0:0:0:
320,192,2966,1,0,0:0:0:0:
192,192,2966,1,0,0:0:0:0:
448,192,3744,1,0,0:0:0:0:
64,192,3744,1,0,0:0:0:0:
192,192,3744,1,0,0:0:0:0:
320,192,4365,1,0,0:0:0:0:
64,192,4365,1,0,0:0:0:0:
64,192,4521,1,0,0:0:0:0:
192,192,4521,1,0,0:0:0:0:
448,192,4676,1,0,0:0:0:0:
320,192,4676,1,0,0:0:0:0:
192,192,4832,1,0,0:0:0:0:
448,192,4832,1,0,0:0:0:0:
64,192,4987,1,0,0:0:0:0:
320,192,4987,1,0,0:0:0:0:
192,192,4987,1,0,0:0:0:0:
448,192,5453,1,0,0:0:0:0:
64,192,5453,1,0,0:0:0:0:
192,192,5453,1,0,0:0:0:0:
320,192,5920,1,0,0:0:0:0:
192,192,5920,1,0,0:0:0:0:
64,192,6231,1,0,0:0:0:0:
192,192,6231,1,0,0:0:0:0:
320,192,6231,1,0,0:0:0:0:
320,192,7008,1,0,0:0:0:0:
448,192,7008,1,0,0:0:0:0:
64,192,7163,1,0,0:0:0:0:
448,192,7163,1,0,0:0:0:0:
192,192,7319,1,0,0:0:0:0:
320,192,7319,1,0,0:0:0:0:
448,192,7474,128,0,8718:0:0:0:0:
64,192,7474,128,0,8718:0:0:0:0:
320,192,7474,128,0,8718:0:0:0:0:
64,192,9028,128,0,9495:0:0:0:0:
192,192,9028,128,0,9495:0:0:0:0:
320,192,9495,1,0,0:0:0:0:
448,192,9495,1,0,0:0:0:0:
448,192,9961,1,0,0:0:0:0:
64,192,9961,1,0,0:0:0:0:
448,192,10039,1,0,0:0:0:0:
448,192,10117,1,0,0:0:0:0:
448,192,10194,1,0,0:0:0:0:
448,192,10272,1,0,0:0:0:0:
192,192,10272,1,0,0:0:0:0:
448,192,10350,1,0,0:0:0:0:
448,192,10427,1,0,0:0:0:0:
448,192,10505,1,0,0:0:0:0:
448,192,10583,1,0,0:0:0:0:
64,192,10583,1,0,0:0:0:0:
448,192,10661,1,0,0:0:0:0:
448,192,10738,1,0,0:0:0:0:
448,192,10816,1,0,0:0:0:0:
448,192,10894,1,0,0:0:0:0:
192,192,10894,1,0,0:0:0:0:
448,192,10971,1,0,0:0:0:0:
448,192,11049,1,0,0:0:0:0:
448,192,11127,1,0,0:0:0:0:
320,192,11205,1,0,0:0:0:0:
64,192,11205,1,0,0:0:0:0:
192,192,11282,1,0,0:0:0:0:
448,192,11360,1,0,0:0:0:0:
320,192,11438,1,0,0:0:0:0:
192,192,11515,1,0,0:0:0:0:
64,192,11515,1,0,0:0:0:0:
448,192,11593,1,0,0:0:0:0:
320,192,11671,1,0,0:0:0:0:
64,192,11749,1,0,0:0:0:0:
448,192,11826,1,0,0:0:0:0:
192,192,11826,1,0,0:0:0:0:
320,192,11904,1,0,0:0:0:0:
64,192,11982,1,0,0:0:0:0:
192,192,12059,1,0,0:0:0:0:
448,192,12137,1,0,0:0:0:0:
320,192,12137,1,0,0:0:0:0:
64,192,12215,1,0,0:0:0:0:
192,192,12293,1,0,0:0:0:0:
320,192,12370,1,0,0:0:0:0:
64,192,12448,1,0,0:0:0:0:
448,192,12448,1,0,0:0:0:0:
64,192,12526,1,0,0:0:0:0:
64,192,12604,1,0,0:0:0:0:
64,192,12681,1,0,0:0:0:0:
64,192,12759,1,0,0:0:0:0:
192,192,12759,1,0,0:0:0:0:
64,192,12837,1,0,0:0:0:0:
64,192,12914,1,0,0:0:0:0:
64,192,12992,1,0,0:0:0:0:
64,192,13070,1,0,0:0:0:0:
320,192,13070,1,0,0:0:0:0:
64,192,13148,1,0,0:0:0:0:
64,192,13225,1,0,0:0:0:0:
64,192,13303,1,0,0:0:0:0:
64,192,13381,1,0,0:0:0:0:
448,192,13381,1,0,0:0:0:0:
64,192,13458,1,0,0:0:0:0:
64,192,13536,1,0,0:0:0:0:
64,192,13614,1,0,0:0:0:0:
192,192,13692,1,0,0:0:0:0:
320,192,13692,1,0,0:0:0:0:
448,192,13769,1,0,0:0:0:0:
64,192,13847,1,0,0:0:0:0:
448,192,13925,1,0,0:0:0:0:
320,192,14002,1,0,0:0:0:0:
192,192,14002,1,0,0:0:0:0:
64,192,14080,1,0,0:0:0:0:
448,192,14158,1,0,0:0:0:0:
320,192,14236,1,0,0:0:0:0:
64,192,14313,1,0,0:0:0:0:
192,192,14313,1,0,0:0:0:0:
448,192,14391,1,0,0:0:0:0:
320,192,14391,1,0,0:0:0:0:
64,192,14469,1,0,0:0:0:0:
192,192,14547,1,0,0:0:0:0:
448,192,14547,1,0,0:0:0:0:
320,192,14624,1,0,0:0:0:0:
64,192,14624,1,0,0:0:0:0:
192,192,14702,1,0,0:0:0:0:
320,192,14780,1,0,0:0:0:0:
448,192,14780,1,0,0:0:0:0:
64,192,14857,1,0,0:0:0:0:
320,192,14935,1,0,0:0:0:0:
192,192,14935,1,0,0:0:0:0:
320,192,15013,1,0,0:0:0:0:
320,192,15091,1,0,0:0:0:0:
320,192,15168,1,0,0:0:0:0:
320,192,15246,1,0,0:0:0:0:
64,192,15246,1,0,0:0:0:0:
320,192,15324,1,0,0:0:0:0:
320,192,15401,1,0,0:0:0:0:
320,192,15479,1,0,0:0:0:0:
320,192,15557,1,0,0:0:0:0:
448,192,15557,1,0,0:0:0:0:
320,192,15635,1,0,0:0:0:0:
320,192,15712,1,0,0:0:0:0:
320,192,15790,1,0,0:0:0:0:
320,192,15868,1,0,0:0:0:0:
192,192,15868,1,0,0:0:0:0:
320,192,15945,1,0,0:0:0:0:
320,192,16023,1,0,0:0:0:0:
320,192,16101,1,0,0:0:0:0:
64,192,16179,1,0,0:0:0:0:
192,192,16179,1,0,0:0:0:0:
448,192,16256,1,0,0:0:0:0:
64,192,16334,1,0,0:0:0:0:
192,192,16412,1,0,0:0:0:0:
448,192,16490,1,0,0:0:0:0:
320,192,16490,1,0,0:0:0:0:
64,192,16567,1,0,0:0:0:0:
448,192,16645,1,0,0:0:0:0:
320,192,16723,1,0,0:0:0:0:
64,192,16800,1,0,0:0:0:0:
192,192,16800,1,0,0:0:0:0:
448,192,16878,1,0,0:0:0:0:
320,192,16956,1,0,0:0:0:0:
64,192,17034,1,0,0:0:0:0:
320,192,17111,1,0,0:0:0:0:
192,192,17111,1,0,0:0:0:0:
448,192,17189,1,0,0:0:0:0:
64,192,17267,1,0,0:0:0:0:
320,192,17344,1,0,0:0:0:0:
448,192,17422,1,0,0:0:0:0:
192,192,17422,1,0,0:0:0:0:
192,192,17500,1,0,0:0:0:0:
192,192,17578,1,0,0:0:0:0:
192,192,17655,1,0,0:0:0:0:
192,192,17733,1,0,0:0:0:0:
320,192,17733,1,0,0:0:0:0:
192,192,17811,1,0,0:0:0:0:
192,192,17888,1,0,0:0:0:0:
192,192,17966,1,0,0:0:0:0:
64,192,18044,1,0,0:0:0:0:
192,192,18044,1,0,0:0:0:0:
192,192,18122,1,0,0:0:0:0:
192,192,18199,1,0,0:0:0:0:
192,192,18277,1,0,0:0:0:0:
192,192,18355,1,0,0:0:0:0:
320,192,18355,1,0,0:0:0:0:
192,192,18432,1,0,0:0:0:0:
192,192,18510,1,0,0:0:0:0:
192,192,18588,1,0,0:0:0:0:
448,192,18666,1,0,0:0:0:0:
64,192,18666,1,0,0:0:0:0:
320,192,18743,1,0,0:0:0:0:
192,192,18821,1,0,0:0:0:0:
448,192,18899,1,0,0:0:0:0:
320,192,18977,1,0,0:0:0:0:
64,192,18977,1,0,0:0:0:0:
192,192,19054,1,0,0:0:0:0:
448,192,19132,1,0,0:0:0:0:
320,192,19210,1,0,0:0:0:0:
64,192,19287,1,0,0:0:0:0:
192,192,19287,1,0,0:0:0:0:
448,192,19365,1,0,0:0:0:0:
320,192,19365,1,0,0:0:0:0:
448,192,19521,1,0,0:0:0:0:
64,192,19521,1,0,0:0:0:0:
320,192,19598,1,0,0:0:0:0:
192,192,19598,1,0,0:0:0:0:
448,192,19676,1,0,0:0:0:0:
192,192,19754,1,0,0:0:0:0:
64,192,19754,1,0,0:0:0:0:
320,192,19831,1,0,0:0:0:0:
448,192,19909,1,0,0:0:0:0:
64,192,19909,1,0,0:0:0:0:
64,192,19987,1,0,0:0:0:0:
64,192,20065,1,0,0:0:0:0:
64,192,20142,1,0,0:0:0:0:
64,192,20220,1,0,0:0:0:0:
320,192,20220,1,0,0:0:0:0:
64,192,20298,1,0,0:0:0:0:
64,192,20375,1,0,0:0:0:0:
64,192,20453,1,0,0:0:0:0:
64,192,20531,1,0,0:0:0:0:
192,192,20531,1,0,0:0:0:0:
64,192,20609,1,0,0:0:0:0:
64,192,20686,1,0,0:0:0:0:
64,192,20764,1,0,0:0:0:0:
64,192,20842,1,0,0:0:0:0:
320,192,20842,1,0,0:0:0:0:
64,192,20920,1,0,0:0:0:0:
64,192,20997,1,0,0:0:0:0:
64,192,21075,1,0,0:0:0:0:
64,192,21153,1,0,0:0:0:0:
448,192,21153,1,0,0:0:0:0:
320,192,21230,1,0,0:0:0:0:
192,192,21308,1,0,0:0:0:0:
448,192,21386,1,0,0:0:0:0:
64,192,21464,1,0,0:0:0:0:
320,192,21464,1,0,0:0:0:0:
192,192,21541,1,0,0:0:0:0:
448,192,21619,1,0,0:0:0:0:
64,192,21697,1,0,0:0:0:0:
192,192,21774,1,0,0:0:0:0:
320,192,21774,1,0,0:0:0:0:
448,192,21852,1,0,0:0:0:0:
192,192,21930,1,0,0:0:0:0:
320,192,22008,1,0,0:0:0:0:
64,192,22085,1,0,0:0:0:0:
448,192,22085,1,0,0:0:0:0:
320,192,22163,1,0,0:0:0:0:
192,192,22241,1,0,0:0:0:0:
64,192,22318,1,0,0:0:0:0:
320,192,22396,1,0,0:0:0:0:
448,192,22396,1,0,0:0:0:0:
448,192,22474,1,0,0:0:0:0:
448,192,22552,1,0,0:0:0:0:
448,192,22629,1,0,0:0:0:0:
448,192,22707,1,0,0:0:0:0:
192,192,22707,1,0,0:0:0:0:
448,192,22785,1,0,0:0:0:0:
448,192,22862,1,0,0:0:0:0:
448,192,22940,1,0,0:0:0:0:
448,192,23018,1,0,0:0:0:0:
64,192,23018,1,0,0:0:0:0:
448,192,23096,1,0,0:0:0:0:
448,192,23173,1,0,0:0:0:0:
448,192,23251,1,0,0:0:0:0:
448,192,23329,1,0,0:0:0:0:
192,192,23329,1,0,0:0:0:0:
448,192,23407,1,0,0:0:0:0:
448,192,23484,1,0,0:0:0:0:
448,192,23562,1,0,0:0:0:0:
320,192,23640,1,0,0:0:0:0:
64,192,23640,1,0,0:0:0:0:
192,192,23717,1,0,0:0:0:0:
448,192,23795,1,0,0:0:0:0:
320,192,23873,1,0,0:0:0:0:
192,192,23951,1,0,0:0:0:0:
64,192,23951,1,0,0:0:0:0:
448,192,24028,1,0,0:0:0:0:
64,192,24106,1,0,0:0:0:0:
192,192,24184,1,0,0:0:0:0:
320,192,24261,1,0,0:0:0:0:
448,192,24261,1,0,0:0:0:0:
64,192,24339,1,0,0:0:0:0:
192,192,24339,1,0,0:0:0:0:
320,192,24417,1,0,0:0:0:0:
192,192,24495,1,0,0:0:0:0:
448,192,24495,1,0,0:0:0:0:
320,192,24572,1,0,0:0:0:0:
64,192,24572,1,0,0:0:0:0:
192,192,24650,1,0,0:0:0:0:
448,192,24728,1,0,0:0:0:0:
320,192,24728,1,0,0:0:0:0:
192,192,24805,1,0,0:0:0:0:
64,192,24883,1,0,0:0:0:0:
448,192,24883,1,0,0:0:0:0:
64,192,24961,1,0,0:0:0:0:
64,192,25039,1,0,0:0:0:0:
64,192,25116,1,0,0:0:0:0:
64,192,25194,1,0,0:0:0:0:
64,192,25272,1,0,0:0:0:0:
64,192,25350,1,0,0:0:0:0:
192,192,25350,1,0,0:0:0:0:
320,192,25350,1,0,0:0:0:0:
448,192,25350,1,0,0:0:0:0:
192,192,25427,1,0,0:0:0:0:
64,192,25427,1,0,0:0:0:0:
448,192,25427,1,0,0:0:0:0:
320,192,25427,1,0,0:0:0:0:
320,192,25505,1,0,0:0:0:0:
448,192,25505,1,0,0:0:0:0:
192,192,25505,1,0,0:0:0:0:
64,192,25505,1,0,0:0:0:0:
448,192,25583,1,0,0:0:0:0:
448,192,25660,1,0,0:0:0:0:
448,192,25738,1,0,0:0:0:0:
448,192,25816,1,0,0:0:0:0:
448,192,25894,1,0,0:0:0:0:
448,192,25971,1,0,0:0:0:0:
320,192,25971,1,0,0:0:0:0:
64,192,25971,1,0,0:0:0:0:
192,192,25971,1,0,0:0:0:0:
64,192,26049,1,0,0:0:0:0:
192,192,26049,1,0,0:0:0:0:
448,192,26049,1,0,0:0:0:0:
320,192,26049,1,0,0:0:0:0:
448,192,26127,1,0,0:0:0:0:
320,192,26127,1,0,0:0:0:0:
192,192,26127,1,0,0:0:0:0:
64,192,26127,1,0,0:0:0:0:
192,192,26204,1,0,0:0:0:0:
192,192,26282,1,0,0:0:0:0:
192,192,26360,1,0,0:0:0:0:
192,192,26438,1,0,0:0:0:0:
192,192,26515,1,0,0:0:0:0:
192,192,26593,1,0,0:0:0:0:
192,192,26671,1,0,0:0:0:0:
320,192,26748,1,0,0:0:0:0:
320,192,26826,1,0,0:0:0:0:
320,192,26904,1,0,0:0:0:0:
320,192,26982,1,0,0:0:0:0:
320,192,27059,1,0,0:0:0:0:
320,192,27137,1,0,0:0:0:0:
320,192,27215,1,0,0:0:0:0:
192,192,27215,1,0,0:0:0:0:
64,192,27215,1,0,0:0:0:0:
448,192,27215,1,0,0:0:0:0:
320,192,27292,1,0,0:0:0:0:
448,192,27292,1,0,0:0:0:0:
192,192,27292,1,0,0:0:0:0:
64,192,27292,1,0,0:0:0:0:
64,192,27370,1,0,0:0:0:0:
192,192,27370,1,0,0:0:0:0:
448,192,27370,1,0,0:0:0:0:
320,192,27370,1,0,0:0:0:0:
64,192,27448,1,0,0:0:0:0:
64,192,27526,1,0,0:0:0:0:
64,192,27603,1,0,0:0:0:0:
64,192,27681,1,0,0:0:0:0:
320,192,27681,1,0,0:0:0:0:
320,192,27759,1,0,0:0:0:0:
320,192,27837,1,0,0:0:0:0:
320,192,27914,1,0,0:0:0:0:
320,192,27992,1,0,0:0:0:0:
192,192,27992,1,0,0:0:0:0:
192,192,28070,1,0,0:0:0:0:
192,192,28147,1,0,0:0:0:0:
192,192,28225,1,0,0:0:0:0:
192,192,28303,1,0,0:0:0:0:
448,192,28303,1,0,0:0:0:0:
448,192,28381,1,0,0:0:0:0:
448,192,28458,1,0,0:0:0:0:
448,192,28536,1,0,0:0:0:0:
448,192,28614,1,0,0:0:0:0:
64,192,28614,1,0,0:0:0:0:
64,192,28691,1,0,0:0:0:0:
64,192,28769,1,0,0:0:0:0:
64,192,28847,1,0,0:0:0:0:
64,192,28925,1,0,0:0:0:0:
192,192,28925,1,0,0:0:0:0:
64,192,29002,1,0,0:0:0:0:
192,192,29002,1,0,0:0:0:0:
64,192,29080,1,0,0:0:0:0:
192,192,29080,1,0,0:0:0:0:
64,192,29158,1,0,0:0:0:0:
192,192,29158,1,0,0:0:0:0:
64,192,29235,1,0,0:0:0:0:
192,192,29235,1,0,0:0:0:0:
320,192,29235,1,0,0:0:0:0:
64,192,29313,1,0,0:0:0:0:
192,192,29313,1,0,0:0:0:0:
320,192,29313,1,0,0:0:0:0:
64,192,29391,5,0,0:0:0:0:
192,192,29391,1,0,0:0:0:0:
320,192,29391,1,0,0:0:0:0:
320,192,29469,1,0,0:0:0:0:
192,192,29469,1,0,0:0:0:0:
64,192,29469,1,0,0:0:0:0:
64,192,29546,1,0,0:0:0:0:
192,192,29546,1,0,0:0:0:0:
320,192,29546,1,0,0:0:0:0:
448,192,29546,1,0,0:0:0:0:
64,192,29624,1,0,0:0:0:0:
192,192,29624,1,0,0:0:0:0:
320,192,29624,1,0,0:0:0:0:
448,192,29624,1,0,0:0:0:0:
448,192,29702,1,0,0:0:0:0:
320,192,29702,1,0,0:0:0:0:
192,192,29702,1,0,0:0:0:0:
64,192,29702,1,0,0:0:0:0:
64,192,29780,1,0,0:0:0:0:
192,192,29780,1,0,0:0:0:0:
320,192,29780,1,0,0:0:0:0:
448,192,29780,1,0,0:0:0:0:
448,192,29857,1,0,0:0:0:0:
320,192,29857,1,0,0:0:0:0:
192,192,29857,1,0,0:0:0:0:
64,192,29857,1,0,0:0:0:0:
448,192,29935,1,0,0:0:0:0:
448,192,30013,1,0,0:0:0:0:
448,192,30090,1,0,0:0:0:0:
448,192,30168,1,0,0:0:0:0:
192,192,30168,1,0,0:0:0:0:
448,192,30246,1,0,0:0:0:0:
448,192,30324,1,0,0:0:0:0:
448,192,30401,1,0,0:0:0:0:
448,192,30479,1,0,0:0:0:0:
320,192,30479,1,0,0:0:0:0:
320,192,30557,5,0,0:0:0:0:
320,192,30634,1,0,0:0:0:0:
64,192,30634,1,0,0:0:0:0:
320,192,30712,1,0,0:0:0:0:
320,192,30790,1,0,0:0:0:0:
192,192,30790,1,0,0:0:0:0:
320,192,30868,1,0,0:0:0:0:
320,192,30945,1,0,0:0:0:0:
320,192,31023,1,0,0:0:0:0:
64,192,31101,1,0,0:0:0:0:
448,192,31101,1,0,0:0:0:0:
64,192,31178,1,0,0:0:0:0:
64,192,31256,1,0,0:0:0:0:
64,192,31334,1,0,0:0:0:0:
64,192,31412,1,0,0:0:0:0:
320,192,31412,1,0,0:0:0:0:
64,192,31489,1,0,0:0:0:0:
64,192,31567,1,0,0:0:0:0:
64,192,31645,1,0,0:0:0:0:
192,192,31723,1,0,0:0:0:0:
192,192,31800,1,0,0:0:0:0:
192,192,31878,1,0,0:0:0:0:
192,192,31956,1,0,0:0:0:0:
192,192,32033,1,0,0:0:0:0:
448,192,32033,1,0,0:0:0:0:
192,192,32111,1,0,0:0:0:0:
192,192,32189,1,0,0:0:0:0:
192,192,32267,1,0,0:0:0:0:
320,192,32344,1,0,0:0:0:0:
320,192,32422,1,0,0:0:0:0:
320,192,32500,1,0,0:0:0:0:
320,192,32577,1,0,0:0:0:0:
320,192,32655,1,0,0:0:0:0:
192,192,32655,1,0,0:0:0:0:
320,192,32733,1,0,0:0:0:0:
320,192,32811,1,0,0:0:0:0:
320,192,32888,1,0,0:0:0:0:
64,192,32966,1,0,0:0:0:0:
64,192,33044,1,0,0:0:0:0:
64,192,33121,1,0,0:0:0:0:
64,192,33199,1,0,0:0:0:0:
64,192,33277,1,0,0:0:0:0:
320,192,33277,1,0,0:0:0:0:
64,192,33355,1,0,0:0:0:0:
64,192,33432,1,0,0:0:0:0:
64,192,33510,1,0,0:0:0:0:
192,192,33588,1,0,0:0:0:0:
320,192,33588,1,0,0:0:0:0:
192,192,33665,1,0,0:0:0:0:
192,192,33743,1,0,0:0:0:0:
192,192,33821,1,0,0:0:0:0:
192,192,33899,1,0,0:0:0:0:
448,192,33899,1,0,0:0:0:0:
192,192,33976,1,0,0:0:0:0:
192,192,34054,1,0,0:0:0:0:
192,192,34132,1,0,0:0:0:0:
448,192,34210,1,0,0:0:0:0:
448,192,34287,1,0,0:0:0:0:
448,192,34365,1,0,0:0:0:0:
448,192,34443,1,0,0:0:0:0:
448,192,34520,1,0,0:0:0:0:
64,192,34520,1,0,0:0:0:0:
448,192,34598,1,0,0:0:0:0:
448,192,34676,1,0,0:0:0:0:
448,192,34754,1,0,0:0:0:0:
64,192,34831,1,0,0:0:0:0:
320,192,34831,1,0,0:0:0:0:
64,192,34909,1,0,0:0:0:0:
64,192,34987,1,0,0:0:0:0:
64,192,35064,1,0,0:0:0:0:
64,192,35142,1,0,0:0:0:0:
448,192,35142,1,0,0:0:0:0:
64,192,35220,1,0,0:0:0:0:
64,192,35298,1,0,0:0:0:0:
64,192,35375,1,0,0:0:0:0:
192,192,35453,1,0,0:0:0:0:
192,192,35531,5,0,0:0:0:0:
192,192,35608,1,0,0:0:0:0:
448,192,35608,1,0,0:0:0:0:
192,192,35686,1,0,0:0:0:0:
192,192,35764,1,0,0:0:0:0:
320,192,35764,1,0,0:0:0:0:
192,192,35842,1,0,0:0:0:0:
192,192,35919,1,0,0:0:0:0:
192,192,35997,1,0,0:0:0:0:
448,192,36075,1,0,0:0:0:0:
64,192,36075,1,0,0:0:0:0:
448,192,36153,1,0,0:0:0:0:
448,192,36230,1,0,0:0:0:0:
448,192,36308,1,0,0:0:0:0:
448,192,36386,1,0,0:0:0:0:
192,192,36386,1,0,0:0:0:0:
448,192,36463,1,0,0:0:0:0:
448,192,36541,1,0,0:0:0:0:
448,192,36619,1,0,0:0:0:0:
320,192,36697,1,0,0:0:0:0:
320,192,36774,1,0,0:0:0:0:
320,192,36852,1,0,0:0:0:0:
320,192,36930,1,0,0:0:0:0:
320,192,37007,1,0,0:0:0:0:
64,192,37007,1,0,0:0:0:0:
320,192,37085,1,0,0:0:0:0:
320,192,37163,1,0,0:0:0:0:
320,192,37241,1,0,0:0:0:0:
192,192,37318,1,0,0:0:0:0:
448,192,37318,1,0,0:0:0:0:
192,192,37396,1,0,0:0:0:0:
192,192,37474,1,0,0:0:0:0:
192,192,37551,1,0,0:0:0:0:
192,192,37629,1,0,0:0:0:0:
320,192,37629,1,0,0:0:0:0:
192,192,37707,1,0,0:0:0:0:
192,192,37785,1,0,0:0:0:0:
192,192,37862,1,0,0:0:0:0:
448,192,37940,1,0,0:0:0:0:
448,192,38018,1,0,0:0:0:0:
448,192,38095,1,0,0:0:0:0:
448,192,38173,1,0,0:0:0:0:
448,192,38251,1,0,0:0:0:0:
192,192,38251,1,0,0:0:0:0:
448,192,38329,1,0,0:0:0:0:
448,192,38406,1,0,0:0:0:0:
448,192,38484,1,0,0:0:0:0:
320,192,38562,1,0,0:0:0:0:
192,192,38562,1,0,0:0:0:0:
320,192,38640,1,0,0:0:0:0:
320,192,38717,1,0,0:0:0:0:
320,192,38795,1,0,0:0:0:0:
320,192,38873,1,0,0:0:0:0:
64,192,38873,1,0,0:0:0:0:
320,192,38950,1,0,0:0:0:0:
320,192,39028,1,0,0:0:0:0:
320,192,39106,1,0,0:0:0:0:
64,192,39184,1,0,0:0:0:0:
64,192,39261,1,0,0:0:0:0:
64,192,39339,1,0,0:0:0:0:
64,192,39417,1,0,0:0:0:0:
64,192,39494,1,0,0:0:0:0:
448,192,39494,1,0,0:0:0:0:
64,192,39572,1,0,0:0:0:0:
64,192,39650,1,0,0:0:0:0:
64,192,39728,1,0,0:0:0:0:
320,192,39805,1,0,0:0:0:0:
448,192,39805,1,0,0:0:0:0:
192,192,39805,1,0,0:0:0:0:
320,192,39883,1,0,0:0:0:0:
320,192,39961,1,0,0:0:0:0:
320,192,40038,1,0,0:0:0:0:
320,192,40116,1,0,0:0:0:0:
320,192,40194,1,0,0:0:0:0:
320,192,40272,1,0,0:0:0:0:
320,192,40349,1,0,0:0:0:0:
320,192,40427,1,0,0:0:0:0:
320,192,40505,1,0,0:0:0:0:
320,192,40583,1,0,0:0:0:0:
320,192,40660,1,0,0:0:0:0:
320,192,40738,1,0,0:0:0:0:
320,192,40816,1,0,0:0:0:0:
320,192,40893,1,0,0:0:0:0:
320,192,40971,1,0,0:0:0:0:
192,192,41049,1,0,0:0:0:0:
64,192,41049,1,0,0:0:0:0:
320,192,41049,1,0,0:0:0:0:
192,192,41127,1,0,0:0:0:0:
192,192,41204,1,0,0:0:0:0:
192,192,41282,1,0,0:0:0:0:
192,192,41360,1,0,0:0:0:0:
192,192,41437,1,0,0:0:0:0:
192,192,41515,1,0,0:0:0:0:
192,192,41593,1,0,0:0:0:0:
192,192,41671,1,0,0:0:0:0:
192,192,41748,1,0,0:0:0:0:
192,192,41826,1,0,0:0:0:0:
192,192,41904,1,0,0:0:0:0:
192,192,41981,1,0,0:0:0:0:
192,192,42059,1,0,0:0:0:0:
192,192,42137,1,0,0:0:0:0:
192,192,42215,1,0,0:0:0:0:
320,192,42292,1,0,0:0:0:0:
448,192,42292,1,0,0:0:0:0:
192,192,42292,1,0,0:0:0:0:
448,192,42370,1,0,0:0:0:0:
448,192,42448,1,0,0:0:0:0:
448,192,42525,1,0,0:0:0:0:
448,192,42603,1,0,0:0:0:0:
448,192,42681,1,0,0:0:0:0:
448,192,42759,1,0,0:0:0:0:
448,192,42836,1,0,0:0:0:0:
320,192,42914,1,0,0:0:0:0:
192,192,42914,1,0,0:0:0:0:
64,192,42914,1,0,0:0:0:0:
64,192,42992,1,0,0:0:0:0:
64,192,43070,1,0,0:0:0:0:
64,192,43147,1,0,0:0:0:0:
64,192,43225,1,0,0:0:0:0:
64,192,43303,1,0,0:0:0:0:
64,192,43380,1,0,0:0:0:0:
64,192,43458,1,0,0:0:0:0:
192,192,43536,1,0,0:0:0:0:
448,192,43536,1,0,0:0:0:0:
320,192,43536,1,0,0:0:0:0:
448,192,43614,1,0,0:0:0:0:
448,192,43691,1,0,0:0:0:0:
448,192,43769,1,0,0:0:0:0:
448,192,43847,1,0,0:0:0:0:
448,192,43924,1,0,0:0:0:0:
448,192,44002,1,0,0:0:0:0:
448,192,44080,1,0,0:0:0:0:
320,192,44158,1,0,0:0:0:0:
192,192,44158,1,0,0:0:0:0:
64,192,44158,1,0,0:0:0:0:
64,192,44235,1,0,0:0:0:0:
64,192,44313,1,0,0:0:0:0:
64,192,44391,1,0,0:0:0:0:
64,192,44468,1,0,0:0:0:0:
64,192,44546,1,0,0:0:0:0:
64,192,44624,1,0,0:0:0:0:
64,192,44702,1,0,0:0:0:0:
192,192,44779,1,0,0:0:0:0:
448,192,44779,1,0,0:0:0:0:
320,192,44779,1,0,0:0:0:0:
448,192,44857,1,0,0:0:0:0:
448,192,44935,1,0,0:0:0:0:
448,192,45013,1,0,0:0:0:0:
320,192,45090,1,0,0:0:0:0:
192,192,45090,1,0,0:0:0:0:
64,192,45090,1,0,0:0:0:0:
320,192,45168,1,0,0:0:0:0:
320,192,45246,1,0,0:0:0:0:
320,192,45323,1,0,0:0:0:0:
192,192,45401,1,0,0:0:0:0:
64,192,45401,1,0,0:0:0:0:
448,192,45401,1,0,0:0:0:0:
192,192,45479,1,0,0:0:0:0:
192,192,45557,1,0,0:0:0:0:
192,192,45634,1,0,0:0:0:0:
64,192,45712,1,0,0:0:0:0:
320,192,45712,1,0,0:0:0:0:
448,192,45712,1,0,0:0:0:0:
64,192,45790,1,0,0:0:0:0:
64,192,45867,1,0,0:0:0:0:
64,192,45945,1,0,0:0:0:0:
448,192,46023,1,0,0:0:0:0:
320,192,46023,1,0,0:0:0:0:
448,192,46101,1,0,0:0:0:0:
320,192,46101,1,0,0:0:0:0:
448,192,46178,1,0,0:0:0:0:
320,192,46178,1,0,0:0:0:0:
448,192,46256,1,0,0:0:0:0:
320,192,46256,1,0,0:0:0:0:
448,192,46334,1,0,0:0:0:0:
320,192,46334,1,0,0:0:0:0:
448,192,46411,1,0,0:0:0:0:
320,192,46411,1,0,0:0:0:0:
448,192,46489,1,0,0:0:0:0:
320,192,46489,1,0,0:0:0:0:
448,192,46567,1,0,0:0:0:0:
320,192,46567,1,0,0:0:0:0:
192,192,46645,1,0,0:0:0:0:
64,192,46645,1,0,0:0:0:0:
192,192,46722,1,0,0:0:0:0:
64,192,46722,1,0,0:0:0:0:
192,192,46800,1,0,0:0:0:0:
64,192,46800,1,0,0:0:0:0:
192,192,46878,1,0,0:0:0:0:
64,192,46878,1,0,0:0:0:0:
192,192,46956,1,0,0:0:0:0:
64,192,46956,1,0,0:0:0:0:
192,192,47033,1,0,0:0:0:0:
64,192,47033,1,0,0:0:0:0:
64,192,47111,1,0,0:0:0:0:
192,192,47111,1,0,0:0:0:0:
192,192,47189,1,0,0:0:0:0:
64,192,47189,1,0,0:0:0:0:
320,192,47266,1,0,0:0:0:0:
448,192,47266,1,0,0:0:0:0:
64,192,47344,1,0,0:0:0:0:
192,192,47422,1,0,0:0:0:0:
320,192,47500,1,0,0:0:0:0:
448,192,47577,1,0,0:0:0:0:
192,192,47655,1,0,0:0:0:0:
320,192,47733,1,0,0:0:0:0:
64,192,47810,1,0,0:0:0:0:
192,192,47888,1,0,0:0:0:0:
320,192,47966,1,0,0:0:0:0:
448,192,48044,1,0,0:0:0:0:
192,192,48121,1,0,0:0:0:0:
320,192,48199,1,0,0:0:0:0:
64,192,48277,1,0,0:0:0:0:
320,192,48354,1,0,0:0:0:0:
192,192,48432,1,0,0:0:0:0:
448,192,48510,1,0,0:0:0:0:
64,192,48510,1,0,0:0:0:0:
448,192,48588,1,0,0:0:0:0:
448,192,48665,1,0,0:0:0:0:
448,192,48743,1,0,0:0:0:0:
320,192,48821,1,0,0:0:0:0:
64,192,48821,1,0,0:0:0:0:
320,192,48898,1,0,0:0:0:0:
320,192,48976,1,0,0:0:0:0:
320,192,49054,1,0,0:0:0:0:
448,192,49132,1,0,0:0:0:0:
192,192,49132,1,0,0:0:0:0:
192,192,49209,1,0,0:0:0:0:
192,192,49287,1,0,0:0:0:0:
192,192,49365,1,0,0:0:0:0:
64,192,49443,1,0,0:0:0:0:
320,192,49443,1,0,0:0:0:0:
64,192,49520,1,0,0:0:0:0:
64,192,49598,1,0,0:0:0:0:
64,192,49676,1,0,0:0:0:0:
448,192,49753,1,0,0:0:0:0:
320,192,49753,1,0,0:0:0:0:
192,192,49831,1,0,0:0:0:0:
320,192,49909,1,0,0:0:0:0:
64,192,49987,1,0,0:0:0:0:
448,192,50064,1,0,0:0:0:0:
192,192,50064,1,0,0:0:0:0:
320,192,50142,1,0,0:0:0:0:
64,192,50220,1,0,0:0:0:0:
192,192,50297,1,0,0:0:0:0:
320,192,50375,1,0,0:0:0:0:
448,192,50375,1,0,0:0:0:0:
64,192,50453,1,0,0:0:0:0:
448,192,50531,1,0,0:0:0:0:
192,192,50608,1,0,0:0:0:0:
320,192,50686,1,0,0:0:0:0:
64,192,50686,1,0,0:0:0:0:
448,192,50764,1,0,0:0:0:0:
192,192,50841,1,0,0:0:0:0:
320,192,50919,1,0,0:0:0:0:
448,192,50997,1,0,0:0:0:0:
64,192,50997,1,0,0:0:0:0:
64,192,51075,1,0,0:0:0:0:
64,192,51152,1,0,0:0:0:0:
64,192,51230,1,0,0:0:0:0:
192,192,51308,1,0,0:0:0:0:
320,192,51308,1,0,0:0:0:0:
192,192,51386,1,0,0:0:0:0:
192,192,51463,1,0,0:0:0:0:
192,192,51541,1,0,0:0:0:0:
320,192,51619,1,0,0:0:0:0:
64,192,51619,1,0,0:0:0:0:
320,192,51696,1,0,0:0:0:0:
192,192,51696,1,0,0:0:0:0:
320,192,51774,1,0,0:0:0:0:
320,192,51852,1,0,0:0:0:0:
64,192,51852,1,0,0:0:0:0:
448,192,51930,1,0,0:0:0:0:
192,192,51930,1,0,0:0:0:0:
448,192,52007,1,0,0:0:0:0:
448,192,52085,1,0,0:0:0:0:
192,192,52085,1,0,0:0:0:0:
448,192,52163,1,0,0:0:0:0:
64,192,52240,1,0,0:0:0:0:
320,192,52240,1,0,0:0:0:0:
192,192,52318,1,0,0:0:0:0:
448,192,52396,1,0,0:0:0:0:
320,192,52474,1,0,0:0:0:0:
192,192,52551,1,0,0:0:0:0:
448,192,52551,1,0,0:0:0:0:
64,192,52629,1,0,0:0:0:0:
192,192,52707,1,0,0:0:0:0:
320,192,52784,1,0,0:0:0:0:
448,192,52862,1,0,0:0:0:0:
64,192,52862,1,0,0:0:0:0:
320,192,52940,1,0,0:0:0:0:
192,192,53018,1,0,0:0:0:0:
64,192,53095,1,0,0:0:0:0:
192,192,53173,1,0,0:0:0:0:
448,192,53173,1,0,0:0:0:0:
320,192,53251,1,0,0:0:0:0:
64,192,53328,1,0,0:0:0:0:
320,192,53406,1,0,0:0:0:0:
192,192,53484,1,0,0:0:0:0:
448,192,53484,1,0,0:0:0:0:
64,192,53562,1,0,0:0:0:0:
192,192,53639,1,0,0:0:0:0:
320,192,53717,1,0,0:0:0:0:
448,192,53795,1,0,0:0:0:0:
64,192,53795,1,0,0:0:0:0:
320,192,53873,1,0,0:0:0:0:
192,192,53950,1,0,0:0:0:0:
64,192,54028,1,0,0:0:0:0:
192,192,54106,1,0,0:0:0:0:
448,192,54106,1,0,0:0:0:0:
320,192,54183,1,0,0:0:0:0:
192,192,54261,1,0,0:0:0:0:
320,192,54339,1,0,0:0:0:0:
192,192,54417,1,0,0:0:0:0:
448,192,54417,1,0,0:0:0:0:
64,192,54494,1,0,0:0:0:0:
320,192,54572,1,0,0:0:0:0:
192,192,54650,1,0,0:0:0:0:
448,192,54727,1,0,0:0:0:0:
64,192,54727,1,0,0:0:0:0:
320,192,54805,1,0,0:0:0:0:
192,192,54883,1,0,0:0:0:0:
64,192,54961,1,0,0:0:0:0:
192,192,55038,1,0,0:0:0:0:
448,192,55038,1,0,0:0:0:0:
320,192,55116,1,0,0:0:0:0:
64,192,55194,1,0,0:0:0:0:
320,192,55271,1,0,0:0:0:0:
192,192,55349,1,0,0:0:0:0:
448,192,55349,1,0,0:0:0:0:
64,192,55427,1,0,0:0:0:0:
192,192,55505,1,0,0:0:0:0:
320,192,55582,1,0,0:0:0:0:
448,192,55660,1,0,0:0:0:0:
64,192,55660,1,0,0:0:0:0:
320,192,55738,1,0,0:0:0:0:
192,192,55816,1,0,0:0:0:0:
64,192,55893,1,0,0:0:0:0:
320,192,55971,1,0,0:0:0:0:
448,192,55971,1,0,0:0:0:0:
192,192,56049,1,0,0:0:0:0:
320,192,56126,1,0,0:0:0:0:
64,192,56204,1,0,0:0:0:0:
320,192,56282,1,0,0:0:0:0:
448,192,56282,1,0,0:0:0:0:
192,192,56360,1,0,0:0:0:0:
448,192,56437,1,0,0:0:0:0:
320,192,56515,1,0,0:0:0:0:
64,192,56593,1,0,0:0:0:0:
192,192,56593,1,0,0:0:0:0:
448,192,56670,1,0,0:0:0:0:
320,192,56670,1,0,0:0:0:0:
64,192,56748,1,0,0:0:0:0:
192,192,56826,1,0,0:0:0:0:
320,192,56826,1,0,0:0:0:0:
64,192,56904,1,0,0:0:0:0:
448,192,56904,1,0,0:0:0:0:
320,192,56981,1,0,0:0:0:0:
192,192,57059,1,0,0:0:0:0:
448,192,57059,1,0,0:0:0:0:
320,192,57137,1,0,0:0:0:0:
64,192,57214,1,0,0:0:0:0:
192,192,57214,1,0,0:0:0:0:
448,192,57214,1,0,0:0:0:0:
64,192,57292,1,0,0:0:0:0:
192,192,57292,1,0,0:0:0:0:
64,192,57370,1,0,0:0:0:0:
192,192,57370,1,0,0:0:0:0:
64,192,57448,1,0,0:0:0:0:
192,192,57448,1,0,0:0:0:0:
64,192,57525,1,0,0:0:0:0:
192,192,57525,1,0,0:0:0:0:
320,192,57525,1,0,0:0:0:0:
64,192,57603,1,0,0:0:0:0:
192,192,57603,1,0,0:0:0:0:
192,192,57681,1,0,0:0:0:0:
64,192,57681,1,0,0:0:0:0:
64,192,57759,1,0,0:0:0:0:
192,192,57759,1,0,0:0:0:0:
64,192,57836,1,0,0:0:0:0:
192,192,57836,1,0,0:0:0:0:
448,192,57836,1,0,0:0:0:0:
64,192,57914,1,0,0:0:0:0:
192,192,57914,1,0,0:0:0:0:
64,192,57992,1,0,0:0:0:0:
192,192,57992,1,0,0:0:0:0:
64,192,58069,1,0,0:0:0:0:
192,192,58069,1,0,0:0:0:0:
64,192,58147,1,0,0:0:0:0:
192,192,58147,1,0,0:0:0:0:
320,192,58147,1,0,0:0:0:0:
64,192,58225,1,0,0:0:0:0:
192,192,58225,1,0,0:0:0:0:
64,192,58303,1,0,0:0:0:0:
192,192,58303,1,0,0:0:0:0:
64,192,58380,1,0,0:0:0:0:
192,192,58380,1,0,0:0:0:0:
64,192,58458,1,0,0:0:0:0:
192,192,58458,1,0,0:0:0:0:
448,192,58458,1,0,0:0:0:0:
64,192,58536,1,0,0:0:0:0:
192,192,58536,1,0,0:0:0:0:
64,192,58613,1,0,0:0:0:0:
192,192,58613,1,0,0:0:0:0:
64,192,58691,1,0,0:0:0:0:
192,192,58691,1,0,0:0:0:0:
64,192,58769,1,0,0:0:0:0:
192,192,58769,1,0,0:0:0:0:
320,192,58769,1,0,0:0:0:0:
64,192,58847,1,0,0:0:0:0:
192,192,58847,1,0,0:0:0:0:
64,192,58924,1,0,0:0:0:0:
192,192,58924,1,0,0:0:0:0:
64,192,59002,1,0,0:0:0:0:
192,192,59002,1,0,0:0:0:0:
64,192,59080,1,0,0:0:0:0:
192,192,59080,1,0,0:0:0:0:
448,192,59080,1,0,0:0:0:0:
64,192,59157,1,0,0:0:0:0:
192,192,59157,1,0,0:0:0:0:
64,192,59235,1,0,0:0:0:0:
192,192,59235,1,0,0:0:0:0:
64,192,59313,1,0,0:0:0:0:
192,192,59313,1,0,0:0:0:0:
64,192,59391,1,0,0:0:0:0:
192,192,59391,1,0,0:0:0:0:
320,192,59391,1,0,0:0:0:0:
64,192,59468,1,0,0:0:0:0:
192,192,59468,1,0,0:0:0:0:
64,192,59546,1,0,0:0:0:0:
192,192,59546,1,0,0:0:0:0:
64,192,59624,1,0,0:0:0:0:
192,192,59624,1,0,0:0:0:0:
320,192,59701,1,0,0:0:0:0:
448,192,59701,1,0,0:0:0:0:
192,192,59701,1,0,0:0:0:0:
64,192,59701,1,0,0:0:0:0:
320,192,59779,1,0,0:0:0:0:
448,192,59779,1,0,0:0:0:0:
320,192,59857,1,0,0:0:0:0:
448,192,59857,1,0,0:0:0:0:
320,192,59935,1,0,0:0:0:0:
448,192,59935,1,0,0:0:0:0:
320,192,60012,1,0,0:0:0:0:
448,192,60012,1,0,0:0:0:0:
64,192,60012,1,0,0:0:0:0:
320,192,60090,1,0,0:0:0:0:
448,192,60090,1,0,0:0:0:0:
320,192,60168,1,0,0:0:0:0:
448,192,60168,1,0,0:0:0:0:
320,192,60246,1,0,0:0:0:0:
448,192,60246,1,0,0:0:0:0:
448,192,60323,1,0,0:0:0:0:
320,192,60323,1,0,0:0:0:0:
192,192,60323,1,0,0:0:0:0:
320,192,60401,1,0,0:0:0:0:
448,192,60401,1,0,0:0:0:0:
448,192,60479,1,0,0:0:0:0:
320,192,60479,1,0,0:0:0:0:
320,192,60556,1,0,0:0:0:0:
448,192,60556,1,0,0:0:0:0:
448,192,60634,1,0,0:0:0:0:
320,192,60634,1,0,0:0:0:0:
64,192,60634,1,0,0:0:0:0:
320,192,60712,1,0,0:0:0:0:
448,192,60712,1,0,0:0:0:0:
448,192,60790,1,0,0:0:0:0:
320,192,60790,1,0,0:0:0:0:
448,192,60867,1,0,0:0:0:0:
320,192,60867,1,0,0:0:0:0:
448,192,60945,1,0,0:0:0:0:
320,192,60945,1,0,0:0:0:0:
192,192,60945,1,0,0:0:0:0:
320,192,61023,1,0,0:0:0:0:
448,192,61023,1,0,0:0:0:0:
448,192,61100,1,0,0:0:0:0:
320,192,61100,1,0,0:0:0:0:
320,192,61178,1,0,0:0:0:0:
448,192,61178,1,0,0:0:0:0:
448,192,61256,1,0,0:0:0:0:
320,192,61256,1,0,0:0:0:0:
64,192,61256,1,0,0:0:0:0:
320,192,61334,1,0,0:0:0:0:
448,192,61334,1,0,0:0:0:0:
448,192,61411,1,0,0:0:0:0:
320,192,61411,1,0,0:0:0:0:
320,192,61489,1,0,0:0:0:0:
448,192,61489,1,0,0:0:0:0:
448,192,61567,1,0,0:0:0:0:
320,192,61567,1,0,0:0:0:0:
192,192,61567,1,0,0:0:0:0:
320,192,61644,1,0,0:0:0:0:
448,192,61644,1,0,0:0:0:0:
64,192,61644,1,0,0:0:0:0:
320,192,61722,1,0,0:0:0:0:
448,192,61722,1,0,0:0:0:0:
320,192,61800,1,0,0:0:0:0:
448,192,61800,1,0,0:0:0:0:
192,192,61800,1,0,0:0:0:0:
320,192,61878,1,0,0:0:0:0:
448,192,61878,1,0,0:0:0:0:
64,192,61878,1,0,0:0:0:0:
320,192,61955,1,0,0:0:0:0:
448,192,61955,1,0,0:0:0:0:
320,192,62033,1,0,0:0:0:0:
448,192,62033,1,0,0:0:0:0:
192,192,62033,1,0,0:0:0:0:
320,192,62111,1,0,0:0:0:0:
448,192,62111,1,0,0:0:0:0:
320,192,62189,1,0,0:0:0:0:
448,192,62189,1,0,0:0:0:0:
192,192,62189,1,0,0:0:0:0:
64,192,62189,1,0,0:0:0:0:
64,192,62266,1,0,0:0:0:0:
192,192,62266,1,0,0:0:0:0:
64,192,62344,1,0,0:0:0:0:
192,192,62344,1,0,0:0:0:0:
64,192,62422,1,0,0:0:0:0:
192,192,62422,1,0,0:0:0:0:
64,192,62499,1,0,0:0:0:0:
192,192,62499,1,0,0:0:0:0:
448,192,62499,1,0,0:0:0:0:
64,192,62577,1,0,0:0:0:0:
192,192,62577,1,0,0:0:0:0:
64,192,62655,1,0,0:0:0:0:
192,192,62655,1,0,0:0:0:0:
64,192,62733,1,0,0:0:0:0:
192,192,62733,1,0,0:0:0:0:
64,192,62810,1,0,0:0:0:0:
192,192,62810,1,0,0:0:0:0:
448,192,62810,1,0,0:0:0:0:
64,192,62888,1,0,0:0:0:0:
192,192,62888,1,0,0:0:0:0:
192,192,62966,1,0,0:0:0:0:
64,192,62966,1,0,0:0:0:0:
64,192,63043,1,0,0:0:0:0:
192,192,63043,1,0,0:0:0:0:
64,192,63121,1,0,0:0:0:0:
192,192,63121,1,0,0:0:0:0:
448,192,63121,1,0,0:0:0:0:
64,192,63199,1,0,0:0:0:0:
192,192,63199,1,0,0:0:0:0:
64,192,63277,1,0,0:0:0:0:
192,192,63277,1,0,0:0:0:0:
64,192,63354,1,0,0:0:0:0:
192,192,63354,1,0,0:0:0:0:
64,192,63432,1,0,0:0:0:0:
192,192,63432,1,0,0:0:0:0:
320,192,63432,1,0,0:0:0:0:
192,192,63510,1,0,0:0:0:0:
320,192,63510,1,0,0:0:0:0:
192,192,63587,1,0,0:0:0:0:
320,192,63587,1,0,0:0:0:0:
192,192,63665,1,0,0:0:0:0:
320,192,63665,1,0,0:0:0:0:
192,192,63743,1,0,0:0:0:0:
320,192,63743,1,0,0:0:0:0:
64,192,63743,1,0,0:0:0:0:
192,192,63821,1,0,0:0:0:0:
320,192,63821,1,0,0:0:0:0:
192,192,63898,1,0,0:0:0:0:
320,192,63898,1,0,0:0:0:0:
192,192,63976,1,0,0:0:0:0:
320,192,63976,1,0,0:0:0:0:
192,192,64054,1,0,0:0:0:0:
320,192,64054,1,0,0:0:0:0:
64,192,64054,1,0,0:0:0:0:
192,192,64131,1,0,0:0:0:0:
320,192,64131,1,0,0:0:0:0:
192,192,64209,1,0,0:0:0:0:
320,192,64209,1,0,0:0:0:0:
192,192,64287,1,0,0:0:0:0:
320,192,64287,1,0,0:0:0:0:
192,192,64365,1,0,0:0:0:0:
320,192,64365,1,0,0:0:0:0:
64,192,64365,1,0,0:0:0:0:
192,192,64442,1,0,0:0:0:0:
320,192,64442,1,0,0:0:0:0:
192,192,64520,1,0,0:0:0:0:
320,192,64520,1,0,0:0:0:0:
192,192,64598,1,0,0:0:0:0:
320,192,64598,1,0,0:0:0:0:
192,192,64676,1,0,0:0:0:0:
320,192,64676,1,0,0:0:0:0:
448,192,64676,1,0,0:0:0:0:
320,192,64753,1,0,0:0:0:0:
448,192,64753,1,0,0:0:0:0:
320,192,64831,1,0,0:0:0:0:
448,192,64831,1,0,0:0:0:0:
320,192,64909,1,0,0:0:0:0:
448,192,64909,1,0,0:0:0:0:
192,192,64986,1,0,0:0:0:0:
320,192,64986,1,0,0:0:0:0:
448,192,64986,1,0,0:0:0:0:
320,192,65064,1,0,0:0:0:0:
448,192,65064,1,0,0:0:0:0:
320,192,65142,1,0,0:0:0:0:
448,192,65142,1,0,0:0:0:0:
320,192,65220,1,0,0:0:0:0:
448,192,65220,1,0,0:0:0:0:
320,192,65297,1,0,0:0:0:0:
448,192,65297,1,0,0:0:0:0:
192,192,65297,1,0,0:0:0:0:
320,192,65375,1,0,0:0:0:0:
448,192,65375,1,0,0:0:0:0:
320,192,65453,1,0,0:0:0:0:
448,192,65453,1,0,0:0:0:0:
320,192,65530,1,0,0:0:0:0:
448,192,65530,1,0,0:0:0:0:
448,192,65608,1,0,0:0:0:0:
320,192,65608,1,0,0:0:0:0:
192,192,65608,1,0,0:0:0:0:
320,192,65686,1,0,0:0:0:0:
448,192,65686,1,0,0:0:0:0:
448,192,65764,1,0,0:0:0:0:
320,192,65764,1,0,0:0:0:0:
320,192,65841,1,0,0:0:0:0:
448,192,65841,1,0,0:0:0:0:
448,192,65919,1,0,0:0:0:0:
320,192,65919,1,0,0:0:0:0:
192,192,65919,1,0,0:0:0:0:
320,192,65997,1,0,0:0:0:0:
448,192,65997,1,0,0:0:0:0:
448,192,66074,1,0,0:0:0:0:
320,192,66074,1,0,0:0:0:0:
448,192,66152,1,0,0:0:0:0:
320,192,66152,1,0,0:0:0:0:
448,192,66230,1,0,0:0:0:0:
320,192,66230,1,0,0:0:0:0:
192,192,66230,1,0,0:0:0:0:
320,192,66308,1,0,0:0:0:0:
448,192,66308,1,0,0:0:0:0:
448,192,66385,1,0,0:0:0:0:
320,192,66385,1,0,0:0:0:0:
320,192,66463,1,0,0:0:0:0:
448,192,66463,1,0,0:0:0:0:
448,192,66541,1,0,0:0:0:0:
320,192,66541,1,0,0:0:0:0:
64,192,66541,1,0,0:0:0:0:
320,192,66619,1,0,0:0:0:0:
448,192,66619,1,0,0:0:0:0:
192,192,66619,1,0,0:0:0:0:
448,192,66696,1,0,0:0:0:0:
320,192,66696,1,0,0:0:0:0:
320,192,66774,1,0,0:0:0:0:
448,192,66774,1,0,0:0:0:0:
192,192,66774,1,0,0:0:0:0:
448,192,66852,1,0,0:0:0:0:
320,192,66852,1,0,0:0:0:0:
64,192,66852,1,0,0:0:0:0:
320,192,66929,1,0,0:0:0:0:
448,192,66929,1,0,0:0:0:0:
448,192,67007,1,0,0:0:0:0:
320,192,67007,1,0,0:0:0:0:
448,192,67085,1,0,0:0:0:0:
320,192,67085,1,0,0:0:0:0:
192,192,67163,1,0,0:0:0:0:
64,192,67163,1,0,0:0:0:0:
320,192,67163,1,0,0:0:0:0:
448,192,67163,1,0,0:0:0:0:
192,192,67240,1,0,0:0:0:0:
64,192,67240,1,0,0:0:0:0:
192,192,67318,1,0,0:0:0:0:
64,192,67318,1,0,0:0:0:0:
192,192,67396,1,0,0:0:0:0:
64,192,67396,1,0,0:0:0:0:
320,192,67473,1,0,0:0:0:0:
448,192,67473,1,0,0:0:0:0:
192,192,67473,1,0,0:0:0:0:
64,192,67473,1,0,0:0:0:0:
320,192,67551,1,0,0:0:0:0:
448,192,67551,1,0,0:0:0:0:
448,192,67629,1,0,0:0:0:0:
320,192,67629,1,0,0:0:0:0:
320,192,67707,1,0,0:0:0:0:
448,192,67707,1,0,0:0:0:0:
192,192,67784,1,0,0:0:0:0:
448,192,67784,1,0,0:0:0:0:
320,192,67784,1,0,0:0:0:0:
64,192,67784,1,0,0:0:0:0:
192,192,67862,1,0,0:0:0:0:
64,192,67862,1,0,0:0:0:0:
192,192,67940,1,0,0:0:0:0:
64,192,67940,1,0,0:0:0:0:
192,192,68017,1,0,0:0:0:0:
64,192,68017,1,0,0:0:0:0:
192,192,68095,1,0,0:0:0:0:
320,192,68095,1,0,0:0:0:0:
448,192,68095,1,0,0:0:0:0:
64,192,68095,1,0,0:0:0:0:
320,192,68173,1,0,0:0:0:0:
448,192,68173,1,0,0:0:0:0:
448,192,68251,1,0,0:0:0:0:
320,192,68251,1,0,0:0:0:0:
448,192,68328,1,0,0:0:0:0:
320,192,68328,1,0,0:0:0:0:
64,192,68406,1,0,0:0:0:0:
448,192,68406,1,0,0:0:0:0:
320,192,68406,1,0,0:0:0:0:
192,192,68406,1,0,0:0:0:0:
64,192,68484,1,0,0:0:0:0:
192,192,68484,1,0,0:0:0:0:
64,192,68561,1,0,0:0:0:0:
192,192,68561,1,0,0:0:0:0:
64,192,68639,1,0,0:0:0:0:
192,192,68639,1,0,0:0:0:0:
448,192,68717,1,0,0:0:0:0:
64,192,68717,1,0,0:0:0:0:
192,192,68717,1,0,0:0:0:0:
320,192,68717,1,0,0:0:0:0:
448,192,68795,1,0,0:0:0:0:
320,192,68795,1,0,0:0:0:0:
320,192,68872,1,0,0:0:0:0:
448,192,68872,1,0,0:0:0:0:
320,192,68950,1,0,0:0:0:0:
448,192,68950,1,0,0:0:0:0:
320,192,69028,1,0,0:0:0:0:
192,192,69028,1,0,0:0:0:0:
64,192,69028,1,0,0:0:0:0:
448,192,69028,1,0,0:0:0:0:
192,192,69106,1,0,0:0:0:0:
64,192,69106,1,0,0:0:0:0:
192,192,69183,1,0,0:0:0:0:
64,192,69183,1,0,0:0:0:0:
192,192,69261,1,0,0:0:0:0:
64,192,69261,1,0,0:0:0:0:
192,192,69339,1,0,0:0:0:0:
320,192,69339,1,0,0:0:0:0:
448,192,69339,1,0,0:0:0:0:
64,192,69339,1,0,0:0:0:0:
320,192,69416,1,0,0:0:0:0:
448,192,69416,1,0,0:0:0:0:
448,192,69494,1,0,0:0:0:0:
320,192,69494,1,0,0:0:0:0:
448,192,69572,1,0,0:0:0:0:
320,192,69572,1,0,0:0:0:0:
64,192,69650,1,0,0:0:0:0:
448,192,69650,1,0,0:0:0:0:
320,192,69650,1,0,0:0:0:0:
192,192,69650,1,0,0:0:0:0:
64,192,69727,1,0,0:0:0:0:
192,192,69727,1,0,0:0:0:0:
64,192,69805,1,0,0:0:0:0:
192,192,69805,1,0,0:0:0:0:
64,192,69883,1,0,0:0:0:0:
192,192,69883,1,0,0:0:0:0:
448,192,69960,1,0,0:0:0:0:
64,192,69960,1,0,0:0:0:0:
192,192,69960,1,0,0:0:0:0:
320,192,69960,1,0,0:0:0:0:
448,192,70038,1,0,0:0:0:0:
320,192,70038,1,0,0:0:0:0:
320,192,70116,1,0,0:0:0:0:
448,192,70116,1,0,0:0:0:0:
320,192,70194,1,0,0:0:0:0:
448,192,70194,1,0,0:0:0:0:
320,192,70271,1,0,0:0:0:0:
192,192,70271,1,0,0:0:0:0:
64,192,70271,1,0,0:0:0:0:
448,192,70271,1,0,0:0:0:0:
192,192,70349,1,0,0:0:0:0:
64,192,70349,1,0,0:0:0:0:
192,192,70427,1,0,0:0:0:0:
64,192,70427,1,0,0:0:0:0:
192,192,70504,1,0,0:0:0:0:
64,192,70504,1,0,0:0:0:0:
192,192,70582,1,0,0:0:0:0:
320,192,70582,1,0,0:0:0:0:
448,192,70582,1,0,0:0:0:0:
64,192,70582,1,0,0:0:0:0:
320,192,70660,1,0,0:0:0:0:
448,192,70660,1,0,0:0:0:0:
448,192,70738,1,0,0:0:0:0:
320,192,70738,1,0,0:0:0:0:
448,192,70815,1,0,0:0:0:0:
320,192,70815,1,0,0:0:0:0:
64,192,70893,1,0,0:0:0:0:
448,192,70893,1,0,0:0:0:0:
320,192,70893,1,0,0:0:0:0:
192,192,70893,1,0,0:0:0:0:
64,192,70971,1,0,0:0:0:0:
192,192,70971,1,0,0:0:0:0:
64,192,71049,1,0,0:0:0:0:
192,192,71049,1,0,0:0:0:0:
64,192,71126,1,0,0:0:0:0:
192,192,71126,1,0,0:0:0:0:
448,192,71204,1,0,0:0:0:0:
64,192,71204,1,0,0:0:0:0:
192,192,71204,1,0,0:0:0:0:
320,192,71204,1,0,0:0:0:0:
448,192,71282,1,0,0:0:0:0:
320,192,71282,1,0,0:0:0:0:
320,192,71359,1,0,0:0:0:0:
448,192,71359,1,0,0:0:0:0:
320,192,71437,1,0,0:0:0:0:
448,192,71437,1,0,0:0:0:0:
64,192,71515,1,0,0:0:0:0:
192,192,71554,1,0,0:0:0:0:
320,192,71593,1,0,0:0:0:0:
448,192,71631,1,0,0:0:0:0:
64,192,71670,1,0,0:0:0:0:
192,192,71709,1,0,0:0:0:0:
320,192,71748,1,0,0:0:0:0:
448,192,71787,1,0,0:0:0:0:
64,192,71826,1,0,0:0:0:0:
192,192,71865,1,0,0:0:0:0:
320,192,71903,1,0,0:0:0:0:
448,192,71942,1,0,0:0:0:0:
64,192,71981,1,0,0:0:0:0:
192,192,72020,1,0,0:0:0:0:
320,192,72059,1,0,0:0:0:0:
448,192,72098,1,0,0:0:0:0:
192,192,72137,1,0,0:0:0:0:
64,192,72137,1,0,0:0:0:0:
64,192,72214,1,0,0:0:0:0:
64,192,72292,1,0,0:0:0:0:
64,192,72370,1,0,0:0:0:0:
64,192,72447,1,0,0:0:0:0:
64,192,72525,1,0,0:0:0:0:
64,192,72603,1,0,0:0:0:0:
64,192,72681,1,0,0:0:0:0:
320,192,72758,1,0,0:0:0:0:
192,192,72758,1,0,0:0:0:0:
448,192,72758,1,0,0:0:0:0:
192,192,72836,1,0,0:0:0:0:
192,192,72914,1,0,0:0:0:0:
192,192,72992,1,0,0:0:0:0:
192,192,73069,1,0,0:0:0:0:
192,192,73147,1,0,0:0:0:0:
192,192,73225,1,0,0:0:0:0:
192,192,73302,1,0,0:0:0:0:
64,192,73380,1,0,0:0:0:0:
320,192,73380,1,0,0:0:0:0:
448,192,73380,1,0,0:0:0:0:
448,192,73458,1,0,0:0:0:0:
448,192,73536,1,0,0:0:0:0:
448,192,73613,1,0,0:0:0:0:
448,192,73691,1,0,0:0:0:0:
448,192,73769,1,0,0:0:0:0:
448,192,73846,1,0,0:0:0:0:
448,192,73924,1,0,0:0:0:0:
64,192,74002,1,0,0:0:0:0:
320,192,74002,1,0,0:0:0:0:
192,192,74002,1,0,0:0:0:0:
320,192,74080,1,0,0:0:0:0:
320,192,74157,1,0,0:0:0:0:
320,192,74235,1,0,0:0:0:0:
320,192,74313,1,0,0:0:0:0:
320,192,74390,1,0,0:0:0:0:
320,192,74468,1,0,0:0:0:0:
320,192,74546,1,0,0:0:0:0:
64,192,74624,1,0,0:0:0:0:
192,192,74624,1,0,0:0:0:0:
448,192,74624,1,0,0:0:0:0:
64,192,74701,1,0,0:0:0:0:
64,192,74779,1,0,0:0:0:0:
64,192,74857,1,0,0:0:0:0:
448,192,74934,1,0,0:0:0:0:
192,192,74934,1,0,0:0:0:0:
320,192,74934,1,0,0:0:0:0:
448,192,75012,1,0,0:0:0:0:
448,192,75090,1,0,0:0:0:0:
448,192,75168,1,0,0:0:0:0:
192,192,75245,1,0,0:0:0:0:
320,192,75245,1,0,0:0:0:0:
64,192,75245,1,0,0:0:0:0:
192,192,75323,1,0,0:0:0:0:
192,192,75401,1,0,0:0:0:0:
192,192,75479,1,0,0:0:0:0:
64,192,75556,1,0,0:0:0:0:
448,192,75556,1,0,0:0:0:0:
320,192,75556,1,0,0:0:0:0:
320,192,75634,1,0,0:0:0:0:
320,192,75712,1,0,0:0:0:0:
320,192,75789,1,0,0:0:0:0:
64,192,75867,1,0,0:0:0:0:
192,192,75867,1,0,0:0:0:0:
448,192,75867,1,0,0:0:0:0:
320,192,76023,1,0,0:0:0:0:
448,192,76023,1,0,0:0:0:0:
192,192,76023,1,0,0:0:0:0:
320,192,76178,1,0,0:0:0:0:
448,192,76178,1,0,0:0:0:0:
64,192,76178,1,0,0:0:0:0:
320,192,76333,1,0,0:0:0:0:
192,192,76333,1,0,0:0:0:0:
64,192,76333,1,0,0:0:0:0:
320,192,76489,1,0,0:0:0:0:
448,192,76489,1,0,0:0:0:0:
192,192,76489,1,0,0:0:0:0:
192,192,76644,1,0,0:0:0:0:
64,192,76644,1,0,0:0:0:0:
448,192,76644,1,0,0:0:0:0:
64,192,76800,1,0,0:0:0:0:
192,192,76800,1,0,0:0:0:0:
320,192,76800,1,0,0:0:0:0:
64,192,76955,1,0,0:0:0:0:
192,192,76955,1,0,0:0:0:0:
448,192,76955,1,0,0:0:0:0:
64,192,77111,1,0,0:0:0:0:
192,192,77111,1,0,0:0:0:0:
320,192,77111,1,0,0:0:0:0:
448,192,77188,1,0,0:0:0:0:
320,192,77266,1,0,0:0:0:0:
192,192,77344,1,0,0:0:0:0:
64,192,77422,1,0,0:0:0:0:
192,192,77499,1,0,0:0:0:0:
320,192,77577,1,0,0:0:0:0:
448,192,77655,1,0,0:0:0:0:
64,192,77732,1,0,0:0:0:0:
192,192,77810,1,0,0:0:0:0:
320,192,77888,1,0,0:0:0:0:
448,192,77966,1,0,0:0:0:0:
64,192,78043,1,0,0:0:0:0:
192,192,78121,1,0,0:0:0:0:
320,192,78199,1,0,0:0:0:0:
448,192,78276,1,0,0:0:0:0:
64,192,78354,1,0,0:0:0:0:
192,192,78432,1,0,0:0:0:0:
320,192,78510,1,0,0:0:0:0:
448,192,78587,1,0,0:0:0:0:
320,192,78665,1,0,0:0:0:0:
192,192,78743,1,0,0:0:0:0:
64,192,78820,1,0,0:0:0:0:
320,192,78898,1,0,0:0:0:0:
448,192,78976,1,0,0:0:0:0:
64,192,79015,1,0,0:0:0:0:
192,192,79054,1,0,0:0:0:0:
320,192,79092,1,0,0:0:0:0:
448,192,79131,1,0,0:0:0:0:
64,192,79170,1,0,0:0:0:0:
192,192,79209,1,0,0:0:0:0:
320,192,79248,1,0,0:0:0:0:
448,192,79287,1,0,0:0:0:0:
64,192,79326,1,0,0:0:0:0:
192,192,79364,1,0,0:0:0:0:
320,192,79403,1,0,0:0:0:0:
448,192,79442,1,0,0:0:0:0:
64,192,79481,1,0,0:0:0:0:
192,192,79520,1,0,0:0:0:0:
448,192,79598,1,0,0:0:0:0:
64,192,79598,1,0,0:0:0:0:
320,192,79598,1,0,0:0:0:0:
448,192,79675,1,0,0:0:0:0:
320,192,79675,1,0,0:0:0:0:
448,192,79753,1,0,0:0:0:0:
320,192,79753,1,0,0:0:0:0:
448,192,79831,1,0,0:0:0:0:
320,192,79831,1,0,0:0:0:0:
448,192,79909,1,0,0:0:0:0:
320,192,79909,1,0,0:0:0:0:
192,192,79909,1,0,0:0:0:0:
448,192,79986,1,0,0:0:0:0:
320,192,79986,1,0,0:0:0:0:
448,192,80064,1,0,0:0:0:0:
320,192,80064,1,0,0:0:0:0:
448,192,80142,1,0,0:0:0:0:
320,192,80142,1,0,0:0:0:0:
448,192,80219,1,0,0:0:0:0:
64,192,80219,1,0,0:0:0:0:
320,192,80219,1,0,0:0:0:0:
448,192,80297,1,0,0:0:0:0:
320,192,80297,1,0,0:0:0:0:
448,192,80375,1,0,0:0:0:0:
320,192,80375,1,0,0:0:0:0:
448,192,80453,1,0,0:0:0:0:
320,192,80453,1,0,0:0:0:0:
448,192,80530,1,0,0:0:0:0:
192,192,80530,1,0,0:0:0:0:
320,192,80530,1,0,0:0:0:0:
448,192,80608,1,0,0:0:0:0:
320,192,80608,1,0,0:0:0:0:
448,192,80686,1,0,0:0:0:0:
320,192,80686,1,0,0:0:0:0:
448,192,80763,1,0,0:0:0:0:
320,192,80763,1,0,0:0:0:0:
320,192,80841,1,0,0:0:0:0:
64,192,80841,1,0,0:0:0:0:
448,192,80841,1,0,0:0:0:0:
192,192,80919,1,0,0:0:0:0:
448,192,80997,1,0,0:0:0:0:
320,192,81074,1,0,0:0:0:0:
192,192,81152,1,0,0:0:0:0:
64,192,81152,1,0,0:0:0:0:
448,192,81230,1,0,0:0:0:0:
320,192,81307,1,0,0:0:0:0:
64,192,81385,1,0,0:0:0:0:
448,192,81463,1,0,0:0:0:0:
192,192,81463,1,0,0:0:0:0:
320,192,81541,1,0,0:0:0:0:
64,192,81618,1,0,0:0:0:0:
192,192,81696,1,0,0:0:0:0:
448,192,81774,1,0,0:0:0:0:
320,192,81774,1,0,0:0:0:0:
64,192,81852,1,0,0:0:0:0:
192,192,81929,1,0,0:0:0:0:
320,192,82007,1,0,0:0:0:0:
64,192,82085,1,0,0:0:0:0:
448,192,82085,1,0,0:0:0:0:
192,192,82085,1,0,0:0:0:0:
64,192,82162,1,0,0:0:0:0:
192,192,82162,1,0,0:0:0:0:
64,192,82240,1,0,0:0:0:0:
192,192,82240,1,0,0:0:0:0:
64,192,82318,1,0,0:0:0:0:
192,192,82318,1,0,0:0:0:0:
64,192,82396,1,0,0:0:0:0:
192,192,82396,1,0,0:0:0:0:
320,192,82396,1,0,0:0:0:0:
64,192,82473,1,0,0:0:0:0:
192,192,82473,1,0,0:0:0:0:
64,192,82551,1,0,0:0:0:0:
192,192,82551,1,0,0:0:0:0:
64,192,82629,1,0,0:0:0:0:
192,192,82629,1,0,0:0:0:0:
64,192,82706,1,0,0:0:0:0:
448,192,82706,1,0,0:0:0:0:
192,192,82706,1,0,0:0:0:0:
64,192,82784,1,0,0:0:0:0:
192,192,82784,1,0,0:0:0:0:
64,192,82862,1,0,0:0:0:0:
192,192,82862,1,0,0:0:0:0:
64,192,82940,1,0,0:0:0:0:
192,192,82940,1,0,0:0:0:0:
64,192,83017,1,0,0:0:0:0:
320,192,83017,1,0,0:0:0:0:
192,192,83017,1,0,0:0:0:0:
64,192,83095,1,0,0:0:0:0:
192,192,83095,1,0,0:0:0:0:
64,192,83173,1,0,0:0:0:0:
192,192,83173,1,0,0:0:0:0:
64,192,83250,1,0,0:0:0:0:
192,192,83250,1,0,0:0:0:0:
192,192,83328,1,0,0:0:0:0:
320,192,83328,1,0,0:0:0:0:
64,192,83328,1,0,0:0:0:0:
448,192,83406,1,0,0:0:0:0:
64,192,83484,1,0,0:0:0:0:
448,192,83561,1,0,0:0:0:0:
320,192,83639,1,0,0:0:0:0:
192,192,83639,1,0,0:0:0:0:
64,192,83717,1,0,0:0:0:0:
448,192,83794,1,0,0:0:0:0:
320,192,83872,1,0,0:0:0:0:
64,192,83950,1,0,0:0:0:0:
192,192,83950,1,0,0:0:0:0:
448,192,84028,1,0,0:0:0:0:
320,192,84028,1,0,0:0:0:0:
64,192,84105,1,0,0:0:0:0:
192,192,84183,1,0,0:0:0:0:
448,192,84183,1,0,0:0:0:0:
320,192,84261,1,0,0:0:0:0:
64,192,84261,1,0,0:0:0:0:
192,192,84339,1,0,0:0:0:0:
320,192,84416,1,0,0:0:0:0:
448,192,84416,1,0,0:0:0:0:
64,192,84494,1,0,0:0:0:0:
320,192,84572,1,0,0:0:0:0:
192,192,84572,1,0,0:0:0:0:
448,192,84572,1,0,0:0:0:0:
320,192,84649,1,0,0:0:0:0:
448,192,84649,1,0,0:0:0:0:
320,192,84727,1,0,0:0:0:0:
448,192,84727,1,0,0:0:0:0:
320,192,84805,1,0,0:0:0:0:
448,192,84805,1,0,0:0:0:0:
320,192,84883,1,0,0:0:0:0:
64,192,84883,1,0,0:0:0:0:
448,192,84883,1,0,0:0:0:0:
320,192,84960,1,0,0:0:0:0:
448,192,84960,1,0,0:0:0:0:
320,192,85038,1,0,0:0:0:0:
448,192,85038,1,0,0:0:0:0:
320,192,85116,1,0,0:0:0:0:
448,192,85116,1,0,0:0:0:0:
320,192,85193,1,0,0:0:0:0:
192,192,85193,1,0,0:0:0:0:
448,192,85193,1,0,0:0:0:0:
320,192,85271,1,0,0:0:0:0:
448,192,85271,1,0,0:0:0:0:
320,192,85349,1,0,0:0:0:0:
448,192,85349,1,0,0:0:0:0:
320,192,85427,1,0,0:0:0:0:
448,192,85427,1,0,0:0:0:0:
320,192,85504,1,0,0:0:0:0:
64,192,85504,1,0,0:0:0:0:
448,192,85504,1,0,0:0:0:0:
320,192,85582,1,0,0:0:0:0:
448,192,85582,1,0,0:0:0:0:
320,192,85660,1,0,0:0:0:0:
448,192,85660,1,0,0:0:0:0:
320,192,85737,1,0,0:0:0:0:
448,192,85737,1,0,0:0:0:0:
64,192,85815,1,0,0:0:0:0:
320,192,85815,1,0,0:0:0:0:
448,192,85815,1,0,0:0:0:0:
192,192,85893,1,0,0:0:0:0:
64,192,85971,1,0,0:0:0:0:
192,192,86048,1,0,0:0:0:0:
448,192,86126,1,0,0:0:0:0:
320,192,86126,1,0,0:0:0:0:
64,192,86204,1,0,0:0:0:0:
448,192,86282,1,0,0:0:0:0:
320,192,86359,1,0,0:0:0:0:
64,192,86437,1,0,0:0:0:0:
192,192,86437,1,0,0:0:0:0:
448,192,86515,1,0,0:0:0:0:
320,192,86592,1,0,0:0:0:0:
64,192,86670,1,0,0:0:0:0:
320,192,86748,1,0,0:0:0:0:
192,192,86748,1,0,0:0:0:0:
448,192,86826,1,0,0:0:0:0:
64,192,86903,1,0,0:0:0:0:
320,192,86981,1,0,0:0:0:0:
448,192,87059,1,0,0:0:0:0:
192,192,87059,1,0,0:0:0:0:
64,192,87059,1,0,0:0:0:0:
192,192,87136,1,0,0:0:0:0:
64,192,87136,1,0,0:0:0:0:
192,192,87214,1,0,0:0:0:0:
64,192,87214,1,0,0:0:0:0:
192,192,87292,1,0,0:0:0:0:
64,192,87292,1,0,0:0:0:0:
192,192,87370,1,0,0:0:0:0:
320,192,87370,1,0,0:0:0:0:
64,192,87370,1,0,0:0:0:0:
192,192,87447,1,0,0:0:0:0:
64,192,87447,1,0,0:0:0:0:
192,192,87525,1,0,0:0:0:0:
64,192,87525,1,0,0:0:0:0:
192,192,87603,1,0,0:0:0:0:
64,192,87603,1,0,0:0:0:0:
448,192,87680,1,0,0:0:0:0:
192,192,87680,1,0,0:0:0:0:
64,192,87680,1,0,0:0:0:0:
192,192,87758,1,0,0:0:0:0:
64,192,87758,1,0,0:0:0:0:
192,192,87836,1,0,0:0:0:0:
64,192,87836,1,0,0:0:0:0:
192,192,87914,1,0,0:0:0:0:
64,192,87914,1,0,0:0:0:0:
192,192,87991,1,0,0:0:0:0:
320,192,87991,1,0,0:0:0:0:
64,192,87991,1,0,0:0:0:0:
192,192,88069,1,0,0:0:0:0:
64,192,88069,1,0,0:0:0:0:
192,192,88147,1,0,0:0:0:0:
64,192,88147,1,0,0:0:0:0:
192,192,88225,1,0,0:0:0:0:
64,192,88225,1,0,0:0:0:0:
448,192,88302,1,0,0:0:0:0:
64,192,88302,1,0,0:0:0:0:
192,192,88302,1,0,0:0:0:0:
320,192,88302,1,0,0:0:0:0:
448,192,88380,1,0,0:0:0:0:
320,192,88380,1,0,0:0:0:0:
64,192,88380,1,0,0:0:0:0:
192,192,88380,1,0,0:0:0:0:
192,192,88458,1,0,0:0:0:0:
320,192,88458,1,0,0:0:0:0:
448,192,88458,1,0,0:0:0:0:
64,192,88458,1,0,0:0:0:0:
448,192,88535,1,0,0:0:0:0:
192,192,88535,1,0,0:0:0:0:
320,192,88535,1,0,0:0:0:0:
64,192,88535,1,0,0:0:0:0:
320,192,88613,1,0,0:0:0:0:
64,192,88613,1,0,0:0:0:0:
192,192,88613,1,0,0:0:0:0:
448,192,88613,1,0,0:0:0:0:
192,192,88691,1,0,0:0:0:0:
320,192,88691,1,0,0:0:0:0:
64,192,88691,1,0,0:0:0:0:
448,192,88691,1,0,0:0:0:0:
448,192,88769,1,0,0:0:0:0:
320,192,88769,1,0,0:0:0:0:
192,192,88769,1,0,0:0:0:0:
64,192,88769,1,0,0:0:0:0:
320,192,88846,1,0,0:0:0:0:
64,192,88846,1,0,0:0:0:0:
192,192,88846,1,0,0:0:0:0:
448,192,88846,1,0,0:0:0:0:
64,192,88924,1,0,0:0:0:0:
192,192,88924,1,0,0:0:0:0:
320,192,88924,1,0,0:0:0:0:
448,192,88924,1,0,0:0:0:0:
448,192,89002,1,0,0:0:0:0:
320,192,89002,1,0,0:0:0:0:
192,192,89002,1,0,0:0:0:0:
64,192,89002,1,0,0:0:0:0:
320,192,89079,1,0,0:0:0:0:
192,192,89079,1,0,0:0:0:0:
64,192,89079,1,0,0:0:0:0:
448,192,89079,1,0,0:0:0:0:
448,192,89157,1,0,0:0:0:0:
64,192,89157,1,0,0:0:0:0:
320,192,89157,1,0,0:0:0:0:
192,192,89157,1,0,0:0:0:0:
320,192,89235,1,0,0:0:0:0:
192,192,89235,1,0,0:0:0:0:
64,192,89235,1,0,0:0:0:0:
448,192,89235,1,0,0:0:0:0:
448,192,89313,1,0,0:0:0:0:
320,192,89313,1,0,0:0:0:0:
192,192,89313,1,0,0:0:0:0:
64,192,89313,1,0,0:0:0:0:
192,192,89390,1,0,0:0:0:0:
64,192,89390,1,0,0:0:0:0:
320,192,89390,1,0,0:0:0:0:
448,192,89390,1,0,0:0:0:0:
320,192,89468,1,0,0:0:0:0:
448,192,89468,1,0,0:0:0:0:
192,192,89468,1,0,0:0:0:0:
64,192,89468,1,0,0:0:0:0:
448,192,89546,1,0,0:0:0:0:
64,192,89546,1,0,0:0:0:0:
192,192,89546,1,0,0:0:0:0:
320,192,89546,1,0,0:0:0:0:
