osu file format v14

[General]
AudioFilename: littlebusterforever.mp3
AudioLeadIn: 0
PreviewTime: 117192
Countdown: 0
SampleSet: None
StackLeniency: 0.7
Mode: 3
LetterboxInBreaks: 0
SpecialStyle: 0
WidescreenStoryboard: 0

[Editor]
DistanceSpacing: 0.8
BeatDivisor: 4
GridSize: 8
TimelineZoom: 1.6

[Metadata]
Title:CBF Vibromania Pack Arc I
TitleUnicode:CBF Vibromania Pack Arc I
Artist:Various Artist
ArtistUnicode:Various Artist
Creator:arcwinolivirus
Version:(arcwinolivirus) Little Busters Forever - [Vibro Forever]
Source:Hand Vibro Pack
Tags:jack vibro notes vibrate smash spam
BeatmapID:1996853
BeatmapSetID:955897

[Difficulty]
HPDrainRate:6
CircleSize:4
OverallDifficulty:6
ApproachRate:5
SliderMultiplier:1.4
SliderTickRate:1

[Events]
//Background and Video events
0,0,"littlebusterBG.jpg",0,0
//Break Periods
//Storyboard Layer 0 (Background)
//Storyboard Layer 1 (Fail)
//Storyboard Layer 2 (Pass)
//Storyboard Layer 3 (Foreground)
//Storyboard Sound Samples

[TimingPoints]
792,300,4,2,1,20,1,0
138792,-100,4,2,1,20,0,1
153192,-100,4,2,1,20,0,0
221592,-100,4,2,1,20,0,1
249192,-100,4,2,1,20,0,0

[HitObjects]
448,192,192,128,0,4392:0:0:0:0:
64,192,3492,128,0,4392:0:0:0:0:
192,192,4392,1,0,0:0:0:0:
320,192,4392,1,0,0:0:0:0:
64,192,4542,1,0,0:0:0:0:
192,192,4542,1,0,0:0:0:0:
64,192,4692,1,0,0:0:0:0:
448,192,4692,1,0,0:0:0:0:
320,192,4842,1,0,0:0:0:0:
192,192,4917,1,0,0:0:0:0:
448,192,4992,1,0,0:0:0:0:
64,192,5067,1,0,0:0:0:0:
192,192,5067,1,0,0:0:0:0:
448,192,5142,1,0,0:0:0:0:
320,192,5142,1,0,0:0:0:0:
320,192,5217,1,0,0:0:0:0:
448,192,5217,1,0,0:0:0:0:
64,192,5292,1,0,0:0:0:0:
192,192,5292,1,0,0:0:0:0:
448,192,5442,1,0,0:0:0:0:
320,192,5517,1,0,0:0:0:0:
64,192,5592,1,0,0:0:0:0:
192,192,5592,1,0,0:0:0:0:
448,192,5742,1,0,0:0:0:0:
320,192,5742,1,0,0:0:0:0:
64,192,5892,1,0,0:0:0:0:
448,192,5892,1,0,0:0:0:0:
192,192,6042,1,0,0:0:0:0:
320,192,6117,1,0,0:0:0:0:
64,192,6192,1,0,0:0:0:0:
320,192,6267,1,0,0:0:0:0:
448,192,6267,1,0,0:0:0:0:
192,192,6342,1,0,0:0:0:0:
64,192,6342,1,0,0:0:0:0:
192,192,6417,1,0,0:0:0:0:
64,192,6417,1,0,0:0:0:0:
320,192,6492,1,0,0:0:0:0:
448,192,6492,1,0,0:0:0:0:
64,192,6642,1,0,0:0:0:0:
448,192,6717,1,0,0:0:0:0:
192,192,6792,1,0,0:0:0:0:
320,192,6792,1,0,0:0:0:0:
64,192,6942,1,0,0:0:0:0:
448,192,7092,1,0,0:0:0:0:
320,192,7092,1,0,0:0:0:0:
192,192,7242,1,0,0:0:0:0:
64,192,7242,1,0,0:0:0:0:
320,192,7317,1,0,0:0:0:0:
448,192,7392,1,0,0:0:0:0:
192,192,7467,1,0,0:0:0:0:
64,192,7467,1,0,0:0:0:0:
320,192,7542,1,0,0:0:0:0:
448,192,7542,1,0,0:0:0:0:
64,192,7617,1,0,0:0:0:0:
320,192,7692,1,0,0:0:0:0:
192,192,7692,1,0,0:0:0:0:
64,192,7842,1,0,0:0:0:0:
448,192,7842,1,0,0:0:0:0:
192,192,7992,1,0,0:0:0:0:
320,192,7992,1,0,0:0:0:0:
320,192,8142,1,0,0:0:0:0:
192,192,8142,1,0,0:0:0:0:
64,192,8292,1,0,0:0:0:0:
448,192,8292,1,0,0:0:0:0:
192,192,8442,1,0,0:0:0:0:
320,192,8442,1,0,0:0:0:0:
64,192,8517,1,0,0:0:0:0:
448,192,8592,1,0,0:0:0:0:
192,192,8667,1,0,0:0:0:0:
448,192,8742,1,0,0:0:0:0:
320,192,8742,1,0,0:0:0:0:
320,192,8817,1,0,0:0:0:0:
448,192,8817,1,0,0:0:0:0:
64,192,8892,1,0,0:0:0:0:
192,192,8892,1,0,0:0:0:0:
64,192,9042,1,0,0:0:0:0:
192,192,9042,1,0,0:0:0:0:
320,192,9117,1,0,0:0:0:0:
64,192,9192,1,0,0:0:0:0:
448,192,9192,1,0,0:0:0:0:
320,192,9342,1,0,0:0:0:0:
192,192,9342,1,0,0:0:0:0:
64,192,9492,1,0,0:0:0:0:
448,192,9492,1,0,0:0:0:0:
192,192,9642,1,0,0:0:0:0:
320,192,9642,1,0,0:0:0:0:
64,192,9717,1,0,0:0:0:0:
448,192,9792,1,0,0:0:0:0:
192,192,9867,1,0,0:0:0:0:
64,192,9867,1,0,0:0:0:0:
448,192,9942,1,0,0:0:0:0:
320,192,9942,1,0,0:0:0:0:
320,192,10017,1,0,0:0:0:0:
448,192,10017,1,0,0:0:0:0:
192,192,10092,1,0,0:0:0:0:
64,192,10092,1,0,0:0:0:0:
448,192,10242,1,0,0:0:0:0:
64,192,10317,1,0,0:0:0:0:
320,192,10392,1,0,0:0:0:0:
192,192,10392,1,0,0:0:0:0:
448,192,10542,1,0,0:0:0:0:
320,192,10542,1,0,0:0:0:0:
448,192,10692,1,0,0:0:0:0:
64,192,10692,1,0,0:0:0:0:
192,192,10842,1,0,0:0:0:0:
320,192,10842,1,0,0:0:0:0:
64,192,10917,1,0,0:0:0:0:
448,192,10992,1,0,0:0:0:0:
192,192,11067,1,0,0:0:0:0:
64,192,11067,1,0,0:0:0:0:
320,192,11142,1,0,0:0:0:0:
448,192,11142,1,0,0:0:0:0:
192,192,11217,1,0,0:0:0:0:
64,192,11292,1,0,0:0:0:0:
448,192,11367,1,0,0:0:0:0:
320,192,11442,1,0,0:0:0:0:
192,192,11442,1,0,0:0:0:0:
64,192,11517,1,0,0:0:0:0:
320,192,11592,1,0,0:0:0:0:
448,192,11592,1,0,0:0:0:0:
192,192,11742,1,0,0:0:0:0:
64,192,11742,1,0,0:0:0:0:
64,192,11892,1,0,0:0:0:0:
448,192,11892,1,0,0:0:0:0:
320,192,12042,1,0,0:0:0:0:
192,192,12042,1,0,0:0:0:0:
448,192,12117,1,0,0:0:0:0:
64,192,12192,1,0,0:0:0:0:
192,192,12267,1,0,0:0:0:0:
320,192,12342,1,0,0:0:0:0:
448,192,12342,1,0,0:0:0:0:
320,192,12417,1,0,0:0:0:0:
448,192,12417,1,0,0:0:0:0:
192,192,12492,1,0,0:0:0:0:
64,192,12492,1,0,0:0:0:0:
64,192,12642,1,0,0:0:0:0:
192,192,12642,1,0,0:0:0:0:
320,192,12717,1,0,0:0:0:0:
448,192,12792,1,0,0:0:0:0:
192,192,12792,1,0,0:0:0:0:
64,192,12942,1,0,0:0:0:0:
320,192,12942,1,0,0:0:0:0:
448,192,13092,1,0,0:0:0:0:
64,192,13092,1,0,0:0:0:0:
192,192,13242,1,0,0:0:0:0:
320,192,13242,1,0,0:0:0:0:
64,192,13317,1,0,0:0:0:0:
448,192,13392,1,0,0:0:0:0:
192,192,13467,1,0,0:0:0:0:
320,192,13542,1,0,0:0:0:0:
448,192,13542,1,0,0:0:0:0:
320,192,13617,1,0,0:0:0:0:
448,192,13617,1,0,0:0:0:0:
192,192,13692,1,0,0:0:0:0:
64,192,13692,1,0,0:0:0:0:
192,192,13842,1,0,0:0:0:0:
320,192,13917,1,0,0:0:0:0:
448,192,13992,1,0,0:0:0:0:
64,192,13992,1,0,0:0:0:0:
192,192,14142,1,0,0:0:0:0:
320,192,14142,1,0,0:0:0:0:
448,192,14292,1,0,0:0:0:0:
64,192,14292,1,0,0:0:0:0:
192,192,14442,1,0,0:0:0:0:
320,192,14517,1,0,0:0:0:0:
64,192,14592,1,0,0:0:0:0:
448,192,14667,1,0,0:0:0:0:
320,192,14667,1,0,0:0:0:0:
64,192,14742,1,0,0:0:0:0:
192,192,14742,1,0,0:0:0:0:
448,192,14817,1,0,0:0:0:0:
192,192,14892,1,0,0:0:0:0:
320,192,14892,1,0,0:0:0:0:
64,192,15042,1,0,0:0:0:0:
192,192,15117,1,0,0:0:0:0:
448,192,15192,1,0,0:0:0:0:
320,192,15192,1,0,0:0:0:0:
64,192,15342,1,0,0:0:0:0:
192,192,15342,1,0,0:0:0:0:
448,192,15492,1,0,0:0:0:0:
64,192,15492,1,0,0:0:0:0:
320,192,15642,1,0,0:0:0:0:
192,192,15717,1,0,0:0:0:0:
448,192,15792,1,0,0:0:0:0:
192,192,15867,1,0,0:0:0:0:
64,192,15867,1,0,0:0:0:0:
320,192,15942,1,0,0:0:0:0:
448,192,15942,1,0,0:0:0:0:
320,192,16017,1,0,0:0:0:0:
448,192,16017,1,0,0:0:0:0:
192,192,16092,1,0,0:0:0:0:
64,192,16092,1,0,0:0:0:0:
448,192,16242,1,0,0:0:0:0:
64,192,16317,1,0,0:0:0:0:
320,192,16392,1,0,0:0:0:0:
192,192,16392,1,0,0:0:0:0:
448,192,16542,1,0,0:0:0:0:
64,192,16692,1,0,0:0:0:0:
192,192,16692,1,0,0:0:0:0:
320,192,16842,1,0,0:0:0:0:
448,192,16842,1,0,0:0:0:0:
192,192,16917,1,0,0:0:0:0:
64,192,16992,1,0,0:0:0:0:
320,192,17067,1,0,0:0:0:0:
448,192,17067,1,0,0:0:0:0:
192,192,17142,1,0,0:0:0:0:
64,192,17142,1,0,0:0:0:0:
192,192,17217,1,0,0:0:0:0:
64,192,17217,1,0,0:0:0:0:
448,192,17292,1,0,0:0:0:0:
320,192,17292,1,0,0:0:0:0:
448,192,17442,1,0,0:0:0:0:
64,192,17442,1,0,0:0:0:0:
320,192,17592,1,0,0:0:0:0:
192,192,17592,1,0,0:0:0:0:
192,192,17742,1,0,0:0:0:0:
320,192,17742,1,0,0:0:0:0:
448,192,17892,1,0,0:0:0:0:
64,192,17892,1,0,0:0:0:0:
320,192,18042,1,0,0:0:0:0:
192,192,18042,1,0,0:0:0:0:
448,192,18117,1,0,0:0:0:0:
64,192,18192,1,0,0:0:0:0:
320,192,18267,1,0,0:0:0:0:
64,192,18342,1,0,0:0:0:0:
192,192,18342,1,0,0:0:0:0:
448,192,18417,1,0,0:0:0:0:
320,192,18417,1,0,0:0:0:0:
192,192,18492,1,0,0:0:0:0:
64,192,18492,1,0,0:0:0:0:
448,192,18642,1,0,0:0:0:0:
320,192,18642,1,0,0:0:0:0:
192,192,18717,1,0,0:0:0:0:
448,192,18792,1,0,0:0:0:0:
64,192,18792,1,0,0:0:0:0:
192,192,18942,1,0,0:0:0:0:
320,192,18942,1,0,0:0:0:0:
448,192,19092,1,0,0:0:0:0:
64,192,19092,1,0,0:0:0:0:
320,192,19242,1,0,0:0:0:0:
192,192,19242,1,0,0:0:0:0:
448,192,19317,1,0,0:0:0:0:
64,192,19392,1,0,0:0:0:0:
320,192,19467,1,0,0:0:0:0:
448,192,19467,1,0,0:0:0:0:
64,192,19542,1,0,0:0:0:0:
192,192,19542,1,0,0:0:0:0:
192,192,19617,1,0,0:0:0:0:
64,192,19617,1,0,0:0:0:0:
320,192,19692,1,0,0:0:0:0:
448,192,19692,1,0,0:0:0:0:
64,192,19842,1,0,0:0:0:0:
448,192,19917,1,0,0:0:0:0:
192,192,19992,1,0,0:0:0:0:
320,192,19992,1,0,0:0:0:0:
64,192,20142,1,0,0:0:0:0:
192,192,20142,1,0,0:0:0:0:
64,192,20292,1,0,0:0:0:0:
448,192,20292,1,0,0:0:0:0:
320,192,20442,1,0,0:0:0:0:
192,192,20442,1,0,0:0:0:0:
448,192,20517,1,0,0:0:0:0:
64,192,20592,1,0,0:0:0:0:
320,192,20667,1,0,0:0:0:0:
448,192,20667,1,0,0:0:0:0:
192,192,20742,1,0,0:0:0:0:
64,192,20742,1,0,0:0:0:0:
192,192,20817,1,0,0:0:0:0:
64,192,20817,1,0,0:0:0:0:
448,192,20892,1,0,0:0:0:0:
320,192,20892,1,0,0:0:0:0:
64,192,20967,1,0,0:0:0:0:
192,192,21042,1,0,0:0:0:0:
320,192,21042,1,0,0:0:0:0:
448,192,21117,1,0,0:0:0:0:
192,192,21192,1,0,0:0:0:0:
64,192,21192,1,0,0:0:0:0:
320,192,21342,1,0,0:0:0:0:
448,192,21342,1,0,0:0:0:0:
448,192,21492,1,0,0:0:0:0:
64,192,21492,1,0,0:0:0:0:
192,192,21642,1,0,0:0:0:0:
320,192,21642,1,0,0:0:0:0:
64,192,21717,1,0,0:0:0:0:
448,192,21792,1,0,0:0:0:0:
320,192,21867,1,0,0:0:0:0:
192,192,21942,1,0,0:0:0:0:
64,192,21942,1,0,0:0:0:0:
448,192,22017,1,0,0:0:0:0:
320,192,22017,1,0,0:0:0:0:
64,192,22092,1,0,0:0:0:0:
192,192,22092,1,0,0:0:0:0:
448,192,22242,1,0,0:0:0:0:
320,192,22242,1,0,0:0:0:0:
192,192,22317,1,0,0:0:0:0:
64,192,22392,1,0,0:0:0:0:
320,192,22392,1,0,0:0:0:0:
448,192,22542,1,0,0:0:0:0:
192,192,22542,1,0,0:0:0:0:
64,192,22692,1,0,0:0:0:0:
448,192,22692,1,0,0:0:0:0:
320,192,22842,1,0,0:0:0:0:
192,192,22842,1,0,0:0:0:0:
448,192,22917,1,0,0:0:0:0:
64,192,22992,1,0,0:0:0:0:
320,192,23067,1,0,0:0:0:0:
64,192,23142,128,0,23592:0:0:0:0:
192,192,23142,1,0,0:0:0:0:
320,192,23442,1,0,0:0:0:0:
448,192,23442,1,0,0:0:0:0:
448,192,23592,1,0,0:0:0:0:
192,192,23592,1,0,0:0:0:0:
320,192,23742,1,0,0:0:0:0:
64,192,23892,1,0,0:0:0:0:
448,192,23892,1,0,0:0:0:0:
192,192,24042,1,0,0:0:0:0:
320,192,24042,1,0,0:0:0:0:
448,192,24117,1,0,0:0:0:0:
320,192,24192,1,0,0:0:0:0:
192,192,24192,1,0,0:0:0:0:
64,192,24267,1,0,0:0:0:0:
320,192,24342,1,0,0:0:0:0:
192,192,24342,1,0,0:0:0:0:
448,192,24417,1,0,0:0:0:0:
192,192,24492,1,0,0:0:0:0:
64,192,24492,1,0,0:0:0:0:
320,192,24642,1,0,0:0:0:0:
448,192,24792,1,0,0:0:0:0:
64,192,24792,1,0,0:0:0:0:
192,192,24942,1,0,0:0:0:0:
320,192,25092,1,0,0:0:0:0:
64,192,25092,1,0,0:0:0:0:
448,192,25242,1,0,0:0:0:0:
192,192,25242,1,0,0:0:0:0:
320,192,25317,1,0,0:0:0:0:
448,192,25392,1,0,0:0:0:0:
192,192,25392,1,0,0:0:0:0:
64,192,25467,1,0,0:0:0:0:
192,192,25542,1,0,0:0:0:0:
448,192,25542,1,0,0:0:0:0:
320,192,25617,1,0,0:0:0:0:
448,192,25692,1,0,0:0:0:0:
64,192,25692,1,0,0:0:0:0:
320,192,25842,1,0,0:0:0:0:
448,192,25842,1,0,0:0:0:0:
192,192,25917,1,0,0:0:0:0:
64,192,25992,1,0,0:0:0:0:
448,192,25992,1,0,0:0:0:0:
320,192,26142,1,0,0:0:0:0:
448,192,26292,1,0,0:0:0:0:
64,192,26292,1,0,0:0:0:0:
192,192,26442,1,0,0:0:0:0:
320,192,26442,1,0,0:0:0:0:
448,192,26517,1,0,0:0:0:0:
192,192,26592,1,0,0:0:0:0:
64,192,26592,1,0,0:0:0:0:
320,192,26667,1,0,0:0:0:0:
448,192,26742,1,0,0:0:0:0:
64,192,26742,1,0,0:0:0:0:
192,192,26817,1,0,0:0:0:0:
320,192,26892,1,0,0:0:0:0:
448,192,26892,1,0,0:0:0:0:
64,192,27042,1,0,0:0:0:0:
192,192,27192,1,0,0:0:0:0:
320,192,27192,1,0,0:0:0:0:
64,192,27267,1,0,0:0:0:0:
448,192,27342,1,0,0:0:0:0:
192,192,27342,1,0,0:0:0:0:
320,192,27417,1,0,0:0:0:0:
448,192,27492,1,0,0:0:0:0:
64,192,27492,1,0,0:0:0:0:
192,192,27642,1,0,0:0:0:0:
448,192,27792,1,0,0:0:0:0:
64,192,27792,1,0,0:0:0:0:
320,192,27867,1,0,0:0:0:0:
192,192,27942,1,0,0:0:0:0:
64,192,27942,1,0,0:0:0:0:
448,192,28017,1,0,0:0:0:0:
320,192,28092,1,0,0:0:0:0:
192,192,28092,1,0,0:0:0:0:
64,192,28242,1,0,0:0:0:0:
320,192,28392,1,0,0:0:0:0:
448,192,28392,1,0,0:0:0:0:
192,192,28542,1,0,0:0:0:0:
64,192,28692,1,0,0:0:0:0:
448,192,28692,1,0,0:0:0:0:
192,192,28842,1,0,0:0:0:0:
320,192,28842,1,0,0:0:0:0:
448,192,28917,1,0,0:0:0:0:
64,192,28992,1,0,0:0:0:0:
192,192,28992,1,0,0:0:0:0:
320,192,29067,1,0,0:0:0:0:
448,192,29142,1,0,0:0:0:0:
64,192,29142,1,0,0:0:0:0:
192,192,29217,1,0,0:0:0:0:
448,192,29292,1,0,0:0:0:0:
320,192,29292,1,0,0:0:0:0:
192,192,29442,1,0,0:0:0:0:
448,192,29592,1,0,0:0:0:0:
64,192,29592,1,0,0:0:0:0:
320,192,29742,1,0,0:0:0:0:
448,192,29892,1,0,0:0:0:0:
192,192,29892,1,0,0:0:0:0:
320,192,30042,1,0,0:0:0:0:
64,192,30042,1,0,0:0:0:0:
448,192,30117,1,0,0:0:0:0:
64,192,30192,1,0,0:0:0:0:
192,192,30192,1,0,0:0:0:0:
448,192,30267,1,0,0:0:0:0:
192,192,30342,1,0,0:0:0:0:
320,192,30342,1,0,0:0:0:0:
64,192,30417,1,0,0:0:0:0:
448,192,30492,1,0,0:0:0:0:
320,192,30492,1,0,0:0:0:0:
64,192,30642,1,0,0:0:0:0:
192,192,30642,1,0,0:0:0:0:
320,192,30717,1,0,0:0:0:0:
64,192,30792,1,0,0:0:0:0:
448,192,30792,1,0,0:0:0:0:
192,192,30942,1,0,0:0:0:0:
448,192,31092,1,0,0:0:0:0:
64,192,31092,1,0,0:0:0:0:
192,192,31242,1,0,0:0:0:0:
320,192,31242,1,0,0:0:0:0:
64,192,31317,1,0,0:0:0:0:
448,192,31392,1,0,0:0:0:0:
320,192,31392,1,0,0:0:0:0:
192,192,31467,1,0,0:0:0:0:
448,192,31542,1,0,0:0:0:0:
64,192,31542,1,0,0:0:0:0:
320,192,31617,1,0,0:0:0:0:
64,192,31692,1,0,0:0:0:0:
192,192,31692,1,0,0:0:0:0:
448,192,31842,1,0,0:0:0:0:
192,192,31992,1,0,0:0:0:0:
320,192,31992,1,0,0:0:0:0:
448,192,32067,1,0,0:0:0:0:
320,192,32142,1,0,0:0:0:0:
64,192,32142,1,0,0:0:0:0:
192,192,32217,1,0,0:0:0:0:
448,192,32292,1,0,0:0:0:0:
64,192,32292,1,0,0:0:0:0:
320,192,32442,1,0,0:0:0:0:
448,192,32592,1,0,0:0:0:0:
64,192,32592,1,0,0:0:0:0:
192,192,32667,1,0,0:0:0:0:
448,192,32742,1,0,0:0:0:0:
320,192,32742,1,0,0:0:0:0:
64,192,32817,1,0,0:0:0:0:
320,192,32892,1,0,0:0:0:0:
192,192,32892,1,0,0:0:0:0:
448,192,33042,1,0,0:0:0:0:
64,192,33192,1,0,0:0:0:0:
320,192,33192,1,0,0:0:0:0:
192,192,33342,1,0,0:0:0:0:
448,192,33492,1,0,0:0:0:0:
64,192,33492,1,0,0:0:0:0:
320,192,33642,1,0,0:0:0:0:
192,192,33642,1,0,0:0:0:0:
448,192,33717,1,0,0:0:0:0:
192,192,33792,1,0,0:0:0:0:
64,192,33792,1,0,0:0:0:0:
320,192,33867,1,0,0:0:0:0:
64,192,33942,1,0,0:0:0:0:
448,192,33942,1,0,0:0:0:0:
192,192,34017,1,0,0:0:0:0:
320,192,34092,1,0,0:0:0:0:
448,192,34092,1,0,0:0:0:0:
192,192,34242,1,0,0:0:0:0:
64,192,34392,1,0,0:0:0:0:
448,192,34392,1,0,0:0:0:0:
320,192,34542,1,0,0:0:0:0:
192,192,34692,1,0,0:0:0:0:
448,192,34692,1,0,0:0:0:0:
64,192,34842,1,0,0:0:0:0:
320,192,34842,1,0,0:0:0:0:
448,192,34917,1,0,0:0:0:0:
192,192,34992,1,0,0:0:0:0:
64,192,34992,1,0,0:0:0:0:
448,192,35067,1,0,0:0:0:0:
320,192,35142,1,0,0:0:0:0:
192,192,35142,1,0,0:0:0:0:
64,192,35217,1,0,0:0:0:0:
320,192,35292,1,0,0:0:0:0:
448,192,35292,1,0,0:0:0:0:
192,192,35442,1,0,0:0:0:0:
64,192,35442,1,0,0:0:0:0:
320,192,35517,1,0,0:0:0:0:
448,192,35592,1,0,0:0:0:0:
64,192,35592,1,0,0:0:0:0:
192,192,35742,1,0,0:0:0:0:
64,192,35892,1,0,0:0:0:0:
448,192,35892,1,0,0:0:0:0:
320,192,36042,1,0,0:0:0:0:
192,192,36042,1,0,0:0:0:0:
64,192,36117,1,0,0:0:0:0:
320,192,36192,1,0,0:0:0:0:
448,192,36192,1,0,0:0:0:0:
192,192,36267,1,0,0:0:0:0:
64,192,36342,1,0,0:0:0:0:
448,192,36342,1,0,0:0:0:0:
320,192,36417,1,0,0:0:0:0:
192,192,36492,1,0,0:0:0:0:
64,192,36492,1,0,0:0:0:0:
448,192,36642,1,0,0:0:0:0:
320,192,36792,1,0,0:0:0:0:
192,192,36792,1,0,0:0:0:0:
448,192,36867,1,0,0:0:0:0:
64,192,36942,1,0,0:0:0:0:
320,192,36942,1,0,0:0:0:0:
192,192,37017,1,0,0:0:0:0:
64,192,37092,1,0,0:0:0:0:
448,192,37092,1,0,0:0:0:0:
320,192,37242,1,0,0:0:0:0:
64,192,37392,1,0,0:0:0:0:
448,192,37392,1,0,0:0:0:0:
192,192,37467,1,0,0:0:0:0:
320,192,37542,1,0,0:0:0:0:
448,192,37542,1,0,0:0:0:0:
64,192,37617,1,0,0:0:0:0:
192,192,37692,1,0,0:0:0:0:
320,192,37692,1,0,0:0:0:0:
448,192,37842,1,0,0:0:0:0:
320,192,37992,1,0,0:0:0:0:
192,192,37992,1,0,0:0:0:0:
64,192,37992,1,0,0:0:0:0:
448,192,38067,1,0,0:0:0:0:
64,192,38142,1,0,0:0:0:0:
320,192,38217,1,0,0:0:0:0:
192,192,38292,1,0,0:0:0:0:
448,192,38367,1,0,0:0:0:0:
320,192,38442,1,0,0:0:0:0:
448,192,38592,1,0,0:0:0:0:
192,192,38592,1,0,0:0:0:0:
320,192,38667,1,0,0:0:0:0:
64,192,38742,1,0,0:0:0:0:
192,192,38817,1,0,0:0:0:0:
64,192,38892,1,0,0:0:0:0:
320,192,38967,1,0,0:0:0:0:
192,192,39042,1,0,0:0:0:0:
448,192,39117,1,0,0:0:0:0:
320,192,39192,1,0,0:0:0:0:
448,192,39267,1,0,0:0:0:0:
192,192,39342,1,0,0:0:0:0:
320,192,39417,1,0,0:0:0:0:
64,192,39492,1,0,0:0:0:0:
192,192,39567,1,0,0:0:0:0:
64,192,39642,1,0,0:0:0:0:
320,192,39717,1,0,0:0:0:0:
192,192,39792,1,0,0:0:0:0:
448,192,39867,1,0,0:0:0:0:
320,192,39942,1,0,0:0:0:0:
448,192,40017,1,0,0:0:0:0:
192,192,40092,1,0,0:0:0:0:
320,192,40167,1,0,0:0:0:0:
64,192,40242,1,0,0:0:0:0:
192,192,40317,1,0,0:0:0:0:
64,192,40392,1,0,0:0:0:0:
448,192,40392,1,0,0:0:0:0:
320,192,40467,1,0,0:0:0:0:
192,192,40542,1,0,0:0:0:0:
448,192,40617,1,0,0:0:0:0:
320,192,40692,1,0,0:0:0:0:
448,192,40767,1,0,0:0:0:0:
192,192,40842,1,0,0:0:0:0:
320,192,40917,1,0,0:0:0:0:
64,192,40992,1,0,0:0:0:0:
448,192,40992,1,0,0:0:0:0:
192,192,41067,1,0,0:0:0:0:
64,192,41142,1,0,0:0:0:0:
320,192,41217,1,0,0:0:0:0:
192,192,41292,1,0,0:0:0:0:
448,192,41367,1,0,0:0:0:0:
320,192,41442,1,0,0:0:0:0:
448,192,41517,1,0,0:0:0:0:
192,192,41592,1,0,0:0:0:0:
64,192,41592,1,0,0:0:0:0:
320,192,41667,1,0,0:0:0:0:
64,192,41742,1,0,0:0:0:0:
448,192,41742,1,0,0:0:0:0:
192,192,41817,1,0,0:0:0:0:
64,192,41892,1,0,0:0:0:0:
448,192,41892,1,0,0:0:0:0:
320,192,41967,1,0,0:0:0:0:
192,192,42042,1,0,0:0:0:0:
64,192,42042,1,0,0:0:0:0:
448,192,42192,1,0,0:0:0:0:
192,192,42192,1,0,0:0:0:0:
64,192,42192,1,0,0:0:0:0:
320,192,42192,1,0,0:0:0:0:
320,192,42267,1,0,0:0:0:0:
448,192,42267,1,0,0:0:0:0:
192,192,42267,1,0,0:0:0:0:
64,192,42267,1,0,0:0:0:0:
192,192,42342,1,0,0:0:0:0:
64,192,42342,1,0,0:0:0:0:
320,192,42342,1,0,0:0:0:0:
448,192,42342,1,0,0:0:0:0:
320,192,42417,1,0,0:0:0:0:
448,192,42417,1,0,0:0:0:0:
192,192,42417,1,0,0:0:0:0:
64,192,42417,1,0,0:0:0:0:
192,192,42492,1,0,0:0:0:0:
64,192,42492,1,0,0:0:0:0:
320,192,42492,1,0,0:0:0:0:
448,192,42492,1,0,0:0:0:0:
320,192,42567,1,0,0:0:0:0:
448,192,42567,1,0,0:0:0:0:
192,192,42567,1,0,0:0:0:0:
64,192,42567,1,0,0:0:0:0:
64,192,42642,1,0,0:0:0:0:
320,192,42642,1,0,0:0:0:0:
448,192,42642,1,0,0:0:0:0:
192,192,42642,1,0,0:0:0:0:
448,192,42717,1,0,0:0:0:0:
320,192,42717,1,0,0:0:0:0:
64,192,42717,1,0,0:0:0:0:
192,192,42717,1,0,0:0:0:0:
64,192,42792,1,0,0:0:0:0:
192,192,42792,1,0,0:0:0:0:
320,192,42792,1,0,0:0:0:0:
448,192,42792,1,0,0:0:0:0:
448,192,42867,1,0,0:0:0:0:
320,192,42942,1,0,0:0:0:0:
192,192,43017,1,0,0:0:0:0:
448,192,43092,1,0,0:0:0:0:
64,192,43092,1,0,0:0:0:0:
192,192,43242,1,0,0:0:0:0:
448,192,43242,1,0,0:0:0:0:
320,192,43392,1,0,0:0:0:0:
64,192,43392,1,0,0:0:0:0:
64,192,43542,1,0,0:0:0:0:
448,192,43542,1,0,0:0:0:0:
192,192,43617,1,0,0:0:0:0:
448,192,43692,1,0,0:0:0:0:
320,192,43692,1,0,0:0:0:0:
320,192,43842,1,0,0:0:0:0:
64,192,43842,1,0,0:0:0:0:
192,192,43992,1,0,0:0:0:0:
448,192,43992,1,0,0:0:0:0:
192,192,44142,1,0,0:0:0:0:
320,192,44142,1,0,0:0:0:0:
448,192,44292,1,0,0:0:0:0:
64,192,44292,1,0,0:0:0:0:
320,192,44442,1,0,0:0:0:0:
192,192,44592,1,0,0:0:0:0:
448,192,44592,1,0,0:0:0:0:
320,192,44742,1,0,0:0:0:0:
64,192,44892,1,0,0:0:0:0:
448,192,44892,1,0,0:0:0:0:
192,192,45042,1,0,0:0:0:0:
320,192,45042,1,0,0:0:0:0:
448,192,45192,1,0,0:0:0:0:
64,192,45192,1,0,0:0:0:0:
320,192,45342,1,0,0:0:0:0:
448,192,45492,1,0,0:0:0:0:
192,192,45492,1,0,0:0:0:0:
320,192,45642,1,0,0:0:0:0:
64,192,45642,1,0,0:0:0:0:
192,192,45792,1,0,0:0:0:0:
448,192,45792,1,0,0:0:0:0:
320,192,45942,1,0,0:0:0:0:
448,192,46092,1,0,0:0:0:0:
64,192,46092,1,0,0:0:0:0:
192,192,46242,1,0,0:0:0:0:
320,192,46392,1,0,0:0:0:0:
448,192,46392,1,0,0:0:0:0:
64,192,46542,1,0,0:0:0:0:
192,192,46692,1,0,0:0:0:0:
320,192,46692,1,0,0:0:0:0:
448,192,46842,1,0,0:0:0:0:
320,192,46992,1,0,0:0:0:0:
192,192,46992,1,0,0:0:0:0:
64,192,46992,1,0,0:0:0:0:
448,192,47142,1,0,0:0:0:0:
320,192,47292,1,0,0:0:0:0:
192,192,47292,1,0,0:0:0:0:
64,192,47292,1,0,0:0:0:0:
448,192,47442,1,0,0:0:0:0:
320,192,47592,1,0,0:0:0:0:
64,192,47592,1,0,0:0:0:0:
192,192,47742,1,0,0:0:0:0:
448,192,47892,1,0,0:0:0:0:
64,192,47892,1,0,0:0:0:0:
448,192,48042,1,0,0:0:0:0:
192,192,48042,1,0,0:0:0:0:
320,192,48192,1,0,0:0:0:0:
64,192,48192,1,0,0:0:0:0:
64,192,48342,1,0,0:0:0:0:
448,192,48342,1,0,0:0:0:0:
320,192,48492,1,0,0:0:0:0:
192,192,48492,1,0,0:0:0:0:
320,192,48642,1,0,0:0:0:0:
64,192,48642,1,0,0:0:0:0:
192,192,48792,1,0,0:0:0:0:
448,192,48792,1,0,0:0:0:0:
320,192,48942,1,0,0:0:0:0:
192,192,48942,1,0,0:0:0:0:
448,192,49092,1,0,0:0:0:0:
64,192,49092,1,0,0:0:0:0:
448,192,49242,1,0,0:0:0:0:
192,192,49242,1,0,0:0:0:0:
64,192,49392,1,0,0:0:0:0:
320,192,49392,1,0,0:0:0:0:
192,192,49542,1,0,0:0:0:0:
448,192,49692,1,0,0:0:0:0:
64,192,49692,1,0,0:0:0:0:
320,192,49842,1,0,0:0:0:0:
192,192,49992,1,0,0:0:0:0:
64,192,49992,1,0,0:0:0:0:
448,192,50142,1,0,0:0:0:0:
320,192,50292,1,0,0:0:0:0:
192,192,50292,1,0,0:0:0:0:
64,192,50442,1,0,0:0:0:0:
320,192,50592,1,0,0:0:0:0:
448,192,50592,1,0,0:0:0:0:
192,192,50742,1,0,0:0:0:0:
448,192,50892,1,0,0:0:0:0:
64,192,50892,1,0,0:0:0:0:
320,192,51042,1,0,0:0:0:0:
192,192,51192,128,0,51342:0:0:0:0:
448,192,51342,128,0,51492:0:0:0:0:
192,192,51492,128,0,51642:0:0:0:0:
448,192,51642,128,0,51792:0:0:0:0:
64,192,51792,128,0,51942:0:0:0:0:
320,192,51942,128,0,52092:0:0:0:0:
64,192,52092,128,0,52242:0:0:0:0:
320,192,52242,128,0,52392:0:0:0:0:
448,192,52392,1,0,0:0:0:0:
192,192,52392,1,0,0:0:0:0:
64,192,52542,1,0,0:0:0:0:
320,192,52692,1,0,0:0:0:0:
448,192,52692,1,0,0:0:0:0:
192,192,52842,1,0,0:0:0:0:
64,192,52842,1,0,0:0:0:0:
192,192,52917,1,0,0:0:0:0:
64,192,52917,1,0,0:0:0:0:
64,192,52992,1,0,0:0:0:0:
192,192,52992,1,0,0:0:0:0:
64,192,53067,1,0,0:0:0:0:
192,192,53067,1,0,0:0:0:0:
64,192,53142,1,0,0:0:0:0:
192,192,53142,1,0,0:0:0:0:
192,192,53217,1,0,0:0:0:0:
64,192,53217,1,0,0:0:0:0:
448,192,53292,1,0,0:0:0:0:
320,192,53292,1,0,0:0:0:0:
320,192,53442,1,0,0:0:0:0:
192,192,53442,1,0,0:0:0:0:
448,192,53592,1,0,0:0:0:0:
64,192,53592,1,0,0:0:0:0:
320,192,53742,1,0,0:0:0:0:
448,192,53742,1,0,0:0:0:0:
192,192,53892,1,0,0:0:0:0:
64,192,53892,1,0,0:0:0:0:
320,192,54042,1,0,0:0:0:0:
448,192,54042,1,0,0:0:0:0:
320,192,54117,1,0,0:0:0:0:
448,192,54117,1,0,0:0:0:0:
448,192,54192,1,0,0:0:0:0:
320,192,54192,1,0,0:0:0:0:
320,192,54267,1,0,0:0:0:0:
448,192,54267,1,0,0:0:0:0:
320,192,54342,1,0,0:0:0:0:
448,192,54342,1,0,0:0:0:0:
320,192,54417,1,0,0:0:0:0:
448,192,54417,1,0,0:0:0:0:
192,192,54492,1,0,0:0:0:0:
64,192,54492,1,0,0:0:0:0:
448,192,54642,1,0,0:0:0:0:
320,192,54792,1,0,0:0:0:0:
64,192,54792,1,0,0:0:0:0:
192,192,54942,1,0,0:0:0:0:
320,192,54942,1,0,0:0:0:0:
192,192,55092,1,0,0:0:0:0:
448,192,55092,1,0,0:0:0:0:
320,192,55242,1,0,0:0:0:0:
448,192,55242,1,0,0:0:0:0:
448,192,55392,1,0,0:0:0:0:
64,192,55392,1,0,0:0:0:0:
448,192,55467,1,0,0:0:0:0:
64,192,55467,1,0,0:0:0:0:
448,192,55542,1,0,0:0:0:0:
64,192,55542,1,0,0:0:0:0:
448,192,55617,1,0,0:0:0:0:
64,192,55617,1,0,0:0:0:0:
320,192,55692,1,0,0:0:0:0:
192,192,55692,1,0,0:0:0:0:
64,192,55842,1,0,0:0:0:0:
320,192,55842,1,0,0:0:0:0:
320,192,55992,1,0,0:0:0:0:
192,192,55992,1,0,0:0:0:0:
192,192,56067,1,0,0:0:0:0:
320,192,56067,1,0,0:0:0:0:
320,192,56142,1,0,0:0:0:0:
192,192,56142,1,0,0:0:0:0:
320,192,56217,1,0,0:0:0:0:
192,192,56217,1,0,0:0:0:0:
64,192,56292,1,0,0:0:0:0:
448,192,56292,1,0,0:0:0:0:
192,192,56442,1,0,0:0:0:0:
448,192,56442,1,0,0:0:0:0:
64,192,56592,1,0,0:0:0:0:
320,192,56592,1,0,0:0:0:0:
64,192,56667,1,0,0:0:0:0:
320,192,56667,1,0,0:0:0:0:
320,192,56742,1,0,0:0:0:0:
64,192,56742,1,0,0:0:0:0:
64,192,56817,1,0,0:0:0:0:
320,192,56817,1,0,0:0:0:0:
192,192,56892,1,0,0:0:0:0:
448,192,56892,1,0,0:0:0:0:
64,192,57042,1,0,0:0:0:0:
320,192,57042,1,0,0:0:0:0:
320,192,57192,1,0,0:0:0:0:
192,192,57192,1,0,0:0:0:0:
448,192,57342,1,0,0:0:0:0:
64,192,57492,1,0,0:0:0:0:
192,192,57492,1,0,0:0:0:0:
448,192,57642,1,0,0:0:0:0:
320,192,57642,1,0,0:0:0:0:
320,192,57717,1,0,0:0:0:0:
448,192,57717,1,0,0:0:0:0:
320,192,57792,1,0,0:0:0:0:
448,192,57792,1,0,0:0:0:0:
320,192,57867,1,0,0:0:0:0:
448,192,57867,1,0,0:0:0:0:
320,192,57942,1,0,0:0:0:0:
448,192,57942,1,0,0:0:0:0:
320,192,58017,1,0,0:0:0:0:
448,192,58017,1,0,0:0:0:0:
64,192,58092,1,0,0:0:0:0:
192,192,58092,1,0,0:0:0:0:
320,192,58242,1,0,0:0:0:0:
192,192,58242,1,0,0:0:0:0:
448,192,58392,1,0,0:0:0:0:
64,192,58392,1,0,0:0:0:0:
192,192,58542,1,0,0:0:0:0:
448,192,58542,1,0,0:0:0:0:
192,192,58692,1,0,0:0:0:0:
320,192,58692,1,0,0:0:0:0:
64,192,58842,1,0,0:0:0:0:
192,192,58842,1,0,0:0:0:0:
192,192,58917,1,0,0:0:0:0:
64,192,58917,1,0,0:0:0:0:
192,192,58992,1,0,0:0:0:0:
64,192,58992,1,0,0:0:0:0:
64,192,59067,1,0,0:0:0:0:
192,192,59067,1,0,0:0:0:0:
64,192,59142,1,0,0:0:0:0:
192,192,59142,1,0,0:0:0:0:
192,192,59217,1,0,0:0:0:0:
64,192,59217,1,0,0:0:0:0:
448,192,59292,1,0,0:0:0:0:
320,192,59292,1,0,0:0:0:0:
64,192,59442,1,0,0:0:0:0:
448,192,59592,1,0,0:0:0:0:
192,192,59592,1,0,0:0:0:0:
320,192,59742,1,0,0:0:0:0:
192,192,59892,1,0,0:0:0:0:
448,192,59892,1,0,0:0:0:0:
64,192,60042,1,0,0:0:0:0:
448,192,60042,1,0,0:0:0:0:
192,192,60192,1,0,0:0:0:0:
320,192,60192,1,0,0:0:0:0:
192,192,60267,1,0,0:0:0:0:
320,192,60267,1,0,0:0:0:0:
320,192,60342,1,0,0:0:0:0:
192,192,60342,1,0,0:0:0:0:
320,192,60417,1,0,0:0:0:0:
192,192,60417,1,0,0:0:0:0:
64,192,60492,1,0,0:0:0:0:
448,192,60492,1,0,0:0:0:0:
320,192,60642,1,0,0:0:0:0:
448,192,60642,1,0,0:0:0:0:
64,192,60792,128,0,60942:0:0:0:0:
192,192,60792,1,0,0:0:0:0:
320,192,60867,1,0,0:0:0:0:
448,192,60942,128,0,61092:0:0:0:0:
192,192,60942,1,0,0:0:0:0:
64,192,61092,128,0,61242:0:0:0:0:
320,192,61092,1,0,0:0:0:0:
448,192,61242,128,0,61392:0:0:0:0:
192,192,61392,128,0,61542:0:0:0:0:
64,192,61392,1,0,0:0:0:0:
320,192,61542,128,0,61692:0:0:0:0:
192,192,61692,128,0,61842:0:0:0:0:
448,192,61692,1,0,0:0:0:0:
320,192,61842,128,0,61992:0:0:0:0:
64,192,61992,1,0,0:0:0:0:
448,192,61992,1,0,0:0:0:0:
64,192,62142,1,0,0:0:0:0:
192,192,62142,1,0,0:0:0:0:
448,192,62292,1,0,0:0:0:0:
320,192,62292,1,0,0:0:0:0:
64,192,62442,1,0,0:0:0:0:
192,192,62442,1,0,0:0:0:0:
320,192,62517,1,0,0:0:0:0:
448,192,62592,1,0,0:0:0:0:
64,192,62667,1,0,0:0:0:0:
192,192,62742,1,0,0:0:0:0:
320,192,62742,1,0,0:0:0:0:
448,192,62817,1,0,0:0:0:0:
192,192,62892,1,0,0:0:0:0:
64,192,62892,1,0,0:0:0:0:
448,192,63042,1,0,0:0:0:0:
320,192,63117,1,0,0:0:0:0:
192,192,63192,1,0,0:0:0:0:
64,192,63192,1,0,0:0:0:0:
320,192,63342,1,0,0:0:0:0:
448,192,63342,1,0,0:0:0:0:
448,192,63492,1,0,0:0:0:0:
64,192,63492,1,0,0:0:0:0:
320,192,63642,1,0,0:0:0:0:
192,192,63642,1,0,0:0:0:0:
64,192,63717,1,0,0:0:0:0:
448,192,63792,1,0,0:0:0:0:
192,192,63867,1,0,0:0:0:0:
320,192,63942,1,0,0:0:0:0:
448,192,63942,1,0,0:0:0:0:
192,192,64017,1,0,0:0:0:0:
64,192,64017,1,0,0:0:0:0:
320,192,64092,1,0,0:0:0:0:
448,192,64092,1,0,0:0:0:0:
192,192,64242,1,0,0:0:0:0:
64,192,64242,1,0,0:0:0:0:
320,192,64317,1,0,0:0:0:0:
448,192,64392,1,0,0:0:0:0:
64,192,64392,1,0,0:0:0:0:
448,192,64542,1,0,0:0:0:0:
320,192,64542,1,0,0:0:0:0:
64,192,64692,1,0,0:0:0:0:
192,192,64692,1,0,0:0:0:0:
448,192,64842,1,0,0:0:0:0:
320,192,64842,1,0,0:0:0:0:
192,192,64917,1,0,0:0:0:0:
64,192,64992,1,0,0:0:0:0:
448,192,65067,1,0,0:0:0:0:
320,192,65142,1,0,0:0:0:0:
192,192,65142,1,0,0:0:0:0:
64,192,65217,1,0,0:0:0:0:
320,192,65292,1,0,0:0:0:0:
448,192,65292,1,0,0:0:0:0:
64,192,65442,1,0,0:0:0:0:
192,192,65517,1,0,0:0:0:0:
320,192,65592,1,0,0:0:0:0:
448,192,65592,1,0,0:0:0:0:
64,192,65667,1,0,0:0:0:0:
192,192,65742,1,0,0:0:0:0:
320,192,65742,1,0,0:0:0:0:
448,192,65817,1,0,0:0:0:0:
64,192,65892,1,0,0:0:0:0:
192,192,65892,1,0,0:0:0:0:
448,192,66042,1,0,0:0:0:0:
320,192,66042,1,0,0:0:0:0:
64,192,66117,1,0,0:0:0:0:
192,192,66192,1,0,0:0:0:0:
320,192,66192,1,0,0:0:0:0:
448,192,66267,1,0,0:0:0:0:
192,192,66342,1,0,0:0:0:0:
64,192,66342,1,0,0:0:0:0:
320,192,66417,1,0,0:0:0:0:
448,192,66417,1,0,0:0:0:0:
64,192,66492,128,0,66792:0:0:0:0:
192,192,66492,1,0,0:0:0:0:
448,192,66642,128,0,66792:0:0:0:0:
192,192,66792,1,0,0:0:0:0:
320,192,66792,1,0,0:0:0:0:
448,192,66942,1,0,0:0:0:0:
320,192,67092,1,0,0:0:0:0:
192,192,67092,1,0,0:0:0:0:
64,192,67092,1,0,0:0:0:0:
64,192,67242,1,0,0:0:0:0:
320,192,67242,1,0,0:0:0:0:
192,192,67392,1,0,0:0:0:0:
448,192,67392,1,0,0:0:0:0:
320,192,67392,1,0,0:0:0:0:
448,192,67542,1,0,0:0:0:0:
64,192,67542,1,0,0:0:0:0:
320,192,67692,1,0,0:0:0:0:
192,192,67692,1,0,0:0:0:0:
64,192,67692,1,0,0:0:0:0:
192,192,67842,1,0,0:0:0:0:
448,192,67842,1,0,0:0:0:0:
320,192,67992,1,0,0:0:0:0:
64,192,67992,1,0,0:0:0:0:
448,192,67992,1,0,0:0:0:0:
64,192,68142,1,0,0:0:0:0:
448,192,68142,1,0,0:0:0:0:
320,192,68292,1,0,0:0:0:0:
192,192,68292,1,0,0:0:0:0:
64,192,68292,1,0,0:0:0:0:
448,192,68442,1,0,0:0:0:0:
64,192,68592,1,0,0:0:0:0:
192,192,68592,1,0,0:0:0:0:
320,192,68592,1,0,0:0:0:0:
320,192,68742,1,0,0:0:0:0:
448,192,68892,1,0,0:0:0:0:
64,192,68892,1,0,0:0:0:0:
192,192,68892,1,0,0:0:0:0:
192,192,69042,1,0,0:0:0:0:
448,192,69192,1,0,0:0:0:0:
320,192,69192,1,0,0:0:0:0:
64,192,69192,1,0,0:0:0:0:
64,192,69342,1,0,0:0:0:0:
192,192,69492,1,0,0:0:0:0:
320,192,69492,1,0,0:0:0:0:
448,192,69492,1,0,0:0:0:0:
448,192,69642,1,0,0:0:0:0:
192,192,69642,1,0,0:0:0:0:
320,192,69792,1,0,0:0:0:0:
64,192,69792,1,0,0:0:0:0:
448,192,69792,1,0,0:0:0:0:
192,192,69942,1,0,0:0:0:0:
448,192,70092,1,0,0:0:0:0:
64,192,70092,1,0,0:0:0:0:
320,192,70092,1,0,0:0:0:0:
320,192,70242,1,0,0:0:0:0:
192,192,70392,1,0,0:0:0:0:
64,192,70392,1,0,0:0:0:0:
448,192,70392,1,0,0:0:0:0:
448,192,70542,1,0,0:0:0:0:
320,192,70692,1,0,0:0:0:0:
192,192,70692,1,0,0:0:0:0:
64,192,70692,1,0,0:0:0:0:
64,192,70842,1,0,0:0:0:0:
320,192,70992,1,0,0:0:0:0:
448,192,70992,1,0,0:0:0:0:
192,192,70992,1,0,0:0:0:0:
192,192,71142,1,0,0:0:0:0:
448,192,71292,1,0,0:0:0:0:
64,192,71292,1,0,0:0:0:0:
320,192,71292,1,0,0:0:0:0:
448,192,71442,1,0,0:0:0:0:
192,192,71442,1,0,0:0:0:0:
64,192,71592,1,0,0:0:0:0:
320,192,71592,1,0,0:0:0:0:
448,192,71592,1,0,0:0:0:0:
192,192,71742,1,0,0:0:0:0:
448,192,71892,1,0,0:0:0:0:
64,192,71892,1,0,0:0:0:0:
192,192,71892,1,0,0:0:0:0:
64,192,72042,1,0,0:0:0:0:
320,192,72042,1,0,0:0:0:0:
192,192,72192,1,0,0:0:0:0:
448,192,72192,1,0,0:0:0:0:
320,192,72192,1,0,0:0:0:0:
192,192,72342,1,0,0:0:0:0:
64,192,72342,1,0,0:0:0:0:
320,192,72492,1,0,0:0:0:0:
448,192,72492,1,0,0:0:0:0:
64,192,72492,1,0,0:0:0:0:
320,192,72642,1,0,0:0:0:0:
192,192,72642,1,0,0:0:0:0:
64,192,72792,1,0,0:0:0:0:
448,192,72792,1,0,0:0:0:0:
192,192,72792,1,0,0:0:0:0:
448,192,72942,1,0,0:0:0:0:
192,192,72942,1,0,0:0:0:0:
320,192,73092,1,0,0:0:0:0:
64,192,73092,1,0,0:0:0:0:
448,192,73092,1,0,0:0:0:0:
192,192,73242,1,0,0:0:0:0:
448,192,73392,1,0,0:0:0:0:
64,192,73392,1,0,0:0:0:0:
320,192,73392,1,0,0:0:0:0:
320,192,73542,1,0,0:0:0:0:
448,192,73692,1,0,0:0:0:0:
192,192,73692,128,0,73842:0:0:0:0:
64,192,73692,1,0,0:0:0:0:
64,192,73842,1,0,0:0:0:0:
320,192,73992,1,0,0:0:0:0:
448,192,73992,128,0,74142:0:0:0:0:
192,192,73992,1,0,0:0:0:0:
64,192,74142,1,0,0:0:0:0:
192,192,74292,1,0,0:0:0:0:
320,192,74292,128,0,74442:0:0:0:0:
64,192,74292,1,0,0:0:0:0:
448,192,74442,1,0,0:0:0:0:
64,192,74592,1,0,0:0:0:0:
192,192,74592,128,0,74742:0:0:0:0:
448,192,74592,1,0,0:0:0:0:
320,192,74742,1,0,0:0:0:0:
448,192,74892,1,0,0:0:0:0:
64,192,74892,128,0,75042:0:0:0:0:
320,192,74892,1,0,0:0:0:0:
192,192,75042,1,0,0:0:0:0:
320,192,75192,128,0,75342:0:0:0:0:
448,192,75342,128,0,75492:0:0:0:0:
192,192,75492,128,0,75642:0:0:0:0:
320,192,75642,128,0,75792:0:0:0:0:
64,192,75792,128,0,75942:0:0:0:0:
192,192,75942,128,0,76092:0:0:0:0:
320,192,76092,128,0,76242:0:0:0:0:
448,192,76242,128,0,76392:0:0:0:0:
192,192,76392,1,0,0:0:0:0:
64,192,76392,1,0,0:0:0:0:
320,192,76392,1,0,0:0:0:0:
64,192,76542,1,0,0:0:0:0:
192,192,76692,1,0,0:0:0:0:
448,192,76692,1,0,0:0:0:0:
192,192,76842,1,0,0:0:0:0:
64,192,76842,1,0,0:0:0:0:
320,192,76992,1,0,0:0:0:0:
320,192,77142,1,0,0:0:0:0:
192,192,77142,1,0,0:0:0:0:
448,192,77292,1,0,0:0:0:0:
448,192,77442,1,0,0:0:0:0:
320,192,77442,1,0,0:0:0:0:
64,192,77592,1,0,0:0:0:0:
64,192,77742,1,0,0:0:0:0:
192,192,77742,1,0,0:0:0:0:
320,192,77892,1,0,0:0:0:0:
320,192,78042,1,0,0:0:0:0:
448,192,78042,1,0,0:0:0:0:
192,192,78192,1,0,0:0:0:0:
192,192,78342,1,0,0:0:0:0:
320,192,78342,1,0,0:0:0:0:
448,192,78492,1,0,0:0:0:0:
448,192,78642,1,0,0:0:0:0:
64,192,78792,1,0,0:0:0:0:
192,192,78792,1,0,0:0:0:0:
320,192,78792,1,0,0:0:0:0:
64,192,78942,1,0,0:0:0:0:
448,192,79092,1,0,0:0:0:0:
448,192,79242,1,0,0:0:0:0:
320,192,79392,1,0,0:0:0:0:
192,192,79392,1,0,0:0:0:0:
64,192,79392,1,0,0:0:0:0:
192,192,79542,1,0,0:0:0:0:
320,192,79692,1,0,0:0:0:0:
320,192,79842,1,0,0:0:0:0:
448,192,79992,1,0,0:0:0:0:
64,192,79992,1,0,0:0:0:0:
192,192,79992,1,0,0:0:0:0:
320,192,80142,1,0,0:0:0:0:
192,192,80292,1,0,0:0:0:0:
64,192,80292,1,0,0:0:0:0:
448,192,80292,1,0,0:0:0:0:
320,192,80442,1,0,0:0:0:0:
448,192,80592,1,0,0:0:0:0:
64,192,80592,1,0,0:0:0:0:
320,192,80592,1,0,0:0:0:0:
192,192,80742,1,0,0:0:0:0:
320,192,80892,1,0,0:0:0:0:
448,192,80892,1,0,0:0:0:0:
64,192,80892,1,0,0:0:0:0:
192,192,81042,1,0,0:0:0:0:
448,192,81192,1,0,0:0:0:0:
64,192,81192,1,0,0:0:0:0:
320,192,81192,1,0,0:0:0:0:
320,192,81342,1,0,0:0:0:0:
448,192,81492,1,0,0:0:0:0:
64,192,81492,1,0,0:0:0:0:
192,192,81492,1,0,0:0:0:0:
192,192,81642,1,0,0:0:0:0:
320,192,81642,1,0,0:0:0:0:
64,192,81792,1,0,0:0:0:0:
448,192,81792,1,0,0:0:0:0:
320,192,81792,1,0,0:0:0:0:
192,192,81942,1,0,0:0:0:0:
448,192,82092,1,0,0:0:0:0:
64,192,82092,1,0,0:0:0:0:
320,192,82092,1,0,0:0:0:0:
320,192,82242,1,0,0:0:0:0:
192,192,82392,1,0,0:0:0:0:
448,192,82392,1,0,0:0:0:0:
64,192,82392,1,0,0:0:0:0:
192,192,82542,1,0,0:0:0:0:
320,192,82542,1,0,0:0:0:0:
448,192,82692,1,0,0:0:0:0:
64,192,82692,1,0,0:0:0:0:
320,192,82692,1,0,0:0:0:0:
320,192,82842,1,0,0:0:0:0:
192,192,82842,1,0,0:0:0:0:
448,192,82992,1,0,0:0:0:0:
64,192,82992,1,0,0:0:0:0:
192,192,82992,1,0,0:0:0:0:
320,192,83142,1,0,0:0:0:0:
64,192,83292,1,0,0:0:0:0:
448,192,83292,1,0,0:0:0:0:
192,192,83292,1,0,0:0:0:0:
320,192,83442,1,0,0:0:0:0:
192,192,83592,1,0,0:0:0:0:
64,192,83592,1,0,0:0:0:0:
320,192,83592,1,0,0:0:0:0:
448,192,83592,1,0,0:0:0:0:
320,192,83742,1,0,0:0:0:0:
448,192,83742,1,0,0:0:0:0:
192,192,83742,1,0,0:0:0:0:
64,192,83742,1,0,0:0:0:0:
192,192,83892,1,0,0:0:0:0:
64,192,83892,1,0,0:0:0:0:
320,192,83892,1,0,0:0:0:0:
448,192,83892,1,0,0:0:0:0:
320,192,84042,1,0,0:0:0:0:
448,192,84042,1,0,0:0:0:0:
192,192,84042,1,0,0:0:0:0:
64,192,84042,1,0,0:0:0:0:
192,192,84192,1,0,0:0:0:0:
64,192,84192,1,0,0:0:0:0:
320,192,84192,1,0,0:0:0:0:
448,192,84192,1,0,0:0:0:0:
320,192,84342,1,0,0:0:0:0:
448,192,84342,1,0,0:0:0:0:
192,192,84342,1,0,0:0:0:0:
64,192,84342,1,0,0:0:0:0:
64,192,84492,1,0,0:0:0:0:
192,192,84492,1,0,0:0:0:0:
320,192,84492,1,0,0:0:0:0:
448,192,84492,1,0,0:0:0:0:
320,192,84642,1,0,0:0:0:0:
448,192,84642,1,0,0:0:0:0:
192,192,84642,1,0,0:0:0:0:
64,192,84642,1,0,0:0:0:0:
192,192,84792,1,0,0:0:0:0:
64,192,84792,1,0,0:0:0:0:
320,192,84792,1,0,0:0:0:0:
448,192,84792,1,0,0:0:0:0:
320,192,84867,1,0,0:0:0:0:
448,192,84867,1,0,0:0:0:0:
192,192,84867,1,0,0:0:0:0:
64,192,84867,1,0,0:0:0:0:
192,192,84942,1,0,0:0:0:0:
64,192,84942,1,0,0:0:0:0:
320,192,84942,1,0,0:0:0:0:
448,192,84942,1,0,0:0:0:0:
320,192,85017,1,0,0:0:0:0:
448,192,85017,1,0,0:0:0:0:
192,192,85017,1,0,0:0:0:0:
64,192,85017,1,0,0:0:0:0:
192,192,85092,1,0,0:0:0:0:
64,192,85092,1,0,0:0:0:0:
320,192,85092,1,0,0:0:0:0:
448,192,85092,1,0,0:0:0:0:
320,192,85167,1,0,0:0:0:0:
448,192,85167,1,0,0:0:0:0:
192,192,85167,1,0,0:0:0:0:
64,192,85167,1,0,0:0:0:0:
64,192,85242,1,0,0:0:0:0:
192,192,85242,1,0,0:0:0:0:
320,192,85242,1,0,0:0:0:0:
448,192,85242,1,0,0:0:0:0:
448,192,85317,1,0,0:0:0:0:
320,192,85317,1,0,0:0:0:0:
192,192,85317,1,0,0:0:0:0:
64,192,85317,1,0,0:0:0:0:
64,192,85392,1,0,0:0:0:0:
192,192,85392,1,0,0:0:0:0:
320,192,85392,1,0,0:0:0:0:
448,192,85392,1,0,0:0:0:0:
448,192,85467,1,0,0:0:0:0:
320,192,85467,1,0,0:0:0:0:
192,192,85467,1,0,0:0:0:0:
64,192,85467,1,0,0:0:0:0:
192,192,85542,1,0,0:0:0:0:
64,192,85542,1,0,0:0:0:0:
320,192,85542,1,0,0:0:0:0:
448,192,85542,1,0,0:0:0:0:
320,192,85617,1,0,0:0:0:0:
448,192,85617,1,0,0:0:0:0:
192,192,85617,1,0,0:0:0:0:
64,192,85617,1,0,0:0:0:0:
192,192,85692,1,0,0:0:0:0:
64,192,85692,1,0,0:0:0:0:
320,192,85692,1,0,0:0:0:0:
448,192,85692,1,0,0:0:0:0:
320,192,85767,1,0,0:0:0:0:
448,192,85767,1,0,0:0:0:0:
192,192,85767,1,0,0:0:0:0:
64,192,85767,1,0,0:0:0:0:
64,192,85842,1,0,0:0:0:0:
192,192,85842,1,0,0:0:0:0:
320,192,85842,1,0,0:0:0:0:
448,192,85842,1,0,0:0:0:0:
448,192,85917,1,0,0:0:0:0:
320,192,85917,1,0,0:0:0:0:
192,192,85917,1,0,0:0:0:0:
64,192,85917,1,0,0:0:0:0:
192,192,85992,1,0,0:0:0:0:
64,192,85992,1,0,0:0:0:0:
320,192,85992,1,0,0:0:0:0:
448,192,85992,1,0,0:0:0:0:
448,192,86142,1,0,0:0:0:0:
64,192,86142,1,0,0:0:0:0:
320,192,86292,1,0,0:0:0:0:
448,192,86292,1,0,0:0:0:0:
192,192,86442,1,0,0:0:0:0:
320,192,86442,1,0,0:0:0:0:
64,192,86592,1,0,0:0:0:0:
192,192,86592,1,0,0:0:0:0:
448,192,86892,1,0,0:0:0:0:
64,192,86892,1,0,0:0:0:0:
192,192,87042,1,0,0:0:0:0:
320,192,87042,1,0,0:0:0:0:
320,192,87192,1,0,0:0:0:0:
448,192,87192,1,0,0:0:0:0:
64,192,87492,1,0,0:0:0:0:
192,192,87492,1,0,0:0:0:0:
448,192,87717,1,0,0:0:0:0:
320,192,87717,1,0,0:0:0:0:
192,192,87867,1,0,0:0:0:0:
64,192,87867,1,0,0:0:0:0:
320,192,88017,128,0,90492:0:0:0:0:
448,192,88392,1,0,0:0:0:0:
64,192,88542,1,0,0:0:0:0:
192,192,88842,1,0,0:0:0:0:
448,192,89142,1,0,0:0:0:0:
64,192,89592,1,0,0:0:0:0:
192,192,89892,128,0,90492:0:0:0:0:
448,192,90792,1,0,0:0:0:0:
64,192,90792,1,0,0:0:0:0:
320,192,91092,1,0,0:0:0:0:
192,192,91242,1,0,0:0:0:0:
64,192,91542,1,0,0:0:0:0:
448,192,91992,1,0,0:0:0:0:
64,192,91992,1,0,0:0:0:0:
320,192,92142,1,0,0:0:0:0:
192,192,92292,1,0,0:0:0:0:
64,192,92592,1,0,0:0:0:0:
448,192,92592,1,0,0:0:0:0:
192,192,92892,1,0,0:0:0:0:
320,192,93192,1,0,0:0:0:0:
448,192,93492,1,0,0:0:0:0:
64,192,93792,1,0,0:0:0:0:
320,192,93792,1,0,0:0:0:0:
320,192,94092,1,0,0:0:0:0:
192,192,94092,1,0,0:0:0:0:
448,192,94392,1,0,0:0:0:0:
64,192,94392,1,0,0:0:0:0:
320,192,94692,1,0,0:0:0:0:
448,192,94842,1,0,0:0:0:0:
192,192,95142,1,0,0:0:0:0:
320,192,95592,1,0,0:0:0:0:
192,192,95742,1,0,0:0:0:0:
64,192,95892,1,0,0:0:0:0:
448,192,96192,1,0,0:0:0:0:
192,192,96492,1,0,0:0:0:0:
320,192,96792,1,0,0:0:0:0:
64,192,97092,1,0,0:0:0:0:
448,192,97392,1,0,0:0:0:0:
192,192,97392,1,0,0:0:0:0:
320,192,97692,1,0,0:0:0:0:
192,192,97842,1,0,0:0:0:0:
320,192,97992,1,0,0:0:0:0:
64,192,97992,1,0,0:0:0:0:
448,192,98292,1,0,0:0:0:0:
192,192,98292,1,0,0:0:0:0:
320,192,98592,1,0,0:0:0:0:
448,192,98892,1,0,0:0:0:0:
192,192,99192,1,0,0:0:0:0:
64,192,99192,1,0,0:0:0:0:
320,192,99492,1,0,0:0:0:0:
64,192,99792,1,0,0:0:0:0:
448,192,99792,1,0,0:0:0:0:
448,192,100242,1,0,0:0:0:0:
64,192,100242,1,0,0:0:0:0:
448,192,100692,1,0,0:0:0:0:
192,192,100692,1,0,0:0:0:0:
320,192,100992,1,0,0:0:0:0:
192,192,101292,1,0,0:0:0:0:
64,192,101592,1,0,0:0:0:0:
448,192,101592,1,0,0:0:0:0:
320,192,101742,1,0,0:0:0:0:
320,192,102042,1,0,0:0:0:0:
64,192,102042,1,0,0:0:0:0:
192,192,102492,1,0,0:0:0:0:
448,192,102792,1,0,0:0:0:0:
64,192,102792,1,0,0:0:0:0:
320,192,103092,1,0,0:0:0:0:
192,192,103392,1,0,0:0:0:0:
448,192,103392,1,0,0:0:0:0:
320,192,103692,1,0,0:0:0:0:
64,192,103992,1,0,0:0:0:0:
192,192,103992,1,0,0:0:0:0:
448,192,104292,1,0,0:0:0:0:
320,192,104592,128,0,104892:0:0:0:0:
192,192,104892,128,0,105192:0:0:0:0:
448,192,105192,1,0,0:0:0:0:
64,192,105192,1,0,0:0:0:0:
192,192,105492,1,0,0:0:0:0:
320,192,105642,1,0,0:0:0:0:
448,192,105942,1,0,0:0:0:0:
64,192,106392,1,0,0:0:0:0:
448,192,106392,1,0,0:0:0:0:
192,192,106542,1,0,0:0:0:0:
320,192,106692,1,0,0:0:0:0:
448,192,106992,1,0,0:0:0:0:
64,192,106992,1,0,0:0:0:0:
320,192,107292,1,0,0:0:0:0:
192,192,107592,1,0,0:0:0:0:
64,192,107892,1,0,0:0:0:0:
448,192,108192,1,0,0:0:0:0:
192,192,108192,1,0,0:0:0:0:
192,192,108492,1,0,0:0:0:0:
320,192,108492,1,0,0:0:0:0:
64,192,108792,1,0,0:0:0:0:
448,192,108792,1,0,0:0:0:0:
192,192,109092,1,0,0:0:0:0:
448,192,109242,1,0,0:0:0:0:
320,192,109542,1,0,0:0:0:0:
192,192,109992,1,0,0:0:0:0:
320,192,110142,1,0,0:0:0:0:
448,192,110292,1,0,0:0:0:0:
192,192,110592,1,0,0:0:0:0:
64,192,110592,1,0,0:0:0:0:
320,192,110892,1,0,0:0:0:0:
192,192,111192,1,0,0:0:0:0:
448,192,111492,1,0,0:0:0:0:
64,192,111792,1,0,0:0:0:0:
320,192,111792,1,0,0:0:0:0:
192,192,112092,1,0,0:0:0:0:
320,192,112242,1,0,0:0:0:0:
192,192,112392,1,0,0:0:0:0:
448,192,112392,1,0,0:0:0:0:
64,192,112692,1,0,0:0:0:0:
320,192,112692,1,0,0:0:0:0:
192,192,112992,1,0,0:0:0:0:
64,192,113292,1,0,0:0:0:0:
320,192,113592,1,0,0:0:0:0:
448,192,113592,1,0,0:0:0:0:
192,192,113892,1,0,0:0:0:0:
448,192,114192,1,0,0:0:0:0:
64,192,114192,1,0,0:0:0:0:
64,192,114642,1,0,0:0:0:0:
448,192,114642,1,0,0:0:0:0:
64,192,115092,1,0,0:0:0:0:
320,192,115092,1,0,0:0:0:0:
192,192,115392,1,0,0:0:0:0:
320,192,115692,1,0,0:0:0:0:
448,192,115692,1,0,0:0:0:0:
448,192,115992,1,0,0:0:0:0:
64,192,115992,1,0,0:0:0:0:
320,192,116142,1,0,0:0:0:0:
192,192,116442,1,0,0:0:0:0:
448,192,116442,1,0,0:0:0:0:
320,192,116892,1,0,0:0:0:0:
64,192,117192,1,0,0:0:0:0:
448,192,117192,1,0,0:0:0:0:
192,192,117492,1,0,0:0:0:0:
320,192,117792,1,0,0:0:0:0:
64,192,117792,1,0,0:0:0:0:
192,192,118092,1,0,0:0:0:0:
448,192,118392,1,0,0:0:0:0:
64,192,118392,1,0,0:0:0:0:
320,192,118692,1,0,0:0:0:0:
192,192,118992,1,0,0:0:0:0:
448,192,118992,1,0,0:0:0:0:
320,192,119292,1,0,0:0:0:0:
64,192,119592,1,0,0:0:0:0:
448,192,119592,1,0,0:0:0:0:
320,192,119592,1,0,0:0:0:0:
448,192,119742,1,0,0:0:0:0:
192,192,119742,1,0,0:0:0:0:
64,192,119742,1,0,0:0:0:0:
320,192,119892,1,0,0:0:0:0:
64,192,119892,1,0,0:0:0:0:
448,192,119892,1,0,0:0:0:0:
320,192,120042,1,0,0:0:0:0:
192,192,120042,1,0,0:0:0:0:
448,192,120042,1,0,0:0:0:0:
64,192,120192,1,0,0:0:0:0:
448,192,120192,1,0,0:0:0:0:
192,192,120192,1,0,0:0:0:0:
64,192,120342,1,0,0:0:0:0:
320,192,120342,1,0,0:0:0:0:
448,192,120342,1,0,0:0:0:0:
448,192,120492,1,0,0:0:0:0:
192,192,120492,1,0,0:0:0:0:
64,192,120492,1,0,0:0:0:0:
192,192,120642,1,0,0:0:0:0:
320,192,120642,1,0,0:0:0:0:
448,192,120642,1,0,0:0:0:0:
64,192,120792,1,0,0:0:0:0:
448,192,120792,1,0,0:0:0:0:
320,192,120792,1,0,0:0:0:0:
192,192,120942,1,0,0:0:0:0:
448,192,120942,1,0,0:0:0:0:
64,192,120942,1,0,0:0:0:0:
320,192,121092,1,0,0:0:0:0:
64,192,121092,1,0,0:0:0:0:
448,192,121092,1,0,0:0:0:0:
320,192,121242,1,0,0:0:0:0:
192,192,121242,1,0,0:0:0:0:
64,192,121242,1,0,0:0:0:0:
64,192,121392,1,0,0:0:0:0:
448,192,121392,1,0,0:0:0:0:
320,192,121392,1,0,0:0:0:0:
320,192,121542,1,0,0:0:0:0:
64,192,121542,1,0,0:0:0:0:
192,192,121542,1,0,0:0:0:0:
192,192,121692,1,0,0:0:0:0:
448,192,121692,1,0,0:0:0:0:
320,192,121692,1,0,0:0:0:0:
192,192,121842,1,0,0:0:0:0:
320,192,121842,1,0,0:0:0:0:
64,192,121842,1,0,0:0:0:0:
448,192,121992,1,0,0:0:0:0:
64,192,121992,1,0,0:0:0:0:
320,192,121992,1,0,0:0:0:0:
448,192,122142,1,0,0:0:0:0:
192,192,122142,1,0,0:0:0:0:
64,192,122142,1,0,0:0:0:0:
64,192,122292,1,0,0:0:0:0:
320,192,122292,1,0,0:0:0:0:
448,192,122292,1,0,0:0:0:0:
192,192,122442,1,0,0:0:0:0:
320,192,122442,1,0,0:0:0:0:
64,192,122442,1,0,0:0:0:0:
448,192,122592,1,0,0:0:0:0:
64,192,122592,1,0,0:0:0:0:
320,192,122592,1,0,0:0:0:0:
64,192,122742,1,0,0:0:0:0:
320,192,122742,1,0,0:0:0:0:
192,192,122742,1,0,0:0:0:0:
448,192,122892,1,0,0:0:0:0:
192,192,122892,1,0,0:0:0:0:
64,192,122892,1,0,0:0:0:0:
320,192,123042,1,0,0:0:0:0:
192,192,123042,1,0,0:0:0:0:
448,192,123042,1,0,0:0:0:0:
448,192,123192,1,0,0:0:0:0:
64,192,123192,1,0,0:0:0:0:
320,192,123192,1,0,0:0:0:0:
448,192,123342,1,0,0:0:0:0:
192,192,123342,1,0,0:0:0:0:
64,192,123342,1,0,0:0:0:0:
64,192,123492,1,0,0:0:0:0:
320,192,123492,1,0,0:0:0:0:
448,192,123492,1,0,0:0:0:0:
448,192,123642,1,0,0:0:0:0:
64,192,123642,1,0,0:0:0:0:
192,192,123642,1,0,0:0:0:0:
192,192,123792,1,0,0:0:0:0:
320,192,123792,1,0,0:0:0:0:
448,192,123792,1,0,0:0:0:0:
320,192,123942,1,0,0:0:0:0:
64,192,123942,1,0,0:0:0:0:
192,192,123942,1,0,0:0:0:0:
192,192,124092,1,0,0:0:0:0:
448,192,124092,1,0,0:0:0:0:
320,192,124092,1,0,0:0:0:0:
192,192,124242,1,0,0:0:0:0:
320,192,124242,1,0,0:0:0:0:
64,192,124242,1,0,0:0:0:0:
448,192,124392,1,0,0:0:0:0:
64,192,124392,1,0,0:0:0:0:
320,192,124392,1,0,0:0:0:0:
192,192,124542,1,0,0:0:0:0:
448,192,124542,1,0,0:0:0:0:
64,192,124542,1,0,0:0:0:0:
64,192,124692,1,0,0:0:0:0:
320,192,124692,1,0,0:0:0:0:
448,192,124692,1,0,0:0:0:0:
64,192,124842,1,0,0:0:0:0:
448,192,124842,1,0,0:0:0:0:
192,192,124842,1,0,0:0:0:0:
192,192,124992,1,0,0:0:0:0:
320,192,124992,1,0,0:0:0:0:
448,192,124992,1,0,0:0:0:0:
64,192,125142,1,0,0:0:0:0:
320,192,125142,1,0,0:0:0:0:
192,192,125142,1,0,0:0:0:0:
192,192,125292,1,0,0:0:0:0:
448,192,125292,1,0,0:0:0:0:
320,192,125292,1,0,0:0:0:0:
320,192,125442,1,0,0:0:0:0:
192,192,125442,1,0,0:0:0:0:
64,192,125442,1,0,0:0:0:0:
64,192,125592,1,0,0:0:0:0:
448,192,125592,1,0,0:0:0:0:
320,192,125592,1,0,0:0:0:0:
448,192,125742,5,0,0:0:0:0:
192,192,125742,1,0,0:0:0:0:
320,192,125742,1,0,0:0:0:0:
320,192,125892,1,0,0:0:0:0:
64,192,125892,1,0,0:0:0:0:
192,192,125892,1,0,0:0:0:0:
448,192,126042,1,0,0:0:0:0:
64,192,126042,1,0,0:0:0:0:
320,192,126042,1,0,0:0:0:0:
320,192,126192,1,0,0:0:0:0:
192,192,126192,1,0,0:0:0:0:
64,192,126192,1,0,0:0:0:0:
320,192,126342,1,0,0:0:0:0:
64,192,126342,1,0,0:0:0:0:
448,192,126342,1,0,0:0:0:0:
448,192,126492,1,0,0:0:0:0:
192,192,126492,1,0,0:0:0:0:
64,192,126492,1,0,0:0:0:0:
192,192,126642,1,0,0:0:0:0:
320,192,126642,1,0,0:0:0:0:
448,192,126642,1,0,0:0:0:0:
448,192,126792,5,0,0:0:0:0:
320,192,126792,1,0,0:0:0:0:
192,192,126792,1,0,0:0:0:0:
64,192,126792,1,0,0:0:0:0:
192,192,126867,1,0,0:0:0:0:
64,192,126867,1,0,0:0:0:0:
320,192,126867,1,0,0:0:0:0:
448,192,126867,1,0,0:0:0:0:
320,192,126942,1,0,0:0:0:0:
448,192,126942,1,0,0:0:0:0:
192,192,126942,1,0,0:0:0:0:
64,192,126942,1,0,0:0:0:0:
192,192,127017,1,0,0:0:0:0:
64,192,127017,1,0,0:0:0:0:
320,192,127017,1,0,0:0:0:0:
448,192,127017,1,0,0:0:0:0:
320,192,127092,1,0,0:0:0:0:
448,192,127092,1,0,0:0:0:0:
192,192,127092,1,0,0:0:0:0:
64,192,127092,1,0,0:0:0:0:
192,192,127167,1,0,0:0:0:0:
64,192,127167,1,0,0:0:0:0:
320,192,127167,1,0,0:0:0:0:
448,192,127167,1,0,0:0:0:0:
320,192,127242,1,0,0:0:0:0:
448,192,127242,1,0,0:0:0:0:
192,192,127242,1,0,0:0:0:0:
64,192,127242,1,0,0:0:0:0:
192,192,127317,1,0,0:0:0:0:
64,192,127317,1,0,0:0:0:0:
320,192,127317,1,0,0:0:0:0:
448,192,127317,1,0,0:0:0:0:
448,192,127392,1,0,0:0:0:0:
320,192,127392,1,0,0:0:0:0:
192,192,127392,1,0,0:0:0:0:
64,192,127392,1,0,0:0:0:0:
64,192,127467,1,0,0:0:0:0:
192,192,127467,1,0,0:0:0:0:
320,192,127467,1,0,0:0:0:0:
448,192,127467,1,0,0:0:0:0:
320,192,127542,1,0,0:0:0:0:
448,192,127542,1,0,0:0:0:0:
192,192,127542,1,0,0:0:0:0:
64,192,127542,1,0,0:0:0:0:
192,192,127617,1,0,0:0:0:0:
64,192,127617,1,0,0:0:0:0:
448,192,127617,1,0,0:0:0:0:
320,192,127617,1,0,0:0:0:0:
320,192,127692,1,0,0:0:0:0:
448,192,127692,1,0,0:0:0:0:
192,192,127692,1,0,0:0:0:0:
64,192,127692,1,0,0:0:0:0:
448,192,127767,5,0,0:0:0:0:
192,192,127767,1,0,0:0:0:0:
64,192,127767,1,0,0:0:0:0:
320,192,127767,1,0,0:0:0:0:
192,192,127842,1,0,0:0:0:0:
448,192,127842,1,0,0:0:0:0:
64,192,127842,1,0,0:0:0:0:
320,192,127842,1,0,0:0:0:0:
320,192,127917,1,0,0:0:0:0:
192,192,127917,1,0,0:0:0:0:
448,192,127917,1,0,0:0:0:0:
64,192,127917,1,0,0:0:0:0:
64,192,127992,1,0,0:0:0:0:
448,192,127992,1,0,0:0:0:0:
192,192,127992,1,0,0:0:0:0:
320,192,127992,1,0,0:0:0:0:
64,192,128067,1,0,0:0:0:0:
448,192,128067,1,0,0:0:0:0:
192,192,128067,1,0,0:0:0:0:
320,192,128067,1,0,0:0:0:0:
320,192,128142,1,0,0:0:0:0:
192,192,128142,1,0,0:0:0:0:
64,192,128142,1,0,0:0:0:0:
448,192,128142,1,0,0:0:0:0:
320,192,128217,1,0,0:0:0:0:
64,192,128217,1,0,0:0:0:0:
192,192,128217,1,0,0:0:0:0:
448,192,128217,1,0,0:0:0:0:
192,192,128292,1,0,0:0:0:0:
64,192,128292,1,0,0:0:0:0:
448,192,128292,1,0,0:0:0:0:
320,192,128292,1,0,0:0:0:0:
320,192,128367,1,0,0:0:0:0:
64,192,128367,1,0,0:0:0:0:
192,192,128367,1,0,0:0:0:0:
448,192,128367,1,0,0:0:0:0:
320,192,128442,1,0,0:0:0:0:
64,192,128442,1,0,0:0:0:0:
448,192,128442,1,0,0:0:0:0:
192,192,128442,1,0,0:0:0:0:
320,192,128517,1,0,0:0:0:0:
64,192,128517,1,0,0:0:0:0:
448,192,128517,1,0,0:0:0:0:
192,192,128517,1,0,0:0:0:0:
64,192,128592,1,0,0:0:0:0:
320,192,128592,1,0,0:0:0:0:
192,192,128592,1,0,0:0:0:0:
448,192,128592,1,0,0:0:0:0:
192,192,128667,1,0,0:0:0:0:
320,192,128667,1,0,0:0:0:0:
64,192,128667,1,0,0:0:0:0:
448,192,128667,1,0,0:0:0:0:
448,192,128742,5,0,0:0:0:0:
192,192,128742,1,0,0:0:0:0:
320,192,128742,1,0,0:0:0:0:
64,192,128742,1,0,0:0:0:0:
192,192,128817,1,0,0:0:0:0:
64,192,128817,1,0,0:0:0:0:
320,192,128817,1,0,0:0:0:0:
448,192,128817,1,0,0:0:0:0:
320,192,128892,1,0,0:0:0:0:
448,192,128892,1,0,0:0:0:0:
192,192,128892,1,0,0:0:0:0:
64,192,128892,1,0,0:0:0:0:
192,192,128967,1,0,0:0:0:0:
64,192,128967,1,0,0:0:0:0:
320,192,128967,1,0,0:0:0:0:
448,192,128967,1,0,0:0:0:0:
320,192,129042,1,0,0:0:0:0:
448,192,129042,1,0,0:0:0:0:
192,192,129042,1,0,0:0:0:0:
64,192,129042,1,0,0:0:0:0:
192,192,129117,1,0,0:0:0:0:
64,192,129117,1,0,0:0:0:0:
320,192,129117,1,0,0:0:0:0:
448,192,129117,1,0,0:0:0:0:
320,192,129192,1,0,0:0:0:0:
448,192,129192,1,0,0:0:0:0:
192,192,129192,1,0,0:0:0:0:
64,192,129192,1,0,0:0:0:0:
192,192,129267,1,0,0:0:0:0:
64,192,129267,1,0,0:0:0:0:
320,192,129267,1,0,0:0:0:0:
448,192,129267,1,0,0:0:0:0:
448,192,129342,1,0,0:0:0:0:
320,192,129342,1,0,0:0:0:0:
192,192,129342,1,0,0:0:0:0:
64,192,129342,1,0,0:0:0:0:
64,192,129417,1,0,0:0:0:0:
192,192,129417,1,0,0:0:0:0:
320,192,129417,1,0,0:0:0:0:
448,192,129417,1,0,0:0:0:0:
320,192,129492,1,0,0:0:0:0:
448,192,129492,1,0,0:0:0:0:
192,192,129492,1,0,0:0:0:0:
64,192,129492,1,0,0:0:0:0:
192,192,129567,1,0,0:0:0:0:
64,192,129567,1,0,0:0:0:0:
448,192,129567,1,0,0:0:0:0:
320,192,129567,1,0,0:0:0:0:
320,192,129642,1,0,0:0:0:0:
448,192,129642,1,0,0:0:0:0:
192,192,129642,1,0,0:0:0:0:
64,192,129642,1,0,0:0:0:0:
448,192,129717,5,0,0:0:0:0:
64,192,129717,1,0,0:0:0:0:
192,192,129717,1,0,0:0:0:0:
320,192,129717,1,0,0:0:0:0:
192,192,129792,1,0,0:0:0:0:
448,192,129792,1,0,0:0:0:0:
64,192,129792,1,0,0:0:0:0:
320,192,129792,1,0,0:0:0:0:
320,192,129867,1,0,0:0:0:0:
192,192,129867,1,0,0:0:0:0:
448,192,129867,1,0,0:0:0:0:
64,192,129867,1,0,0:0:0:0:
64,192,129942,1,0,0:0:0:0:
448,192,129942,1,0,0:0:0:0:
192,192,129942,1,0,0:0:0:0:
320,192,129942,1,0,0:0:0:0:
64,192,130017,1,0,0:0:0:0:
448,192,130017,1,0,0:0:0:0:
192,192,130017,1,0,0:0:0:0:
320,192,130017,1,0,0:0:0:0:
320,192,130092,1,0,0:0:0:0:
192,192,130092,1,0,0:0:0:0:
64,192,130092,1,0,0:0:0:0:
448,192,130092,1,0,0:0:0:0:
320,192,130167,1,0,0:0:0:0:
64,192,130167,1,0,0:0:0:0:
192,192,130167,1,0,0:0:0:0:
448,192,130167,1,0,0:0:0:0:
192,192,130242,1,0,0:0:0:0:
64,192,130242,1,0,0:0:0:0:
448,192,130242,1,0,0:0:0:0:
320,192,130242,1,0,0:0:0:0:
320,192,130317,1,0,0:0:0:0:
64,192,130317,1,0,0:0:0:0:
192,192,130317,1,0,0:0:0:0:
448,192,130317,1,0,0:0:0:0:
320,192,130392,1,0,0:0:0:0:
64,192,130392,1,0,0:0:0:0:
448,192,130392,1,0,0:0:0:0:
192,192,130392,1,0,0:0:0:0:
320,192,130467,1,0,0:0:0:0:
64,192,130467,1,0,0:0:0:0:
448,192,130467,1,0,0:0:0:0:
192,192,130467,1,0,0:0:0:0:
64,192,130542,1,0,0:0:0:0:
320,192,130542,1,0,0:0:0:0:
192,192,130542,1,0,0:0:0:0:
448,192,130542,1,0,0:0:0:0:
192,192,130617,1,0,0:0:0:0:
320,192,130617,1,0,0:0:0:0:
64,192,130617,1,0,0:0:0:0:
448,192,130617,1,0,0:0:0:0:
448,192,130692,5,0,0:0:0:0:
64,192,130692,1,0,0:0:0:0:
192,192,130692,1,0,0:0:0:0:
320,192,130692,1,0,0:0:0:0:
320,192,130767,1,0,0:0:0:0:
448,192,130767,1,0,0:0:0:0:
192,192,130767,1,0,0:0:0:0:
64,192,130767,1,0,0:0:0:0:
192,192,130842,1,0,0:0:0:0:
64,192,130842,1,0,0:0:0:0:
320,192,130842,1,0,0:0:0:0:
448,192,130842,1,0,0:0:0:0:
320,192,130917,1,0,0:0:0:0:
448,192,130917,1,0,0:0:0:0:
192,192,130917,1,0,0:0:0:0:
64,192,130917,1,0,0:0:0:0:
192,192,130992,1,0,0:0:0:0:
64,192,130992,1,0,0:0:0:0:
320,192,130992,1,0,0:0:0:0:
448,192,130992,1,0,0:0:0:0:
320,192,131067,1,0,0:0:0:0:
448,192,131067,1,0,0:0:0:0:
192,192,131067,1,0,0:0:0:0:
64,192,131067,1,0,0:0:0:0:
192,192,131142,1,0,0:0:0:0:
64,192,131142,1,0,0:0:0:0:
320,192,131142,1,0,0:0:0:0:
448,192,131142,1,0,0:0:0:0:
320,192,131217,1,0,0:0:0:0:
448,192,131217,1,0,0:0:0:0:
192,192,131217,1,0,0:0:0:0:
64,192,131217,1,0,0:0:0:0:
192,192,131292,1,0,0:0:0:0:
64,192,131292,1,0,0:0:0:0:
448,192,131292,1,0,0:0:0:0:
320,192,131292,1,0,0:0:0:0:
320,192,131367,1,0,0:0:0:0:
448,192,131367,1,0,0:0:0:0:
64,192,131367,1,0,0:0:0:0:
192,192,131367,1,0,0:0:0:0:
192,192,131442,1,0,0:0:0:0:
64,192,131442,1,0,0:0:0:0:
320,192,131442,1,0,0:0:0:0:
448,192,131442,1,0,0:0:0:0:
448,192,131517,1,0,0:0:0:0:
320,192,131517,1,0,0:0:0:0:
192,192,131517,1,0,0:0:0:0:
64,192,131517,1,0,0:0:0:0:
192,192,131592,1,0,0:0:0:0:
64,192,131592,1,0,0:0:0:0:
320,192,131592,1,0,0:0:0:0:
448,192,131592,1,0,0:0:0:0:
448,192,131667,5,0,0:0:0:0:
320,192,131667,1,0,0:0:0:0:
64,192,131667,1,0,0:0:0:0:
192,192,131667,1,0,0:0:0:0:
64,192,131742,1,0,0:0:0:0:
320,192,131742,1,0,0:0:0:0:
192,192,131742,1,0,0:0:0:0:
448,192,131742,1,0,0:0:0:0:
448,192,131817,1,0,0:0:0:0:
64,192,131817,1,0,0:0:0:0:
320,192,131817,1,0,0:0:0:0:
192,192,131817,1,0,0:0:0:0:
192,192,131892,1,0,0:0:0:0:
320,192,131892,1,0,0:0:0:0:
64,192,131892,1,0,0:0:0:0:
448,192,131892,1,0,0:0:0:0:
192,192,131967,1,0,0:0:0:0:
320,192,131967,1,0,0:0:0:0:
64,192,131967,1,0,0:0:0:0:
448,192,131967,1,0,0:0:0:0:
64,192,132042,1,0,0:0:0:0:
448,192,132042,1,0,0:0:0:0:
320,192,132042,1,0,0:0:0:0:
192,192,132042,1,0,0:0:0:0:
192,192,132117,1,0,0:0:0:0:
448,192,132117,1,0,0:0:0:0:
320,192,132117,1,0,0:0:0:0:
64,192,132117,1,0,0:0:0:0:
448,192,132192,1,0,0:0:0:0:
320,192,132192,1,0,0:0:0:0:
192,192,132192,1,0,0:0:0:0:
64,192,132192,1,0,0:0:0:0:
192,192,132267,1,0,0:0:0:0:
448,192,132267,1,0,0:0:0:0:
320,192,132267,1,0,0:0:0:0:
64,192,132267,1,0,0:0:0:0:
448,192,132342,1,0,0:0:0:0:
192,192,132342,1,0,0:0:0:0:
320,192,132342,1,0,0:0:0:0:
64,192,132342,1,0,0:0:0:0:
448,192,132417,1,0,0:0:0:0:
192,192,132417,1,0,0:0:0:0:
320,192,132417,1,0,0:0:0:0:
64,192,132417,1,0,0:0:0:0:
192,192,132492,1,0,0:0:0:0:
448,192,132492,1,0,0:0:0:0:
64,192,132492,1,0,0:0:0:0:
320,192,132492,1,0,0:0:0:0:
64,192,132567,1,0,0:0:0:0:
448,192,132567,1,0,0:0:0:0:
192,192,132567,1,0,0:0:0:0:
320,192,132567,1,0,0:0:0:0:
448,192,132642,1,0,0:0:0:0:
192,192,132642,1,0,0:0:0:0:
320,192,132642,1,0,0:0:0:0:
64,192,132642,1,0,0:0:0:0:
448,192,132717,1,0,0:0:0:0:
320,192,132717,1,0,0:0:0:0:
192,192,132717,1,0,0:0:0:0:
64,192,132717,1,0,0:0:0:0:
192,192,132792,1,0,0:0:0:0:
64,192,132792,1,0,0:0:0:0:
448,192,132792,1,0,0:0:0:0:
320,192,132792,1,0,0:0:0:0:
320,192,132867,1,0,0:0:0:0:
448,192,132867,1,0,0:0:0:0:
64,192,132867,1,0,0:0:0:0:
192,192,132867,1,0,0:0:0:0:
320,192,132942,1,0,0:0:0:0:
448,192,132942,1,0,0:0:0:0:
64,192,132942,1,0,0:0:0:0:
192,192,132942,1,0,0:0:0:0:
320,192,133017,1,0,0:0:0:0:
448,192,133017,1,0,0:0:0:0:
192,192,133017,1,0,0:0:0:0:
64,192,133017,1,0,0:0:0:0:
320,192,133092,1,0,0:0:0:0:
64,192,133092,1,0,0:0:0:0:
448,192,133092,1,0,0:0:0:0:
192,192,133092,1,0,0:0:0:0:
192,192,133167,1,0,0:0:0:0:
64,192,133167,1,0,0:0:0:0:
448,192,133167,1,0,0:0:0:0:
320,192,133167,1,0,0:0:0:0:
448,192,133242,1,0,0:0:0:0:
320,192,133242,1,0,0:0:0:0:
192,192,133242,1,0,0:0:0:0:
64,192,133242,1,0,0:0:0:0:
64,192,133317,1,0,0:0:0:0:
192,192,133317,1,0,0:0:0:0:
320,192,133317,1,0,0:0:0:0:
448,192,133317,1,0,0:0:0:0:
64,192,133392,1,0,0:0:0:0:
192,192,133392,1,0,0:0:0:0:
320,192,133392,1,0,0:0:0:0:
448,192,133392,1,0,0:0:0:0:
192,192,133467,1,0,0:0:0:0:
64,192,133467,1,0,0:0:0:0:
320,192,133467,1,0,0:0:0:0:
448,192,133467,1,0,0:0:0:0:
448,192,133542,1,0,0:0:0:0:
192,192,133542,1,0,0:0:0:0:
320,192,133542,1,0,0:0:0:0:
64,192,133542,1,0,0:0:0:0:
448,192,133617,1,0,0:0:0:0:
320,192,133617,1,0,0:0:0:0:
192,192,133617,1,0,0:0:0:0:
64,192,133617,1,0,0:0:0:0:
192,192,133692,1,0,0:0:0:0:
64,192,133692,1,0,0:0:0:0:
448,192,133692,1,0,0:0:0:0:
320,192,133692,1,0,0:0:0:0:
320,192,133767,1,0,0:0:0:0:
448,192,133767,1,0,0:0:0:0:
64,192,133767,1,0,0:0:0:0:
192,192,133767,1,0,0:0:0:0:
320,192,133842,1,0,0:0:0:0:
448,192,133842,1,0,0:0:0:0:
64,192,133842,1,0,0:0:0:0:
192,192,133842,1,0,0:0:0:0:
320,192,133917,1,0,0:0:0:0:
448,192,133917,1,0,0:0:0:0:
192,192,133917,1,0,0:0:0:0:
64,192,133917,1,0,0:0:0:0:
448,192,133992,1,0,0:0:0:0:
320,192,133992,1,0,0:0:0:0:
192,192,133992,1,0,0:0:0:0:
64,192,133992,1,0,0:0:0:0:
64,192,134067,1,0,0:0:0:0:
320,192,134142,1,0,0:0:0:0:
192,192,134217,1,0,0:0:0:0:
448,192,134292,1,0,0:0:0:0:
320,192,134367,1,0,0:0:0:0:
64,192,134442,1,0,0:0:0:0:
192,192,134517,1,0,0:0:0:0:
320,192,134592,1,0,0:0:0:0:
448,192,134667,1,0,0:0:0:0:
192,192,134742,1,0,0:0:0:0:
320,192,134817,1,0,0:0:0:0:
64,192,134892,1,0,0:0:0:0:
192,192,134967,1,0,0:0:0:0:
448,192,135042,1,0,0:0:0:0:
320,192,135117,1,0,0:0:0:0:
448,192,135192,1,0,0:0:0:0:
192,192,135267,1,0,0:0:0:0:
320,192,135342,1,0,0:0:0:0:
192,192,135417,1,0,0:0:0:0:
64,192,135492,1,0,0:0:0:0:
320,192,135567,1,0,0:0:0:0:
192,192,135642,1,0,0:0:0:0:
320,192,135717,1,0,0:0:0:0:
448,192,135792,1,0,0:0:0:0:
192,192,135867,1,0,0:0:0:0:
320,192,135942,1,0,0:0:0:0:
192,192,136017,1,0,0:0:0:0:
64,192,136092,1,0,0:0:0:0:
320,192,136167,1,0,0:0:0:0:
192,192,136242,1,0,0:0:0:0:
448,192,136317,1,0,0:0:0:0:
320,192,136392,1,0,0:0:0:0:
448,192,136467,1,0,0:0:0:0:
64,192,136542,1,0,0:0:0:0:
192,192,136617,1,0,0:0:0:0:
64,192,136692,1,0,0:0:0:0:
320,192,136767,1,0,0:0:0:0:
192,192,136842,1,0,0:0:0:0:
320,192,136917,1,0,0:0:0:0:
448,192,136992,1,0,0:0:0:0:
192,192,137067,1,0,0:0:0:0:
320,192,137142,1,0,0:0:0:0:
64,192,137217,1,0,0:0:0:0:
192,192,137292,1,0,0:0:0:0:
64,192,137367,1,0,0:0:0:0:
320,192,137442,1,0,0:0:0:0:
192,192,137517,1,0,0:0:0:0:
448,192,137592,1,0,0:0:0:0:
320,192,137667,1,0,0:0:0:0:
448,192,137742,1,0,0:0:0:0:
192,192,137817,1,0,0:0:0:0:
320,192,137892,1,0,0:0:0:0:
64,192,137967,1,0,0:0:0:0:
192,192,138042,1,0,0:0:0:0:
448,192,138117,1,0,0:0:0:0:
320,192,138192,1,0,0:0:0:0:
192,192,138267,1,0,0:0:0:0:
64,192,138342,1,0,0:0:0:0:
448,192,138417,1,0,0:0:0:0:
320,192,138492,1,0,0:0:0:0:
192,192,138492,1,0,0:0:0:0:
64,192,138492,1,0,0:0:0:0:
192,192,138792,1,0,0:0:0:0:
320,192,138792,1,0,0:0:0:0:
448,192,138792,1,0,0:0:0:0:
64,192,138792,1,0,0:0:0:0:
320,192,138867,1,0,0:0:0:0:
448,192,138867,1,0,0:0:0:0:
448,192,138942,1,0,0:0:0:0:
320,192,138942,1,0,0:0:0:0:
320,192,139017,1,0,0:0:0:0:
448,192,139017,1,0,0:0:0:0:
192,192,139092,1,0,0:0:0:0:
320,192,139092,1,0,0:0:0:0:
192,192,139167,1,0,0:0:0:0:
320,192,139167,1,0,0:0:0:0:
192,192,139242,1,0,0:0:0:0:
64,192,139242,1,0,0:0:0:0:
192,192,139317,1,0,0:0:0:0:
64,192,139317,1,0,0:0:0:0:
192,192,139392,1,0,0:0:0:0:
64,192,139392,1,0,0:0:0:0:
64,192,139467,1,0,0:0:0:0:
192,192,139467,1,0,0:0:0:0:
448,192,139542,1,0,0:0:0:0:
320,192,139542,1,0,0:0:0:0:
448,192,139617,1,0,0:0:0:0:
320,192,139617,1,0,0:0:0:0:
448,192,139692,1,0,0:0:0:0:
320,192,139692,1,0,0:0:0:0:
448,192,139767,1,0,0:0:0:0:
320,192,139767,1,0,0:0:0:0:
448,192,139842,1,0,0:0:0:0:
320,192,139842,1,0,0:0:0:0:
448,192,139917,1,0,0:0:0:0:
320,192,139917,1,0,0:0:0:0:
320,192,139992,1,0,0:0:0:0:
192,192,139992,1,0,0:0:0:0:
320,192,140067,1,0,0:0:0:0:
192,192,140067,1,0,0:0:0:0:
320,192,140142,1,0,0:0:0:0:
192,192,140142,1,0,0:0:0:0:
64,192,140217,1,0,0:0:0:0:
448,192,140217,1,0,0:0:0:0:
64,192,140292,1,0,0:0:0:0:
448,192,140292,1,0,0:0:0:0:
448,192,140367,1,0,0:0:0:0:
64,192,140367,1,0,0:0:0:0:
64,192,140442,1,0,0:0:0:0:
448,192,140442,1,0,0:0:0:0:
448,192,140517,1,0,0:0:0:0:
64,192,140517,1,0,0:0:0:0:
64,192,140592,1,0,0:0:0:0:
448,192,140592,1,0,0:0:0:0:
64,192,140667,1,0,0:0:0:0:
448,192,140742,1,0,0:0:0:0:
320,192,140742,1,0,0:0:0:0:
320,192,140817,1,0,0:0:0:0:
448,192,140817,1,0,0:0:0:0:
448,192,140892,1,0,0:0:0:0:
320,192,140892,1,0,0:0:0:0:
64,192,140892,1,0,0:0:0:0:
192,192,140892,1,0,0:0:0:0:
448,192,140967,1,0,0:0:0:0:
320,192,140967,1,0,0:0:0:0:
448,192,141042,1,0,0:0:0:0:
320,192,141042,1,0,0:0:0:0:
448,192,141117,1,0,0:0:0:0:
320,192,141117,1,0,0:0:0:0:
320,192,141192,1,0,0:0:0:0:
448,192,141192,1,0,0:0:0:0:
192,192,141192,1,0,0:0:0:0:
64,192,141192,1,0,0:0:0:0:
320,192,141267,1,0,0:0:0:0:
448,192,141267,1,0,0:0:0:0:
320,192,141342,1,0,0:0:0:0:
448,192,141342,1,0,0:0:0:0:
320,192,141417,1,0,0:0:0:0:
448,192,141417,1,0,0:0:0:0:
448,192,141492,1,0,0:0:0:0:
320,192,141492,1,0,0:0:0:0:
64,192,141492,1,0,0:0:0:0:
192,192,141492,1,0,0:0:0:0:
448,192,141567,1,0,0:0:0:0:
320,192,141567,1,0,0:0:0:0:
448,192,141642,1,0,0:0:0:0:
320,192,141642,1,0,0:0:0:0:
448,192,141717,1,0,0:0:0:0:
320,192,141717,1,0,0:0:0:0:
448,192,141792,1,0,0:0:0:0:
320,192,141792,1,0,0:0:0:0:
192,192,141792,1,0,0:0:0:0:
64,192,141792,1,0,0:0:0:0:
64,192,141867,1,0,0:0:0:0:
64,192,141942,1,0,0:0:0:0:
64,192,142017,1,0,0:0:0:0:
448,192,142092,1,0,0:0:0:0:
320,192,142092,1,0,0:0:0:0:
192,192,142092,1,0,0:0:0:0:
64,192,142092,1,0,0:0:0:0:
448,192,142167,1,0,0:0:0:0:
448,192,142242,1,0,0:0:0:0:
448,192,142317,1,0,0:0:0:0:
192,192,142392,1,0,0:0:0:0:
64,192,142392,1,0,0:0:0:0:
448,192,142392,1,0,0:0:0:0:
192,192,142467,1,0,0:0:0:0:
64,192,142467,1,0,0:0:0:0:
64,192,142542,1,0,0:0:0:0:
192,192,142542,1,0,0:0:0:0:
192,192,142617,1,0,0:0:0:0:
64,192,142617,1,0,0:0:0:0:
320,192,142692,1,0,0:0:0:0:
192,192,142692,1,0,0:0:0:0:
320,192,142767,1,0,0:0:0:0:
192,192,142767,1,0,0:0:0:0:
320,192,142842,1,0,0:0:0:0:
448,192,142842,1,0,0:0:0:0:
320,192,142917,1,0,0:0:0:0:
448,192,142917,1,0,0:0:0:0:
320,192,142992,1,0,0:0:0:0:
448,192,142992,1,0,0:0:0:0:
448,192,143067,1,0,0:0:0:0:
320,192,143067,1,0,0:0:0:0:
64,192,143142,1,0,0:0:0:0:
192,192,143142,1,0,0:0:0:0:
64,192,143217,1,0,0:0:0:0:
192,192,143217,1,0,0:0:0:0:
64,192,143292,1,0,0:0:0:0:
192,192,143292,1,0,0:0:0:0:
64,192,143367,1,0,0:0:0:0:
192,192,143367,1,0,0:0:0:0:
64,192,143442,1,0,0:0:0:0:
192,192,143442,1,0,0:0:0:0:
64,192,143517,1,0,0:0:0:0:
192,192,143517,1,0,0:0:0:0:
192,192,143592,1,0,0:0:0:0:
320,192,143592,1,0,0:0:0:0:
192,192,143667,1,0,0:0:0:0:
320,192,143667,1,0,0:0:0:0:
192,192,143742,1,0,0:0:0:0:
320,192,143742,1,0,0:0:0:0:
448,192,143817,1,0,0:0:0:0:
64,192,143817,1,0,0:0:0:0:
448,192,143892,1,0,0:0:0:0:
64,192,143892,1,0,0:0:0:0:
64,192,143967,1,0,0:0:0:0:
448,192,143967,1,0,0:0:0:0:
448,192,144042,1,0,0:0:0:0:
64,192,144042,1,0,0:0:0:0:
64,192,144117,1,0,0:0:0:0:
448,192,144117,1,0,0:0:0:0:
448,192,144192,1,0,0:0:0:0:
64,192,144192,1,0,0:0:0:0:
320,192,144192,1,0,0:0:0:0:
192,192,144192,1,0,0:0:0:0:
448,192,144267,1,0,0:0:0:0:
64,192,144342,1,0,0:0:0:0:
192,192,144342,1,0,0:0:0:0:
192,192,144417,1,0,0:0:0:0:
64,192,144417,1,0,0:0:0:0:
64,192,144492,1,0,0:0:0:0:
192,192,144492,1,0,0:0:0:0:
448,192,144492,1,0,0:0:0:0:
320,192,144492,1,0,0:0:0:0:
64,192,144567,1,0,0:0:0:0:
192,192,144567,1,0,0:0:0:0:
64,192,144642,1,0,0:0:0:0:
192,192,144642,1,0,0:0:0:0:
64,192,144717,1,0,0:0:0:0:
192,192,144717,1,0,0:0:0:0:
192,192,144792,1,0,0:0:0:0:
64,192,144792,1,0,0:0:0:0:
320,192,144792,1,0,0:0:0:0:
448,192,144792,1,0,0:0:0:0:
192,192,144867,1,0,0:0:0:0:
64,192,144867,1,0,0:0:0:0:
192,192,144942,1,0,0:0:0:0:
64,192,144942,1,0,0:0:0:0:
192,192,145017,1,0,0:0:0:0:
64,192,145017,1,0,0:0:0:0:
64,192,145092,1,0,0:0:0:0:
192,192,145092,1,0,0:0:0:0:
448,192,145092,1,0,0:0:0:0:
320,192,145092,1,0,0:0:0:0:
64,192,145167,1,0,0:0:0:0:
192,192,145167,1,0,0:0:0:0:
64,192,145242,1,0,0:0:0:0:
192,192,145242,1,0,0:0:0:0:
64,192,145317,1,0,0:0:0:0:
192,192,145317,1,0,0:0:0:0:
64,192,145392,1,0,0:0:0:0:
192,192,145392,1,0,0:0:0:0:
320,192,145392,1,0,0:0:0:0:
448,192,145392,1,0,0:0:0:0:
320,192,145467,1,0,0:0:0:0:
320,192,145542,1,0,0:0:0:0:
320,192,145617,1,0,0:0:0:0:
64,192,145692,1,0,0:0:0:0:
448,192,145692,1,0,0:0:0:0:
64,192,145767,1,0,0:0:0:0:
448,192,145767,1,0,0:0:0:0:
448,192,145842,1,0,0:0:0:0:
64,192,145842,1,0,0:0:0:0:
64,192,145917,1,0,0:0:0:0:
448,192,145917,1,0,0:0:0:0:
320,192,145992,1,0,0:0:0:0:
192,192,145992,1,0,0:0:0:0:
192,192,146067,1,0,0:0:0:0:
320,192,146067,1,0,0:0:0:0:
320,192,146142,1,0,0:0:0:0:
192,192,146142,1,0,0:0:0:0:
192,192,146217,1,0,0:0:0:0:
320,192,146217,1,0,0:0:0:0:
448,192,146292,1,0,0:0:0:0:
64,192,146292,1,0,0:0:0:0:
64,192,146367,1,0,0:0:0:0:
448,192,146367,1,0,0:0:0:0:
448,192,146442,1,0,0:0:0:0:
64,192,146442,1,0,0:0:0:0:
64,192,146517,1,0,0:0:0:0:
448,192,146517,1,0,0:0:0:0:
448,192,146592,1,0,0:0:0:0:
64,192,146592,1,0,0:0:0:0:
64,192,146667,1,0,0:0:0:0:
448,192,146667,1,0,0:0:0:0:
448,192,146742,1,0,0:0:0:0:
64,192,146742,1,0,0:0:0:0:
64,192,146817,1,0,0:0:0:0:
448,192,146817,1,0,0:0:0:0:
448,192,146892,1,0,0:0:0:0:
64,192,146892,1,0,0:0:0:0:
192,192,146892,1,0,0:0:0:0:
320,192,146892,1,0,0:0:0:0:
448,192,146967,1,0,0:0:0:0:
448,192,147042,1,0,0:0:0:0:
448,192,147117,1,0,0:0:0:0:
192,192,147192,1,0,0:0:0:0:
320,192,147192,1,0,0:0:0:0:
64,192,147192,1,0,0:0:0:0:
448,192,147192,1,0,0:0:0:0:
64,192,147267,1,0,0:0:0:0:
320,192,147267,1,0,0:0:0:0:
320,192,147342,1,0,0:0:0:0:
64,192,147342,1,0,0:0:0:0:
64,192,147417,1,0,0:0:0:0:
320,192,147417,1,0,0:0:0:0:
320,192,147492,1,0,0:0:0:0:
64,192,147492,1,0,0:0:0:0:
64,192,147567,1,0,0:0:0:0:
320,192,147567,1,0,0:0:0:0:
320,192,147642,1,0,0:0:0:0:
64,192,147642,1,0,0:0:0:0:
320,192,147717,1,0,0:0:0:0:
64,192,147717,1,0,0:0:0:0:
64,192,147792,1,0,0:0:0:0:
192,192,147792,1,0,0:0:0:0:
192,192,147867,1,0,0:0:0:0:
64,192,147867,1,0,0:0:0:0:
192,192,147942,1,0,0:0:0:0:
64,192,147942,1,0,0:0:0:0:
192,192,148017,1,0,0:0:0:0:
64,192,148017,1,0,0:0:0:0:
192,192,148092,1,0,0:0:0:0:
64,192,148092,1,0,0:0:0:0:
64,192,148167,1,0,0:0:0:0:
192,192,148167,1,0,0:0:0:0:
320,192,148242,1,0,0:0:0:0:
448,192,148242,1,0,0:0:0:0:
448,192,148317,1,0,0:0:0:0:
320,192,148317,1,0,0:0:0:0:
448,192,148392,1,0,0:0:0:0:
320,192,148392,1,0,0:0:0:0:
448,192,148467,1,0,0:0:0:0:
320,192,148467,1,0,0:0:0:0:
448,192,148542,1,0,0:0:0:0:
320,192,148542,1,0,0:0:0:0:
448,192,148617,1,0,0:0:0:0:
320,192,148617,1,0,0:0:0:0:
192,192,148692,1,0,0:0:0:0:
320,192,148692,1,0,0:0:0:0:
320,192,148767,1,0,0:0:0:0:
192,192,148767,1,0,0:0:0:0:
320,192,148842,1,0,0:0:0:0:
192,192,148842,1,0,0:0:0:0:
320,192,148917,1,0,0:0:0:0:
192,192,148917,1,0,0:0:0:0:
192,192,148992,1,0,0:0:0:0:
64,192,148992,1,0,0:0:0:0:
192,192,149067,1,0,0:0:0:0:
64,192,149067,1,0,0:0:0:0:
192,192,149142,1,0,0:0:0:0:
64,192,149142,1,0,0:0:0:0:
192,192,149217,1,0,0:0:0:0:
64,192,149217,1,0,0:0:0:0:
448,192,149292,1,0,0:0:0:0:
64,192,149292,1,0,0:0:0:0:
64,192,149367,1,0,0:0:0:0:
448,192,149367,1,0,0:0:0:0:
448,192,149442,1,0,0:0:0:0:
64,192,149442,1,0,0:0:0:0:
64,192,149517,1,0,0:0:0:0:
448,192,149517,1,0,0:0:0:0:
320,192,149592,1,0,0:0:0:0:
192,192,149592,1,0,0:0:0:0:
448,192,149667,1,0,0:0:0:0:
64,192,149667,1,0,0:0:0:0:
320,192,149742,1,0,0:0:0:0:
192,192,149742,1,0,0:0:0:0:
64,192,149817,1,0,0:0:0:0:
448,192,149817,1,0,0:0:0:0:
320,192,149892,1,0,0:0:0:0:
192,192,149892,1,0,0:0:0:0:
192,192,149967,1,0,0:0:0:0:
320,192,149967,1,0,0:0:0:0:
448,192,150042,1,0,0:0:0:0:
64,192,150042,1,0,0:0:0:0:
320,192,150117,1,0,0:0:0:0:
448,192,150192,1,0,0:0:0:0:
192,192,150192,1,0,0:0:0:0:
448,192,150267,1,0,0:0:0:0:
448,192,150342,1,0,0:0:0:0:
448,192,150417,1,0,0:0:0:0:
448,192,150492,1,0,0:0:0:0:
192,192,150492,1,0,0:0:0:0:
448,192,150567,1,0,0:0:0:0:
448,192,150642,1,0,0:0:0:0:
448,192,150717,1,0,0:0:0:0:
192,192,150792,1,0,0:0:0:0:
64,192,150792,1,0,0:0:0:0:
448,192,150792,1,0,0:0:0:0:
320,192,150792,1,0,0:0:0:0:
64,192,150867,1,0,0:0:0:0:
192,192,150867,1,0,0:0:0:0:
192,192,150942,1,0,0:0:0:0:
64,192,150942,1,0,0:0:0:0:
192,192,151017,1,0,0:0:0:0:
64,192,151017,1,0,0:0:0:0:
64,192,151092,1,0,0:0:0:0:
192,192,151092,1,0,0:0:0:0:
320,192,151092,1,0,0:0:0:0:
448,192,151092,1,0,0:0:0:0:
64,192,151167,1,0,0:0:0:0:
192,192,151167,1,0,0:0:0:0:
192,192,151242,1,0,0:0:0:0:
64,192,151242,1,0,0:0:0:0:
192,192,151317,1,0,0:0:0:0:
64,192,151317,1,0,0:0:0:0:
448,192,151392,1,0,0:0:0:0:
320,192,151392,1,0,0:0:0:0:
192,192,151392,1,0,0:0:0:0:
64,192,151392,1,0,0:0:0:0:
448,192,151467,1,0,0:0:0:0:
320,192,151467,1,0,0:0:0:0:
448,192,151542,1,0,0:0:0:0:
320,192,151542,1,0,0:0:0:0:
448,192,151617,1,0,0:0:0:0:
320,192,151617,1,0,0:0:0:0:
448,192,151692,1,0,0:0:0:0:
320,192,151692,1,0,0:0:0:0:
192,192,151692,1,0,0:0:0:0:
64,192,151692,1,0,0:0:0:0:
448,192,151767,1,0,0:0:0:0:
320,192,151767,1,0,0:0:0:0:
448,192,151842,1,0,0:0:0:0:
320,192,151842,1,0,0:0:0:0:
448,192,151917,1,0,0:0:0:0:
320,192,151917,1,0,0:0:0:0:
320,192,151992,5,0,0:0:0:0:
448,192,151992,1,0,0:0:0:0:
64,192,151992,1,0,0:0:0:0:
192,192,151992,1,0,0:0:0:0:
448,192,152067,5,0,0:0:0:0:
320,192,152067,1,0,0:0:0:0:
448,192,152142,1,0,0:0:0:0:
320,192,152142,1,0,0:0:0:0:
448,192,152217,1,0,0:0:0:0:
320,192,152217,1,0,0:0:0:0:
448,192,152292,1,0,0:0:0:0:
320,192,152292,1,0,0:0:0:0:
192,192,152292,1,0,0:0:0:0:
64,192,152292,1,0,0:0:0:0:
448,192,152367,1,0,0:0:0:0:
320,192,152367,1,0,0:0:0:0:
320,192,152442,1,0,0:0:0:0:
448,192,152442,1,0,0:0:0:0:
320,192,152517,1,0,0:0:0:0:
448,192,152517,1,0,0:0:0:0:
320,192,152592,1,0,0:0:0:0:
192,192,152592,1,0,0:0:0:0:
64,192,152592,1,0,0:0:0:0:
448,192,152592,1,0,0:0:0:0:
320,192,152667,1,0,0:0:0:0:
192,192,152667,1,0,0:0:0:0:
192,192,152742,1,0,0:0:0:0:
320,192,152742,1,0,0:0:0:0:
320,192,152817,1,0,0:0:0:0:
192,192,152817,1,0,0:0:0:0:
320,192,152892,1,0,0:0:0:0:
192,192,152892,1,0,0:0:0:0:
448,192,152892,1,0,0:0:0:0:
64,192,152892,1,0,0:0:0:0:
192,192,152967,1,0,0:0:0:0:
320,192,152967,1,0,0:0:0:0:
320,192,153042,1,0,0:0:0:0:
192,192,153042,1,0,0:0:0:0:
320,192,153117,1,0,0:0:0:0:
192,192,153117,1,0,0:0:0:0:
448,192,153192,5,0,0:0:0:0:
64,192,153192,1,0,0:0:0:0:
320,192,153267,1,0,0:0:0:0:
192,192,153342,1,0,0:0:0:0:
64,192,153417,1,0,0:0:0:0:
320,192,153492,1,0,0:0:0:0:
448,192,153492,1,0,0:0:0:0:
192,192,153567,1,0,0:0:0:0:
320,192,153642,1,0,0:0:0:0:
448,192,153642,1,0,0:0:0:0:
64,192,153717,1,0,0:0:0:0:
192,192,153792,1,0,0:0:0:0:
320,192,153867,1,0,0:0:0:0:
64,192,153942,1,0,0:0:0:0:
448,192,153942,1,0,0:0:0:0:
192,192,154017,1,0,0:0:0:0:
64,192,154092,1,0,0:0:0:0:
320,192,154167,1,0,0:0:0:0:
192,192,154242,1,0,0:0:0:0:
448,192,154317,1,0,0:0:0:0:
64,192,154392,1,0,0:0:0:0:
320,192,154392,1,0,0:0:0:0:
192,192,154467,1,0,0:0:0:0:
448,192,154542,1,0,0:0:0:0:
64,192,154542,1,0,0:0:0:0:
320,192,154617,1,0,0:0:0:0:
192,192,154692,1,0,0:0:0:0:
448,192,154692,1,0,0:0:0:0:
64,192,154767,1,0,0:0:0:0:
192,192,154842,1,0,0:0:0:0:
320,192,154917,1,0,0:0:0:0:
448,192,154992,1,0,0:0:0:0:
64,192,154992,1,0,0:0:0:0:
192,192,155067,5,0,0:0:0:0:
320,192,155142,1,0,0:0:0:0:
192,192,155217,1,0,0:0:0:0:
64,192,155292,1,0,0:0:0:0:
448,192,155292,1,0,0:0:0:0:
320,192,155367,1,0,0:0:0:0:
192,192,155442,1,0,0:0:0:0:
320,192,155517,1,0,0:0:0:0:
448,192,155592,1,0,0:0:0:0:
64,192,155592,1,0,0:0:0:0:
192,192,155667,1,0,0:0:0:0:
320,192,155742,1,0,0:0:0:0:
192,192,155817,1,0,0:0:0:0:
64,192,155892,1,0,0:0:0:0:
448,192,155892,1,0,0:0:0:0:
320,192,155967,1,0,0:0:0:0:
192,192,156042,1,0,0:0:0:0:
320,192,156117,1,0,0:0:0:0:
64,192,156192,1,0,0:0:0:0:
448,192,156192,1,0,0:0:0:0:
192,192,156267,1,0,0:0:0:0:
320,192,156342,1,0,0:0:0:0:
64,192,156417,1,0,0:0:0:0:
448,192,156492,1,0,0:0:0:0:
192,192,156492,1,0,0:0:0:0:
320,192,156567,1,0,0:0:0:0:
192,192,156642,1,0,0:0:0:0:
320,192,156717,1,0,0:0:0:0:
448,192,156792,1,0,0:0:0:0:
64,192,156792,1,0,0:0:0:0:
192,192,156867,1,0,0:0:0:0:
320,192,156942,1,0,0:0:0:0:
448,192,157017,1,0,0:0:0:0:
64,192,157092,1,0,0:0:0:0:
192,192,157092,1,0,0:0:0:0:
320,192,157167,1,0,0:0:0:0:
64,192,157242,1,0,0:0:0:0:
192,192,157242,1,0,0:0:0:0:
448,192,157317,1,0,0:0:0:0:
320,192,157392,1,0,0:0:0:0:
192,192,157467,1,0,0:0:0:0:
320,192,157542,1,0,0:0:0:0:
64,192,157542,1,0,0:0:0:0:
448,192,157617,1,0,0:0:0:0:
192,192,157692,1,0,0:0:0:0:
448,192,157767,1,0,0:0:0:0:
320,192,157842,1,0,0:0:0:0:
64,192,157917,1,0,0:0:0:0:
448,192,157992,1,0,0:0:0:0:
192,192,157992,1,0,0:0:0:0:
320,192,158067,1,0,0:0:0:0:
64,192,158142,1,0,0:0:0:0:
448,192,158142,1,0,0:0:0:0:
192,192,158217,1,0,0:0:0:0:
320,192,158292,1,0,0:0:0:0:
64,192,158292,1,0,0:0:0:0:
448,192,158367,1,0,0:0:0:0:
320,192,158442,1,0,0:0:0:0:
192,192,158517,1,0,0:0:0:0:
64,192,158592,1,0,0:0:0:0:
448,192,158592,1,0,0:0:0:0:
320,192,158667,1,0,0:0:0:0:
192,192,158742,1,0,0:0:0:0:
320,192,158817,1,0,0:0:0:0:
448,192,158892,1,0,0:0:0:0:
64,192,158892,1,0,0:0:0:0:
192,192,158967,1,0,0:0:0:0:
320,192,159042,1,0,0:0:0:0:
192,192,159117,1,0,0:0:0:0:
64,192,159192,1,0,0:0:0:0:
448,192,159192,1,0,0:0:0:0:
320,192,159267,1,0,0:0:0:0:
192,192,159342,1,0,0:0:0:0:
320,192,159417,1,0,0:0:0:0:
448,192,159492,1,0,0:0:0:0:
64,192,159492,1,0,0:0:0:0:
192,192,159567,1,0,0:0:0:0:
320,192,159642,1,0,0:0:0:0:
64,192,159717,1,0,0:0:0:0:
448,192,159792,1,0,0:0:0:0:
192,192,159792,1,0,0:0:0:0:
320,192,159867,1,0,0:0:0:0:
64,192,159942,1,0,0:0:0:0:
448,192,160017,1,0,0:0:0:0:
192,192,160092,1,0,0:0:0:0:
320,192,160092,1,0,0:0:0:0:
64,192,160167,1,0,0:0:0:0:
320,192,160242,1,0,0:0:0:0:
192,192,160317,1,0,0:0:0:0:
64,192,160392,1,0,0:0:0:0:
448,192,160392,1,0,0:0:0:0:
320,192,160467,1,0,0:0:0:0:
192,192,160542,1,0,0:0:0:0:
320,192,160617,1,0,0:0:0:0:
448,192,160692,1,0,0:0:0:0:
64,192,160692,1,0,0:0:0:0:
192,192,160767,1,0,0:0:0:0:
320,192,160842,1,0,0:0:0:0:
64,192,160917,1,0,0:0:0:0:
448,192,160992,1,0,0:0:0:0:
192,192,161067,1,0,0:0:0:0:
320,192,161142,1,0,0:0:0:0:
64,192,161217,1,0,0:0:0:0:
320,192,161292,1,0,0:0:0:0:
192,192,161367,1,0,0:0:0:0:
448,192,161442,1,0,0:0:0:0:
320,192,161517,1,0,0:0:0:0:
448,192,161592,1,0,0:0:0:0:
64,192,161592,1,0,0:0:0:0:
192,192,161667,1,0,0:0:0:0:
320,192,161742,1,0,0:0:0:0:
192,192,161817,1,0,0:0:0:0:
448,192,161892,1,0,0:0:0:0:
320,192,161967,1,0,0:0:0:0:
64,192,162042,1,0,0:0:0:0:
448,192,162117,1,0,0:0:0:0:
320,192,162192,1,0,0:0:0:0:
192,192,162192,1,0,0:0:0:0:
64,192,162267,1,0,0:0:0:0:
320,192,162342,1,0,0:0:0:0:
448,192,162417,1,0,0:0:0:0:
192,192,162492,1,0,0:0:0:0:
320,192,162567,1,0,0:0:0:0:
64,192,162642,1,0,0:0:0:0:
448,192,162642,1,0,0:0:0:0:
320,192,162717,1,0,0:0:0:0:
192,192,162792,1,0,0:0:0:0:
448,192,162867,1,0,0:0:0:0:
64,192,162942,1,0,0:0:0:0:
320,192,163017,1,0,0:0:0:0:
192,192,163092,1,0,0:0:0:0:
64,192,163092,1,0,0:0:0:0:
448,192,163167,1,0,0:0:0:0:
320,192,163242,1,0,0:0:0:0:
64,192,163317,1,0,0:0:0:0:
320,192,163392,1,0,0:0:0:0:
448,192,163392,1,0,0:0:0:0:
192,192,163467,1,0,0:0:0:0:
448,192,163542,1,0,0:0:0:0:
64,192,163617,1,0,0:0:0:0:
320,192,163692,1,0,0:0:0:0:
192,192,163692,1,0,0:0:0:0:
448,192,163767,1,0,0:0:0:0:
64,192,163842,1,0,0:0:0:0:
448,192,163917,1,0,0:0:0:0:
192,192,163992,1,0,0:0:0:0:
320,192,163992,1,0,0:0:0:0:
64,192,164067,1,0,0:0:0:0:
320,192,164142,1,0,0:0:0:0:
448,192,164142,1,0,0:0:0:0:
192,192,164217,1,0,0:0:0:0:
448,192,164292,1,0,0:0:0:0:
64,192,164367,1,0,0:0:0:0:
192,192,164442,1,0,0:0:0:0:
320,192,164442,1,0,0:0:0:0:
448,192,164517,1,0,0:0:0:0:
64,192,164592,1,0,0:0:0:0:
320,192,164667,1,0,0:0:0:0:
192,192,164742,1,0,0:0:0:0:
448,192,164817,1,0,0:0:0:0:
64,192,164892,1,0,0:0:0:0:
320,192,164967,1,0,0:0:0:0:
192,192,165042,1,0,0:0:0:0:
320,192,165117,1,0,0:0:0:0:
64,192,165192,1,0,0:0:0:0:
448,192,165192,1,0,0:0:0:0:
192,192,165267,1,0,0:0:0:0:
320,192,165342,1,0,0:0:0:0:
64,192,165417,1,0,0:0:0:0:
448,192,165492,1,0,0:0:0:0:
192,192,165567,1,0,0:0:0:0:
320,192,165642,1,0,0:0:0:0:
64,192,165717,1,0,0:0:0:0:
448,192,165792,1,0,0:0:0:0:
192,192,165792,1,0,0:0:0:0:
320,192,165867,1,0,0:0:0:0:
448,192,165942,1,0,0:0:0:0:
192,192,166017,1,0,0:0:0:0:
320,192,166092,1,0,0:0:0:0:
64,192,166167,1,0,0:0:0:0:
192,192,166242,1,0,0:0:0:0:
64,192,166317,1,0,0:0:0:0:
320,192,166392,1,0,0:0:0:0:
192,192,166467,1,0,0:0:0:0:
448,192,166542,1,0,0:0:0:0:
320,192,166617,1,0,0:0:0:0:
448,192,166692,1,0,0:0:0:0:
64,192,166692,1,0,0:0:0:0:
192,192,166767,1,0,0:0:0:0:
320,192,166842,1,0,0:0:0:0:
64,192,166917,1,0,0:0:0:0:
192,192,166992,1,0,0:0:0:0:
448,192,166992,1,0,0:0:0:0:
64,192,167067,1,0,0:0:0:0:
320,192,167142,1,0,0:0:0:0:
192,192,167217,1,0,0:0:0:0:
448,192,167292,1,0,0:0:0:0:
320,192,167367,1,0,0:0:0:0:
192,192,167442,1,0,0:0:0:0:
64,192,167517,1,0,0:0:0:0:
320,192,167592,1,0,0:0:0:0:
192,192,167592,1,0,0:0:0:0:
448,192,167592,1,0,0:0:0:0:
