osu file format v14

[General]
AudioFilename: anata.mp3
AudioLeadIn: 0
PreviewTime: 65172
Countdown: 0
SampleSet: None
StackLeniency: 0.7
Mode: 3
LetterboxInBreaks: 0
SpecialStyle: 0
WidescreenStoryboard: 0

[Editor]
DistanceSpacing: 0.8
BeatDivisor: 4
GridSize: 8
TimelineZoom: 2.3

[Metadata]
Title:CBF Vibromania Pack Arc I
TitleUnicode:CBF Vibromania Pack Arc I
Artist:Various Artist
ArtistUnicode:Various Artist
Creator:arcwinolivirus
Version:(arcwinolivirus) Bloody Vomit Bukkake - [Vibro Bukakke]
Source:Hand Vibro Pack
Tags:jack vibro notes vibrate smash spam
BeatmapID:1996851
BeatmapSetID:955897

[Difficulty]
HPDrainRate:5
CircleSize:4
OverallDifficulty:6
ApproachRate:5
SliderMultiplier:1.4
SliderTickRate:1

[Events]
//Background and Video events
0,0,"anatagamawaruBG.png",0,0
//Break Periods
//Storyboard Layer 0 (Background)
//Storyboard Layer 1 (Fail)
//Storyboard Layer 2 (Pass)
//Storyboard Layer 3 (Foreground)
//Storyboard Sound Samples

[TimingPoints]
143.635712807603,233.918128654971,4,2,1,20,1,0
65669,-100,4,2,1,20,0,1
80611,-100,4,2,1,20,0,0
158272,-100,4,2,1,20,0,1
173243,-100,4,2,1,20,0,0

[HitObjects]
448,192,143,5,4,0:0:0:0:
64,192,143,1,0,0:0:0:0:
192,192,143,1,0,0:0:0:0:
320,192,377,1,0,0:0:0:0:
64,192,377,1,0,0:0:0:0:
192,192,611,1,0,0:0:0:0:
448,192,611,1,0,0:0:0:0:
64,192,845,1,0,0:0:0:0:
448,192,845,1,0,0:0:0:0:
192,192,1079,1,0,0:0:0:0:
320,192,1079,1,0,0:0:0:0:
64,192,1313,1,0,0:0:0:0:
320,192,1313,1,0,0:0:0:0:
192,192,1547,1,0,0:0:0:0:
448,192,1547,1,0,0:0:0:0:
320,192,1722,1,0,0:0:0:0:
448,192,1722,1,0,0:0:0:0:
192,192,1722,1,0,0:0:0:0:
64,192,1722,1,0,0:0:0:0:
64,192,1781,1,0,0:0:0:0:
192,192,1781,1,0,0:0:0:0:
320,192,1781,1,0,0:0:0:0:
448,192,1781,1,0,0:0:0:0:
320,192,1956,1,0,0:0:0:0:
448,192,1956,1,0,0:0:0:0:
192,192,1956,1,0,0:0:0:0:
64,192,1956,1,0,0:0:0:0:
192,192,2014,1,0,0:0:0:0:
64,192,2014,1,0,0:0:0:0:
320,192,2014,1,0,0:0:0:0:
448,192,2014,1,0,0:0:0:0:
64,192,2248,1,0,0:0:0:0:
320,192,2248,1,0,0:0:0:0:
192,192,2482,1,0,0:0:0:0:
448,192,2482,1,0,0:0:0:0:
448,192,2716,1,0,0:0:0:0:
64,192,2716,1,0,0:0:0:0:
192,192,2950,1,0,0:0:0:0:
320,192,2950,1,0,0:0:0:0:
320,192,3184,1,0,0:0:0:0:
64,192,3184,1,0,0:0:0:0:
192,192,3418,1,0,0:0:0:0:
448,192,3418,1,0,0:0:0:0:
448,192,3593,1,0,0:0:0:0:
320,192,3593,1,0,0:0:0:0:
192,192,3593,1,0,0:0:0:0:
64,192,3593,1,0,0:0:0:0:
64,192,3652,1,0,0:0:0:0:
192,192,3652,1,0,0:0:0:0:
320,192,3652,1,0,0:0:0:0:
448,192,3652,1,0,0:0:0:0:
448,192,3827,1,0,0:0:0:0:
320,192,3827,1,0,0:0:0:0:
192,192,3827,1,0,0:0:0:0:
64,192,3827,1,0,0:0:0:0:
448,192,3886,1,4,0:0:0:0:
64,192,3886,1,0,0:0:0:0:
192,192,3886,1,0,0:0:0:0:
320,192,3886,1,0,0:0:0:0:
192,192,4120,1,0,0:0:0:0:
448,192,4120,1,0,0:0:0:0:
64,192,4354,1,0,0:0:0:0:
320,192,4354,1,0,0:0:0:0:
448,192,4588,1,0,0:0:0:0:
64,192,4588,1,0,0:0:0:0:
192,192,4821,1,0,0:0:0:0:
320,192,4821,1,0,0:0:0:0:
448,192,5055,1,0,0:0:0:0:
192,192,5055,1,0,0:0:0:0:
64,192,5289,1,0,0:0:0:0:
320,192,5289,1,0,0:0:0:0:
192,192,5465,1,0,0:0:0:0:
64,192,5465,1,0,0:0:0:0:
320,192,5465,1,0,0:0:0:0:
448,192,5465,1,0,0:0:0:0:
320,192,5523,1,0,0:0:0:0:
448,192,5523,1,0,0:0:0:0:
192,192,5523,1,0,0:0:0:0:
64,192,5523,1,0,0:0:0:0:
64,192,5699,1,0,0:0:0:0:
192,192,5699,1,0,0:0:0:0:
320,192,5699,1,0,0:0:0:0:
448,192,5699,1,0,0:0:0:0:
448,192,5757,1,0,0:0:0:0:
320,192,5757,1,0,0:0:0:0:
192,192,5757,1,0,0:0:0:0:
64,192,5757,1,0,0:0:0:0:
448,192,5991,1,0,0:0:0:0:
192,192,5991,1,0,0:0:0:0:
320,192,6225,1,0,0:0:0:0:
64,192,6225,1,0,0:0:0:0:
64,192,6459,1,0,0:0:0:0:
448,192,6459,1,0,0:0:0:0:
320,192,6693,1,0,0:0:0:0:
192,192,6693,1,0,0:0:0:0:
192,192,6927,1,0,0:0:0:0:
448,192,6927,1,0,0:0:0:0:
320,192,7161,1,0,0:0:0:0:
64,192,7161,1,0,0:0:0:0:
64,192,7336,1,0,0:0:0:0:
192,192,7336,1,0,0:0:0:0:
320,192,7336,1,0,0:0:0:0:
448,192,7336,1,0,0:0:0:0:
448,192,7395,1,0,0:0:0:0:
320,192,7395,1,0,0:0:0:0:
192,192,7395,1,0,0:0:0:0:
64,192,7395,1,0,0:0:0:0:
192,192,7570,1,0,0:0:0:0:
320,192,7570,1,0,0:0:0:0:
64,192,7570,1,0,0:0:0:0:
448,192,7570,1,0,0:0:0:0:
64,192,7629,1,0,0:0:0:0:
448,192,7629,1,4,0:0:0:0:
320,192,7629,1,0,0:0:0:0:
192,192,7629,1,0,0:0:0:0:
64,192,7862,1,0,0:0:0:0:
320,192,7862,1,0,0:0:0:0:
64,192,8096,1,0,0:0:0:0:
448,192,8096,1,0,0:0:0:0:
192,192,8330,1,0,0:0:0:0:
448,192,8330,1,0,0:0:0:0:
192,192,8564,1,0,0:0:0:0:
320,192,8564,1,0,0:0:0:0:
64,192,8798,1,0,0:0:0:0:
320,192,8798,1,0,0:0:0:0:
192,192,9032,1,0,0:0:0:0:
448,192,9032,1,0,0:0:0:0:
192,192,9266,1,0,0:0:0:0:
320,192,9266,1,0,0:0:0:0:
320,192,9383,1,0,0:0:0:0:
192,192,9383,1,0,0:0:0:0:
64,192,9500,1,0,0:0:0:0:
448,192,9500,1,0,0:0:0:0:
320,192,9734,1,0,0:0:0:0:
64,192,9734,1,0,0:0:0:0:
64,192,9968,1,0,0:0:0:0:
448,192,9968,1,0,0:0:0:0:
448,192,10202,1,0,0:0:0:0:
192,192,10202,1,0,0:0:0:0:
192,192,10436,1,0,0:0:0:0:
320,192,10436,1,0,0:0:0:0:
192,192,10552,1,0,0:0:0:0:
320,192,10552,1,0,0:0:0:0:
320,192,10669,1,0,0:0:0:0:
64,192,10669,1,0,0:0:0:0:
320,192,10786,1,0,0:0:0:0:
192,192,10786,1,0,0:0:0:0:
192,192,10903,1,0,0:0:0:0:
448,192,10903,1,0,0:0:0:0:
320,192,11079,1,0,0:0:0:0:
448,192,11079,1,0,0:0:0:0:
192,192,11079,1,0,0:0:0:0:
64,192,11079,1,0,0:0:0:0:
64,192,11137,1,0,0:0:0:0:
192,192,11137,1,0,0:0:0:0:
320,192,11137,1,0,0:0:0:0:
448,192,11137,1,0,0:0:0:0:
320,192,11313,1,0,0:0:0:0:
192,192,11313,1,0,0:0:0:0:
64,192,11313,1,0,0:0:0:0:
448,192,11313,1,0,0:0:0:0:
64,192,11371,1,0,0:0:0:0:
448,192,11371,1,4,0:0:0:0:
320,192,11371,1,0,0:0:0:0:
192,192,11371,1,0,0:0:0:0:
448,192,11605,1,0,0:0:0:0:
192,192,11605,1,0,0:0:0:0:
320,192,11839,1,0,0:0:0:0:
64,192,11839,1,0,0:0:0:0:
320,192,12073,1,0,0:0:0:0:
192,192,12073,1,0,0:0:0:0:
448,192,12307,1,0,0:0:0:0:
64,192,12307,1,0,0:0:0:0:
320,192,12541,1,0,0:0:0:0:
64,192,12541,1,0,0:0:0:0:
192,192,12775,1,0,0:0:0:0:
448,192,12775,1,0,0:0:0:0:
64,192,13009,1,0,0:0:0:0:
448,192,13009,1,0,0:0:0:0:
192,192,13243,1,0,0:0:0:0:
320,192,13243,1,0,0:0:0:0:
192,192,13476,1,0,0:0:0:0:
448,192,13476,1,0,0:0:0:0:
64,192,13710,1,0,0:0:0:0:
320,192,13710,1,0,0:0:0:0:
320,192,13827,1,0,0:0:0:0:
192,192,13827,1,0,0:0:0:0:
64,192,13944,1,0,0:0:0:0:
448,192,13944,1,0,0:0:0:0:
192,192,14178,1,0,0:0:0:0:
320,192,14178,1,0,0:0:0:0:
64,192,14412,1,0,0:0:0:0:
320,192,14412,1,0,0:0:0:0:
192,192,14646,1,0,0:0:0:0:
448,192,14646,1,0,0:0:0:0:
64,192,14821,1,0,0:0:0:0:
192,192,14821,1,0,0:0:0:0:
320,192,14821,1,0,0:0:0:0:
448,192,14821,1,0,0:0:0:0:
320,192,14880,1,0,0:0:0:0:
448,192,14880,1,0,0:0:0:0:
192,192,14880,1,0,0:0:0:0:
64,192,14880,1,0,0:0:0:0:
192,192,15055,1,0,0:0:0:0:
320,192,15055,1,0,0:0:0:0:
64,192,15055,1,0,0:0:0:0:
448,192,15055,1,0,0:0:0:0:
64,192,15114,1,0,0:0:0:0:
448,192,15114,1,4,0:0:0:0:
320,192,15114,1,0,0:0:0:0:
192,192,15114,1,0,0:0:0:0:
448,192,15348,1,0,0:0:0:0:
192,192,15348,1,0,0:0:0:0:
448,192,15582,1,0,0:0:0:0:
64,192,15582,1,0,0:0:0:0:
320,192,15816,1,0,0:0:0:0:
64,192,15816,1,0,0:0:0:0:
192,192,16050,1,0,0:0:0:0:
320,192,16050,1,0,0:0:0:0:
448,192,16283,1,0,0:0:0:0:
192,192,16283,1,0,0:0:0:0:
64,192,16517,1,0,0:0:0:0:
320,192,16517,1,0,0:0:0:0:
192,192,16751,1,0,0:0:0:0:
320,192,16751,1,0,0:0:0:0:
320,192,16868,1,0,0:0:0:0:
192,192,16868,1,0,0:0:0:0:
448,192,16985,1,0,0:0:0:0:
64,192,16985,1,0,0:0:0:0:
448,192,17219,1,0,0:0:0:0:
192,192,17219,1,0,0:0:0:0:
448,192,17453,1,0,0:0:0:0:
64,192,17453,1,0,0:0:0:0:
320,192,17687,1,0,0:0:0:0:
64,192,17687,1,0,0:0:0:0:
320,192,17921,1,0,0:0:0:0:
192,192,17921,1,0,0:0:0:0:
448,192,18155,1,0,0:0:0:0:
192,192,18155,1,0,0:0:0:0:
64,192,18389,1,0,0:0:0:0:
320,192,18389,1,0,0:0:0:0:
448,192,18564,1,0,0:0:0:0:
320,192,18564,1,0,0:0:0:0:
192,192,18564,1,0,0:0:0:0:
64,192,18564,1,0,0:0:0:0:
192,192,18623,1,0,0:0:0:0:
64,192,18623,1,0,0:0:0:0:
320,192,18623,1,0,0:0:0:0:
448,192,18623,1,0,0:0:0:0:
320,192,18798,1,0,0:0:0:0:
192,192,18798,1,0,0:0:0:0:
448,192,18798,1,0,0:0:0:0:
64,192,18798,1,0,0:0:0:0:
64,192,18857,1,0,0:0:0:0:
448,192,18857,1,4,0:0:0:0:
192,192,18857,1,0,0:0:0:0:
320,192,18857,1,0,0:0:0:0:
64,192,19091,1,0,0:0:0:0:
320,192,19091,1,0,0:0:0:0:
192,192,19324,1,0,0:0:0:0:
448,192,19324,1,0,0:0:0:0:
192,192,19558,1,0,0:0:0:0:
320,192,19558,1,0,0:0:0:0:
448,192,19792,1,0,0:0:0:0:
64,192,19792,1,0,0:0:0:0:
448,192,20026,1,0,0:0:0:0:
192,192,20026,1,0,0:0:0:0:
64,192,20260,1,0,0:0:0:0:
320,192,20260,1,0,0:0:0:0:
448,192,20494,1,0,0:0:0:0:
64,192,20494,1,0,0:0:0:0:
320,192,20611,1,0,0:0:0:0:
192,192,20611,1,0,0:0:0:0:
192,192,20728,1,0,0:0:0:0:
320,192,20728,1,0,0:0:0:0:
320,192,20962,1,0,0:0:0:0:
64,192,20962,1,0,0:0:0:0:
192,192,21196,1,0,0:0:0:0:
448,192,21196,1,0,0:0:0:0:
448,192,21430,1,0,0:0:0:0:
64,192,21430,1,0,0:0:0:0:
320,192,21664,1,0,0:0:0:0:
192,192,21664,1,0,0:0:0:0:
448,192,21898,1,0,0:0:0:0:
192,192,21898,1,0,0:0:0:0:
64,192,22131,1,0,0:0:0:0:
320,192,22131,1,0,0:0:0:0:
192,192,22307,1,0,0:0:0:0:
64,192,22307,1,0,0:0:0:0:
320,192,22307,1,0,0:0:0:0:
448,192,22307,1,0,0:0:0:0:
448,192,22365,1,0,0:0:0:0:
320,192,22365,1,0,0:0:0:0:
192,192,22365,1,0,0:0:0:0:
64,192,22365,1,0,0:0:0:0:
192,192,22541,1,0,0:0:0:0:
320,192,22541,1,0,0:0:0:0:
448,192,22541,1,0,0:0:0:0:
64,192,22541,1,0,0:0:0:0:
64,192,22599,1,0,0:0:0:0:
448,192,22599,1,4,0:0:0:0:
192,192,22599,1,0,0:0:0:0:
320,192,22599,1,0,0:0:0:0:
320,192,22716,1,0,0:0:0:0:
64,192,22716,1,0,0:0:0:0:
192,192,22833,1,0,0:0:0:0:
448,192,22833,1,0,0:0:0:0:
320,192,22950,1,0,0:0:0:0:
64,192,22950,1,0,0:0:0:0:
64,192,23067,1,0,0:0:0:0:
320,192,23067,1,0,0:0:0:0:
192,192,23184,1,0,0:0:0:0:
64,192,23184,1,0,0:0:0:0:
448,192,23243,1,0,0:0:0:0:
320,192,23243,1,0,0:0:0:0:
192,192,23301,1,0,0:0:0:0:
64,192,23301,1,0,0:0:0:0:
320,192,23418,1,0,0:0:0:0:
192,192,23418,1,0,0:0:0:0:
448,192,23476,1,0,0:0:0:0:
64,192,23476,1,0,0:0:0:0:
320,192,23535,1,0,0:0:0:0:
192,192,23535,1,0,0:0:0:0:
64,192,23769,1,0,0:0:0:0:
320,192,23769,1,0,0:0:0:0:
192,192,24003,1,0,0:0:0:0:
448,192,24003,1,0,0:0:0:0:
320,192,24237,1,0,0:0:0:0:
192,192,24237,1,0,0:0:0:0:
64,192,24471,1,0,0:0:0:0:
448,192,24471,1,0,0:0:0:0:
320,192,24588,1,0,0:0:0:0:
192,192,24588,1,0,0:0:0:0:
320,192,24705,1,0,0:0:0:0:
64,192,24705,1,0,0:0:0:0:
192,192,24821,1,0,0:0:0:0:
448,192,24821,1,0,0:0:0:0:
192,192,24938,1,0,0:0:0:0:
448,192,24938,1,0,0:0:0:0:
320,192,25055,1,0,0:0:0:0:
448,192,25055,1,0,0:0:0:0:
64,192,25114,1,0,0:0:0:0:
192,192,25114,1,0,0:0:0:0:
320,192,25172,1,0,0:0:0:0:
448,192,25172,1,0,0:0:0:0:
192,192,25289,1,0,0:0:0:0:
320,192,25289,1,0,0:0:0:0:
64,192,25348,1,0,0:0:0:0:
448,192,25348,1,0,0:0:0:0:
320,192,25406,1,0,0:0:0:0:
192,192,25406,1,0,0:0:0:0:
64,192,25523,1,0,0:0:0:0:
192,192,25523,1,0,0:0:0:0:
448,192,25640,1,0,0:0:0:0:
192,192,25640,1,0,0:0:0:0:
64,192,25757,1,0,0:0:0:0:
192,192,25757,1,0,0:0:0:0:
320,192,25816,1,0,0:0:0:0:
448,192,25816,1,0,0:0:0:0:
64,192,25874,1,0,0:0:0:0:
192,192,25874,1,0,0:0:0:0:
320,192,26050,1,0,0:0:0:0:
448,192,26050,1,0,0:0:0:0:
192,192,26050,1,0,0:0:0:0:
64,192,26050,1,0,0:0:0:0:
64,192,26108,1,0,0:0:0:0:
192,192,26108,1,0,0:0:0:0:
320,192,26108,1,0,0:0:0:0:
448,192,26108,1,0,0:0:0:0:
192,192,26283,1,0,0:0:0:0:
320,192,26283,1,0,0:0:0:0:
448,192,26283,1,0,0:0:0:0:
64,192,26283,1,0,0:0:0:0:
64,192,26342,1,0,0:0:0:0:
448,192,26342,1,4,0:0:0:0:
192,192,26342,1,0,0:0:0:0:
320,192,26342,1,0,0:0:0:0:
192,192,26459,1,0,0:0:0:0:
448,192,26459,1,0,0:0:0:0:
320,192,26576,1,0,0:0:0:0:
64,192,26576,1,0,0:0:0:0:
320,192,26693,1,0,0:0:0:0:
192,192,26693,1,0,0:0:0:0:
192,192,26810,1,0,0:0:0:0:
448,192,26810,1,0,0:0:0:0:
448,192,26927,1,0,0:0:0:0:
320,192,26927,1,0,0:0:0:0:
64,192,26985,1,0,0:0:0:0:
192,192,26985,1,0,0:0:0:0:
448,192,27044,1,0,0:0:0:0:
320,192,27044,1,0,0:0:0:0:
320,192,27161,1,0,0:0:0:0:
192,192,27161,1,0,0:0:0:0:
448,192,27219,1,0,0:0:0:0:
64,192,27219,1,0,0:0:0:0:
192,192,27278,1,0,0:0:0:0:
320,192,27278,1,0,0:0:0:0:
448,192,27512,1,0,0:0:0:0:
192,192,27512,1,0,0:0:0:0:
64,192,27745,1,0,0:0:0:0:
320,192,27745,1,0,0:0:0:0:
320,192,27979,1,0,0:0:0:0:
192,192,27979,1,0,0:0:0:0:
448,192,28213,1,0,0:0:0:0:
64,192,28213,1,0,0:0:0:0:
320,192,28330,1,0,0:0:0:0:
192,192,28330,1,0,0:0:0:0:
192,192,28447,1,0,0:0:0:0:
448,192,28447,1,0,0:0:0:0:
448,192,28564,1,0,0:0:0:0:
64,192,28564,1,0,0:0:0:0:
64,192,28681,1,0,0:0:0:0:
320,192,28681,1,0,0:0:0:0:
192,192,28798,1,0,0:0:0:0:
64,192,28798,1,0,0:0:0:0:
448,192,28857,1,0,0:0:0:0:
320,192,28857,1,0,0:0:0:0:
64,192,28915,1,0,0:0:0:0:
192,192,28915,1,0,0:0:0:0:
320,192,29032,1,0,0:0:0:0:
192,192,29032,1,0,0:0:0:0:
448,192,29091,1,0,0:0:0:0:
64,192,29091,1,0,0:0:0:0:
320,192,29149,1,0,0:0:0:0:
192,192,29149,1,0,0:0:0:0:
448,192,29266,1,0,0:0:0:0:
64,192,29266,1,0,0:0:0:0:
64,192,29383,1,0,0:0:0:0:
320,192,29383,1,0,0:0:0:0:
320,192,29500,1,0,0:0:0:0:
448,192,29500,1,0,0:0:0:0:
192,192,29558,1,0,0:0:0:0:
64,192,29558,1,0,0:0:0:0:
320,192,29617,1,0,0:0:0:0:
448,192,29617,1,0,0:0:0:0:
192,192,29792,1,0,0:0:0:0:
64,192,29792,1,0,0:0:0:0:
320,192,29792,1,0,0:0:0:0:
448,192,29792,1,0,0:0:0:0:
320,192,29851,1,0,0:0:0:0:
448,192,29851,1,0,0:0:0:0:
192,192,29851,1,0,0:0:0:0:
64,192,29851,1,0,0:0:0:0:
320,192,30026,1,0,0:0:0:0:
192,192,30026,1,0,0:0:0:0:
64,192,30026,1,0,0:0:0:0:
448,192,30026,1,0,0:0:0:0:
448,192,30085,1,4,0:0:0:0:
64,192,30085,1,0,0:0:0:0:
192,192,30085,1,0,0:0:0:0:
320,192,30085,1,0,0:0:0:0:
448,192,30319,1,0,0:0:0:0:
192,192,30319,1,0,0:0:0:0:
64,192,30552,1,0,0:0:0:0:
320,192,30552,1,0,0:0:0:0:
448,192,30786,1,0,0:0:0:0:
192,192,30786,1,0,0:0:0:0:
320,192,30903,1,0,0:0:0:0:
192,192,30903,1,0,0:0:0:0:
448,192,31020,1,0,0:0:0:0:
64,192,31020,1,0,0:0:0:0:
320,192,31137,1,0,0:0:0:0:
64,192,31137,1,0,0:0:0:0:
320,192,31254,1,0,0:0:0:0:
192,192,31254,1,0,0:0:0:0:
192,192,31488,1,0,0:0:0:0:
448,192,31488,1,0,0:0:0:0:
320,192,31722,1,0,0:0:0:0:
64,192,31722,1,0,0:0:0:0:
192,192,31839,1,0,0:0:0:0:
448,192,31956,1,0,0:0:0:0:
64,192,31956,1,0,0:0:0:0:
448,192,32190,1,0,0:0:0:0:
192,192,32190,1,0,0:0:0:0:
320,192,32424,1,0,0:0:0:0:
64,192,32424,1,0,0:0:0:0:
192,192,32658,1,0,0:0:0:0:
448,192,32658,1,0,0:0:0:0:
320,192,32775,1,0,0:0:0:0:
192,192,32775,1,0,0:0:0:0:
448,192,32892,1,0,0:0:0:0:
64,192,32892,1,0,0:0:0:0:
320,192,33009,1,0,0:0:0:0:
64,192,33009,1,0,0:0:0:0:
192,192,33126,1,0,0:0:0:0:
448,192,33126,1,0,0:0:0:0:
448,192,33243,1,0,0:0:0:0:
64,192,33243,1,0,0:0:0:0:
64,192,33360,1,0,0:0:0:0:
320,192,33360,1,0,0:0:0:0:
448,192,33535,1,0,0:0:0:0:
320,192,33535,1,0,0:0:0:0:
192,192,33535,1,0,0:0:0:0:
64,192,33535,1,0,0:0:0:0:
64,192,33593,1,0,0:0:0:0:
192,192,33593,1,0,0:0:0:0:
320,192,33593,1,0,0:0:0:0:
448,192,33593,1,0,0:0:0:0:
320,192,33769,1,0,0:0:0:0:
192,192,33769,1,0,0:0:0:0:
448,192,33769,1,0,0:0:0:0:
64,192,33769,1,0,0:0:0:0:
448,192,33827,1,4,0:0:0:0:
64,192,33827,1,0,0:0:0:0:
192,192,33827,1,0,0:0:0:0:
320,192,33827,1,0,0:0:0:0:
192,192,33944,1,0,0:0:0:0:
448,192,33944,1,0,0:0:0:0:
320,192,34061,1,0,0:0:0:0:
64,192,34061,1,0,0:0:0:0:
64,192,34178,1,0,0:0:0:0:
448,192,34178,1,0,0:0:0:0:
192,192,34295,1,0,0:0:0:0:
320,192,34295,1,0,0:0:0:0:
320,192,34412,1,0,0:0:0:0:
64,192,34412,1,0,0:0:0:0:
192,192,34529,1,0,0:0:0:0:
448,192,34529,1,0,0:0:0:0:
320,192,34646,1,0,0:0:0:0:
448,192,34763,1,0,0:0:0:0:
64,192,34763,1,0,0:0:0:0:
192,192,34880,1,0,0:0:0:0:
448,192,34880,1,0,0:0:0:0:
64,192,34997,1,0,0:0:0:0:
320,192,34997,1,0,0:0:0:0:
448,192,35114,1,0,0:0:0:0:
192,192,35114,1,0,0:0:0:0:
192,192,35231,1,0,0:0:0:0:
320,192,35231,1,0,0:0:0:0:
448,192,35348,1,0,0:0:0:0:
192,192,35348,1,0,0:0:0:0:
64,192,35406,1,0,0:0:0:0:
320,192,35406,1,0,0:0:0:0:
192,192,35465,1,0,0:0:0:0:
448,192,35465,1,0,0:0:0:0:
320,192,35582,1,0,0:0:0:0:
64,192,35582,1,0,0:0:0:0:
448,192,35640,1,0,0:0:0:0:
192,192,35640,1,0,0:0:0:0:
320,192,35699,1,0,0:0:0:0:
64,192,35699,1,0,0:0:0:0:
192,192,35816,1,0,0:0:0:0:
320,192,35816,1,0,0:0:0:0:
192,192,35933,1,0,0:0:0:0:
448,192,35933,1,0,0:0:0:0:
320,192,36050,1,0,0:0:0:0:
64,192,36050,1,0,0:0:0:0:
64,192,36167,1,0,0:0:0:0:
448,192,36167,1,0,0:0:0:0:
448,192,36283,1,0,0:0:0:0:
192,192,36283,1,0,0:0:0:0:
320,192,36400,1,0,0:0:0:0:
192,192,36400,1,0,0:0:0:0:
192,192,36634,1,0,0:0:0:0:
64,192,36634,1,0,0:0:0:0:
448,192,36634,1,4,0:0:0:0:
320,192,36751,1,0,0:0:0:0:
192,192,36751,1,0,0:0:0:0:
320,192,36868,1,0,0:0:0:0:
64,192,36868,1,0,0:0:0:0:
448,192,37102,1,0,0:0:0:0:
64,192,37102,1,0,0:0:0:0:
192,192,37102,1,0,0:0:0:0:
320,192,37102,1,0,0:0:0:0:
320,192,37161,1,0,0:0:0:0:
192,192,37161,1,0,0:0:0:0:
64,192,37161,1,0,0:0:0:0:
448,192,37161,1,0,0:0:0:0:
192,192,37219,1,0,0:0:0:0:
448,192,37219,1,0,0:0:0:0:
320,192,37219,1,0,0:0:0:0:
64,192,37219,1,0,0:0:0:0:
64,192,37278,1,0,0:0:0:0:
192,192,37278,1,0,0:0:0:0:
320,192,37278,1,0,0:0:0:0:
448,192,37278,1,0,0:0:0:0:
320,192,37336,1,0,0:0:0:0:
448,192,37336,1,0,0:0:0:0:
192,192,37336,1,0,0:0:0:0:
64,192,37336,1,0,0:0:0:0:
192,192,37395,1,0,0:0:0:0:
320,192,37395,1,0,0:0:0:0:
448,192,37395,1,0,0:0:0:0:
64,192,37395,1,0,0:0:0:0:
64,192,37453,1,0,0:0:0:0:
192,192,37453,1,0,0:0:0:0:
320,192,37453,1,0,0:0:0:0:
448,192,37453,1,0,0:0:0:0:
448,192,37512,1,0,0:0:0:0:
320,192,37512,1,0,0:0:0:0:
64,192,37512,1,0,0:0:0:0:
192,192,37512,1,0,0:0:0:0:
320,192,37570,1,0,0:0:0:0:
192,192,37570,1,0,0:0:0:0:
64,192,37570,1,4,0:0:0:0:
448,192,37570,1,0,0:0:0:0:
64,192,37804,1,0,0:0:0:0:
320,192,37804,1,0,0:0:0:0:
192,192,38038,1,0,0:0:0:0:
448,192,38038,1,0,0:0:0:0:
448,192,38272,1,0,0:0:0:0:
192,192,38272,1,0,0:0:0:0:
320,192,38506,1,0,0:0:0:0:
64,192,38506,1,0,0:0:0:0:
64,192,38623,1,0,0:0:0:0:
448,192,38623,1,0,0:0:0:0:
192,192,38740,1,0,0:0:0:0:
320,192,38740,1,0,0:0:0:0:
64,192,38974,1,0,0:0:0:0:
448,192,38974,1,0,0:0:0:0:
192,192,39207,1,0,0:0:0:0:
448,192,39207,1,0,0:0:0:0:
320,192,39441,1,0,0:0:0:0:
64,192,39441,1,0,0:0:0:0:
64,192,39675,1,0,0:0:0:0:
320,192,39675,1,0,0:0:0:0:
192,192,39909,1,0,0:0:0:0:
448,192,39909,1,0,0:0:0:0:
448,192,40143,1,0,0:0:0:0:
192,192,40143,1,0,0:0:0:0:
64,192,40377,1,0,0:0:0:0:
320,192,40377,1,0,0:0:0:0:
192,192,40494,1,0,0:0:0:0:
320,192,40494,1,0,0:0:0:0:
448,192,40611,1,0,0:0:0:0:
64,192,40611,1,0,0:0:0:0:
320,192,40728,1,0,0:0:0:0:
192,192,40728,1,0,0:0:0:0:
192,192,40845,1,0,0:0:0:0:
448,192,40845,1,0,0:0:0:0:
64,192,41020,1,0,0:0:0:0:
192,192,41020,1,0,0:0:0:0:
320,192,41020,1,0,0:0:0:0:
448,192,41020,1,0,0:0:0:0:
320,192,41079,1,0,0:0:0:0:
448,192,41079,1,0,0:0:0:0:
192,192,41079,1,0,0:0:0:0:
64,192,41079,1,0,0:0:0:0:
64,192,41254,1,0,0:0:0:0:
320,192,41254,1,0,0:0:0:0:
192,192,41254,1,0,0:0:0:0:
448,192,41254,1,0,0:0:0:0:
64,192,41313,1,4,0:0:0:0:
448,192,41313,1,0,0:0:0:0:
320,192,41313,1,0,0:0:0:0:
192,192,41313,1,0,0:0:0:0:
64,192,41547,1,0,0:0:0:0:
448,192,41547,1,0,0:0:0:0:
192,192,41781,1,0,0:0:0:0:
320,192,41781,1,0,0:0:0:0:
192,192,42014,1,0,0:0:0:0:
320,192,42014,1,0,0:0:0:0:
64,192,42248,1,0,0:0:0:0:
448,192,42248,1,0,0:0:0:0:
320,192,42365,1,0,0:0:0:0:
192,192,42365,1,0,0:0:0:0:
320,192,42482,1,0,0:0:0:0:
64,192,42482,1,0,0:0:0:0:
192,192,42716,1,0,0:0:0:0:
448,192,42716,1,0,0:0:0:0:
192,192,42950,1,0,0:0:0:0:
320,192,42950,1,0,0:0:0:0:
64,192,43184,1,0,0:0:0:0:
448,192,43184,1,0,0:0:0:0:
192,192,43418,1,0,0:0:0:0:
448,192,43418,1,0,0:0:0:0:
320,192,43652,1,0,0:0:0:0:
64,192,43652,1,0,0:0:0:0:
320,192,43769,1,0,0:0:0:0:
192,192,43769,1,0,0:0:0:0:
448,192,43886,1,0,0:0:0:0:
192,192,43886,1,0,0:0:0:0:
192,192,44120,1,0,0:0:0:0:
320,192,44120,1,0,0:0:0:0:
64,192,44354,1,0,0:0:0:0:
320,192,44354,1,0,0:0:0:0:
192,192,44588,1,0,0:0:0:0:
448,192,44588,1,0,0:0:0:0:
448,192,44763,1,0,0:0:0:0:
320,192,44763,1,0,0:0:0:0:
192,192,44763,1,0,0:0:0:0:
64,192,44763,1,0,0:0:0:0:
192,192,44821,1,0,0:0:0:0:
64,192,44821,1,0,0:0:0:0:
320,192,44821,1,0,0:0:0:0:
448,192,44821,1,0,0:0:0:0:
192,192,44997,1,0,0:0:0:0:
320,192,44997,1,0,0:0:0:0:
448,192,44997,1,0,0:0:0:0:
64,192,44997,1,0,0:0:0:0:
448,192,45055,1,0,0:0:0:0:
64,192,45055,1,4,0:0:0:0:
192,192,45055,1,0,0:0:0:0:
320,192,45055,1,0,0:0:0:0:
192,192,45172,1,0,0:0:0:0:
448,192,45172,1,0,0:0:0:0:
64,192,45289,1,0,0:0:0:0:
320,192,45289,1,0,0:0:0:0:
320,192,45406,1,0,0:0:0:0:
192,192,45406,1,0,0:0:0:0:
192,192,45523,1,0,0:0:0:0:
448,192,45523,1,0,0:0:0:0:
320,192,45640,1,0,0:0:0:0:
64,192,45640,1,0,0:0:0:0:
64,192,45757,1,0,0:0:0:0:
448,192,45757,1,0,0:0:0:0:
192,192,45874,1,0,0:0:0:0:
448,192,45874,1,0,0:0:0:0:
320,192,45991,1,0,0:0:0:0:
192,192,45991,1,0,0:0:0:0:
448,192,46108,1,0,0:0:0:0:
320,192,46108,1,0,0:0:0:0:
64,192,46225,1,0,0:0:0:0:
448,192,46225,1,0,0:0:0:0:
320,192,46342,1,0,0:0:0:0:
64,192,46342,1,0,0:0:0:0:
320,192,46459,1,0,0:0:0:0:
192,192,46459,1,0,0:0:0:0:
448,192,46576,1,0,0:0:0:0:
192,192,46576,1,0,0:0:0:0:
64,192,46693,1,0,0:0:0:0:
320,192,46693,1,0,0:0:0:0:
64,192,46927,1,0,0:0:0:0:
448,192,46927,1,0,0:0:0:0:
320,192,47044,1,0,0:0:0:0:
192,192,47044,1,0,0:0:0:0:
448,192,47161,1,0,0:0:0:0:
192,192,47161,1,0,0:0:0:0:
448,192,47278,1,0,0:0:0:0:
64,192,47278,1,0,0:0:0:0:
64,192,47395,1,0,0:0:0:0:
320,192,47395,1,0,0:0:0:0:
192,192,47512,1,0,0:0:0:0:
320,192,47512,1,0,0:0:0:0:
448,192,47629,1,0,0:0:0:0:
64,192,47629,1,0,0:0:0:0:
448,192,47745,1,0,0:0:0:0:
192,192,47745,1,0,0:0:0:0:
320,192,47862,1,0,0:0:0:0:
192,192,47862,1,0,0:0:0:0:
320,192,47979,1,0,0:0:0:0:
64,192,47979,1,0,0:0:0:0:
448,192,48096,1,0,0:0:0:0:
64,192,48096,1,0,0:0:0:0:
192,192,48213,1,0,0:0:0:0:
448,192,48213,1,0,0:0:0:0:
192,192,48330,1,0,0:0:0:0:
320,192,48330,1,0,0:0:0:0:
192,192,48506,1,0,0:0:0:0:
64,192,48506,1,0,0:0:0:0:
448,192,48506,1,0,0:0:0:0:
320,192,48506,1,0,0:0:0:0:
320,192,48564,1,0,0:0:0:0:
448,192,48564,1,0,0:0:0:0:
192,192,48564,1,0,0:0:0:0:
64,192,48564,1,0,0:0:0:0:
64,192,48740,1,0,0:0:0:0:
192,192,48740,1,0,0:0:0:0:
320,192,48740,1,0,0:0:0:0:
448,192,48740,1,0,0:0:0:0:
448,192,48798,1,4,0:0:0:0:
64,192,48798,1,0,0:0:0:0:
320,192,48798,1,0,0:0:0:0:
192,192,48798,1,0,0:0:0:0:
192,192,48915,1,0,0:0:0:0:
448,192,48915,1,0,0:0:0:0:
320,192,49032,1,0,0:0:0:0:
64,192,49032,1,0,0:0:0:0:
320,192,49149,1,0,0:0:0:0:
192,192,49149,1,0,0:0:0:0:
192,192,49266,1,0,0:0:0:0:
448,192,49266,1,0,0:0:0:0:
320,192,49383,1,0,0:0:0:0:
64,192,49383,1,0,0:0:0:0:
64,192,49500,1,0,0:0:0:0:
448,192,49500,1,0,0:0:0:0:
192,192,49617,1,0,0:0:0:0:
448,192,49617,1,0,0:0:0:0:
320,192,49734,1,0,0:0:0:0:
64,192,49734,1,0,0:0:0:0:
448,192,49851,1,0,0:0:0:0:
192,192,49851,1,0,0:0:0:0:
320,192,49968,1,0,0:0:0:0:
192,192,49968,1,0,0:0:0:0:
320,192,50085,1,0,0:0:0:0:
64,192,50085,1,0,0:0:0:0:
192,192,50202,1,0,0:0:0:0:
448,192,50202,1,0,0:0:0:0:
448,192,50319,1,0,0:0:0:0:
320,192,50319,1,0,0:0:0:0:
64,192,50436,1,0,0:0:0:0:
320,192,50436,1,0,0:0:0:0:
320,192,50552,1,0,0:0:0:0:
192,192,50552,1,0,0:0:0:0:
64,192,50669,1,0,0:0:0:0:
448,192,50669,1,0,0:0:0:0:
320,192,50786,1,0,0:0:0:0:
64,192,50786,1,0,0:0:0:0:
320,192,50903,1,0,0:0:0:0:
192,192,50903,1,0,0:0:0:0:
192,192,51020,1,0,0:0:0:0:
448,192,51020,1,0,0:0:0:0:
64,192,51137,1,0,0:0:0:0:
320,192,51137,1,0,0:0:0:0:
320,192,51254,1,0,0:0:0:0:
192,192,51254,1,0,0:0:0:0:
192,192,51371,5,0,0:0:0:0:
448,192,51371,1,0,0:0:0:0:
320,192,51488,1,0,0:0:0:0:
64,192,51488,1,0,0:0:0:0:
320,192,51605,1,0,0:0:0:0:
448,192,51605,1,0,0:0:0:0:
448,192,51722,1,0,0:0:0:0:
192,192,51722,1,0,0:0:0:0:
192,192,51839,1,0,0:0:0:0:
64,192,51839,1,0,0:0:0:0:
320,192,51956,1,0,0:0:0:0:
448,192,51956,1,0,0:0:0:0:
64,192,51956,1,0,0:0:0:0:
448,192,52073,1,0,0:0:0:0:
192,192,52073,1,0,0:0:0:0:
448,192,52248,1,0,0:0:0:0:
64,192,52248,1,0,0:0:0:0:
192,192,52248,1,0,0:0:0:0:
320,192,52248,1,0,0:0:0:0:
192,192,52307,1,0,0:0:0:0:
320,192,52307,1,0,0:0:0:0:
64,192,52307,1,0,0:0:0:0:
448,192,52307,1,0,0:0:0:0:
64,192,52482,5,0,0:0:0:0:
192,192,52482,1,0,0:0:0:0:
448,192,52482,1,0,0:0:0:0:
320,192,52482,1,0,0:0:0:0:
448,192,52541,1,4,0:0:0:0:
320,192,52541,1,0,0:0:0:0:
192,192,52541,1,0,0:0:0:0:
64,192,52541,1,0,0:0:0:0:
192,192,52658,1,0,0:0:0:0:
448,192,52775,1,0,0:0:0:0:
64,192,52775,1,0,0:0:0:0:
320,192,52775,1,0,0:0:0:0:
320,192,52892,1,0,0:0:0:0:
192,192,53009,1,0,0:0:0:0:
64,192,53009,1,0,0:0:0:0:
448,192,53009,1,0,0:0:0:0:
448,192,53126,1,0,0:0:0:0:
320,192,53243,1,0,0:0:0:0:
192,192,53243,1,0,0:0:0:0:
64,192,53243,1,0,0:0:0:0:
64,192,53360,1,0,0:0:0:0:
320,192,53476,1,0,0:0:0:0:
448,192,53476,1,0,0:0:0:0:
192,192,53476,1,0,0:0:0:0:
192,192,53593,1,0,0:0:0:0:
448,192,53710,1,0,0:0:0:0:
64,192,53710,1,0,0:0:0:0:
320,192,53710,1,0,0:0:0:0:
320,192,53827,1,0,0:0:0:0:
192,192,53944,1,0,0:0:0:0:
448,192,53944,1,0,0:0:0:0:
64,192,53944,1,0,0:0:0:0:
64,192,54061,1,0,0:0:0:0:
320,192,54178,1,0,0:0:0:0:
192,192,54178,1,0,0:0:0:0:
448,192,54178,1,0,0:0:0:0:
448,192,54295,1,0,0:0:0:0:
64,192,54412,1,0,0:0:0:0:
320,192,54412,1,0,0:0:0:0:
192,192,54412,1,0,0:0:0:0:
192,192,54529,1,0,0:0:0:0:
320,192,54646,1,0,0:0:0:0:
448,192,54646,1,0,0:0:0:0:
64,192,54646,1,0,0:0:0:0:
320,192,54763,1,0,0:0:0:0:
192,192,54880,1,0,0:0:0:0:
448,192,54880,1,0,0:0:0:0:
64,192,54880,1,0,0:0:0:0:
64,192,54997,1,0,0:0:0:0:
320,192,55114,1,0,0:0:0:0:
192,192,55114,1,0,0:0:0:0:
448,192,55114,1,0,0:0:0:0:
448,192,55231,1,0,0:0:0:0:
192,192,55348,1,0,0:0:0:0:
64,192,55348,1,0,0:0:0:0:
320,192,55348,1,0,0:0:0:0:
320,192,55465,1,0,0:0:0:0:
64,192,55582,1,0,0:0:0:0:
448,192,55582,1,0,0:0:0:0:
192,192,55582,1,0,0:0:0:0:
192,192,55699,1,0,0:0:0:0:
320,192,55816,1,0,0:0:0:0:
448,192,55816,1,0,0:0:0:0:
64,192,55816,1,0,0:0:0:0:
64,192,55933,1,0,0:0:0:0:
192,192,56050,1,0,0:0:0:0:
320,192,56050,1,0,0:0:0:0:
448,192,56050,1,0,0:0:0:0:
448,192,56167,1,0,0:0:0:0:
192,192,56283,1,0,0:0:0:0:
64,192,56283,1,4,0:0:0:0:
320,192,56283,1,0,0:0:0:0:
320,192,56400,1,0,0:0:0:0:
448,192,56517,1,0,0:0:0:0:
64,192,56517,1,0,0:0:0:0:
192,192,56517,1,0,0:0:0:0:
192,192,56634,1,0,0:0:0:0:
320,192,56751,1,0,0:0:0:0:
448,192,56751,1,0,0:0:0:0:
64,192,56751,1,0,0:0:0:0:
64,192,56868,1,0,0:0:0:0:
320,192,56985,1,0,0:0:0:0:
192,192,56985,1,0,0:0:0:0:
448,192,56985,1,0,0:0:0:0:
448,192,57102,1,0,0:0:0:0:
192,192,57219,1,0,0:0:0:0:
64,192,57219,1,0,0:0:0:0:
320,192,57219,1,0,0:0:0:0:
320,192,57336,1,0,0:0:0:0:
448,192,57453,1,0,0:0:0:0:
64,192,57453,1,0,0:0:0:0:
192,192,57453,1,0,0:0:0:0:
192,192,57570,1,0,0:0:0:0:
320,192,57687,1,0,0:0:0:0:
448,192,57687,1,0,0:0:0:0:
64,192,57687,1,0,0:0:0:0:
64,192,57804,1,0,0:0:0:0:
192,192,57921,1,0,0:0:0:0:
320,192,57921,1,0,0:0:0:0:
448,192,57921,1,0,0:0:0:0:
448,192,58038,1,0,0:0:0:0:
64,192,58155,1,0,0:0:0:0:
192,192,58155,1,0,0:0:0:0:
320,192,58155,1,0,0:0:0:0:
192,192,58213,1,0,0:0:0:0:
64,192,58213,1,0,0:0:0:0:
192,192,58272,1,0,0:0:0:0:
64,192,58272,1,0,0:0:0:0:
64,192,58330,1,0,0:0:0:0:
192,192,58330,1,0,0:0:0:0:
192,192,58389,1,0,0:0:0:0:
448,192,58389,1,0,0:0:0:0:
64,192,58389,1,0,0:0:0:0:
192,192,58447,1,0,0:0:0:0:
64,192,58447,1,0,0:0:0:0:
192,192,58506,1,0,0:0:0:0:
64,192,58506,1,0,0:0:0:0:
64,192,58564,1,0,0:0:0:0:
192,192,58564,1,0,0:0:0:0:
192,192,58623,1,0,0:0:0:0:
64,192,58623,1,0,0:0:0:0:
320,192,58623,1,0,0:0:0:0:
192,192,58681,1,0,0:0:0:0:
64,192,58681,1,0,0:0:0:0:
192,192,58740,1,0,0:0:0:0:
64,192,58740,1,0,0:0:0:0:
192,192,58798,1,0,0:0:0:0:
64,192,58798,1,0,0:0:0:0:
192,192,58857,1,0,0:0:0:0:
64,192,58857,1,0,0:0:0:0:
448,192,58857,1,0,0:0:0:0:
192,192,58915,1,0,0:0:0:0:
64,192,58915,1,0,0:0:0:0:
192,192,58974,1,0,0:0:0:0:
64,192,58974,1,0,0:0:0:0:
192,192,59032,1,0,0:0:0:0:
64,192,59032,1,0,0:0:0:0:
448,192,59091,1,0,0:0:0:0:
320,192,59091,1,0,0:0:0:0:
192,192,59091,1,0,0:0:0:0:
320,192,59149,1,0,0:0:0:0:
448,192,59149,1,0,0:0:0:0:
320,192,59207,1,0,0:0:0:0:
448,192,59207,1,0,0:0:0:0:
448,192,59266,1,0,0:0:0:0:
320,192,59266,1,0,0:0:0:0:
448,192,59324,1,0,0:0:0:0:
320,192,59324,1,0,0:0:0:0:
64,192,59324,1,0,0:0:0:0:
448,192,59383,1,0,0:0:0:0:
320,192,59383,1,0,0:0:0:0:
320,192,59441,1,0,0:0:0:0:
448,192,59441,1,0,0:0:0:0:
320,192,59500,1,0,0:0:0:0:
448,192,59500,1,0,0:0:0:0:
320,192,59558,1,0,0:0:0:0:
448,192,59558,1,0,0:0:0:0:
192,192,59558,1,0,0:0:0:0:
320,192,59617,1,0,0:0:0:0:
448,192,59617,1,0,0:0:0:0:
320,192,59675,1,0,0:0:0:0:
448,192,59675,1,0,0:0:0:0:
320,192,59734,1,0,0:0:0:0:
448,192,59734,1,0,0:0:0:0:
448,192,59792,1,0,0:0:0:0:
320,192,59792,1,0,0:0:0:0:
64,192,59792,1,0,0:0:0:0:
320,192,59851,1,0,0:0:0:0:
448,192,59851,1,0,0:0:0:0:
320,192,59909,1,0,0:0:0:0:
448,192,59909,1,0,0:0:0:0:
448,192,59968,1,0,0:0:0:0:
320,192,59968,1,0,0:0:0:0:
192,192,60026,1,4,0:0:0:0:
64,192,60026,1,0,0:0:0:0:
320,192,60026,1,0,0:0:0:0:
320,192,60143,1,0,0:0:0:0:
448,192,60260,1,0,0:0:0:0:
64,192,60260,1,0,0:0:0:0:
192,192,60260,1,0,0:0:0:0:
192,192,60377,1,0,0:0:0:0:
320,192,60494,1,0,0:0:0:0:
448,192,60494,1,0,0:0:0:0:
64,192,60494,1,0,0:0:0:0:
64,192,60611,1,0,0:0:0:0:
192,192,60728,1,0,0:0:0:0:
320,192,60728,1,0,0:0:0:0:
448,192,60728,1,0,0:0:0:0:
448,192,60845,1,0,0:0:0:0:
192,192,60962,1,0,0:0:0:0:
64,192,60962,1,0,0:0:0:0:
320,192,60962,1,0,0:0:0:0:
320,192,61079,1,0,0:0:0:0:
64,192,61196,1,0,0:0:0:0:
448,192,61196,1,0,0:0:0:0:
192,192,61196,1,0,0:0:0:0:
192,192,61313,1,0,0:0:0:0:
320,192,61430,1,0,0:0:0:0:
448,192,61430,1,0,0:0:0:0:
64,192,61430,1,0,0:0:0:0:
192,192,61547,1,0,0:0:0:0:
320,192,61664,1,0,0:0:0:0:
64,192,61664,1,0,0:0:0:0:
448,192,61664,1,0,0:0:0:0:
448,192,61781,1,0,0:0:0:0:
64,192,61898,1,0,0:0:0:0:
192,192,61898,1,0,0:0:0:0:
320,192,61898,1,0,0:0:0:0:
320,192,62014,1,0,0:0:0:0:
448,192,62131,1,0,0:0:0:0:
192,192,62131,1,0,0:0:0:0:
64,192,62131,1,0,0:0:0:0:
64,192,62248,1,0,0:0:0:0:
320,192,62365,1,0,0:0:0:0:
448,192,62365,1,0,0:0:0:0:
192,192,62365,1,0,0:0:0:0:
192,192,62482,1,0,0:0:0:0:
64,192,62599,1,0,0:0:0:0:
320,192,62599,1,0,0:0:0:0:
448,192,62599,1,0,0:0:0:0:
448,192,62716,1,0,0:0:0:0:
192,192,62833,1,0,0:0:0:0:
64,192,62833,1,0,0:0:0:0:
320,192,62833,1,0,0:0:0:0:
320,192,62950,1,0,0:0:0:0:
192,192,63067,1,0,0:0:0:0:
448,192,63067,1,0,0:0:0:0:
64,192,63067,1,0,0:0:0:0:
64,192,63184,1,0,0:0:0:0:
448,192,63301,1,0,0:0:0:0:
320,192,63301,1,0,0:0:0:0:
192,192,63301,1,0,0:0:0:0:
192,192,63418,1,0,0:0:0:0:
64,192,63535,1,0,0:0:0:0:
320,192,63535,1,4,0:0:0:0:
448,192,63535,1,0,0:0:0:0:
192,192,63652,1,0,0:0:0:0:
448,192,63769,1,4,0:0:0:0:
320,192,63769,1,0,0:0:0:0:
320,192,63827,1,0,0:0:0:0:
448,192,63827,1,0,0:0:0:0:
448,192,63886,1,0,0:0:0:0:
320,192,63886,1,0,0:0:0:0:
320,192,63944,1,0,0:0:0:0:
448,192,63944,1,0,0:0:0:0:
448,192,64003,1,0,0:0:0:0:
320,192,64003,1,0,0:0:0:0:
320,192,64061,1,0,0:0:0:0:
448,192,64061,1,0,0:0:0:0:
448,192,64120,1,0,0:0:0:0:
320,192,64120,1,0,0:0:0:0:
320,192,64178,1,0,0:0:0:0:
448,192,64178,1,0,0:0:0:0:
192,192,64237,1,4,0:0:0:0:
64,192,64237,1,0,0:0:0:0:
192,192,64295,1,0,0:0:0:0:
64,192,64295,1,0,0:0:0:0:
64,192,64354,1,0,0:0:0:0:
192,192,64354,1,0,0:0:0:0:
192,192,64412,1,0,0:0:0:0:
64,192,64412,1,0,0:0:0:0:
64,192,64471,5,0,0:0:0:0:
192,192,64471,1,0,0:0:0:0:
192,192,64529,1,0,0:0:0:0:
64,192,64529,1,0,0:0:0:0:
64,192,64588,1,0,0:0:0:0:
192,192,64588,1,0,0:0:0:0:
192,192,64646,1,0,0:0:0:0:
64,192,64646,1,0,0:0:0:0:
64,192,64705,1,0,0:0:0:0:
192,192,64705,1,0,0:0:0:0:
192,192,64763,1,0,0:0:0:0:
64,192,64763,1,0,0:0:0:0:
192,192,64821,1,0,0:0:0:0:
64,192,64821,1,0,0:0:0:0:
64,192,64880,1,0,0:0:0:0:
192,192,64880,1,0,0:0:0:0:
320,192,64938,1,4,0:0:0:0:
448,192,64938,1,0,0:0:0:0:
320,192,64997,1,0,0:0:0:0:
448,192,64997,1,0,0:0:0:0:
448,192,65055,1,0,0:0:0:0:
320,192,65055,1,0,0:0:0:0:
320,192,65114,1,0,0:0:0:0:
448,192,65114,1,0,0:0:0:0:
320,192,65172,1,0,0:0:0:0:
448,192,65172,1,0,0:0:0:0:
448,192,65231,1,0,0:0:0:0:
320,192,65231,1,0,0:0:0:0:
448,192,65289,1,0,0:0:0:0:
320,192,65289,1,0,0:0:0:0:
320,192,65348,1,0,0:0:0:0:
448,192,65348,1,0,0:0:0:0:
320,192,65406,1,0,0:0:0:0:
448,192,65406,1,0,0:0:0:0:
320,192,65465,1,0,0:0:0:0:
448,192,65465,1,0,0:0:0:0:
448,192,65523,1,0,0:0:0:0:
320,192,65523,1,0,0:0:0:0:
320,192,65582,1,0,0:0:0:0:
448,192,65582,1,0,0:0:0:0:
64,192,65640,5,0,0:0:0:0:
192,192,65640,1,4,0:0:0:0:
320,192,65640,1,0,0:0:0:0:
192,192,65699,1,0,0:0:0:0:
320,192,65699,1,0,0:0:0:0:
64,192,65699,1,0,0:0:0:0:
320,192,65757,1,0,0:0:0:0:
64,192,65757,1,0,0:0:0:0:
192,192,65757,1,0,0:0:0:0:
192,192,65816,1,0,0:0:0:0:
320,192,65816,1,0,0:0:0:0:
64,192,65816,1,0,0:0:0:0:
192,192,65874,1,0,0:0:0:0:
64,192,65874,1,0,0:0:0:0:
320,192,65874,1,0,0:0:0:0:
320,192,65933,1,0,0:0:0:0:
192,192,65933,1,0,0:0:0:0:
64,192,65933,1,0,0:0:0:0:
320,192,65991,1,0,0:0:0:0:
192,192,65991,1,0,0:0:0:0:
64,192,65991,1,0,0:0:0:0:
64,192,66050,1,0,0:0:0:0:
192,192,66050,1,0,0:0:0:0:
320,192,66050,1,0,0:0:0:0:
192,192,66108,1,0,0:0:0:0:
320,192,66108,1,0,0:0:0:0:
64,192,66108,1,0,0:0:0:0:
448,192,66167,1,0,0:0:0:0:
192,192,66167,1,0,0:0:0:0:
320,192,66167,1,0,0:0:0:0:
192,192,66225,1,0,0:0:0:0:
320,192,66225,1,0,0:0:0:0:
448,192,66225,1,0,0:0:0:0:
192,192,66283,1,0,0:0:0:0:
448,192,66283,1,0,0:0:0:0:
320,192,66283,1,0,0:0:0:0:
320,192,66342,1,0,0:0:0:0:
448,192,66342,1,0,0:0:0:0:
192,192,66342,1,0,0:0:0:0:
192,192,66400,1,0,0:0:0:0:
320,192,66400,1,0,0:0:0:0:
448,192,66400,1,0,0:0:0:0:
192,192,66459,1,0,0:0:0:0:
448,192,66459,1,0,0:0:0:0:
320,192,66459,1,0,0:0:0:0:
320,192,66517,1,0,0:0:0:0:
192,192,66517,1,0,0:0:0:0:
448,192,66517,1,0,0:0:0:0:
448,192,66576,1,0,0:0:0:0:
192,192,66576,1,0,0:0:0:0:
320,192,66576,1,0,0:0:0:0:
320,192,66634,1,0,0:0:0:0:
448,192,66634,1,0,0:0:0:0:
320,192,66693,1,0,0:0:0:0:
448,192,66693,1,0,0:0:0:0:
448,192,66751,1,0,0:0:0:0:
320,192,66751,1,0,0:0:0:0:
320,192,66810,1,0,0:0:0:0:
448,192,66810,1,0,0:0:0:0:
320,192,66868,1,0,0:0:0:0:
448,192,66868,1,0,0:0:0:0:
448,192,66927,1,0,0:0:0:0:
320,192,66927,1,0,0:0:0:0:
320,192,66985,1,0,0:0:0:0:
448,192,66985,1,0,0:0:0:0:
192,192,67044,1,0,0:0:0:0:
448,192,67044,1,0,0:0:0:0:
64,192,67044,1,0,0:0:0:0:
448,192,67102,1,0,0:0:0:0:
192,192,67102,1,0,0:0:0:0:
64,192,67102,1,0,0:0:0:0:
64,192,67161,1,0,0:0:0:0:
192,192,67161,1,0,0:0:0:0:
448,192,67161,1,0,0:0:0:0:
448,192,67219,1,0,0:0:0:0:
192,192,67219,1,0,0:0:0:0:
64,192,67219,1,0,0:0:0:0:
320,192,67278,1,0,0:0:0:0:
64,192,67278,1,0,0:0:0:0:
448,192,67278,1,0,0:0:0:0:
320,192,67336,1,0,0:0:0:0:
448,192,67336,1,0,0:0:0:0:
64,192,67336,1,0,0:0:0:0:
320,192,67395,1,0,0:0:0:0:
448,192,67395,1,0,0:0:0:0:
64,192,67395,1,0,0:0:0:0:
64,192,67453,1,0,0:0:0:0:
320,192,67453,1,0,0:0:0:0:
448,192,67453,1,0,0:0:0:0:
64,192,67512,5,0,0:0:0:0:
192,192,67512,1,4,0:0:0:0:
320,192,67512,1,0,0:0:0:0:
192,192,67570,1,0,0:0:0:0:
320,192,67570,1,0,0:0:0:0:
64,192,67570,1,0,0:0:0:0:
320,192,67629,1,0,0:0:0:0:
64,192,67629,1,0,0:0:0:0:
192,192,67629,1,0,0:0:0:0:
192,192,67687,1,0,0:0:0:0:
320,192,67687,1,0,0:0:0:0:
64,192,67687,1,0,0:0:0:0:
192,192,67745,1,0,0:0:0:0:
64,192,67745,1,0,0:0:0:0:
320,192,67745,1,0,0:0:0:0:
320,192,67804,1,0,0:0:0:0:
192,192,67804,1,0,0:0:0:0:
64,192,67804,1,0,0:0:0:0:
320,192,67862,1,0,0:0:0:0:
192,192,67862,1,0,0:0:0:0:
64,192,67862,1,0,0:0:0:0:
64,192,67921,1,0,0:0:0:0:
192,192,67921,1,0,0:0:0:0:
320,192,67921,1,0,0:0:0:0:
192,192,67979,1,0,0:0:0:0:
320,192,67979,1,0,0:0:0:0:
64,192,67979,1,0,0:0:0:0:
448,192,68038,1,0,0:0:0:0:
192,192,68038,1,0,0:0:0:0:
320,192,68038,1,0,0:0:0:0:
192,192,68096,1,0,0:0:0:0:
320,192,68096,1,0,0:0:0:0:
448,192,68096,1,0,0:0:0:0:
192,192,68155,1,0,0:0:0:0:
448,192,68155,1,0,0:0:0:0:
320,192,68155,1,0,0:0:0:0:
320,192,68213,1,0,0:0:0:0:
448,192,68213,1,0,0:0:0:0:
192,192,68213,1,0,0:0:0:0:
192,192,68272,1,0,0:0:0:0:
320,192,68272,1,0,0:0:0:0:
448,192,68272,1,0,0:0:0:0:
192,192,68330,1,0,0:0:0:0:
448,192,68330,1,0,0:0:0:0:
320,192,68330,1,0,0:0:0:0:
320,192,68389,1,0,0:0:0:0:
192,192,68389,1,0,0:0:0:0:
448,192,68389,1,0,0:0:0:0:
448,192,68447,1,0,0:0:0:0:
192,192,68447,1,0,0:0:0:0:
320,192,68447,1,0,0:0:0:0:
320,192,68506,1,0,0:0:0:0:
448,192,68506,1,0,0:0:0:0:
320,192,68564,1,0,0:0:0:0:
448,192,68564,1,0,0:0:0:0:
448,192,68623,1,0,0:0:0:0:
320,192,68623,1,0,0:0:0:0:
320,192,68681,1,0,0:0:0:0:
448,192,68681,1,0,0:0:0:0:
320,192,68740,1,0,0:0:0:0:
448,192,68740,1,0,0:0:0:0:
448,192,68798,1,0,0:0:0:0:
320,192,68798,1,0,0:0:0:0:
320,192,68857,1,0,0:0:0:0:
448,192,68857,1,0,0:0:0:0:
192,192,68915,1,0,0:0:0:0:
448,192,68915,1,0,0:0:0:0:
64,192,68915,1,0,0:0:0:0:
448,192,68974,1,0,0:0:0:0:
192,192,68974,1,0,0:0:0:0:
64,192,68974,1,0,0:0:0:0:
64,192,69032,1,0,0:0:0:0:
192,192,69032,1,0,0:0:0:0:
448,192,69032,1,0,0:0:0:0:
448,192,69091,1,0,0:0:0:0:
192,192,69091,1,0,0:0:0:0:
64,192,69091,1,0,0:0:0:0:
320,192,69149,1,0,0:0:0:0:
64,192,69149,1,0,0:0:0:0:
448,192,69149,1,0,0:0:0:0:
320,192,69207,1,0,0:0:0:0:
448,192,69207,1,0,0:0:0:0:
64,192,69207,1,0,0:0:0:0:
320,192,69266,1,0,0:0:0:0:
448,192,69266,1,0,0:0:0:0:
64,192,69266,1,0,0:0:0:0:
64,192,69324,1,0,0:0:0:0:
320,192,69324,1,0,0:0:0:0:
448,192,69324,1,0,0:0:0:0:
64,192,69383,5,0,0:0:0:0:
320,192,69383,1,0,0:0:0:0:
192,192,69383,1,4,0:0:0:0:
64,192,69441,1,0,0:0:0:0:
320,192,69441,1,0,0:0:0:0:
192,192,69441,1,0,0:0:0:0:
192,192,69500,1,0,0:0:0:0:
64,192,69500,1,0,0:0:0:0:
320,192,69500,1,0,0:0:0:0:
64,192,69558,1,0,0:0:0:0:
320,192,69558,1,0,0:0:0:0:
192,192,69558,1,0,0:0:0:0:
320,192,69617,1,0,0:0:0:0:
64,192,69617,1,0,0:0:0:0:
192,192,69617,1,0,0:0:0:0:
64,192,69675,1,0,0:0:0:0:
192,192,69675,1,0,0:0:0:0:
320,192,69675,1,0,0:0:0:0:
64,192,69734,1,0,0:0:0:0:
192,192,69734,1,0,0:0:0:0:
320,192,69734,1,0,0:0:0:0:
320,192,69792,1,0,0:0:0:0:
192,192,69792,1,0,0:0:0:0:
64,192,69792,1,0,0:0:0:0:
64,192,69851,1,0,0:0:0:0:
320,192,69851,1,0,0:0:0:0:
192,192,69851,1,0,0:0:0:0:
320,192,69909,1,0,0:0:0:0:
192,192,69909,1,0,0:0:0:0:
448,192,69909,1,0,0:0:0:0:
448,192,69968,1,0,0:0:0:0:
320,192,69968,1,0,0:0:0:0:
192,192,69968,1,0,0:0:0:0:
320,192,70026,1,0,0:0:0:0:
448,192,70026,1,0,0:0:0:0:
192,192,70026,1,0,0:0:0:0:
192,192,70085,1,0,0:0:0:0:
448,192,70085,1,0,0:0:0:0:
320,192,70085,1,0,0:0:0:0:
448,192,70143,1,0,0:0:0:0:
320,192,70143,1,0,0:0:0:0:
192,192,70143,1,0,0:0:0:0:
320,192,70202,1,0,0:0:0:0:
448,192,70202,1,0,0:0:0:0:
192,192,70202,1,0,0:0:0:0:
448,192,70260,1,0,0:0:0:0:
192,192,70260,1,0,0:0:0:0:
320,192,70260,1,0,0:0:0:0:
320,192,70319,1,0,0:0:0:0:
192,192,70319,1,0,0:0:0:0:
448,192,70319,1,0,0:0:0:0:
448,192,70377,1,0,0:0:0:0:
320,192,70377,1,0,0:0:0:0:
448,192,70436,1,0,0:0:0:0:
320,192,70436,1,0,0:0:0:0:
320,192,70494,1,0,0:0:0:0:
448,192,70494,1,0,0:0:0:0:
192,192,70552,1,0,0:0:0:0:
64,192,70552,1,0,0:0:0:0:
192,192,70611,1,0,0:0:0:0:
64,192,70611,1,0,0:0:0:0:
64,192,70669,1,0,0:0:0:0:
192,192,70669,1,0,0:0:0:0:
192,192,70728,1,0,0:0:0:0:
64,192,70728,1,0,0:0:0:0:
448,192,70786,1,0,0:0:0:0:
320,192,70786,1,0,0:0:0:0:
448,192,70845,1,0,0:0:0:0:
320,192,70845,1,0,0:0:0:0:
320,192,70903,1,0,0:0:0:0:
448,192,70903,1,0,0:0:0:0:
448,192,70962,1,0,0:0:0:0:
320,192,70962,1,0,0:0:0:0:
64,192,71020,1,0,0:0:0:0:
192,192,71020,1,0,0:0:0:0:
64,192,71079,1,0,0:0:0:0:
192,192,71079,1,0,0:0:0:0:
64,192,71137,1,0,0:0:0:0:
192,192,71137,1,0,0:0:0:0:
64,192,71196,1,0,0:0:0:0:
192,192,71196,1,0,0:0:0:0:
192,192,71254,1,0,0:0:0:0:
320,192,71254,1,0,0:0:0:0:
192,192,71313,1,0,0:0:0:0:
320,192,71313,1,0,0:0:0:0:
320,192,71371,1,0,0:0:0:0:
192,192,71371,1,0,0:0:0:0:
320,192,71430,1,0,0:0:0:0:
192,192,71430,1,0,0:0:0:0:
448,192,71488,1,0,0:0:0:0:
64,192,71488,1,0,0:0:0:0:
448,192,71547,1,0,0:0:0:0:
64,192,71547,1,0,0:0:0:0:
448,192,71605,1,0,0:0:0:0:
64,192,71605,1,0,0:0:0:0:
448,192,71664,1,0,0:0:0:0:
64,192,71664,1,0,0:0:0:0:
192,192,71722,1,0,0:0:0:0:
320,192,71722,1,0,0:0:0:0:
320,192,71781,1,0,0:0:0:0:
192,192,71781,1,0,0:0:0:0:
320,192,71839,1,0,0:0:0:0:
192,192,71839,1,0,0:0:0:0:
192,192,71898,1,0,0:0:0:0:
320,192,71898,1,0,0:0:0:0:
448,192,71956,1,0,0:0:0:0:
64,192,71956,1,0,0:0:0:0:
64,192,72014,1,0,0:0:0:0:
448,192,72014,1,0,0:0:0:0:
448,192,72073,1,0,0:0:0:0:
64,192,72073,1,0,0:0:0:0:
64,192,72131,1,0,0:0:0:0:
448,192,72131,1,0,0:0:0:0:
320,192,72190,1,0,0:0:0:0:
192,192,72190,1,0,0:0:0:0:
192,192,72248,1,0,0:0:0:0:
320,192,72248,1,0,0:0:0:0:
320,192,72307,1,0,0:0:0:0:
192,192,72307,1,0,0:0:0:0:
320,192,72365,1,0,0:0:0:0:
192,192,72365,1,0,0:0:0:0:
320,192,72424,1,0,0:0:0:0:
192,192,72424,1,0,0:0:0:0:
320,192,72482,1,0,0:0:0:0:
192,192,72482,1,0,0:0:0:0:
320,192,72541,1,0,0:0:0:0:
192,192,72541,1,0,0:0:0:0:
320,192,72599,1,0,0:0:0:0:
192,192,72599,1,0,0:0:0:0:
192,192,72658,1,0,0:0:0:0:
448,192,72658,1,0,0:0:0:0:
448,192,72716,1,0,0:0:0:0:
192,192,72716,1,0,0:0:0:0:
448,192,72775,1,0,0:0:0:0:
192,192,72775,1,0,0:0:0:0:
448,192,72833,1,0,0:0:0:0:
192,192,72833,1,0,0:0:0:0:
320,192,72892,1,0,0:0:0:0:
64,192,72892,1,0,0:0:0:0:
320,192,72950,1,0,0:0:0:0:
64,192,72950,1,0,0:0:0:0:
320,192,73009,1,0,0:0:0:0:
64,192,73009,1,0,0:0:0:0:
320,192,73067,1,0,0:0:0:0:
64,192,73067,1,0,0:0:0:0:
448,192,73126,5,0,0:0:0:0:
192,192,73126,1,0,0:0:0:0:
320,192,73126,1,4,0:0:0:0:
448,192,73184,1,0,0:0:0:0:
192,192,73184,1,0,0:0:0:0:
320,192,73184,1,0,0:0:0:0:
320,192,73243,1,0,0:0:0:0:
448,192,73243,1,0,0:0:0:0:
192,192,73243,1,0,0:0:0:0:
448,192,73301,1,0,0:0:0:0:
192,192,73301,1,0,0:0:0:0:
320,192,73301,1,0,0:0:0:0:
192,192,73360,1,0,0:0:0:0:
448,192,73360,1,0,0:0:0:0:
320,192,73360,1,0,0:0:0:0:
448,192,73418,1,0,0:0:0:0:
320,192,73418,1,0,0:0:0:0:
192,192,73418,1,0,0:0:0:0:
448,192,73476,1,0,0:0:0:0:
320,192,73476,1,0,0:0:0:0:
192,192,73476,1,0,0:0:0:0:
192,192,73535,1,0,0:0:0:0:
320,192,73535,1,0,0:0:0:0:
448,192,73535,1,0,0:0:0:0:
448,192,73593,1,0,0:0:0:0:
192,192,73593,1,0,0:0:0:0:
320,192,73593,1,0,0:0:0:0:
192,192,73652,1,0,0:0:0:0:
320,192,73652,1,0,0:0:0:0:
64,192,73652,1,0,0:0:0:0:
64,192,73710,1,0,0:0:0:0:
192,192,73710,1,0,0:0:0:0:
320,192,73710,1,0,0:0:0:0:
192,192,73769,1,0,0:0:0:0:
64,192,73769,1,0,0:0:0:0:
320,192,73769,1,0,0:0:0:0:
320,192,73827,1,0,0:0:0:0:
64,192,73827,1,0,0:0:0:0:
192,192,73827,1,0,0:0:0:0:
64,192,73886,1,0,0:0:0:0:
192,192,73886,1,0,0:0:0:0:
320,192,73886,1,0,0:0:0:0:
192,192,73944,1,0,0:0:0:0:
64,192,73944,1,0,0:0:0:0:
320,192,73944,1,0,0:0:0:0:
64,192,74003,1,0,0:0:0:0:
320,192,74003,1,0,0:0:0:0:
192,192,74003,1,0,0:0:0:0:
192,192,74061,1,0,0:0:0:0:
320,192,74061,1,0,0:0:0:0:
64,192,74061,1,0,0:0:0:0:
64,192,74120,1,0,0:0:0:0:
192,192,74120,1,0,0:0:0:0:
64,192,74178,1,0,0:0:0:0:
192,192,74178,1,0,0:0:0:0:
192,192,74237,1,0,0:0:0:0:
64,192,74237,1,0,0:0:0:0:
64,192,74295,1,0,0:0:0:0:
192,192,74295,1,0,0:0:0:0:
64,192,74354,1,0,0:0:0:0:
192,192,74354,1,0,0:0:0:0:
192,192,74412,1,0,0:0:0:0:
64,192,74412,1,0,0:0:0:0:
64,192,74471,1,0,0:0:0:0:
192,192,74471,1,0,0:0:0:0:
448,192,74529,1,0,0:0:0:0:
64,192,74529,1,0,0:0:0:0:
320,192,74529,1,0,0:0:0:0:
448,192,74588,1,0,0:0:0:0:
320,192,74588,1,0,0:0:0:0:
64,192,74588,1,0,0:0:0:0:
64,192,74646,1,0,0:0:0:0:
320,192,74646,1,0,0:0:0:0:
448,192,74646,1,0,0:0:0:0:
448,192,74705,1,0,0:0:0:0:
320,192,74705,1,0,0:0:0:0:
64,192,74705,1,0,0:0:0:0:
64,192,74763,1,0,0:0:0:0:
448,192,74763,1,0,0:0:0:0:
192,192,74763,1,0,0:0:0:0:
448,192,74821,1,0,0:0:0:0:
64,192,74821,1,0,0:0:0:0:
192,192,74821,1,0,0:0:0:0:
448,192,74880,1,0,0:0:0:0:
64,192,74880,1,0,0:0:0:0:
192,192,74880,1,0,0:0:0:0:
64,192,74938,1,0,0:0:0:0:
192,192,74938,1,0,0:0:0:0:
448,192,74938,1,0,0:0:0:0:
448,192,74997,5,0,0:0:0:0:
192,192,74997,1,0,0:0:0:0:
320,192,74997,1,4,0:0:0:0:
448,192,75055,1,0,0:0:0:0:
192,192,75055,1,0,0:0:0:0:
320,192,75055,1,0,0:0:0:0:
320,192,75114,1,0,0:0:0:0:
448,192,75114,1,0,0:0:0:0:
192,192,75114,1,0,0:0:0:0:
448,192,75172,1,0,0:0:0:0:
192,192,75172,1,0,0:0:0:0:
320,192,75172,1,0,0:0:0:0:
192,192,75231,1,0,0:0:0:0:
448,192,75231,1,0,0:0:0:0:
320,192,75231,1,0,0:0:0:0:
448,192,75289,1,0,0:0:0:0:
320,192,75289,1,0,0:0:0:0:
192,192,75289,1,0,0:0:0:0:
448,192,75348,1,0,0:0:0:0:
320,192,75348,1,0,0:0:0:0:
192,192,75348,1,0,0:0:0:0:
192,192,75406,1,0,0:0:0:0:
320,192,75406,1,0,0:0:0:0:
448,192,75406,1,0,0:0:0:0:
448,192,75465,1,0,0:0:0:0:
192,192,75465,1,0,0:0:0:0:
320,192,75465,1,0,0:0:0:0:
192,192,75523,1,0,0:0:0:0:
320,192,75523,1,0,0:0:0:0:
64,192,75523,1,0,0:0:0:0:
64,192,75582,1,0,0:0:0:0:
192,192,75582,1,0,0:0:0:0:
320,192,75582,1,0,0:0:0:0:
192,192,75640,1,0,0:0:0:0:
64,192,75640,1,0,0:0:0:0:
320,192,75640,1,0,0:0:0:0:
320,192,75699,1,0,0:0:0:0:
64,192,75699,1,0,0:0:0:0:
192,192,75699,1,0,0:0:0:0:
64,192,75757,1,0,0:0:0:0:
192,192,75757,1,0,0:0:0:0:
320,192,75757,1,0,0:0:0:0:
192,192,75816,1,0,0:0:0:0:
64,192,75816,1,0,0:0:0:0:
320,192,75816,1,0,0:0:0:0:
64,192,75874,1,0,0:0:0:0:
320,192,75874,1,0,0:0:0:0:
192,192,75874,1,0,0:0:0:0:
192,192,75933,1,0,0:0:0:0:
320,192,75933,1,0,0:0:0:0:
64,192,75933,1,0,0:0:0:0:
64,192,75991,1,0,0:0:0:0:
192,192,75991,1,0,0:0:0:0:
64,192,76050,1,0,0:0:0:0:
192,192,76050,1,0,0:0:0:0:
192,192,76108,1,0,0:0:0:0:
64,192,76108,1,0,0:0:0:0:
320,192,76167,1,0,0:0:0:0:
448,192,76167,1,0,0:0:0:0:
320,192,76225,1,0,0:0:0:0:
448,192,76225,1,0,0:0:0:0:
448,192,76283,1,0,0:0:0:0:
320,192,76283,1,0,0:0:0:0:
320,192,76342,1,0,0:0:0:0:
448,192,76342,1,0,0:0:0:0:
192,192,76400,1,0,0:0:0:0:
64,192,76400,1,0,0:0:0:0:
192,192,76459,1,0,0:0:0:0:
64,192,76459,1,0,0:0:0:0:
192,192,76517,1,0,0:0:0:0:
64,192,76517,1,0,0:0:0:0:
192,192,76576,1,0,0:0:0:0:
64,192,76576,1,0,0:0:0:0:
64,192,76634,1,0,0:0:0:0:
448,192,76634,1,0,0:0:0:0:
192,192,76634,1,0,0:0:0:0:
320,192,76634,1,0,0:0:0:0:
448,192,76693,1,0,0:0:0:0:
64,192,76693,1,0,0:0:0:0:
192,192,76693,1,0,0:0:0:0:
320,192,76693,1,0,0:0:0:0:
448,192,76751,1,0,0:0:0:0:
64,192,76751,1,0,0:0:0:0:
192,192,76751,1,0,0:0:0:0:
320,192,76751,1,0,0:0:0:0:
64,192,76810,1,0,0:0:0:0:
192,192,76810,1,0,0:0:0:0:
448,192,76810,1,0,0:0:0:0:
320,192,76810,1,0,0:0:0:0:
448,192,76868,5,0,0:0:0:0:
320,192,76868,1,4,0:0:0:0:
192,192,76868,1,0,0:0:0:0:
64,192,76868,1,0,0:0:0:0:
320,192,76927,1,0,0:0:0:0:
192,192,76927,1,0,0:0:0:0:
448,192,76927,1,0,0:0:0:0:
64,192,76927,1,0,0:0:0:0:
192,192,76985,1,0,0:0:0:0:
448,192,76985,1,0,0:0:0:0:
320,192,76985,1,0,0:0:0:0:
64,192,76985,1,0,0:0:0:0:
320,192,77044,1,0,0:0:0:0:
192,192,77044,1,0,0:0:0:0:
448,192,77044,1,0,0:0:0:0:
64,192,77044,1,0,0:0:0:0:
320,192,77102,1,0,0:0:0:0:
448,192,77102,1,0,0:0:0:0:
192,192,77102,1,0,0:0:0:0:
64,192,77102,1,0,0:0:0:0:
192,192,77161,1,0,0:0:0:0:
320,192,77161,1,0,0:0:0:0:
448,192,77161,1,0,0:0:0:0:
64,192,77161,1,0,0:0:0:0:
192,192,77219,1,0,0:0:0:0:
320,192,77219,1,0,0:0:0:0:
448,192,77219,1,0,0:0:0:0:
64,192,77219,1,0,0:0:0:0:
448,192,77278,1,0,0:0:0:0:
320,192,77278,1,0,0:0:0:0:
192,192,77278,1,0,0:0:0:0:
64,192,77278,1,0,0:0:0:0:
320,192,77336,1,0,0:0:0:0:
192,192,77336,1,0,0:0:0:0:
448,192,77336,1,0,0:0:0:0:
64,192,77336,1,0,0:0:0:0:
64,192,77395,1,0,0:0:0:0:
320,192,77395,1,0,0:0:0:0:
192,192,77395,1,0,0:0:0:0:
448,192,77395,1,0,0:0:0:0:
320,192,77453,1,0,0:0:0:0:
192,192,77453,1,0,0:0:0:0:
64,192,77453,1,0,0:0:0:0:
448,192,77453,1,0,0:0:0:0:
320,192,77512,1,0,0:0:0:0:
64,192,77512,1,0,0:0:0:0:
192,192,77512,1,0,0:0:0:0:
448,192,77512,1,0,0:0:0:0:
192,192,77570,1,0,0:0:0:0:
64,192,77570,1,0,0:0:0:0:
320,192,77570,1,0,0:0:0:0:
448,192,77570,1,0,0:0:0:0:
320,192,77629,1,0,0:0:0:0:
192,192,77629,1,0,0:0:0:0:
64,192,77629,1,0,0:0:0:0:
448,192,77629,1,0,0:0:0:0:
320,192,77687,1,0,0:0:0:0:
64,192,77687,1,0,0:0:0:0:
192,192,77687,1,0,0:0:0:0:
448,192,77687,1,0,0:0:0:0:
192,192,77745,1,0,0:0:0:0:
320,192,77745,1,0,0:0:0:0:
64,192,77745,1,0,0:0:0:0:
448,192,77745,1,0,0:0:0:0:
64,192,77804,1,0,0:0:0:0:
320,192,77804,1,0,0:0:0:0:
192,192,77804,1,0,0:0:0:0:
448,192,77804,1,0,0:0:0:0:
192,192,77862,1,0,0:0:0:0:
64,192,77862,1,0,0:0:0:0:
320,192,77862,1,0,0:0:0:0:
448,192,77862,1,0,0:0:0:0:
192,192,77921,1,0,0:0:0:0:
64,192,77921,1,0,0:0:0:0:
448,192,77921,1,0,0:0:0:0:
320,192,77921,1,0,0:0:0:0:
64,192,77979,1,0,0:0:0:0:
192,192,77979,1,0,0:0:0:0:
448,192,77979,1,0,0:0:0:0:
320,192,77979,1,0,0:0:0:0:
448,192,78038,1,0,0:0:0:0:
320,192,78038,1,0,0:0:0:0:
448,192,78096,1,0,0:0:0:0:
320,192,78096,1,0,0:0:0:0:
320,192,78155,1,0,0:0:0:0:
448,192,78155,1,0,0:0:0:0:
448,192,78213,1,0,0:0:0:0:
320,192,78213,1,0,0:0:0:0:
192,192,78272,1,0,0:0:0:0:
64,192,78272,1,0,0:0:0:0:
192,192,78330,1,0,0:0:0:0:
64,192,78330,1,0,0:0:0:0:
64,192,78389,1,0,0:0:0:0:
192,192,78389,1,0,0:0:0:0:
192,192,78447,1,0,0:0:0:0:
64,192,78447,1,0,0:0:0:0:
320,192,78506,1,0,0:0:0:0:
448,192,78506,1,0,0:0:0:0:
320,192,78564,1,0,0:0:0:0:
448,192,78564,1,0,0:0:0:0:
320,192,78623,1,0,0:0:0:0:
448,192,78623,1,0,0:0:0:0:
320,192,78681,1,0,0:0:0:0:
448,192,78681,1,0,0:0:0:0:
320,192,78740,128,0,78769:0:0:0:0:
448,192,78740,128,0,78769:0:0:0:0:
192,192,78740,128,0,78769:0:0:0:0:
64,192,78740,128,0,78769:0:0:0:0:
192,192,78798,128,0,78827:0:0:0:0:
64,192,78798,128,0,78827:0:0:0:0:
448,192,78798,128,0,78827:0:0:0:0:
320,192,78798,128,0,78827:0:0:0:0:
448,192,78857,128,0,78886:0:0:0:0:
192,192,78857,128,0,78886:0:0:0:0:
64,192,78857,128,0,78886:0:0:0:0:
320,192,78857,128,0,78886:0:0:0:0:
448,192,78915,128,0,78944:0:0:0:0:
320,192,78915,128,0,78944:0:0:0:0:
64,192,78915,128,0,78944:0:0:0:0:
192,192,78915,128,0,78944:0:0:0:0:
448,192,78974,128,0,79003:0:0:0:0:
192,192,78974,128,0,79003:0:0:0:0:
64,192,78974,128,0,79003:0:0:0:0:
320,192,78974,128,0,79003:0:0:0:0:
192,192,79032,128,0,79061:0:0:0:0:
448,192,79032,128,0,79061:0:0:0:0:
64,192,79032,128,0,79061:0:0:0:0:
320,192,79032,128,0,79061:0:0:0:0:
320,192,79091,128,0,79120:0:0:0:0:
448,192,79091,128,0,79120:0:0:0:0:
192,192,79091,128,0,79120:0:0:0:0:
64,192,79091,128,0,79120:0:0:0:0:
192,192,79149,128,0,79178:0:0:0:0:
320,192,79149,128,0,79178:0:0:0:0:
64,192,79149,128,0,79178:0:0:0:0:
448,192,79149,128,0,79178:0:0:0:0:
320,192,79207,128,0,79237:0:0:0:0:
448,192,79207,128,0,79237:0:0:0:0:
64,192,79207,128,0,79237:0:0:0:0:
192,192,79207,128,0,79237:0:0:0:0:
64,192,79266,128,0,79295:0:0:0:0:
448,192,79266,128,0,79295:0:0:0:0:
192,192,79266,128,0,79295:0:0:0:0:
320,192,79266,128,0,79295:0:0:0:0:
192,192,79324,128,0,79354:0:0:0:0:
448,192,79324,128,0,79354:0:0:0:0:
64,192,79324,128,0,79354:0:0:0:0:
320,192,79324,128,0,79354:0:0:0:0:
64,192,79383,1,0,0:0:0:0:
192,192,79383,1,0,0:0:0:0:
320,192,79383,1,0,0:0:0:0:
448,192,79383,1,0,0:0:0:0:
64,192,79441,128,0,79471:0:0:0:0:
192,192,79441,128,0,79471:0:0:0:0:
320,192,79441,128,0,79471:0:0:0:0:
448,192,79441,128,0,79471:0:0:0:0:
192,192,79500,128,0,79529:0:0:0:0:
320,192,79500,128,0,79529:0:0:0:0:
64,192,79500,128,0,79529:0:0:0:0:
448,192,79500,128,0,79529:0:0:0:0:
64,192,79558,128,0,79588:0:0:0:0:
320,192,79558,128,0,79588:0:0:0:0:
192,192,79558,128,0,79588:0:0:0:0:
448,192,79558,128,0,79588:0:0:0:0:
192,192,79617,128,0,79646:0:0:0:0:
448,192,79617,128,0,79646:0:0:0:0:
64,192,79617,128,0,79646:0:0:0:0:
320,192,79617,128,0,79646:0:0:0:0:
320,192,79675,128,0,79705:0:0:0:0:
448,192,79675,128,0,79705:0:0:0:0:
64,192,79675,128,0,79705:0:0:0:0:
192,192,79675,128,0,79705:0:0:0:0:
320,192,79734,128,0,79763:0:0:0:0:
192,192,79734,128,0,79763:0:0:0:0:
448,192,79734,128,0,79763:0:0:0:0:
64,192,79734,128,0,79763:0:0:0:0:
192,192,79792,128,0,79821:0:0:0:0:
320,192,79792,128,0,79821:0:0:0:0:
448,192,79792,128,0,79821:0:0:0:0:
64,192,79792,128,0,79821:0:0:0:0:
192,192,79851,128,0,79880:0:0:0:0:
448,192,79851,128,0,79880:0:0:0:0:
64,192,79851,128,0,79880:0:0:0:0:
320,192,79851,128,0,79880:0:0:0:0:
320,192,79909,128,0,79938:0:0:0:0:
192,192,79909,128,0,79938:0:0:0:0:
448,192,79909,128,0,79938:0:0:0:0:
64,192,79909,128,0,79938:0:0:0:0:
448,192,79968,128,0,79997:0:0:0:0:
320,192,79968,128,0,79997:0:0:0:0:
64,192,79968,128,0,79997:0:0:0:0:
192,192,79968,128,0,79997:0:0:0:0:
448,192,80026,128,0,80055:0:0:0:0:
192,192,80026,128,0,80055:0:0:0:0:
320,192,80026,128,0,80055:0:0:0:0:
64,192,80026,128,0,80055:0:0:0:0:
64,192,80085,128,0,80114:0:0:0:0:
320,192,80085,128,0,80114:0:0:0:0:
192,192,80085,128,0,80114:0:0:0:0:
448,192,80085,128,0,80114:0:0:0:0:
64,192,80143,1,0,0:0:0:0:
320,192,80143,1,0,0:0:0:0:
320,192,80202,1,0,0:0:0:0:
64,192,80202,1,0,0:0:0:0:
320,192,80260,1,0,0:0:0:0:
64,192,80260,1,0,0:0:0:0:
320,192,80319,1,0,0:0:0:0:
64,192,80319,1,0,0:0:0:0:
448,192,80377,1,0,0:0:0:0:
192,192,80377,1,0,0:0:0:0:
448,192,80436,1,0,0:0:0:0:
192,192,80436,1,0,0:0:0:0:
448,192,80494,1,0,0:0:0:0:
192,192,80494,1,0,0:0:0:0:
448,192,80552,1,0,0:0:0:0:
192,192,80552,1,0,0:0:0:0:
320,192,80611,1,0,0:0:0:0:
448,192,80611,1,0,0:0:0:0:
192,192,80611,1,0,0:0:0:0:
64,192,80611,1,0,0:0:0:0:
448,192,80845,1,0,0:0:0:0:
320,192,80845,1,0,0:0:0:0:
192,192,80845,1,0,0:0:0:0:
64,192,80845,1,0,0:0:0:0:
64,192,81079,1,0,0:0:0:0:
192,192,81079,1,0,0:0:0:0:
320,192,81079,1,0,0:0:0:0:
448,192,81079,1,0,0:0:0:0:
320,192,81313,1,0,0:0:0:0:
192,192,81313,1,0,0:0:0:0:
448,192,81313,1,0,0:0:0:0:
64,192,81313,1,0,0:0:0:0:
192,192,81547,1,0,0:0:0:0:
448,192,81547,1,0,0:0:0:0:
64,192,81547,1,0,0:0:0:0:
320,192,81547,1,0,0:0:0:0:
448,192,81781,1,0,0:0:0:0:
192,192,81781,1,0,0:0:0:0:
320,192,81781,1,0,0:0:0:0:
64,192,81781,1,0,0:0:0:0:
448,192,82014,1,0,0:0:0:0:
64,192,82014,1,0,0:0:0:0:
320,192,82014,1,0,0:0:0:0:
192,192,82014,1,0,0:0:0:0:
64,192,82248,1,0,0:0:0:0:
320,192,82248,1,0,0:0:0:0:
192,192,82248,1,0,0:0:0:0:
448,192,82248,1,0,0:0:0:0:
320,192,82482,1,0,0:0:0:0:
64,192,82482,1,0,0:0:0:0:
448,192,82482,1,0,0:0:0:0:
192,192,82482,1,0,0:0:0:0:
320,192,83886,1,0,0:0:0:0:
448,192,83886,1,0,0:0:0:0:
192,192,83886,1,0,0:0:0:0:
64,192,83886,1,0,0:0:0:0:
192,192,83944,1,0,0:0:0:0:
64,192,83944,1,0,0:0:0:0:
320,192,83944,1,0,0:0:0:0:
448,192,83944,1,0,0:0:0:0:
192,192,84003,1,0,0:0:0:0:
64,192,84003,1,0,0:0:0:0:
448,192,84003,1,0,0:0:0:0:
320,192,84003,1,0,0:0:0:0:
320,192,84061,1,0,0:0:0:0:
448,192,84061,1,0,0:0:0:0:
192,192,84061,1,0,0:0:0:0:
64,192,84061,1,0,0:0:0:0:
448,192,84120,1,0,0:0:0:0:
192,192,84120,1,0,0:0:0:0:
320,192,84120,1,0,0:0:0:0:
64,192,84120,1,0,0:0:0:0:
64,192,84178,1,0,0:0:0:0:
192,192,84178,1,0,0:0:0:0:
320,192,84178,1,0,0:0:0:0:
448,192,84178,1,0,0:0:0:0:
192,192,84237,1,0,0:0:0:0:
448,192,84237,1,0,0:0:0:0:
320,192,84237,1,0,0:0:0:0:
64,192,84237,1,0,0:0:0:0:
320,192,84295,1,0,0:0:0:0:
64,192,84295,1,0,0:0:0:0:
192,192,84295,1,0,0:0:0:0:
448,192,84295,1,0,0:0:0:0:
448,192,84354,1,4,0:0:0:0:
64,192,84354,1,0,0:0:0:0:
192,192,84354,1,0,0:0:0:0:
320,192,84354,1,0,0:0:0:0:
