osu file format v14

[General]
AudioFilename: audio.mp3
AudioLeadIn: 0
PreviewTime: 396866
Countdown: 0
SampleSet: Soft
StackLeniency: 0.7
Mode: 3
LetterboxInBreaks: 0
SpecialStyle: 0
WidescreenStoryboard: 0

[Editor]
DistanceSpacing: 1.1
BeatDivisor: 4
GridSize: 16
TimelineZoom: 8

[Metadata]
Title:6th KAC Original Song Contest Course Part 1
TitleUnicode:6th KAC Original Song Contest Course Part 1
Artist:Various Artist
ArtistUnicode:Various Artist
Creator:Aras25
Version:4th HEAVEN COURSE
Source:SOUND VOLTEX IV HEAVENLY HEAVEN
Tags:Fin.ArcDeaR HE4VEN ~天国へようこそ~ tengoku e he youkoso Immortal saga infinite:youniverse Make Magic Lite Show かゆき kayuki Noah MisoilePunch ~タケノコ添え~ カモメサノエレクトリックオーケストラ kamome sano electric orchestra fresh chicken lenfried- rido MEGAtive minseo2000 critical_star marathon
BeatmapID:1216554
BeatmapSetID:574422

[Difficulty]
HPDrainRate:8
CircleSize:4
OverallDifficulty:9
ApproachRate:5
SliderMultiplier:1.4
SliderTickRate:1

[Events]
//Background and Video events
0,0,"daawd.jpg",0,0
//Break Periods
2,116791,352030
2,431975,472148
//Storyboard Layer 0 (Background)
//Storyboard Layer 1 (Fail)
//Storyboard Layer 2 (Pass)
//Storyboard Layer 3 (Foreground)
//Storyboard Sound Samples

[TimingPoints]
1525,266.666666666667,4,2,1,0,1,0
120033,234.375,4,2,1,0,1,0
241408,292.682926829268,4,2,1,0,1,0
353230,272.727272727273,4,2,1,0,1,0
473348,260.869565217391,4,2,1,0,1,0

[HitObjects]
448,192,991,5,0,0:0:0:0:
320,192,1058,1,0,0:0:0:0:
192,192,1124,1,0,0:0:0:0:
320,192,1191,1,0,0:0:0:0:
448,192,1258,1,0,0:0:0:0:
64,192,1324,1,0,0:0:0:0:
192,192,1391,1,0,0:0:0:0:
320,192,1458,1,0,0:0:0:0:
448,192,1525,1,0,0:0:0:0:
192,192,1525,1,0,0:0:0:0:
64,192,1525,1,0,0:0:0:0:
320,192,1725,1,0,0:0:0:0:
448,192,1725,1,0,0:0:0:0:
64,192,1725,1,0,0:0:0:0:
192,192,1925,1,0,0:0:0:0:
320,192,1925,1,0,0:0:0:0:
448,192,1925,1,0,0:0:0:0:
64,192,2191,1,0,0:0:0:0:
320,192,2325,1,0,0:0:0:0:
448,192,2458,1,0,0:0:0:0:
192,192,2591,1,0,0:0:0:0:
64,192,2725,1,0,0:0:0:0:
320,192,2858,1,0,0:0:0:0:
192,192,2991,1,0,0:0:0:0:
448,192,3125,1,0,0:0:0:0:
64,192,3191,1,0,0:0:0:0:
320,192,3258,1,0,0:0:0:0:
192,192,3325,1,0,0:0:0:0:
64,192,3391,1,0,0:0:0:0:
448,192,3391,1,0,0:0:0:0:
320,192,3458,1,0,0:0:0:0:
192,192,3525,1,0,0:0:0:0:
64,192,3525,1,0,0:0:0:0:
320,192,3591,1,0,0:0:0:0:
448,192,3658,1,0,0:0:0:0:
192,192,3658,1,0,0:0:0:0:
64,192,3658,1,0,0:0:0:0:
320,192,3858,1,0,0:0:0:0:
448,192,3858,1,0,0:0:0:0:
64,192,3858,1,0,0:0:0:0:
192,192,4058,1,0,0:0:0:0:
64,192,4058,1,0,0:0:0:0:
448,192,4058,1,0,0:0:0:0:
320,192,4325,1,0,0:0:0:0:
192,192,4458,1,0,0:0:0:0:
448,192,4591,1,0,0:0:0:0:
64,192,4725,1,0,0:0:0:0:
448,192,4858,1,0,0:0:0:0:
320,192,4991,1,0,0:0:0:0:
192,192,5125,1,0,0:0:0:0:
64,192,5125,1,0,0:0:0:0:
320,192,5191,1,0,0:0:0:0:
448,192,5258,1,0,0:0:0:0:
64,192,5258,1,0,0:0:0:0:
192,192,5391,1,0,0:0:0:0:
320,192,5458,1,0,0:0:0:0:
448,192,5458,1,0,0:0:0:0:
192,192,5525,1,0,0:0:0:0:
64,192,5591,1,0,0:0:0:0:
320,192,5658,1,0,0:0:0:0:
448,192,5658,1,0,0:0:0:0:
192,192,5725,1,0,0:0:0:0:
64,192,5791,1,0,0:0:0:0:
320,192,5791,1,0,0:0:0:0:
448,192,5791,1,0,0:0:0:0:
192,192,5991,1,0,0:0:0:0:
64,192,5991,1,0,0:0:0:0:
448,192,5991,1,0,0:0:0:0:
320,192,6191,1,0,0:0:0:0:
64,192,6191,1,0,0:0:0:0:
448,192,6191,1,0,0:0:0:0:
320,192,6458,1,0,0:0:0:0:
192,192,6591,1,0,0:0:0:0:
320,192,6725,1,0,0:0:0:0:
448,192,6858,1,0,0:0:0:0:
64,192,6858,1,0,0:0:0:0:
192,192,6991,1,0,0:0:0:0:
320,192,7125,1,0,0:0:0:0:
192,192,7258,1,0,0:0:0:0:
448,192,7391,1,0,0:0:0:0:
320,192,7525,1,0,0:0:0:0:
192,192,7658,1,0,0:0:0:0:
64,192,7791,1,0,0:0:0:0:
192,192,7925,1,0,0:0:0:0:
320,192,7925,1,0,0:0:0:0:
448,192,7925,1,0,0:0:0:0:
448,192,8125,1,0,0:0:0:0:
320,192,8125,1,0,0:0:0:0:
64,192,8125,1,0,0:0:0:0:
320,192,8325,1,0,0:0:0:0:
192,192,8325,1,0,0:0:0:0:
64,192,8325,1,0,0:0:0:0:
192,192,8591,1,0,0:0:0:0:
320,192,8591,1,0,0:0:0:0:
448,192,8591,1,0,0:0:0:0:
448,192,8725,1,0,0:0:0:0:
64,192,8725,1,0,0:0:0:0:
320,192,8858,1,0,0:0:0:0:
64,192,8858,1,0,0:0:0:0:
192,192,8991,1,0,0:0:0:0:
320,192,8991,1,0,0:0:0:0:
448,192,8991,1,0,0:0:0:0:
64,192,9125,1,0,0:0:0:0:
192,192,9191,1,0,0:0:0:0:
320,192,9258,1,0,0:0:0:0:
448,192,9258,1,0,0:0:0:0:
192,192,9391,1,0,0:0:0:0:
320,192,9458,1,0,0:0:0:0:
448,192,9525,1,0,0:0:0:0:
64,192,9525,1,0,0:0:0:0:
192,192,9591,1,0,0:0:0:0:
320,192,9658,1,0,0:0:0:0:
448,192,9658,1,0,0:0:0:0:
192,192,9725,1,0,0:0:0:0:
64,192,9791,1,0,0:0:0:0:
448,192,9791,1,0,0:0:0:0:
320,192,9858,1,0,0:0:0:0:
192,192,9925,1,0,0:0:0:0:
64,192,9925,1,0,0:0:0:0:
320,192,9991,1,0,0:0:0:0:
448,192,10058,1,0,0:0:0:0:
192,192,10058,1,0,0:0:0:0:
64,192,10058,1,0,0:0:0:0:
320,192,10191,1,0,0:0:0:0:
192,192,10258,1,0,0:0:0:0:
320,192,10325,1,0,0:0:0:0:
448,192,10325,1,0,0:0:0:0:
64,192,10391,1,0,0:0:0:0:
192,192,10458,1,0,0:0:0:0:
320,192,10525,1,0,0:0:0:0:
448,192,10591,128,0,10725:0:0:0:0:
64,192,10591,1,0,0:0:0:0:
192,192,10725,1,0,0:0:0:0:
320,192,10791,1,0,0:0:0:0:
448,192,10858,1,0,0:0:0:0:
64,192,10858,128,0,10991:0:0:0:0:
192,192,10991,128,0,11125:0:0:0:0:
448,192,11125,128,0,11258:0:0:0:0:
320,192,11125,1,0,0:0:0:0:
64,192,11258,1,0,0:0:0:0:
192,192,11325,1,0,0:0:0:0:
448,192,11391,1,0,0:0:0:0:
320,192,11391,1,0,0:0:0:0:
192,192,11458,1,0,0:0:0:0:
64,192,11525,1,0,0:0:0:0:
320,192,11591,1,0,0:0:0:0:
64,192,11658,128,0,11791:0:0:0:0:
192,192,11658,1,0,0:0:0:0:
448,192,11791,1,0,0:0:0:0:
320,192,11858,1,0,0:0:0:0:
192,192,11925,128,0,12058:0:0:0:0:
64,192,11925,1,0,0:0:0:0:
448,192,12058,128,0,12191:0:0:0:0:
320,192,12191,1,0,0:0:0:0:
64,192,12191,1,0,0:0:0:0:
192,192,12258,1,0,0:0:0:0:
448,192,12325,1,0,0:0:0:0:
320,192,12325,1,0,0:0:0:0:
64,192,12391,1,0,0:0:0:0:
192,192,12458,1,0,0:0:0:0:
448,192,12458,1,0,0:0:0:0:
320,192,12525,1,0,0:0:0:0:
64,192,12591,1,0,0:0:0:0:
192,192,12591,1,0,0:0:0:0:
64,192,12825,1,0,0:0:0:0:
320,192,12825,1,0,0:0:0:0:
448,192,12825,1,0,0:0:0:0:
192,192,13125,1,0,0:0:0:0:
448,192,13125,1,0,0:0:0:0:
320,192,13258,1,0,0:0:0:0:
64,192,13258,1,0,0:0:0:0:
192,192,13325,1,0,0:0:0:0:
448,192,13391,1,0,0:0:0:0:
320,192,13458,1,0,0:0:0:0:
192,192,13525,1,0,0:0:0:0:
64,192,13525,128,0,13791:0:0:0:0:
320,192,13791,1,0,0:0:0:0:
448,192,13791,1,0,0:0:0:0:
192,192,13925,1,0,0:0:0:0:
448,192,13925,1,0,0:0:0:0:
320,192,14058,1,0,0:0:0:0:
64,192,14058,1,0,0:0:0:0:
192,192,14191,1,0,0:0:0:0:
448,192,14191,1,0,0:0:0:0:
320,192,14325,1,0,0:0:0:0:
448,192,14325,1,0,0:0:0:0:
64,192,14325,1,0,0:0:0:0:
192,192,14391,1,0,0:0:0:0:
320,192,14458,1,0,0:0:0:0:
64,192,14591,1,0,0:0:0:0:
448,192,14591,1,0,0:0:0:0:
192,192,14658,1,0,0:0:0:0:
320,192,14725,1,0,0:0:0:0:
64,192,14858,1,0,0:0:0:0:
192,192,14858,1,0,0:0:0:0:
64,192,14991,1,0,0:0:0:0:
448,192,14991,1,0,0:0:0:0:
320,192,15125,1,0,0:0:0:0:
448,192,15125,1,0,0:0:0:0:
192,192,15258,1,0,0:0:0:0:
64,192,15258,1,0,0:0:0:0:
64,192,15391,1,0,0:0:0:0:
192,192,15391,1,0,0:0:0:0:
320,192,15525,1,0,0:0:0:0:
448,192,15525,1,0,0:0:0:0:
192,192,15658,1,0,0:0:0:0:
448,192,15658,1,0,0:0:0:0:
320,192,15791,1,0,0:0:0:0:
64,192,15791,1,0,0:0:0:0:
448,192,15925,1,0,0:0:0:0:
64,192,15925,1,0,0:0:0:0:
192,192,16058,1,0,0:0:0:0:
320,192,16058,1,0,0:0:0:0:
448,192,16191,1,0,0:0:0:0:
192,192,16191,1,0,0:0:0:0:
64,192,16325,1,0,0:0:0:0:
320,192,16325,1,0,0:0:0:0:
448,192,16458,1,0,0:0:0:0:
192,192,16458,1,0,0:0:0:0:
64,192,16458,1,0,0:0:0:0:
320,192,16525,1,0,0:0:0:0:
192,192,16591,1,0,0:0:0:0:
64,192,16658,1,0,0:0:0:0:
448,192,16725,1,0,0:0:0:0:
320,192,16791,1,0,0:0:0:0:
192,192,16858,1,0,0:0:0:0:
64,192,16858,1,0,0:0:0:0:
320,192,16925,1,0,0:0:0:0:
448,192,16991,1,0,0:0:0:0:
64,192,16991,1,0,0:0:0:0:
192,192,17125,1,0,0:0:0:0:
320,192,17125,1,0,0:0:0:0:
448,192,17258,1,0,0:0:0:0:
64,192,17258,1,0,0:0:0:0:
192,192,17391,1,0,0:0:0:0:
320,192,17391,1,0,0:0:0:0:
192,192,17525,1,0,0:0:0:0:
64,192,17525,1,0,0:0:0:0:
448,192,17525,1,0,0:0:0:0:
320,192,17658,1,0,0:0:0:0:
64,192,17658,1,0,0:0:0:0:
192,192,17791,1,0,0:0:0:0:
320,192,17791,1,0,0:0:0:0:
448,192,17791,1,0,0:0:0:0:
192,192,17925,1,0,0:0:0:0:
64,192,17925,1,0,0:0:0:0:
320,192,18058,1,0,0:0:0:0:
448,192,18058,1,0,0:0:0:0:
192,192,18147,1,0,0:0:0:0:
64,192,18147,1,0,0:0:0:0:
320,192,18236,1,0,0:0:0:0:
448,192,18236,1,0,0:0:0:0:
192,192,18325,1,0,0:0:0:0:
64,192,18325,1,0,0:0:0:0:
320,192,18413,1,0,0:0:0:0:
448,192,18413,1,0,0:0:0:0:
192,192,18502,1,0,0:0:0:0:
64,192,18591,1,0,0:0:0:0:
320,192,18591,1,0,0:0:0:0:
448,192,18591,128,0,20725:0:0:0:0:
192,192,18858,1,0,0:0:0:0:
320,192,18858,1,0,0:0:0:0:
192,192,19036,1,0,0:0:0:0:
64,192,19125,1,0,0:0:0:0:
320,192,19125,1,0,0:0:0:0:
192,192,19391,1,0,0:0:0:0:
64,192,19391,1,0,0:0:0:0:
320,192,19658,1,0,0:0:0:0:
64,192,19658,1,0,0:0:0:0:
320,192,19791,1,0,0:0:0:0:
192,192,19791,1,0,0:0:0:0:
192,192,19925,1,0,0:0:0:0:
64,192,19925,1,0,0:0:0:0:
320,192,20058,1,0,0:0:0:0:
192,192,20191,1,0,0:0:0:0:
64,192,20191,1,0,0:0:0:0:
320,192,20258,1,0,0:0:0:0:
64,192,20325,1,0,0:0:0:0:
192,192,20391,1,0,0:0:0:0:
320,192,20458,1,0,0:0:0:0:
64,192,20458,1,0,0:0:0:0:
192,192,20591,1,0,0:0:0:0:
192,192,20725,1,0,0:0:0:0:
64,192,20725,1,0,0:0:0:0:
320,192,20725,1,0,0:0:0:0:
448,192,20813,1,0,0:0:0:0:
64,192,20902,1,0,0:0:0:0:
320,192,20991,1,0,0:0:0:0:
192,192,21080,1,0,0:0:0:0:
448,192,21169,1,0,0:0:0:0:
320,192,21258,1,0,0:0:0:0:
192,192,21347,1,0,0:0:0:0:
64,192,21436,1,0,0:0:0:0:
192,192,21525,1,0,0:0:0:0:
320,192,21613,1,0,0:0:0:0:
448,192,21702,5,0,0:0:0:0:
64,192,21791,1,0,0:0:0:0:
192,192,21858,1,0,0:0:0:0:
320,192,21925,1,0,0:0:0:0:
192,192,21991,1,0,0:0:0:0:
448,192,22058,1,0,0:0:0:0:
320,192,22125,1,0,0:0:0:0:
192,192,22191,1,0,0:0:0:0:
64,192,22258,1,0,0:0:0:0:
192,192,22325,1,0,0:0:0:0:
320,192,22391,1,0,0:0:0:0:
64,192,22458,1,0,0:0:0:0:
192,192,22525,1,0,0:0:0:0:
320,192,22591,1,0,0:0:0:0:
448,192,22658,1,0,0:0:0:0:
320,192,22725,1,0,0:0:0:0:
192,192,22791,1,0,0:0:0:0:
64,192,22858,5,0,0:0:0:0:
448,192,22858,1,0,0:0:0:0:
320,192,22991,1,0,0:0:0:0:
192,192,23125,1,0,0:0:0:0:
448,192,23258,1,0,0:0:0:0:
64,192,23525,1,0,0:0:0:0:
320,192,23658,1,0,0:0:0:0:
448,192,23791,1,0,0:0:0:0:
192,192,23925,1,0,0:0:0:0:
64,192,23925,1,0,0:0:0:0:
320,192,24058,1,0,0:0:0:0:
192,192,24191,1,0,0:0:0:0:
448,192,24325,1,0,0:0:0:0:
320,192,24591,1,0,0:0:0:0:
192,192,24725,1,0,0:0:0:0:
64,192,24858,1,0,0:0:0:0:
192,192,24991,1,0,0:0:0:0:
320,192,24991,1,0,0:0:0:0:
448,192,25125,1,0,0:0:0:0:
64,192,25258,1,0,0:0:0:0:
320,192,25391,1,0,0:0:0:0:
192,192,25525,1,0,0:0:0:0:
448,192,25658,1,0,0:0:0:0:
320,192,25791,1,0,0:0:0:0:
192,192,25925,1,0,0:0:0:0:
448,192,26058,1,0,0:0:0:0:
64,192,26058,1,0,0:0:0:0:
192,192,26191,1,0,0:0:0:0:
320,192,26325,1,0,0:0:0:0:
448,192,26458,1,0,0:0:0:0:
320,192,26725,1,0,0:0:0:0:
64,192,26858,1,0,0:0:0:0:
192,192,26991,1,0,0:0:0:0:
320,192,27125,1,0,0:0:0:0:
448,192,27125,1,0,0:0:0:0:
64,192,27258,1,0,0:0:0:0:
192,192,27391,1,0,0:0:0:0:
320,192,27525,1,0,0:0:0:0:
448,192,27658,1,0,0:0:0:0:
64,192,27791,1,0,0:0:0:0:
448,192,27925,1,0,0:0:0:0:
320,192,28058,1,0,0:0:0:0:
192,192,28191,1,0,0:0:0:0:
64,192,28191,1,0,0:0:0:0:
448,192,28325,1,0,0:0:0:0:
320,192,28458,1,0,0:0:0:0:
192,192,28591,1,0,0:0:0:0:
64,192,28725,1,0,0:0:0:0:
448,192,28858,1,0,0:0:0:0:
64,192,28991,1,0,0:0:0:0:
192,192,29125,1,0,0:0:0:0:
320,192,29258,1,0,0:0:0:0:
448,192,29258,1,0,0:0:0:0:
64,192,29391,1,0,0:0:0:0:
448,192,29525,1,0,0:0:0:0:
192,192,29658,1,0,0:0:0:0:
320,192,29791,1,0,0:0:0:0:
64,192,29791,1,0,0:0:0:0:
192,192,29925,1,0,0:0:0:0:
448,192,29925,1,0,0:0:0:0:
320,192,30058,1,0,0:0:0:0:
448,192,30058,1,0,0:0:0:0:
192,192,30191,1,0,0:0:0:0:
64,192,30191,1,0,0:0:0:0:
320,192,30325,1,0,0:0:0:0:
448,192,30325,128,0,31125:0:0:0:0:
64,192,30325,128,0,31125:0:0:0:0:
192,192,30858,128,0,31125:0:0:0:0:
320,192,30858,128,0,31125:0:0:0:0:
192,192,31391,1,0,0:0:0:0:
64,192,31391,1,0,0:0:0:0:
448,192,31391,1,0,0:0:0:0:
320,192,31391,1,0,0:0:0:0:
192,192,31525,1,0,0:0:0:0:
320,192,31525,1,0,0:0:0:0:
64,192,31658,1,0,0:0:0:0:
320,192,31658,1,0,0:0:0:0:
448,192,31658,1,0,0:0:0:0:
192,192,31791,1,0,0:0:0:0:
448,192,31791,1,0,0:0:0:0:
64,192,31925,1,0,0:0:0:0:
320,192,32058,1,0,0:0:0:0:
448,192,32058,1,0,0:0:0:0:
448,192,32191,1,0,0:0:0:0:
192,192,32191,1,0,0:0:0:0:
64,192,32191,1,0,0:0:0:0:
320,192,32325,1,0,0:0:0:0:
192,192,32325,1,0,0:0:0:0:
64,192,32458,128,0,32591:0:0:0:0:
192,192,32458,1,0,0:0:0:0:
448,192,32591,128,0,32725:0:0:0:0:
192,192,32725,128,0,32858:0:0:0:0:
320,192,32725,1,0,0:0:0:0:
64,192,32725,1,0,0:0:0:0:
448,192,32858,128,0,32991:0:0:0:0:
320,192,32991,128,0,33125:0:0:0:0:
64,192,32991,1,0,0:0:0:0:
192,192,33125,128,0,33258:0:0:0:0:
64,192,33258,128,0,33391:0:0:0:0:
320,192,33258,1,0,0:0:0:0:
448,192,33258,1,0,0:0:0:0:
448,192,33391,128,0,33525:0:0:0:0:
320,192,33525,1,0,0:0:0:0:
64,192,33525,1,0,0:0:0:0:
192,192,33525,128,0,33725:0:0:0:0:
320,192,33725,128,0,33925:0:0:0:0:
448,192,33725,1,0,0:0:0:0:
64,192,33925,1,0,0:0:0:0:
192,192,33925,1,0,0:0:0:0:
448,192,33991,1,0,0:0:0:0:
320,192,34058,1,0,0:0:0:0:
192,192,34058,1,0,0:0:0:0:
64,192,34058,128,0,34191:0:0:0:0:
448,192,34191,1,0,0:0:0:0:
320,192,34258,1,0,0:0:0:0:
64,192,34325,1,0,0:0:0:0:
192,192,34325,128,0,34458:0:0:0:0:
448,192,34458,1,0,0:0:0:0:
320,192,34458,1,0,0:0:0:0:
64,192,34525,1,0,0:0:0:0:
192,192,34525,1,0,0:0:0:0:
448,192,34591,128,0,34725:0:0:0:0:
320,192,34591,1,0,0:0:0:0:
64,192,34725,128,0,34858:0:0:0:0:
192,192,34858,1,0,0:0:0:0:
448,192,34858,1,0,0:0:0:0:
320,192,34858,128,0,34991:0:0:0:0:
192,192,34991,128,0,35258:0:0:0:0:
64,192,34991,1,0,0:0:0:0:
320,192,35258,1,0,0:0:0:0:
448,192,35258,1,0,0:0:0:0:
64,192,35325,1,0,0:0:0:0:
192,192,35325,1,0,0:0:0:0:
448,192,35391,1,0,0:0:0:0:
320,192,35391,1,0,0:0:0:0:
192,192,35458,1,0,0:0:0:0:
64,192,35525,1,0,0:0:0:0:
448,192,35525,1,0,0:0:0:0:
320,192,35591,1,0,0:0:0:0:
448,192,35658,1,0,0:0:0:0:
192,192,35658,1,0,0:0:0:0:
64,192,35658,1,0,0:0:0:0:
192,192,35791,1,0,0:0:0:0:
320,192,35925,1,0,0:0:0:0:
448,192,35925,1,0,0:0:0:0:
64,192,35925,1,0,0:0:0:0:
320,192,36058,1,0,0:0:0:0:
64,192,36191,1,0,0:0:0:0:
448,192,36191,1,0,0:0:0:0:
192,192,36325,1,0,0:0:0:0:
448,192,36325,1,0,0:0:0:0:
320,192,36458,1,0,0:0:0:0:
64,192,36458,1,0,0:0:0:0:
192,192,36458,1,0,0:0:0:0:
448,192,36591,1,0,0:0:0:0:
64,192,36591,1,0,0:0:0:0:
192,192,36725,1,0,0:0:0:0:
320,192,36725,1,0,0:0:0:0:
448,192,36725,128,0,37125:0:0:0:0:
320,192,36991,1,0,0:0:0:0:
64,192,36991,1,0,0:0:0:0:
64,192,37125,128,0,37391:0:0:0:0:
192,192,37125,1,0,0:0:0:0:
320,192,37391,1,0,0:0:0:0:
192,192,37458,1,0,0:0:0:0:
64,192,37525,1,0,0:0:0:0:
448,192,37525,1,0,0:0:0:0:
320,192,37591,1,0,0:0:0:0:
192,192,37658,1,0,0:0:0:0:
64,192,37658,1,0,0:0:0:0:
320,192,37725,1,0,0:0:0:0:
448,192,37791,1,0,0:0:0:0:
64,192,37791,1,0,0:0:0:0:
192,192,37791,128,0,37925:0:0:0:0:
320,192,37925,128,0,38058:0:0:0:0:
64,192,38058,1,0,0:0:0:0:
448,192,38058,1,0,0:0:0:0:
192,192,38125,1,0,0:0:0:0:
320,192,38191,1,0,0:0:0:0:
448,192,38191,1,0,0:0:0:0:
192,192,38325,1,0,0:0:0:0:
64,192,38325,1,0,0:0:0:0:
64,192,38458,1,0,0:0:0:0:
448,192,38458,1,0,0:0:0:0:
448,192,38591,1,0,0:0:0:0:
320,192,38591,1,0,0:0:0:0:
192,192,38658,1,0,0:0:0:0:
64,192,38725,1,0,0:0:0:0:
448,192,38725,1,0,0:0:0:0:
320,192,38791,1,0,0:0:0:0:
64,192,38858,128,0,38991:0:0:0:0:
192,192,38858,1,0,0:0:0:0:
448,192,38991,128,0,39125:0:0:0:0:
320,192,38991,1,0,0:0:0:0:
64,192,39125,1,0,0:0:0:0:
192,192,39125,1,0,0:0:0:0:
192,192,39258,1,0,0:0:0:0:
320,192,39258,1,0,0:0:0:0:
320,192,39391,1,0,0:0:0:0:
448,192,39391,1,0,0:0:0:0:
192,192,39458,1,0,0:0:0:0:
64,192,39458,1,0,0:0:0:0:
448,192,39525,1,0,0:0:0:0:
320,192,39525,1,0,0:0:0:0:
192,192,39591,1,0,0:0:0:0:
64,192,39591,1,0,0:0:0:0:
320,192,39658,1,0,0:0:0:0:
448,192,39658,1,0,0:0:0:0:
192,192,39725,1,0,0:0:0:0:
64,192,39725,1,0,0:0:0:0:
320,192,39791,1,0,0:0:0:0:
448,192,39791,1,0,0:0:0:0:
64,192,39925,1,0,0:0:0:0:
192,192,39925,1,0,0:0:0:0:
448,192,39925,1,0,0:0:0:0:
320,192,39991,1,0,0:0:0:0:
192,192,40058,1,0,0:0:0:0:
320,192,40125,1,0,0:0:0:0:
64,192,40191,1,0,0:0:0:0:
192,192,40258,1,0,0:0:0:0:
448,192,40325,1,0,0:0:0:0:
320,192,40325,1,0,0:0:0:0:
448,192,40458,1,0,0:0:0:0:
192,192,40458,1,0,0:0:0:0:
64,192,40458,1,0,0:0:0:0:
320,192,40525,1,0,0:0:0:0:
192,192,40591,1,0,0:0:0:0:
320,192,40658,1,0,0:0:0:0:
448,192,40725,1,0,0:0:0:0:
64,192,40725,1,0,0:0:0:0:
192,192,40791,1,0,0:0:0:0:
320,192,40858,1,0,0:0:0:0:
192,192,40925,1,0,0:0:0:0:
448,192,40991,1,0,0:0:0:0:
320,192,41058,1,0,0:0:0:0:
192,192,41125,1,0,0:0:0:0:
64,192,41125,1,0,0:0:0:0:
448,192,41191,1,0,0:0:0:0:
320,192,41258,1,0,0:0:0:0:
192,192,41325,1,0,0:0:0:0:
64,192,41391,1,0,0:0:0:0:
448,192,41391,1,0,0:0:0:0:
192,192,41458,1,0,0:0:0:0:
320,192,41458,1,0,0:0:0:0:
448,192,41525,1,0,0:0:0:0:
64,192,41525,1,0,0:0:0:0:
320,192,41658,1,0,0:0:0:0:
192,192,41725,1,0,0:0:0:0:
64,192,41791,1,0,0:0:0:0:
320,192,41925,1,0,0:0:0:0:
448,192,41925,1,0,0:0:0:0:
64,192,42058,1,0,0:0:0:0:
192,192,42058,1,0,0:0:0:0:
448,192,42125,1,0,0:0:0:0:
320,192,42191,1,0,0:0:0:0:
192,192,42258,1,0,0:0:0:0:
320,192,42325,1,0,0:0:0:0:
64,192,42391,1,0,0:0:0:0:
192,192,42458,1,0,0:0:0:0:
448,192,42458,1,0,0:0:0:0:
320,192,42525,1,0,0:0:0:0:
192,192,42591,1,0,0:0:0:0:
64,192,42591,1,0,0:0:0:0:
320,192,42725,1,0,0:0:0:0:
448,192,42858,1,0,0:0:0:0:
64,192,42858,1,0,0:0:0:0:
192,192,42925,1,0,0:0:0:0:
320,192,42991,1,0,0:0:0:0:
192,192,43058,1,0,0:0:0:0:
448,192,43125,1,0,0:0:0:0:
320,192,43191,1,0,0:0:0:0:
192,192,43258,1,0,0:0:0:0:
64,192,43258,1,0,0:0:0:0:
320,192,43325,1,0,0:0:0:0:
64,192,43391,1,0,0:0:0:0:
192,192,43458,1,0,0:0:0:0:
448,192,43525,1,0,0:0:0:0:
320,192,43525,1,0,0:0:0:0:
192,192,43591,1,0,0:0:0:0:
64,192,43658,1,0,0:0:0:0:
448,192,43658,1,0,0:0:0:0:
320,192,43791,1,0,0:0:0:0:
192,192,43858,1,0,0:0:0:0:
64,192,43925,1,0,0:0:0:0:
448,192,43925,1,0,0:0:0:0:
320,192,44058,1,0,0:0:0:0:
192,192,44191,1,0,0:0:0:0:
64,192,44191,1,0,0:0:0:0:
448,192,44191,1,0,0:0:0:0:
320,192,44258,1,0,0:0:0:0:
192,192,44325,1,0,0:0:0:0:
448,192,44391,1,0,0:0:0:0:
320,192,44458,1,0,0:0:0:0:
192,192,44525,1,0,0:0:0:0:
64,192,44591,1,0,0:0:0:0:
448,192,44591,1,0,0:0:0:0:
320,192,44658,1,0,0:0:0:0:
448,192,44725,1,0,0:0:0:0:
192,192,44725,1,0,0:0:0:0:
64,192,44725,1,0,0:0:0:0:
320,192,44791,1,0,0:0:0:0:
192,192,44858,1,0,0:0:0:0:
320,192,44925,1,0,0:0:0:0:
448,192,44991,1,0,0:0:0:0:
64,192,44991,1,0,0:0:0:0:
192,192,45058,1,0,0:0:0:0:
320,192,45125,1,0,0:0:0:0:
192,192,45191,1,0,0:0:0:0:
448,192,45258,1,0,0:0:0:0:
320,192,45325,1,0,0:0:0:0:
192,192,45391,1,0,0:0:0:0:
64,192,45391,1,0,0:0:0:0:
448,192,45458,1,0,0:0:0:0:
320,192,45525,1,0,0:0:0:0:
192,192,45591,1,0,0:0:0:0:
448,192,45658,1,0,0:0:0:0:
64,192,45658,1,0,0:0:0:0:
192,192,45725,1,0,0:0:0:0:
320,192,45791,1,0,0:0:0:0:
448,192,45791,1,0,0:0:0:0:
64,192,45858,1,0,0:0:0:0:
192,192,45925,1,0,0:0:0:0:
320,192,45991,1,0,0:0:0:0:
448,192,45991,1,0,0:0:0:0:
64,192,46058,1,0,0:0:0:0:
192,192,46125,1,0,0:0:0:0:
320,192,46191,1,0,0:0:0:0:
448,192,46191,1,0,0:0:0:0:
192,192,46258,1,0,0:0:0:0:
64,192,46325,1,0,0:0:0:0:
448,192,46325,1,0,0:0:0:0:
320,192,46391,1,0,0:0:0:0:
192,192,46458,1,0,0:0:0:0:
320,192,46525,1,0,0:0:0:0:
448,192,46591,1,0,0:0:0:0:
64,192,46658,1,0,0:0:0:0:
192,192,46725,1,0,0:0:0:0:
320,192,46725,1,0,0:0:0:0:
448,192,46791,1,0,0:0:0:0:
192,192,46858,1,0,0:0:0:0:
64,192,46858,1,0,0:0:0:0:
320,192,46925,1,0,0:0:0:0:
64,192,46991,1,0,0:0:0:0:
192,192,47058,1,0,0:0:0:0:
320,192,47125,1,0,0:0:0:0:
448,192,47125,1,0,0:0:0:0:
64,192,47191,1,0,0:0:0:0:
192,192,47258,1,0,0:0:0:0:
448,192,47325,1,0,0:0:0:0:
320,192,47391,1,0,0:0:0:0:
192,192,47458,1,0,0:0:0:0:
448,192,47525,1,0,0:0:0:0:
64,192,47525,1,0,0:0:0:0:
320,192,47591,1,0,0:0:0:0:
64,192,47658,1,0,0:0:0:0:
448,192,47658,1,0,0:0:0:0:
192,192,47658,1,0,0:0:0:0:
320,192,47725,1,0,0:0:0:0:
192,192,47791,1,0,0:0:0:0:
320,192,47858,1,0,0:0:0:0:
448,192,47925,1,0,0:0:0:0:
64,192,47925,1,0,0:0:0:0:
192,192,47991,1,0,0:0:0:0:
320,192,48058,1,0,0:0:0:0:
448,192,48058,1,0,0:0:0:0:
192,192,48125,1,0,0:0:0:0:
64,192,48191,1,0,0:0:0:0:
448,192,48225,1,0,0:0:0:0:
320,192,48258,1,0,0:0:0:0:
192,192,48291,1,0,0:0:0:0:
64,192,48325,1,0,0:0:0:0:
448,192,48358,1,0,0:0:0:0:
320,192,48391,1,0,0:0:0:0:
192,192,48425,1,0,0:0:0:0:
64,192,48458,1,0,0:0:0:0:
448,192,48458,128,0,48725:0:0:0:0:
192,192,48725,1,0,0:0:0:0:
64,192,48725,1,0,0:0:0:0:
64,192,48858,1,0,0:0:0:0:
320,192,48858,128,0,49125:0:0:0:0:
192,192,49125,1,0,0:0:0:0:
448,192,49125,1,0,0:0:0:0:
448,192,49258,1,0,0:0:0:0:
64,192,49258,1,0,0:0:0:0:
320,192,49325,1,0,0:0:0:0:
192,192,49391,1,0,0:0:0:0:
64,192,49391,1,0,0:0:0:0:
320,192,49458,1,0,0:0:0:0:
448,192,49525,1,0,0:0:0:0:
192,192,49525,1,0,0:0:0:0:
64,192,49525,128,0,49791:0:0:0:0:
320,192,49791,1,0,0:0:0:0:
448,192,49791,1,0,0:0:0:0:
192,192,49925,128,0,50191:0:0:0:0:
448,192,49925,1,0,0:0:0:0:
64,192,50191,1,0,0:0:0:0:
320,192,50191,1,0,0:0:0:0:
192,192,50325,1,0,0:0:0:0:
64,192,50325,1,0,0:0:0:0:
320,192,50391,1,0,0:0:0:0:
448,192,50391,1,0,0:0:0:0:
192,192,50458,1,0,0:0:0:0:
64,192,50458,1,0,0:0:0:0:
320,192,50525,1,0,0:0:0:0:
448,192,50591,1,0,0:0:0:0:
192,192,50591,1,0,0:0:0:0:
64,192,50591,1,0,0:0:0:0:
320,192,50658,1,0,0:0:0:0:
192,192,50725,1,0,0:0:0:0:
448,192,50791,1,0,0:0:0:0:
320,192,50858,1,0,0:0:0:0:
64,192,50858,1,0,0:0:0:0:
192,192,50925,1,0,0:0:0:0:
320,192,50991,1,0,0:0:0:0:
448,192,50991,1,0,0:0:0:0:
64,192,51058,1,0,0:0:0:0:
192,192,51125,1,0,0:0:0:0:
448,192,51125,1,0,0:0:0:0:
320,192,51191,1,0,0:0:0:0:
192,192,51258,1,0,0:0:0:0:
64,192,51258,1,0,0:0:0:0:
320,192,51325,1,0,0:0:0:0:
64,192,51391,1,0,0:0:0:0:
448,192,51391,1,0,0:0:0:0:
192,192,51458,1,0,0:0:0:0:
320,192,51525,1,0,0:0:0:0:
448,192,51525,1,0,0:0:0:0:
64,192,51591,1,0,0:0:0:0:
192,192,51658,1,0,0:0:0:0:
320,192,51658,1,0,0:0:0:0:
448,192,51658,128,0,51858:0:0:0:0:
64,192,51858,1,0,0:0:0:0:
320,192,51858,1,0,0:0:0:0:
192,192,51858,128,0,52058:0:0:0:0:
64,192,52058,1,0,0:0:0:0:
448,192,52058,1,0,0:0:0:0:
320,192,52058,128,0,52325:0:0:0:0:
192,192,52325,1,0,0:0:0:0:
64,192,52325,1,0,0:0:0:0:
448,192,52391,1,0,0:0:0:0:
320,192,52391,1,0,0:0:0:0:
64,192,52458,1,0,0:0:0:0:
192,192,52525,1,0,0:0:0:0:
320,192,52591,1,0,0:0:0:0:
448,192,52591,1,0,0:0:0:0:
192,192,52658,1,0,0:0:0:0:
320,192,52725,1,0,0:0:0:0:
448,192,52725,1,0,0:0:0:0:
64,192,52725,128,0,53791:0:0:0:0:
192,192,52858,1,0,0:0:0:0:
448,192,52858,1,0,0:0:0:0:
320,192,52991,1,0,0:0:0:0:
320,192,53125,1,0,0:0:0:0:
448,192,53125,1,0,0:0:0:0:
192,192,53258,1,0,0:0:0:0:
192,192,53391,1,0,0:0:0:0:
448,192,53391,1,0,0:0:0:0:
320,192,53525,1,0,0:0:0:0:
320,192,53658,1,0,0:0:0:0:
448,192,53658,1,0,0:0:0:0:
192,192,53791,128,0,54325:0:0:0:0:
448,192,53791,1,0,0:0:0:0:
320,192,53925,1,0,0:0:0:0:
64,192,53925,1,0,0:0:0:0:
320,192,54058,1,0,0:0:0:0:
448,192,54191,1,0,0:0:0:0:
64,192,54191,1,0,0:0:0:0:
448,192,54325,1,0,0:0:0:0:
320,192,54325,1,0,0:0:0:0:
192,192,54391,1,0,0:0:0:0:
64,192,54391,1,0,0:0:0:0:
448,192,54458,1,0,0:0:0:0:
320,192,54525,1,0,0:0:0:0:
64,192,54591,1,0,0:0:0:0:
192,192,54591,1,0,0:0:0:0:
320,192,54658,1,0,0:0:0:0:
448,192,54658,1,0,0:0:0:0:
64,192,54725,1,0,0:0:0:0:
192,192,54725,1,0,0:0:0:0:
320,192,54791,1,0,0:0:0:0:
192,192,54858,1,0,0:0:0:0:
64,192,54858,1,0,0:0:0:0:
448,192,54858,128,0,55391:0:0:0:0:
320,192,54991,1,0,0:0:0:0:
64,192,55125,1,0,0:0:0:0:
320,192,55191,1,0,0:0:0:0:
192,192,55258,1,0,0:0:0:0:
320,192,55325,1,0,0:0:0:0:
192,192,55391,1,0,0:0:0:0:
64,192,55391,1,0,0:0:0:0:
320,192,55458,1,0,0:0:0:0:
448,192,55525,1,0,0:0:0:0:
64,192,55525,1,0,0:0:0:0:
192,192,55591,1,0,0:0:0:0:
320,192,55658,1,0,0:0:0:0:
448,192,55658,1,0,0:0:0:0:
192,192,55725,1,0,0:0:0:0:
64,192,55725,1,0,0:0:0:0:
320,192,55791,1,0,0:0:0:0:
448,192,55791,1,0,0:0:0:0:
192,192,55858,1,0,0:0:0:0:
64,192,55925,1,0,0:0:0:0:
320,192,55925,1,0,0:0:0:0:
448,192,55925,1,0,0:0:0:0:
320,192,56458,128,0,56725:0:0:0:0:
192,192,56725,128,0,56991:0:0:0:0:
64,192,56991,1,0,0:0:0:0:
320,192,56991,1,0,0:0:0:0:
448,192,56991,1,0,0:0:0:0:
192,192,57125,1,0,0:0:0:0:
320,192,57191,1,0,0:0:0:0:
448,192,57258,128,0,57391:0:0:0:0:
64,192,57258,1,0,0:0:0:0:
192,192,57391,1,0,0:0:0:0:
320,192,57458,1,0,0:0:0:0:
64,192,57525,1,0,0:0:0:0:
192,192,57591,1,0,0:0:0:0:
448,192,57658,128,0,57791:0:0:0:0:
320,192,57658,1,0,0:0:0:0:
64,192,57791,1,0,0:0:0:0:
192,192,57791,1,0,0:0:0:0:
320,192,57858,1,0,0:0:0:0:
64,192,57925,1,0,0:0:0:0:
448,192,57925,1,0,0:0:0:0:
192,192,57991,1,0,0:0:0:0:
448,192,58058,1,0,0:0:0:0:
320,192,58058,128,0,58191:0:0:0:0:
64,192,58058,1,0,0:0:0:0:
192,192,58191,128,0,58325:0:0:0:0:
448,192,58325,128,0,58458:0:0:0:0:
64,192,58325,1,0,0:0:0:0:
320,192,58325,1,0,0:0:0:0:
64,192,58458,128,0,58725:0:0:0:0:
192,192,58458,1,0,0:0:0:0:
448,192,58725,1,0,0:0:0:0:
320,192,58725,1,0,0:0:0:0:
192,192,58791,1,0,0:0:0:0:
64,192,58858,1,0,0:0:0:0:
448,192,58858,1,0,0:0:0:0:
320,192,58991,1,0,0:0:0:0:
192,192,58991,1,0,0:0:0:0:
448,192,59125,1,0,0:0:0:0:
64,192,59125,1,0,0:0:0:0:
320,192,59125,1,0,0:0:0:0:
192,192,59258,1,0,0:0:0:0:
320,192,59325,1,0,0:0:0:0:
64,192,59391,1,0,0:0:0:0:
448,192,59391,128,0,59525:0:0:0:0:
192,192,59525,1,0,0:0:0:0:
320,192,59591,1,0,0:0:0:0:
64,192,59658,1,0,0:0:0:0:
192,192,59725,1,0,0:0:0:0:
448,192,59791,128,0,59925:0:0:0:0:
320,192,59791,1,0,0:0:0:0:
192,192,59925,1,0,0:0:0:0:
64,192,59925,1,0,0:0:0:0:
320,192,59991,1,0,0:0:0:0:
448,192,60058,1,0,0:0:0:0:
64,192,60058,1,0,0:0:0:0:
192,192,60125,1,0,0:0:0:0:
64,192,60191,1,0,0:0:0:0:
448,192,60191,1,0,0:0:0:0:
320,192,60191,128,0,60325:0:0:0:0:
192,192,60325,128,0,60458:0:0:0:0:
448,192,60458,128,0,60591:0:0:0:0:
320,192,60458,1,0,0:0:0:0:
64,192,60458,1,0,0:0:0:0:
64,192,60591,128,0,60725:0:0:0:0:
192,192,60591,1,0,0:0:0:0:
192,192,60725,128,0,60902:0:0:0:0:
320,192,60725,1,0,0:0:0:0:
448,192,60725,1,0,0:0:0:0:
320,192,60902,128,0,61080:0:0:0:0:
448,192,60902,1,0,0:0:0:0:
64,192,60902,1,0,0:0:0:0:
448,192,61080,128,0,61391:0:0:0:0:
192,192,61080,1,0,0:0:0:0:
64,192,61080,1,0,0:0:0:0:
64,192,61391,1,0,0:0:0:0:
320,192,61391,1,0,0:0:0:0:
192,192,61525,1,0,0:0:0:0:
64,192,61525,1,0,0:0:0:0:
448,192,61658,128,0,61925:0:0:0:0:
320,192,61658,1,0,0:0:0:0:
192,192,61658,1,0,0:0:0:0:
64,192,61925,1,0,0:0:0:0:
192,192,61925,1,0,0:0:0:0:
320,192,62058,1,0,0:0:0:0:
448,192,62058,1,0,0:0:0:0:
64,192,62058,1,0,0:0:0:0:
192,192,62191,1,0,0:0:0:0:
320,192,62258,1,0,0:0:0:0:
448,192,62325,1,0,0:0:0:0:
192,192,62325,1,0,0:0:0:0:
64,192,62325,1,0,0:0:0:0:
320,192,62458,1,0,0:0:0:0:
64,192,62458,1,0,0:0:0:0:
192,192,62591,1,0,0:0:0:0:
448,192,62591,1,0,0:0:0:0:
320,192,62725,1,0,0:0:0:0:
448,192,62725,1,0,0:0:0:0:
64,192,62725,128,0,62991:0:0:0:0:
192,192,62991,1,0,0:0:0:0:
320,192,62991,1,0,0:0:0:0:
64,192,63125,1,0,0:0:0:0:
448,192,63125,1,0,0:0:0:0:
192,192,63125,1,0,0:0:0:0:
320,192,63258,1,0,0:0:0:0:
192,192,63325,1,0,0:0:0:0:
320,192,63391,1,0,0:0:0:0:
448,192,63391,1,0,0:0:0:0:
64,192,63391,1,0,0:0:0:0:
448,192,63525,1,0,0:0:0:0:
64,192,63591,1,0,0:0:0:0:
192,192,63658,1,0,0:0:0:0:
320,192,63725,1,0,0:0:0:0:
448,192,63791,1,0,0:0:0:0:
192,192,63791,1,0,0:0:0:0:
64,192,63791,1,0,0:0:0:0:
320,192,63925,1,0,0:0:0:0:
64,192,63925,1,0,0:0:0:0:
448,192,63991,1,0,0:0:0:0:
192,192,64058,1,0,0:0:0:0:
320,192,64125,1,0,0:0:0:0:
448,192,64191,1,0,0:0:0:0:
64,192,64191,1,0,0:0:0:0:
192,192,64258,1,0,0:0:0:0:
320,192,64325,1,0,0:0:0:0:
448,192,64325,1,0,0:0:0:0:
192,192,64391,1,0,0:0:0:0:
64,192,64458,1,0,0:0:0:0:
448,192,64591,128,0,64725:0:0:0:0:
320,192,64591,1,0,0:0:0:0:
192,192,64591,1,0,0:0:0:0:
64,192,64725,128,0,64858:0:0:0:0:
448,192,64858,128,0,65125:0:0:0:0:
320,192,64858,1,0,0:0:0:0:
192,192,65125,128,0,65258:0:0:0:0:
64,192,65258,128,0,65391:0:0:0:0:
448,192,65391,1,0,0:0:0:0:
320,192,65391,1,0,0:0:0:0:
192,192,65458,1,0,0:0:0:0:
64,192,65525,1,0,0:0:0:0:
320,192,65525,1,0,0:0:0:0:
448,192,65525,1,0,0:0:0:0:
192,192,65658,1,0,0:0:0:0:
320,192,65725,1,0,0:0:0:0:
448,192,65791,128,0,65925:0:0:0:0:
64,192,65791,1,0,0:0:0:0:
192,192,65925,1,0,0:0:0:0:
320,192,65991,1,0,0:0:0:0:
64,192,66058,1,0,0:0:0:0:
192,192,66125,1,0,0:0:0:0:
320,192,66191,1,0,0:0:0:0:
448,192,66191,128,0,66325:0:0:0:0:
192,192,66325,1,0,0:0:0:0:
64,192,66325,1,0,0:0:0:0:
320,192,66391,1,0,0:0:0:0:
64,192,66458,1,0,0:0:0:0:
448,192,66458,1,0,0:0:0:0:
192,192,66525,1,0,0:0:0:0:
448,192,66591,1,0,0:0:0:0:
64,192,66591,1,0,0:0:0:0:
320,192,66591,128,0,66725:0:0:0:0:
192,192,66725,128,0,66858:0:0:0:0:
64,192,66858,1,0,0:0:0:0:
320,192,66858,1,0,0:0:0:0:
448,192,66858,128,0,66991:0:0:0:0:
64,192,66991,128,0,67258:0:0:0:0:
192,192,66991,1,0,0:0:0:0:
448,192,67258,1,0,0:0:0:0:
320,192,67258,1,0,0:0:0:0:
192,192,67325,1,0,0:0:0:0:
64,192,67391,1,0,0:0:0:0:
448,192,67391,1,0,0:0:0:0:
320,192,67525,1,0,0:0:0:0:
192,192,67525,1,0,0:0:0:0:
320,192,67658,1,0,0:0:0:0:
448,192,67658,1,0,0:0:0:0:
64,192,67658,1,0,0:0:0:0:
192,192,67791,1,0,0:0:0:0:
320,192,67858,1,0,0:0:0:0:
448,192,67925,128,0,68058:0:0:0:0:
64,192,67925,1,0,0:0:0:0:
192,192,68058,1,0,0:0:0:0:
320,192,68125,1,0,0:0:0:0:
64,192,68191,1,0,0:0:0:0:
192,192,68258,1,0,0:0:0:0:
320,192,68325,1,0,0:0:0:0:
448,192,68325,128,0,68458:0:0:0:0:
192,192,68458,1,0,0:0:0:0:
64,192,68458,1,0,0:0:0:0:
320,192,68525,1,0,0:0:0:0:
448,192,68591,1,0,0:0:0:0:
64,192,68591,1,0,0:0:0:0:
192,192,68658,1,0,0:0:0:0:
448,192,68725,1,0,0:0:0:0:
64,192,68725,1,0,0:0:0:0:
320,192,68725,1,0,0:0:0:0:
192,192,68791,1,0,0:0:0:0:
320,192,68858,1,0,0:0:0:0:
448,192,68925,1,0,0:0:0:0:
64,192,68991,1,0,0:0:0:0:
192,192,68991,1,0,0:0:0:0:
320,192,69058,1,0,0:0:0:0:
64,192,69125,1,0,0:0:0:0:
448,192,69125,1,0,0:0:0:0:
192,192,69191,1,0,0:0:0:0:
320,192,69258,1,0,0:0:0:0:
448,192,69258,1,0,0:0:0:0:
192,192,69325,1,0,0:0:0:0:
64,192,69325,1,0,0:0:0:0:
320,192,69391,1,0,0:0:0:0:
448,192,69391,1,0,0:0:0:0:
192,192,69458,1,0,0:0:0:0:
64,192,69525,1,0,0:0:0:0:
448,192,69525,1,0,0:0:0:0:
320,192,69591,1,0,0:0:0:0:
192,192,69591,1,0,0:0:0:0:
64,192,69658,1,0,0:0:0:0:
448,192,69658,1,0,0:0:0:0:
320,192,69725,1,0,0:0:0:0:
192,192,69725,1,0,0:0:0:0:
64,192,70058,1,0,0:0:0:0:
192,192,70058,1,0,0:0:0:0:
320,192,70058,1,0,0:0:0:0:
448,192,70058,1,0,0:0:0:0:
192,192,70191,1,0,0:0:0:0:
320,192,70258,1,0,0:0:0:0:
448,192,70325,1,0,0:0:0:0:
64,192,70325,1,0,0:0:0:0:
192,192,70391,1,0,0:0:0:0:
320,192,70458,1,0,0:0:0:0:
192,192,70525,1,0,0:0:0:0:
64,192,70591,1,0,0:0:0:0:
448,192,70591,1,0,0:0:0:0:
320,192,70658,1,0,0:0:0:0:
192,192,70725,1,0,0:0:0:0:
64,192,70725,1,0,0:0:0:0:
448,192,70791,1,0,0:0:0:0:
320,192,70858,1,0,0:0:0:0:
192,192,70858,1,0,0:0:0:0:
64,192,70925,1,0,0:0:0:0:
320,192,70991,1,0,0:0:0:0:
448,192,70991,1,0,0:0:0:0:
192,192,71058,1,0,0:0:0:0:
64,192,71125,1,0,0:0:0:0:
448,192,71125,1,0,0:0:0:0:
320,192,71191,1,0,0:0:0:0:
448,192,71258,1,0,0:0:0:0:
192,192,71258,1,0,0:0:0:0:
64,192,71258,1,0,0:0:0:0:
320,192,71391,1,0,0:0:0:0:
64,192,71391,1,0,0:0:0:0:
448,192,71525,1,0,0:0:0:0:
192,192,71525,1,0,0:0:0:0:
64,192,71658,1,0,0:0:0:0:
320,192,71658,1,0,0:0:0:0:
448,192,71658,1,0,0:0:0:0:
192,192,71791,1,0,0:0:0:0:
64,192,71791,1,0,0:0:0:0:
320,192,71858,1,0,0:0:0:0:
448,192,71925,1,0,0:0:0:0:
192,192,71925,1,0,0:0:0:0:
64,192,71925,128,0,72191:0:0:0:0:
320,192,72058,1,0,0:0:0:0:
192,192,72191,1,0,0:0:0:0:
448,192,72191,1,0,0:0:0:0:
64,192,72325,1,0,0:0:0:0:
448,192,72325,1,0,0:0:0:0:
320,192,72391,1,0,0:0:0:0:
192,192,72458,1,0,0:0:0:0:
64,192,72458,1,0,0:0:0:0:
320,192,72525,1,0,0:0:0:0:
448,192,72591,1,0,0:0:0:0:
64,192,72591,1,0,0:0:0:0:
192,192,72658,1,0,0:0:0:0:
320,192,72725,1,0,0:0:0:0:
448,192,72725,1,0,0:0:0:0:
192,192,72858,1,0,0:0:0:0:
64,192,72858,1,0,0:0:0:0:
320,192,72925,1,0,0:0:0:0:
192,192,72991,1,0,0:0:0:0:
64,192,72991,1,0,0:0:0:0:
448,192,72991,128,0,73191:0:0:0:0:
64,192,73191,1,0,0:0:0:0:
192,192,73191,128,0,73391:0:0:0:0:
320,192,73191,1,0,0:0:0:0:
320,192,73391,128,0,73525:0:0:0:0:
448,192,73391,1,0,0:0:0:0:
448,192,73525,1,0,0:0:0:0:
192,192,73525,1,0,0:0:0:0:
64,192,73525,128,0,73725:0:0:0:0:
192,192,73725,128,0,73925:0:0:0:0:
448,192,73725,1,0,0:0:0:0:
320,192,73725,1,0,0:0:0:0:
448,192,73925,128,0,74058:0:0:0:0:
320,192,73925,1,0,0:0:0:0:
64,192,73925,1,0,0:0:0:0:
192,192,74058,1,0,0:0:0:0:
64,192,74058,128,0,76191:0:0:0:0:
320,192,74458,1,0,0:0:0:0:
448,192,74591,1,0,0:0:0:0:
192,192,74591,1,0,0:0:0:0:
320,192,74858,1,0,0:0:0:0:
320,192,74991,1,0,0:0:0:0:
192,192,75125,1,0,0:0:0:0:
448,192,75213,1,0,0:0:0:0:
320,192,75302,1,0,0:0:0:0:
192,192,75391,1,0,0:0:0:0:
448,192,75480,1,0,0:0:0:0:
192,192,75569,1,0,0:0:0:0:
320,192,75658,1,0,0:0:0:0:
448,192,75658,1,0,0:0:0:0:
320,192,75791,1,0,0:0:0:0:
192,192,75925,1,0,0:0:0:0:
320,192,76013,1,0,0:0:0:0:
448,192,76102,1,0,0:0:0:0:
192,192,76191,1,0,0:0:0:0:
192,192,76325,1,0,0:0:0:0:
192,192,76591,1,0,0:0:0:0:
64,192,76725,1,0,0:0:0:0:
448,192,76725,1,0,0:0:0:0:
320,192,76991,1,0,0:0:0:0:
320,192,77125,1,0,0:0:0:0:
192,192,77258,1,0,0:0:0:0:
448,192,77258,1,0,0:0:0:0:
320,192,77391,1,0,0:0:0:0:
64,192,77525,1,0,0:0:0:0:
192,192,77591,1,0,0:0:0:0:
448,192,77658,1,0,0:0:0:0:
320,192,77725,1,0,0:0:0:0:
192,192,77791,1,0,0:0:0:0:
64,192,77791,1,0,0:0:0:0:
448,192,77925,1,0,0:0:0:0:
64,192,78058,1,0,0:0:0:0:
448,192,78125,1,0,0:0:0:0:
320,192,78191,1,0,0:0:0:0:
192,192,78258,1,0,0:0:0:0:
64,192,78325,128,0,78725:0:0:0:0:
448,192,78325,1,0,0:0:0:0:
320,192,78458,1,0,0:0:0:0:
320,192,78725,128,0,79125:0:0:0:0:
448,192,78725,1,0,0:0:0:0:
192,192,78858,1,0,0:0:0:0:
64,192,78858,1,0,0:0:0:0:
192,192,79125,128,0,79525:0:0:0:0:
64,192,79125,1,0,0:0:0:0:
448,192,79258,1,0,0:0:0:0:
320,192,79525,128,0,79925:0:0:0:0:
64,192,79525,1,0,0:0:0:0:
64,192,79791,1,0,0:0:0:0:
448,192,79925,128,0,80191:0:0:0:0:
192,192,79925,1,0,0:0:0:0:
64,192,80191,1,0,0:0:0:0:
320,192,80258,1,0,0:0:0:0:
192,192,80325,1,0,0:0:0:0:
320,192,80391,1,0,0:0:0:0:
448,192,80458,1,0,0:0:0:0:
192,192,80458,1,0,0:0:0:0:
64,192,80458,128,0,80591:0:0:0:0:
320,192,80591,1,0,0:0:0:0:
192,192,80725,1,0,0:0:0:0:
448,192,80858,128,0,80991:0:0:0:0:
64,192,80858,1,0,0:0:0:0:
320,192,80858,128,0,80991:0:0:0:0:
192,192,80991,1,0,0:0:0:0:
320,192,81125,1,0,0:0:0:0:
192,192,81258,128,0,81391:0:0:0:0:
448,192,81258,1,0,0:0:0:0:
64,192,81258,128,0,81391:0:0:0:0:
320,192,81391,1,0,0:0:0:0:
64,192,81525,1,0,0:0:0:0:
320,192,81658,128,0,81791:0:0:0:0:
448,192,81658,1,0,0:0:0:0:
192,192,81658,128,0,81791:0:0:0:0:
64,192,81791,1,0,0:0:0:0:
192,192,81925,1,0,0:0:0:0:
448,192,82058,128,0,82191:0:0:0:0:
64,192,82058,1,0,0:0:0:0:
320,192,82058,128,0,82191:0:0:0:0:
192,192,82191,1,0,0:0:0:0:
320,192,82325,1,0,0:0:0:0:
448,192,82325,1,0,0:0:0:0:
64,192,82391,1,0,0:0:0:0:
192,192,82458,1,0,0:0:0:0:
320,192,82525,1,0,0:0:0:0:
448,192,82591,1,0,0:0:0:0:
192,192,82591,1,0,0:0:0:0:
64,192,82591,1,0,0:0:0:0:
320,192,82725,1,0,0:0:0:0:
192,192,82791,1,0,0:0:0:0:
320,192,82858,1,0,0:0:0:0:
448,192,82858,1,0,0:0:0:0:
64,192,82925,1,0,0:0:0:0:
192,192,82991,1,0,0:0:0:0:
320,192,83058,1,0,0:0:0:0:
448,192,83125,1,0,0:0:0:0:
64,192,83125,1,0,0:0:0:0:
192,192,83191,1,0,0:0:0:0:
320,192,83258,1,0,0:0:0:0:
192,192,83325,1,0,0:0:0:0:
64,192,83391,1,0,0:0:0:0:
448,192,83391,1,0,0:0:0:0:
320,192,83458,1,0,0:0:0:0:
192,192,83525,1,0,0:0:0:0:
320,192,83591,1,0,0:0:0:0:
448,192,83658,1,0,0:0:0:0:
64,192,83658,1,0,0:0:0:0:
192,192,83725,1,0,0:0:0:0:
320,192,83791,1,0,0:0:0:0:
448,192,83791,1,0,0:0:0:0:
64,192,83858,1,0,0:0:0:0:
192,192,83925,1,0,0:0:0:0:
320,192,83925,1,0,0:0:0:0:
448,192,83991,1,0,0:0:0:0:
192,192,84058,1,0,0:0:0:0:
64,192,84058,1,0,0:0:0:0:
320,192,84125,1,0,0:0:0:0:
448,192,84191,1,0,0:0:0:0:
192,192,84191,1,0,0:0:0:0:
64,192,84191,1,0,0:0:0:0:
320,192,84391,1,0,0:0:0:0:
448,192,84391,1,0,0:0:0:0:
192,192,84391,1,0,0:0:0:0:
448,192,84591,1,0,0:0:0:0:
320,192,84591,1,0,0:0:0:0:
64,192,84591,1,0,0:0:0:0:
64,192,84725,1,0,0:0:0:0:
192,192,84725,1,0,0:0:0:0:
448,192,84725,1,0,0:0:0:0:
320,192,84791,1,0,0:0:0:0:
192,192,84858,1,0,0:0:0:0:
320,192,84925,1,0,0:0:0:0:
448,192,84991,1,0,0:0:0:0:
64,192,84991,1,0,0:0:0:0:
192,192,85058,1,0,0:0:0:0:
320,192,85125,1,0,0:0:0:0:
448,192,85191,1,0,0:0:0:0:
192,192,85258,1,0,0:0:0:0:
64,192,85258,1,0,0:0:0:0:
320,192,85325,1,0,0:0:0:0:
448,192,85391,1,0,0:0:0:0:
320,192,85458,1,0,0:0:0:0:
192,192,85525,1,0,0:0:0:0:
64,192,85525,1,0,0:0:0:0:
448,192,85591,1,0,0:0:0:0:
320,192,85658,1,0,0:0:0:0:
192,192,85725,1,0,0:0:0:0:
64,192,85791,1,0,0:0:0:0:
448,192,85791,1,0,0:0:0:0:
320,192,85858,1,0,0:0:0:0:
192,192,85925,1,0,0:0:0:0:
64,192,85925,1,0,0:0:0:0:
320,192,85991,1,0,0:0:0:0:
448,192,86058,1,0,0:0:0:0:
64,192,86058,1,0,0:0:0:0:
192,192,86125,1,0,0:0:0:0:
320,192,86191,1,0,0:0:0:0:
192,192,86258,1,0,0:0:0:0:
64,192,86258,1,0,0:0:0:0:
320,192,86325,1,0,0:0:0:0:
448,192,86325,1,0,0:0:0:0:
64,192,86391,1,0,0:0:0:0:
192,192,86458,1,0,0:0:0:0:
448,192,86525,1,0,0:0:0:0:
64,192,86525,1,0,0:0:0:0:
320,192,86591,1,0,0:0:0:0:
192,192,86658,1,0,0:0:0:0:
448,192,86725,1,0,0:0:0:0:
64,192,86725,1,0,0:0:0:0:
320,192,86791,1,0,0:0:0:0:
192,192,86858,1,0,0:0:0:0:
64,192,86858,1,0,0:0:0:0:
448,192,86858,1,0,0:0:0:0:
320,192,86925,1,0,0:0:0:0:
192,192,86991,1,0,0:0:0:0:
64,192,87058,1,0,0:0:0:0:
448,192,87125,1,0,0:0:0:0:
320,192,87191,1,0,0:0:0:0:
192,192,87258,1,0,0:0:0:0:
320,192,87325,1,0,0:0:0:0:
448,192,87391,1,0,0:0:0:0:
64,192,87391,1,0,0:0:0:0:
192,192,87458,1,0,0:0:0:0:
320,192,87525,1,0,0:0:0:0:
448,192,87591,1,0,0:0:0:0:
64,192,87658,1,0,0:0:0:0:
192,192,87725,1,0,0:0:0:0:
320,192,87791,1,0,0:0:0:0:
192,192,87858,1,0,0:0:0:0:
64,192,87925,1,0,0:0:0:0:
448,192,87925,1,0,0:0:0:0:
320,192,87991,1,0,0:0:0:0:
192,192,88058,1,0,0:0:0:0:
64,192,88125,1,0,0:0:0:0:
448,192,88191,1,0,0:0:0:0:
320,192,88258,1,0,0:0:0:0:
192,192,88325,1,0,0:0:0:0:
320,192,88391,1,0,0:0:0:0:
448,192,88458,1,0,0:0:0:0:
64,192,88458,1,0,0:0:0:0:
192,192,88525,1,0,0:0:0:0:
320,192,88591,1,0,0:0:0:0:
448,192,88658,1,0,0:0:0:0:
64,192,88725,1,0,0:0:0:0:
192,192,88791,1,0,0:0:0:0:
320,192,88858,1,0,0:0:0:0:
192,192,88925,1,0,0:0:0:0:
64,192,88991,1,0,0:0:0:0:
448,192,88991,1,0,0:0:0:0:
320,192,89058,1,0,0:0:0:0:
192,192,89125,1,0,0:0:0:0:
64,192,89125,1,0,0:0:0:0:
448,192,89191,1,0,0:0:0:0:
320,192,89258,1,0,0:0:0:0:
64,192,89258,1,0,0:0:0:0:
192,192,89325,1,0,0:0:0:0:
320,192,89391,1,0,0:0:0:0:
448,192,89391,1,0,0:0:0:0:
64,192,89458,1,0,0:0:0:0:
192,192,89525,1,0,0:0:0:0:
320,192,89525,1,0,0:0:0:0:
448,192,89591,1,0,0:0:0:0:
192,192,89658,1,0,0:0:0:0:
64,192,89658,1,0,0:0:0:0:
320,192,89725,1,0,0:0:0:0:
64,192,89791,1,0,0:0:0:0:
448,192,89791,1,0,0:0:0:0:
192,192,89858,1,0,0:0:0:0:
320,192,89925,1,0,0:0:0:0:
448,192,89925,1,0,0:0:0:0:
192,192,89991,1,0,0:0:0:0:
448,192,90058,1,0,0:0:0:0:
64,192,90058,1,0,0:0:0:0:
320,192,90147,1,0,0:0:0:0:
192,192,90147,1,0,0:0:0:0:
448,192,90236,1,0,0:0:0:0:
64,192,90236,1,0,0:0:0:0:
320,192,90325,1,0,0:0:0:0:
192,192,90325,1,0,0:0:0:0:
448,192,90413,1,0,0:0:0:0:
64,192,90413,1,0,0:0:0:0:
320,192,90502,1,0,0:0:0:0:
192,192,90591,1,0,0:0:0:0:
448,192,90591,128,0,91125:0:0:0:0:
64,192,90591,128,0,91125:0:0:0:0:
192,192,91125,1,0,0:0:0:0:
320,192,91125,128,0,91258:0:0:0:0:
192,192,91391,128,0,91525:0:0:0:0:
448,192,91525,1,0,0:0:0:0:
320,192,91658,1,0,0:0:0:0:
64,192,91791,128,0,91925:0:0:0:0:
192,192,91925,1,0,0:0:0:0:
320,192,92058,1,0,0:0:0:0:
448,192,92191,128,0,92325:0:0:0:0:
64,192,92191,1,0,0:0:0:0:
192,192,92325,128,0,92458:0:0:0:0:
320,192,92458,128,0,92591:0:0:0:0:
64,192,92591,128,0,92925:0:0:0:0:
192,192,92725,1,0,0:0:0:0:
320,192,92725,1,0,0:0:0:0:
448,192,92725,1,0,0:0:0:0:
448,192,92925,128,0,93125:0:0:0:0:
320,192,92925,1,0,0:0:0:0:
192,192,92925,1,0,0:0:0:0:
64,192,93125,1,0,0:0:0:0:
320,192,93125,1,0,0:0:0:0:
192,192,93125,128,0,93258:0:0:0:0:
448,192,93391,1,0,0:0:0:0:
320,192,93436,1,0,0:0:0:0:
192,192,93480,1,0,0:0:0:0:
64,192,93525,1,0,0:0:0:0:
448,192,93525,128,0,93925:0:0:0:0:
320,192,93525,1,0,0:0:0:0:
192,192,93925,1,0,0:0:0:0:
64,192,93925,1,0,0:0:0:0:
320,192,93991,1,0,0:0:0:0:
448,192,94058,1,0,0:0:0:0:
64,192,94058,128,0,94325:0:0:0:0:
192,192,94325,1,0,0:0:0:0:
448,192,94325,1,0,0:0:0:0:
320,192,94458,1,0,0:0:0:0:
192,192,94525,1,0,0:0:0:0:
64,192,94525,1,0,0:0:0:0:
320,192,94591,1,0,0:0:0:0:
448,192,94591,1,0,0:0:0:0:
64,192,94725,1,0,0:0:0:0:
448,192,94725,1,0,0:0:0:0:
320,192,94858,1,0,0:0:0:0:
192,192,94858,1,0,0:0:0:0:
192,192,94991,1,0,0:0:0:0:
448,192,94991,1,0,0:0:0:0:
320,192,95125,1,0,0:0:0:0:
64,192,95125,1,0,0:0:0:0:
64,192,95258,1,0,0:0:0:0:
448,192,95258,1,0,0:0:0:0:
192,192,95391,1,0,0:0:0:0:
320,192,95391,1,0,0:0:0:0:
448,192,95391,1,0,0:0:0:0:
192,192,95525,1,0,0:0:0:0:
64,192,95525,1,0,0:0:0:0:
320,192,95591,1,0,0:0:0:0:
448,192,95658,1,0,0:0:0:0:
64,192,95658,1,0,0:0:0:0:
192,192,95791,1,0,0:0:0:0:
320,192,95791,1,0,0:0:0:0:
448,192,95791,128,0,96458:0:0:0:0:
64,192,95925,1,0,0:0:0:0:
192,192,96013,1,0,0:0:0:0:
320,192,96102,1,0,0:0:0:0:
64,192,96191,1,0,0:0:0:0:
192,192,96191,1,0,0:0:0:0:
320,192,96280,1,0,0:0:0:0:
192,192,96369,1,0,0:0:0:0:
320,192,96458,128,0,96591:0:0:0:0:
64,192,96458,1,0,0:0:0:0:
192,192,96591,128,0,96725:0:0:0:0:
448,192,96725,128,0,96858:0:0:0:0:
320,192,96725,1,0,0:0:0:0:
192,192,96858,1,0,0:0:0:0:
64,192,96858,128,0,97125:0:0:0:0:
320,192,97125,1,0,0:0:0:0:
448,192,97125,1,0,0:0:0:0:
192,192,97258,1,0,0:0:0:0:
448,192,97258,1,0,0:0:0:0:
320,192,97391,1,0,0:0:0:0:
64,192,97391,1,0,0:0:0:0:
192,192,97525,1,0,0:0:0:0:
64,192,97525,1,0,0:0:0:0:
448,192,97525,1,0,0:0:0:0:
320,192,97591,1,0,0:0:0:0:
192,192,97658,1,0,0:0:0:0:
448,192,97725,1,0,0:0:0:0:
320,192,97791,1,0,0:0:0:0:
192,192,97858,1,0,0:0:0:0:
64,192,97925,1,0,0:0:0:0:
448,192,97925,1,0,0:0:0:0:
320,192,97991,1,0,0:0:0:0:
192,192,98058,1,0,0:0:0:0:
64,192,98058,1,0,0:0:0:0:
320,192,98125,1,0,0:0:0:0:
448,192,98191,1,0,0:0:0:0:
64,192,98258,1,0,0:0:0:0:
192,192,98325,1,0,0:0:0:0:
320,192,98325,1,0,0:0:0:0:
448,192,98391,1,0,0:0:0:0:
64,192,98458,1,0,0:0:0:0:
192,192,98525,1,0,0:0:0:0:
320,192,98591,1,0,0:0:0:0:
448,192,98591,1,0,0:0:0:0:
192,192,98658,1,0,0:0:0:0:
64,192,98658,1,0,0:0:0:0:
320,192,98725,1,0,0:0:0:0:
448,192,98725,1,0,0:0:0:0:
192,192,98791,1,0,0:0:0:0:
64,192,98791,1,0,0:0:0:0:
320,192,98858,1,0,0:0:0:0:
448,192,98858,1,0,0:0:0:0:
64,192,98925,1,0,0:0:0:0:
192,192,98991,1,0,0:0:0:0:
320,192,98991,1,0,0:0:0:0:
448,192,99058,1,0,0:0:0:0:
192,192,99125,1,0,0:0:0:0:
64,192,99125,1,0,0:0:0:0:
320,192,99191,1,0,0:0:0:0:
64,192,99258,1,0,0:0:0:0:
448,192,99258,1,0,0:0:0:0:
192,192,99325,1,0,0:0:0:0:
448,192,99391,1,0,0:0:0:0:
320,192,99391,1,0,0:0:0:0:
192,192,99458,1,0,0:0:0:0:
448,192,99525,1,0,0:0:0:0:
64,192,99525,1,0,0:0:0:0:
320,192,99591,1,0,0:0:0:0:
64,192,99658,1,0,0:0:0:0:
448,192,99658,1,0,0:0:0:0:
192,192,99658,1,0,0:0:0:0:
320,192,99725,1,0,0:0:0:0:
192,192,99791,1,0,0:0:0:0:
320,192,99858,1,0,0:0:0:0:
64,192,99925,1,0,0:0:0:0:
448,192,99925,1,0,0:0:0:0:
192,192,99991,1,0,0:0:0:0:
320,192,100058,1,0,0:0:0:0:
448,192,100058,1,0,0:0:0:0:
64,192,100125,1,0,0:0:0:0:
192,192,100191,1,0,0:0:0:0:
448,192,100191,1,0,0:0:0:0:
320,192,100258,1,0,0:0:0:0:
64,192,100325,1,0,0:0:0:0:
192,192,100391,1,0,0:0:0:0:
320,192,100458,1,0,0:0:0:0:
448,192,100458,1,0,0:0:0:0:
192,192,100525,1,0,0:0:0:0:
448,192,100591,1,0,0:0:0:0:
64,192,100591,1,0,0:0:0:0:
320,192,100658,1,0,0:0:0:0:
192,192,100725,1,0,0:0:0:0:
64,192,100725,128,0,100858:0:0:0:0:
448,192,100858,1,0,0:0:0:0:
320,192,100858,128,0,100991:0:0:0:0:
192,192,100991,128,0,101125:0:0:0:0:
448,192,101125,128,0,101391:0:0:0:0:
64,192,101125,1,0,0:0:0:0:
320,192,101191,1,0,0:0:0:0:
192,192,101258,1,0,0:0:0:0:
64,192,101258,1,0,0:0:0:0:
320,192,101391,1,0,0:0:0:0:
192,192,101458,1,0,0:0:0:0:
448,192,101525,1,0,0:0:0:0:
64,192,101525,1,0,0:0:0:0:
320,192,101658,1,0,0:0:0:0:
64,192,101658,1,0,0:0:0:0:
448,192,101791,1,0,0:0:0:0:
192,192,101791,1,0,0:0:0:0:
320,192,101858,1,0,0:0:0:0:
64,192,101925,1,0,0:0:0:0:
192,192,101991,1,0,0:0:0:0:
448,192,102058,1,0,0:0:0:0:
320,192,102125,1,0,0:0:0:0:
192,192,102191,1,0,0:0:0:0:
64,192,102191,1,0,0:0:0:0:
448,192,102258,1,0,0:0:0:0:
64,192,102325,1,0,0:0:0:0:
320,192,102325,1,0,0:0:0:0:
192,192,102391,1,0,0:0:0:0:
320,192,102458,1,0,0:0:0:0:
448,192,102458,1,0,0:0:0:0:
64,192,102525,1,0,0:0:0:0:
192,192,102591,1,0,0:0:0:0:
320,192,102658,1,0,0:0:0:0:
448,192,102725,1,0,0:0:0:0:
64,192,102725,1,0,0:0:0:0:
192,192,102791,1,0,0:0:0:0:
320,192,102858,1,0,0:0:0:0:
448,192,102858,1,0,0:0:0:0:
192,192,102925,1,0,0:0:0:0:
64,192,102991,1,0,0:0:0:0:
448,192,102991,1,0,0:0:0:0:
320,192,103058,1,0,0:0:0:0:
64,192,103125,1,0,0:0:0:0:
192,192,103125,1,0,0:0:0:0:
448,192,103191,1,0,0:0:0:0:
320,192,103258,1,0,0:0:0:0:
192,192,103325,1,0,0:0:0:0:
448,192,103391,1,0,0:0:0:0:
64,192,103391,1,0,0:0:0:0:
192,192,103458,1,0,0:0:0:0:
320,192,103458,1,0,0:0:0:0:
448,192,103525,1,0,0:0:0:0:
64,192,103525,1,0,0:0:0:0:
320,192,103591,1,0,0:0:0:0:
64,192,103658,1,0,0:0:0:0:
192,192,103658,1,0,0:0:0:0:
320,192,103725,1,0,0:0:0:0:
448,192,103725,1,0,0:0:0:0:
192,192,103791,1,0,0:0:0:0:
64,192,103791,1,0,0:0:0:0:
320,192,103858,1,0,0:0:0:0:
448,192,103858,1,0,0:0:0:0:
64,192,103925,1,0,0:0:0:0:
448,192,103991,1,0,0:0:0:0:
192,192,104058,1,0,0:0:0:0:
320,192,104125,1,0,0:0:0:0:
192,192,104191,1,0,0:0:0:0:
448,192,104191,1,0,0:0:0:0:
64,192,104191,128,0,104725:0:0:0:0:
320,192,104458,1,0,0:0:0:0:
448,192,104458,1,0,0:0:0:0:
320,192,104591,1,0,0:0:0:0:
192,192,104725,1,0,0:0:0:0:
448,192,104725,1,0,0:0:0:0:
320,192,104858,1,0,0:0:0:0:
64,192,104858,1,0,0:0:0:0:
192,192,104925,1,0,0:0:0:0:
320,192,104991,1,0,0:0:0:0:
448,192,104991,1,0,0:0:0:0:
64,192,105058,1,0,0:0:0:0:
448,192,105125,1,0,0:0:0:0:
192,192,105125,1,0,0:0:0:0:
320,192,105191,1,0,0:0:0:0:
64,192,105258,1,0,0:0:0:0:
192,192,105258,1,0,0:0:0:0:
448,192,105325,1,0,0:0:0:0:
64,192,105391,1,0,0:0:0:0:
192,192,105391,1,0,0:0:0:0:
320,192,105391,1,0,0:0:0:0:
64,192,105525,1,0,0:0:0:0:
448,192,105525,1,0,0:0:0:0:
320,192,105658,1,0,0:0:0:0:
192,192,105658,1,0,0:0:0:0:
320,192,105791,1,0,0:0:0:0:
448,192,105791,1,0,0:0:0:0:
192,192,105925,1,0,0:0:0:0:
64,192,105925,1,0,0:0:0:0:
320,192,105991,1,0,0:0:0:0:
448,192,106058,1,0,0:0:0:0:
192,192,106058,1,0,0:0:0:0:
64,192,106058,1,0,0:0:0:0:
320,192,106191,1,0,0:0:0:0:
64,192,106191,1,0,0:0:0:0:
192,192,106325,1,0,0:0:0:0:
448,192,106325,1,0,0:0:0:0:
320,192,106391,1,0,0:0:0:0:
64,192,106458,1,0,0:0:0:0:
192,192,106458,1,0,0:0:0:0:
448,192,106525,1,0,0:0:0:0:
320,192,106591,1,0,0:0:0:0:
64,192,106591,1,0,0:0:0:0:
192,192,106658,1,0,0:0:0:0:
448,192,106725,1,0,0:0:0:0:
320,192,106725,1,0,0:0:0:0:
64,192,106791,1,0,0:0:0:0:
192,192,106858,1,0,0:0:0:0:
320,192,106858,1,0,0:0:0:0:
448,192,106925,1,0,0:0:0:0:
192,192,106991,1,0,0:0:0:0:
64,192,106991,1,0,0:0:0:0:
320,192,107058,1,0,0:0:0:0:
192,192,107125,1,0,0:0:0:0:
64,192,107125,1,0,0:0:0:0:
448,192,107125,128,0,107325:0:0:0:0:
64,192,107325,128,0,107525:0:0:0:0:
320,192,107525,128,0,107658:0:0:0:0:
192,192,107658,128,0,107791:0:0:0:0:
320,192,107791,1,0,0:0:0:0:
448,192,107791,1,0,0:0:0:0:
64,192,107858,1,0,0:0:0:0:
192,192,107925,1,0,0:0:0:0:
448,192,107925,128,0,108058:0:0:0:0:
320,192,107925,1,0,0:0:0:0:
64,192,108058,128,0,108191:0:0:0:0:
192,192,108191,1,0,0:0:0:0:
320,192,108191,1,0,0:0:0:0:
448,192,108191,1,0,0:0:0:0:
64,192,108325,1,0,0:0:0:0:
448,192,108325,1,0,0:0:0:0:
320,192,108391,1,0,0:0:0:0:
192,192,108458,1,0,0:0:0:0:
320,192,108525,1,0,0:0:0:0:
448,192,108591,1,0,0:0:0:0:
64,192,108591,1,0,0:0:0:0:
192,192,108658,1,0,0:0:0:0:
320,192,108725,1,0,0:0:0:0:
192,192,108791,1,0,0:0:0:0:
64,192,108858,1,0,0:0:0:0:
448,192,108858,1,0,0:0:0:0:
320,192,108925,1,0,0:0:0:0:
192,192,108991,1,0,0:0:0:0:
448,192,109058,1,0,0:0:0:0:
320,192,109125,1,0,0:0:0:0:
64,192,109125,1,0,0:0:0:0:
192,192,109191,1,0,0:0:0:0:
448,192,109258,1,0,0:0:0:0:
320,192,109325,1,0,0:0:0:0:
192,192,109391,1,0,0:0:0:0:
64,192,109391,1,0,0:0:0:0:
320,192,109458,1,0,0:0:0:0:
448,192,109525,1,0,0:0:0:0:
64,192,109591,1,0,0:0:0:0:
192,192,109658,1,0,0:0:0:0:
320,192,109658,1,0,0:0:0:0:
448,192,109725,1,0,0:0:0:0:
64,192,109791,1,0,0:0:0:0:
192,192,109858,1,0,0:0:0:0:
320,192,109925,1,0,0:0:0:0:
448,192,109925,1,0,0:0:0:0:
192,192,109991,1,0,0:0:0:0:
64,192,110058,1,0,0:0:0:0:
448,192,110125,1,0,0:0:0:0:
320,192,110191,1,0,0:0:0:0:
192,192,110191,1,0,0:0:0:0:
64,192,110258,1,0,0:0:0:0:
448,192,110325,1,0,0:0:0:0:
320,192,110325,1,0,0:0:0:0:
192,192,110391,1,0,0:0:0:0:
64,192,110458,1,0,0:0:0:0:
448,192,110458,1,0,0:0:0:0:
320,192,110525,1,0,0:0:0:0:
192,192,110591,1,0,0:0:0:0:
448,192,110658,1,0,0:0:0:0:
64,192,110725,1,0,0:0:0:0:
320,192,110725,1,0,0:0:0:0:
192,192,110791,1,0,0:0:0:0:
448,192,110858,1,0,0:0:0:0:
320,192,110925,1,0,0:0:0:0:
192,192,110991,1,0,0:0:0:0:
64,192,110991,1,0,0:0:0:0:
320,192,111058,1,0,0:0:0:0:
448,192,111125,1,0,0:0:0:0:
64,192,111191,1,0,0:0:0:0:
320,192,111258,1,0,0:0:0:0:
192,192,111258,1,0,0:0:0:0:
448,192,111325,1,0,0:0:0:0:
64,192,111391,1,0,0:0:0:0:
192,192,111458,1,0,0:0:0:0:
320,192,111525,1,0,0:0:0:0:
448,192,111525,1,0,0:0:0:0:
192,192,111591,1,0,0:0:0:0:
64,192,111658,1,0,0:0:0:0:
448,192,111725,1,0,0:0:0:0:
320,192,111791,1,0,0:0:0:0:
192,192,111791,1,0,0:0:0:0:
64,192,111858,1,0,0:0:0:0:
448,192,111925,1,0,0:0:0:0:
320,192,111991,1,0,0:0:0:0:
192,192,112058,1,0,0:0:0:0:
64,192,112058,1,0,0:0:0:0:
320,192,112125,1,0,0:0:0:0:
64,192,112191,1,0,0:0:0:0:
192,192,112258,1,0,0:0:0:0:
320,192,112325,1,0,0:0:0:0:
448,192,112325,1,0,0:0:0:0:
192,192,112391,1,0,0:0:0:0:
64,192,112458,1,0,0:0:0:0:
448,192,112458,1,0,0:0:0:0:
320,192,112525,1,0,0:0:0:0:
192,192,112591,1,0,0:0:0:0:
64,192,112591,1,0,0:0:0:0:
320,192,112658,1,0,0:0:0:0:
448,192,112725,1,0,0:0:0:0:
64,192,112791,1,0,0:0:0:0:
192,192,112858,1,0,0:0:0:0:
320,192,112858,1,0,0:0:0:0:
448,192,112925,1,0,0:0:0:0:
64,192,112991,1,0,0:0:0:0:
192,192,113058,1,0,0:0:0:0:
320,192,113125,1,0,0:0:0:0:
448,192,113125,1,0,0:0:0:0:
192,192,113191,1,0,0:0:0:0:
448,192,113258,1,0,0:0:0:0:
320,192,113325,1,0,0:0:0:0:
192,192,113391,1,0,0:0:0:0:
64,192,113391,1,0,0:0:0:0:
448,192,113458,1,0,0:0:0:0:
320,192,113525,1,0,0:0:0:0:
192,192,113591,1,0,0:0:0:0:
64,192,113658,1,0,0:0:0:0:
448,192,113658,1,0,0:0:0:0:
320,192,113725,1,0,0:0:0:0:
192,192,113791,1,0,0:0:0:0:
320,192,113858,1,0,0:0:0:0:
448,192,113925,1,0,0:0:0:0:
64,192,113925,1,0,0:0:0:0:
192,192,113991,1,0,0:0:0:0:
320,192,114058,1,0,0:0:0:0:
192,192,114125,1,0,0:0:0:0:
64,192,114191,1,0,0:0:0:0:
448,192,114191,1,0,0:0:0:0:
320,192,114258,1,0,0:0:0:0:
192,192,114325,1,0,0:0:0:0:
448,192,114391,1,0,0:0:0:0:
320,192,114458,1,0,0:0:0:0:
64,192,114458,1,0,0:0:0:0:
192,192,114525,1,0,0:0:0:0:
320,192,114591,1,0,0:0:0:0:
448,192,114591,1,0,0:0:0:0:
64,192,114658,1,0,0:0:0:0:
192,192,114725,1,0,0:0:0:0:
448,192,114725,1,0,0:0:0:0:
320,192,114791,1,0,0:0:0:0:
64,192,114858,1,0,0:0:0:0:
192,192,114925,1,0,0:0:0:0:
448,192,114991,1,0,0:0:0:0:
320,192,114991,1,0,0:0:0:0:
64,192,115058,1,0,0:0:0:0:
192,192,115125,1,0,0:0:0:0:
448,192,115191,1,0,0:0:0:0:
320,192,115258,1,0,0:0:0:0:
64,192,115258,1,0,0:0:0:0:
192,192,115325,1,0,0:0:0:0:
448,192,115391,1,0,0:0:0:0:
320,192,115458,1,0,0:0:0:0:
192,192,115525,1,0,0:0:0:0:
64,192,115525,1,0,0:0:0:0:
320,192,115591,1,0,0:0:0:0:
448,192,115658,1,0,0:0:0:0:
64,192,115658,1,0,0:0:0:0:
192,192,115725,1,0,0:0:0:0:
320,192,115791,1,0,0:0:0:0:
448,192,115791,1,0,0:0:0:0:
192,192,115858,1,0,0:0:0:0:
64,192,115925,1,0,0:0:0:0:
448,192,115925,1,0,0:0:0:0:
320,192,115991,1,0,0:0:0:0:
192,192,116058,1,0,0:0:0:0:
64,192,116058,1,0,0:0:0:0:
448,192,116125,1,0,0:0:0:0:
320,192,116191,1,0,0:0:0:0:
192,192,116191,1,0,0:0:0:0:
64,192,116191,1,0,0:0:0:0:
448,192,116325,1,0,0:0:0:0:
192,192,116458,1,0,0:0:0:0:
320,192,116591,1,0,0:0:0:0:
448,192,353230,5,0,0:0:0:0:
320,192,353502,1,0,0:0:0:0:
448,192,353639,1,0,0:0:0:0:
192,192,353911,1,0,0:0:0:0:
320,192,354048,1,0,0:0:0:0:
64,192,354184,1,0,0:0:0:0:
448,192,354320,1,0,0:0:0:0:
320,192,354593,1,0,0:0:0:0:
448,192,354730,1,0,0:0:0:0:
192,192,355002,1,0,0:0:0:0:
320,192,355139,1,0,0:0:0:0:
192,192,355275,1,0,0:0:0:0:
64,192,355411,1,0,0:0:0:0:
192,192,355684,1,0,0:0:0:0:
64,192,355820,1,0,0:0:0:0:
320,192,356093,1,0,0:0:0:0:
192,192,356230,1,0,0:0:0:0:
448,192,356366,1,0,0:0:0:0:
64,192,356502,1,0,0:0:0:0:
320,192,356775,1,0,0:0:0:0:
192,192,356911,1,0,0:0:0:0:
320,192,357048,1,0,0:0:0:0:
448,192,357184,1,0,0:0:0:0:
64,192,357320,1,0,0:0:0:0:
448,192,357593,1,0,0:0:0:0:
320,192,357866,1,0,0:0:0:0:
448,192,358002,1,0,0:0:0:0:
192,192,358275,1,0,0:0:0:0:
320,192,358411,1,0,0:0:0:0:
64,192,358548,1,0,0:0:0:0:
448,192,358684,1,0,0:0:0:0:
320,192,358957,1,0,0:0:0:0:
448,192,359093,1,0,0:0:0:0:
64,192,359366,1,0,0:0:0:0:
320,192,359502,1,0,0:0:0:0:
192,192,359639,1,0,0:0:0:0:
64,192,359775,1,0,0:0:0:0:
448,192,359775,1,0,0:0:0:0:
320,192,360320,1,0,0:0:0:0:
64,192,360320,1,0,0:0:0:0:
64,192,360866,1,0,0:0:0:0:
448,192,360866,1,0,0:0:0:0:
448,192,361411,1,0,0:0:0:0:
192,192,361411,1,0,0:0:0:0:
320,192,361684,1,0,0:0:0:0:
192,192,361684,1,0,0:0:0:0:
64,192,361957,1,0,0:0:0:0:
320,192,361957,1,0,0:0:0:0:
448,192,361957,1,0,0:0:0:0:
448,192,362093,1,0,0:0:0:0:
320,192,362093,1,0,0:0:0:0:
64,192,362230,1,0,0:0:0:0:
448,192,362230,1,0,0:0:0:0:
192,192,362230,1,0,0:0:0:0:
192,192,362366,1,0,0:0:0:0:
64,192,362366,1,0,0:0:0:0:
64,192,362502,1,0,0:0:0:0:
448,192,362502,1,0,0:0:0:0:
320,192,362502,1,0,0:0:0:0:
192,192,362639,1,0,0:0:0:0:
320,192,362639,1,0,0:0:0:0:
64,192,362775,1,0,0:0:0:0:
320,192,362775,1,0,0:0:0:0:
448,192,362775,1,0,0:0:0:0:
448,192,362911,1,0,0:0:0:0:
192,192,362911,1,0,0:0:0:0:
64,192,363048,1,0,0:0:0:0:
192,192,363048,1,0,0:0:0:0:
448,192,363048,1,0,0:0:0:0:
64,192,363184,1,0,0:0:0:0:
320,192,363184,1,0,0:0:0:0:
64,192,363320,1,0,0:0:0:0:
320,192,363320,1,0,0:0:0:0:
448,192,363320,1,0,0:0:0:0:
320,192,363457,1,0,0:0:0:0:
192,192,363457,1,0,0:0:0:0:
64,192,363593,1,0,0:0:0:0:
320,192,363593,1,0,0:0:0:0:
448,192,363593,1,0,0:0:0:0:
192,192,363661,1,0,0:0:0:0:
192,192,363798,1,0,0:0:0:0:
64,192,363866,1,0,0:0:0:0:
448,192,363866,1,0,0:0:0:0:
320,192,363866,1,0,0:0:0:0:
64,192,364002,1,0,0:0:0:0:
192,192,364002,1,0,0:0:0:0:
320,192,364070,1,0,0:0:0:0:
64,192,364139,1,0,0:0:0:0:
192,192,364139,1,0,0:0:0:0:
448,192,364139,1,0,0:0:0:0:
192,192,364275,1,0,0:0:0:0:
448,192,364275,1,0,0:0:0:0:
64,192,364411,1,0,0:0:0:0:
320,192,364411,1,0,0:0:0:0:
448,192,364411,1,0,0:0:0:0:
64,192,364548,1,0,0:0:0:0:
320,192,364548,1,0,0:0:0:0:
448,192,364684,1,0,0:0:0:0:
192,192,364684,1,0,0:0:0:0:
64,192,364684,1,0,0:0:0:0:
64,192,364820,1,0,0:0:0:0:
320,192,364820,1,0,0:0:0:0:
192,192,364889,1,0,0:0:0:0:
448,192,364957,1,0,0:0:0:0:
320,192,364957,1,0,0:0:0:0:
64,192,364957,1,0,0:0:0:0:
192,192,365093,1,0,0:0:0:0:
320,192,365093,1,0,0:0:0:0:
192,192,365230,1,0,0:0:0:0:
448,192,365230,1,0,0:0:0:0:
64,192,365230,1,0,0:0:0:0:
320,192,365366,1,0,0:0:0:0:
64,192,365366,1,0,0:0:0:0:
448,192,365502,1,0,0:0:0:0:
320,192,365502,1,0,0:0:0:0:
64,192,365502,1,0,0:0:0:0:
192,192,365639,1,0,0:0:0:0:
448,192,365639,1,0,0:0:0:0:
448,192,365775,1,0,0:0:0:0:
320,192,365775,1,0,0:0:0:0:
64,192,365775,1,0,0:0:0:0:
192,192,365843,1,0,0:0:0:0:
320,192,365911,1,0,0:0:0:0:
448,192,365911,1,0,0:0:0:0:
64,192,366048,1,0,0:0:0:0:
192,192,366048,1,0,0:0:0:0:
320,192,366116,1,0,0:0:0:0:
448,192,366184,1,0,0:0:0:0:
64,192,366184,1,0,0:0:0:0:
192,192,366252,1,0,0:0:0:0:
64,192,366320,1,0,0:0:0:0:
320,192,366320,1,0,0:0:0:0:
448,192,366320,1,0,0:0:0:0:
320,192,366457,1,0,0:0:0:0:
448,192,366457,1,0,0:0:0:0:
64,192,366593,1,0,0:0:0:0:
192,192,366593,1,0,0:0:0:0:
448,192,366593,1,0,0:0:0:0:
192,192,366730,1,0,0:0:0:0:
64,192,366730,1,0,0:0:0:0:
64,192,366866,1,0,0:0:0:0:
448,192,366866,1,0,0:0:0:0:
320,192,366866,1,0,0:0:0:0:
192,192,367002,1,0,0:0:0:0:
64,192,367002,1,0,0:0:0:0:
320,192,367070,1,0,0:0:0:0:
64,192,367139,1,0,0:0:0:0:
192,192,367139,1,0,0:0:0:0:
448,192,367139,1,0,0:0:0:0:
192,192,367275,1,0,0:0:0:0:
320,192,367275,1,0,0:0:0:0:
64,192,367411,1,0,0:0:0:0:
320,192,367411,1,0,0:0:0:0:
448,192,367411,1,0,0:0:0:0:
192,192,367548,1,0,0:0:0:0:
448,192,367548,1,0,0:0:0:0:
448,192,367684,1,0,0:0:0:0:
192,192,367684,1,0,0:0:0:0:
64,192,367684,1,0,0:0:0:0:
320,192,367820,1,0,0:0:0:0:
64,192,367820,1,0,0:0:0:0:
448,192,367957,1,0,0:0:0:0:
192,192,367957,1,0,0:0:0:0:
64,192,367957,1,0,0:0:0:0:
320,192,368025,1,0,0:0:0:0:
320,192,368161,1,0,0:0:0:0:
192,192,368230,1,0,0:0:0:0:
448,192,368230,1,0,0:0:0:0:
64,192,368230,1,0,0:0:0:0:
320,192,368366,1,0,0:0:0:0:
448,192,368366,1,0,0:0:0:0:
192,192,368434,1,0,0:0:0:0:
448,192,368502,1,0,0:0:0:0:
320,192,368502,1,0,0:0:0:0:
64,192,368502,1,0,0:0:0:0:
64,192,368639,1,0,0:0:0:0:
448,192,368775,1,0,0:0:0:0:
320,192,368775,1,0,0:0:0:0:
192,192,368775,1,0,0:0:0:0:
448,192,368911,1,0,0:0:0:0:
64,192,369048,1,0,0:0:0:0:
320,192,369048,1,0,0:0:0:0:
192,192,369048,1,0,0:0:0:0:
192,192,369184,1,0,0:0:0:0:
64,192,369320,1,0,0:0:0:0:
320,192,369320,1,0,0:0:0:0:
448,192,369320,1,0,0:0:0:0:
320,192,369457,1,0,0:0:0:0:
448,192,369593,1,0,0:0:0:0:
64,192,369593,1,0,0:0:0:0:
192,192,369661,1,0,0:0:0:0:
320,192,369730,1,0,0:0:0:0:
448,192,369798,1,0,0:0:0:0:
64,192,369866,1,0,0:0:0:0:
192,192,369866,1,0,0:0:0:0:
320,192,369934,1,0,0:0:0:0:
448,192,370002,1,0,0:0:0:0:
64,192,370070,1,0,0:0:0:0:
192,192,370139,1,0,0:0:0:0:
320,192,370139,1,0,0:0:0:0:
448,192,370207,1,0,0:0:0:0:
64,192,370275,1,0,0:0:0:0:
192,192,370343,1,0,0:0:0:0:
448,192,370411,1,0,0:0:0:0:
320,192,370411,1,0,0:0:0:0:
64,192,370684,1,0,0:0:0:0:
192,192,370684,1,0,0:0:0:0:
320,192,370684,1,0,0:0:0:0:
192,192,370957,1,0,0:0:0:0:
448,192,370957,1,0,0:0:0:0:
64,192,370957,128,0,371775:0:0:0:0:
192,192,371093,128,0,371502:0:0:0:0:
320,192,371230,1,0,0:0:0:0:
320,192,371366,1,0,0:0:0:0:
448,192,371502,1,0,0:0:0:0:
192,192,371775,1,0,0:0:0:0:
320,192,371775,1,0,0:0:0:0:
64,192,372048,1,0,0:0:0:0:
320,192,372048,1,0,0:0:0:0:
448,192,372048,128,0,372593:0:0:0:0:
320,192,372184,128,0,372457:0:0:0:0:
192,192,372320,1,0,0:0:0:0:
192,192,372457,1,0,0:0:0:0:
64,192,372593,128,0,372866:0:0:0:0:
320,192,372593,1,0,0:0:0:0:
192,192,372866,1,0,0:0:0:0:
448,192,372866,128,0,373139:0:0:0:0:
320,192,373139,128,0,373411:0:0:0:0:
64,192,373139,1,0,0:0:0:0:
192,192,373139,1,0,0:0:0:0:
64,192,373411,128,0,373548:0:0:0:0:
448,192,373411,1,0,0:0:0:0:
320,192,373548,1,0,0:0:0:0:
192,192,373548,128,0,373684:0:0:0:0:
64,192,373684,1,0,0:0:0:0:
448,192,373684,1,0,0:0:0:0:
320,192,373752,1,0,0:0:0:0:
192,192,373820,128,0,374093:0:0:0:0:
448,192,373957,128,0,374230:0:0:0:0:
320,192,374230,1,0,0:0:0:0:
192,192,374230,1,0,0:0:0:0:
64,192,374230,128,0,374502:0:0:0:0:
320,192,374502,128,0,374775:0:0:0:0:
448,192,374502,1,0,0:0:0:0:
448,192,374639,1,0,0:0:0:0:
192,192,374775,128,0,375048:0:0:0:0:
64,192,374775,1,0,0:0:0:0:
64,192,375048,1,0,0:0:0:0:
320,192,375048,1,0,0:0:0:0:
448,192,375048,128,0,375320:0:0:0:0:
192,192,375320,1,0,0:0:0:0:
64,192,375320,128,0,375457:0:0:0:0:
320,192,375320,1,0,0:0:0:0:
448,192,375457,128,0,375866:0:0:0:0:
192,192,375593,1,0,0:0:0:0:
192,192,375730,1,0,0:0:0:0:
320,192,375866,1,0,0:0:0:0:
64,192,375866,128,0,376002:0:0:0:0:
192,192,376002,128,0,376139:0:0:0:0:
448,192,376139,1,0,0:0:0:0:
320,192,376139,128,0,376411:0:0:0:0:
64,192,376411,128,0,376548:0:0:0:0:
192,192,376411,1,0,0:0:0:0:
448,192,376411,1,0,0:0:0:0:
320,192,376548,128,0,376957:0:0:0:0:
192,192,376684,1,0,0:0:0:0:
192,192,376820,1,0,0:0:0:0:
448,192,376957,1,0,0:0:0:0:
64,192,376957,128,0,377230:0:0:0:0:
192,192,377230,1,0,0:0:0:0:
320,192,377230,1,0,0:0:0:0:
448,192,377230,128,0,377639:0:0:0:0:
320,192,377502,1,0,0:0:0:0:
64,192,377502,1,0,0:0:0:0:
192,192,377639,128,0,378048:0:0:0:0:
320,192,377775,1,0,0:0:0:0:
320,192,377911,1,0,0:0:0:0:
64,192,378048,1,0,0:0:0:0:
448,192,378048,128,0,378320:0:0:0:0:
320,192,378184,1,0,0:0:0:0:
64,192,378320,128,0,378593:0:0:0:0:
192,192,378457,1,0,0:0:0:0:
320,192,378593,1,0,0:0:0:0:
448,192,378593,1,0,0:0:0:0:
192,192,378730,1,0,0:0:0:0:
448,192,378866,1,0,0:0:0:0:
64,192,378866,1,0,0:0:0:0:
320,192,378934,1,0,0:0:0:0:
192,192,379002,1,0,0:0:0:0:
64,192,379002,1,0,0:0:0:0:
320,192,379139,1,0,0:0:0:0:
448,192,379139,1,0,0:0:0:0:
64,192,379207,1,0,0:0:0:0:
192,192,379207,1,0,0:0:0:0:
448,192,379275,1,0,0:0:0:0:
320,192,379275,1,0,0:0:0:0:
192,192,379343,1,0,0:0:0:0:
64,192,379343,1,0,0:0:0:0:
320,192,379411,1,0,0:0:0:0:
448,192,379411,1,0,0:0:0:0:
64,192,379548,128,0,380093:0:0:0:0:
448,192,379548,1,0,0:0:0:0:
192,192,379548,128,0,379957:0:0:0:0:
320,192,379752,1,0,0:0:0:0:
448,192,379820,1,0,0:0:0:0:
320,192,379957,1,0,0:0:0:0:
192,192,380093,1,0,0:0:0:0:
448,192,380093,128,0,380230:0:0:0:0:
64,192,380230,1,0,0:0:0:0:
320,192,380230,128,0,380366:0:0:0:0:
448,192,380366,128,0,380502:0:0:0:0:
192,192,380366,1,0,0:0:0:0:
320,192,380502,1,0,0:0:0:0:
64,192,380502,128,0,380639:0:0:0:0:
192,192,380639,1,0,0:0:0:0:
448,192,380639,128,0,380775:0:0:0:0:
192,192,380775,1,0,0:0:0:0:
320,192,380843,1,0,0:0:0:0:
64,192,380911,128,0,381184:0:0:0:0:
448,192,380911,1,0,0:0:0:0:
192,192,381048,1,0,0:0:0:0:
448,192,381116,1,0,0:0:0:0:
192,192,381184,1,0,0:0:0:0:
320,192,381184,128,0,381320:0:0:0:0:
448,192,381320,1,0,0:0:0:0:
64,192,381320,128,0,381457:0:0:0:0:
192,192,381389,1,0,0:0:0:0:
320,192,381457,1,0,0:0:0:0:
448,192,381457,128,0,381593:0:0:0:0:
320,192,381593,1,0,0:0:0:0:
192,192,381593,128,0,381866:0:0:0:0:
64,192,381593,128,0,382002:0:0:0:0:
448,192,381730,1,0,0:0:0:0:
320,192,381934,1,0,0:0:0:0:
192,192,382002,1,0,0:0:0:0:
448,192,382002,128,0,382139:0:0:0:0:
320,192,382139,1,0,0:0:0:0:
64,192,382139,128,0,382275:0:0:0:0:
192,192,382275,1,0,0:0:0:0:
448,192,382275,1,0,0:0:0:0:
64,192,382411,128,0,382548:0:0:0:0:
320,192,382548,1,0,0:0:0:0:
448,192,382548,1,0,0:0:0:0:
64,192,382684,1,0,0:0:0:0:
192,192,382684,1,0,0:0:0:0:
320,192,382752,1,0,0:0:0:0:
64,192,382820,1,0,0:0:0:0:
448,192,382820,1,0,0:0:0:0:
192,192,382889,1,0,0:0:0:0:
320,192,382957,1,0,0:0:0:0:
448,192,382957,1,0,0:0:0:0:
64,192,383025,1,0,0:0:0:0:
192,192,383093,1,0,0:0:0:0:
448,192,383093,128,0,383230:0:0:0:0:
320,192,383230,1,0,0:0:0:0:
64,192,383230,128,0,383366:0:0:0:0:
448,192,383366,1,0,0:0:0:0:
192,192,383366,128,0,383502:0:0:0:0:
320,192,383502,1,0,0:0:0:0:
448,192,383502,1,0,0:0:0:0:
64,192,383570,1,0,0:0:0:0:
320,192,383639,1,0,0:0:0:0:
448,192,383639,1,0,0:0:0:0:
192,192,383707,1,0,0:0:0:0:
64,192,383775,1,0,0:0:0:0:
448,192,383775,1,0,0:0:0:0:
320,192,383775,1,0,0:0:0:0:
192,192,383866,1,0,0:0:0:0:
320,192,383957,1,0,0:0:0:0:
448,192,384048,1,0,0:0:0:0:
192,192,384139,1,0,0:0:0:0:
320,192,384230,1,0,0:0:0:0:
64,192,384320,1,0,0:0:0:0:
192,192,384411,1,0,0:0:0:0:
320,192,384502,1,0,0:0:0:0:
448,192,384593,1,0,0:0:0:0:
64,192,384684,1,0,0:0:0:0:
192,192,384775,1,0,0:0:0:0:
448,192,384866,1,0,0:0:0:0:
320,192,384957,1,0,0:0:0:0:
192,192,385048,1,0,0:0:0:0:
64,192,385139,1,0,0:0:0:0:
320,192,385230,1,0,0:0:0:0:
192,192,385320,1,0,0:0:0:0:
448,192,385411,1,0,0:0:0:0:
320,192,385502,1,0,0:0:0:0:
192,192,385593,1,0,0:0:0:0:
64,192,385684,1,0,0:0:0:0:
448,192,385775,1,0,0:0:0:0:
320,192,385866,1,0,0:0:0:0:
192,192,385957,1,0,0:0:0:0:
64,192,385957,1,0,0:0:0:0:
448,192,386093,1,0,0:0:0:0:
320,192,386093,1,0,0:0:0:0:
64,192,386093,128,0,386366:0:0:0:0:
192,192,386298,1,0,0:0:0:0:
448,192,386366,1,0,0:0:0:0:
64,192,386502,128,0,386775:0:0:0:0:
320,192,386502,1,0,0:0:0:0:
448,192,386639,1,0,0:0:0:0:
320,192,386775,1,0,0:0:0:0:
192,192,386911,1,0,0:0:0:0:
64,192,386911,1,0,0:0:0:0:
448,192,386911,1,0,0:0:0:0:
320,192,387048,1,0,0:0:0:0:
192,192,387116,1,0,0:0:0:0:
64,192,387184,1,0,0:0:0:0:
320,192,387184,1,0,0:0:0:0:
448,192,387252,1,0,0:0:0:0:
192,192,387252,1,0,0:0:0:0:
320,192,387320,1,0,0:0:0:0:
448,192,387389,1,0,0:0:0:0:
64,192,387457,1,0,0:0:0:0:
192,192,387525,1,0,0:0:0:0:
320,192,387593,1,0,0:0:0:0:
64,192,387593,1,0,0:0:0:0:
448,192,387661,1,0,0:0:0:0:
192,192,387661,1,0,0:0:0:0:
320,192,387730,1,0,0:0:0:0:
192,192,387798,1,0,0:0:0:0:
64,192,387866,1,0,0:0:0:0:
448,192,387866,1,0,0:0:0:0:
320,192,387934,1,0,0:0:0:0:
448,192,388002,1,0,0:0:0:0:
64,192,388002,1,0,0:0:0:0:
192,192,388070,1,0,0:0:0:0:
320,192,388139,1,0,0:0:0:0:
448,192,388139,1,0,0:0:0:0:
64,192,388139,1,0,0:0:0:0:
192,192,388411,1,0,0:0:0:0:
64,192,388411,1,0,0:0:0:0:
448,192,388411,1,0,0:0:0:0:
320,192,388548,1,0,0:0:0:0:
192,192,388684,1,0,0:0:0:0:
64,192,388684,1,0,0:0:0:0:
320,192,388820,1,0,0:0:0:0:
448,192,388820,1,0,0:0:0:0:
192,192,388889,1,0,0:0:0:0:
64,192,388957,1,0,0:0:0:0:
320,192,388957,1,0,0:0:0:0:
448,192,388957,1,0,0:0:0:0:
192,192,389093,1,0,0:0:0:0:
64,192,389230,1,0,0:0:0:0:
448,192,389230,1,0,0:0:0:0:
320,192,389366,1,0,0:0:0:0:
64,192,389502,1,0,0:0:0:0:
192,192,389502,1,0,0:0:0:0:
448,192,389502,1,0,0:0:0:0:
320,192,389639,1,0,0:0:0:0:
448,192,389639,1,0,0:0:0:0:
64,192,389775,1,0,0:0:0:0:
320,192,389911,1,0,0:0:0:0:
448,192,389911,1,0,0:0:0:0:
64,192,390048,1,0,0:0:0:0:
192,192,390048,1,0,0:0:0:0:
448,192,390048,1,0,0:0:0:0:
320,192,390184,1,0,0:0:0:0:
192,192,390320,1,0,0:0:0:0:
64,192,390320,1,0,0:0:0:0:
448,192,390320,1,0,0:0:0:0:
192,192,390457,1,0,0:0:0:0:
448,192,390593,1,0,0:0:0:0:
320,192,390593,1,0,0:0:0:0:
64,192,390593,1,0,0:0:0:0:
320,192,390730,1,0,0:0:0:0:
192,192,390866,1,0,0:0:0:0:
64,192,390866,1,0,0:0:0:0:
320,192,391002,1,0,0:0:0:0:
448,192,391002,1,0,0:0:0:0:
448,192,391139,1,0,0:0:0:0:
192,192,391139,1,0,0:0:0:0:
64,192,391139,1,0,0:0:0:0:
320,192,391275,1,0,0:0:0:0:
192,192,391411,1,0,0:0:0:0:
64,192,391411,1,0,0:0:0:0:
448,192,391411,1,0,0:0:0:0:
320,192,391502,1,0,0:0:0:0:
192,192,391593,1,0,0:0:0:0:
320,192,391684,1,0,0:0:0:0:
448,192,391684,1,0,0:0:0:0:
64,192,391820,1,0,0:0:0:0:
192,192,391820,1,0,0:0:0:0:
448,192,391820,1,0,0:0:0:0:
320,192,391957,1,0,0:0:0:0:
192,192,392093,1,0,0:0:0:0:
64,192,392093,1,0,0:0:0:0:
64,192,392230,1,0,0:0:0:0:
448,192,392230,1,0,0:0:0:0:
320,192,392366,1,0,0:0:0:0:
192,192,392502,1,0,0:0:0:0:
64,192,392502,1,0,0:0:0:0:
192,192,392639,1,0,0:0:0:0:
64,192,392639,1,0,0:0:0:0:
192,192,392775,1,0,0:0:0:0:
64,192,392775,1,0,0:0:0:0:
64,192,392911,1,0,0:0:0:0:
192,192,392911,1,0,0:0:0:0:
320,192,393184,1,0,0:0:0:0:
192,192,393252,1,0,0:0:0:0:
320,192,393320,1,0,0:0:0:0:
448,192,393320,1,0,0:0:0:0:
320,192,393457,1,0,0:0:0:0:
448,192,393457,1,0,0:0:0:0:
320,192,393593,1,0,0:0:0:0:
448,192,393593,1,0,0:0:0:0:
320,192,393730,1,0,0:0:0:0:
448,192,393730,1,0,0:0:0:0:
192,192,394002,1,0,0:0:0:0:
320,192,394070,1,0,0:0:0:0:
448,192,394139,1,0,0:0:0:0:
192,192,394139,1,0,0:0:0:0:
64,192,394207,1,0,0:0:0:0:
320,192,394275,1,0,0:0:0:0:
192,192,394343,1,0,0:0:0:0:
448,192,394411,1,0,0:0:0:0:
320,192,394480,1,0,0:0:0:0:
448,192,394548,1,0,0:0:0:0:
64,192,394548,1,0,0:0:0:0:
192,192,394548,1,0,0:0:0:0:
320,192,394820,1,0,0:0:0:0:
64,192,394820,1,0,0:0:0:0:
192,192,394889,1,0,0:0:0:0:
64,192,394957,1,0,0:0:0:0:
448,192,394957,1,0,0:0:0:0:
320,192,394957,1,0,0:0:0:0:
192,192,395093,1,0,0:0:0:0:
320,192,395093,1,0,0:0:0:0:
64,192,395230,1,0,0:0:0:0:
448,192,395230,1,0,0:0:0:0:
192,192,395230,1,0,0:0:0:0:
320,192,395366,1,0,0:0:0:0:
448,192,395366,1,0,0:0:0:0:
192,192,395434,1,0,0:0:0:0:
320,192,395502,1,0,0:0:0:0:
448,192,395502,1,0,0:0:0:0:
64,192,395502,1,0,0:0:0:0:
320,192,395639,1,0,0:0:0:0:
192,192,395639,1,0,0:0:0:0:
192,192,395775,1,0,0:0:0:0:
64,192,395775,1,0,0:0:0:0:
448,192,395775,128,0,396320:0:0:0:0:
320,192,395980,1,0,0:0:0:0:
64,192,395980,1,0,0:0:0:0:
192,192,396184,1,0,0:0:0:0:
320,192,396184,1,0,0:0:0:0:
320,192,396320,1,0,0:0:0:0:
192,192,396320,1,0,0:0:0:0:
64,192,396320,1,0,0:0:0:0:
320,192,396866,1,0,0:0:0:0:
192,192,396866,1,0,0:0:0:0:
448,192,397002,1,0,0:0:0:0:
192,192,397002,1,0,0:0:0:0:
64,192,397002,1,0,0:0:0:0:
320,192,397139,1,0,0:0:0:0:
448,192,397139,1,0,0:0:0:0:
192,192,397207,1,0,0:0:0:0:
448,192,397275,1,0,0:0:0:0:
320,192,397275,1,0,0:0:0:0:
64,192,397275,1,0,0:0:0:0:
320,192,397411,1,0,0:0:0:0:
192,192,397411,1,0,0:0:0:0:
448,192,397548,1,0,0:0:0:0:
192,192,397548,1,0,0:0:0:0:
64,192,397548,1,0,0:0:0:0:
64,192,397684,1,0,0:0:0:0:
320,192,397684,1,0,0:0:0:0:
192,192,397752,1,0,0:0:0:0:
448,192,397820,1,0,0:0:0:0:
320,192,397820,1,0,0:0:0:0:
64,192,397820,1,0,0:0:0:0:
192,192,397957,1,0,0:0:0:0:
320,192,397957,1,0,0:0:0:0:
448,192,398093,1,0,0:0:0:0:
192,192,398093,1,0,0:0:0:0:
64,192,398093,1,0,0:0:0:0:
448,192,398230,1,0,0:0:0:0:
320,192,398230,1,0,0:0:0:0:
192,192,398298,1,0,0:0:0:0:
448,192,398366,1,0,0:0:0:0:
64,192,398366,1,0,0:0:0:0:
320,192,398366,1,0,0:0:0:0:
192,192,398502,1,0,0:0:0:0:
320,192,398502,1,0,0:0:0:0:
448,192,398639,1,0,0:0:0:0:
192,192,398639,1,0,0:0:0:0:
64,192,398639,1,0,0:0:0:0:
320,192,398707,1,0,0:0:0:0:
64,192,398775,1,0,0:0:0:0:
192,192,398843,1,0,0:0:0:0:
64,192,398911,1,0,0:0:0:0:
320,192,398911,1,0,0:0:0:0:
448,192,398911,128,0,399048:0:0:0:0:
64,192,399048,128,0,399320:0:0:0:0:
320,192,399048,1,0,0:0:0:0:
192,192,399048,128,0,399184:0:0:0:0:
448,192,399184,1,0,0:0:0:0:
320,192,399320,1,0,0:0:0:0:
192,192,399389,1,0,0:0:0:0:
64,192,399457,1,0,0:0:0:0:
320,192,399457,1,0,0:0:0:0:
448,192,399457,1,0,0:0:0:0:
192,192,399593,1,0,0:0:0:0:
320,192,399593,1,0,0:0:0:0:
448,192,399730,1,0,0:0:0:0:
192,192,399730,1,0,0:0:0:0:
64,192,399730,1,0,0:0:0:0:
448,192,399866,1,0,0:0:0:0:
320,192,399866,1,0,0:0:0:0:
192,192,399934,1,0,0:0:0:0:
64,192,400002,1,0,0:0:0:0:
320,192,400002,1,0,0:0:0:0:
448,192,400002,1,0,0:0:0:0:
192,192,400139,1,0,0:0:0:0:
320,192,400139,1,0,0:0:0:0:
192,192,400275,1,0,0:0:0:0:
64,192,400275,1,0,0:0:0:0:
448,192,400275,1,0,0:0:0:0:
320,192,400411,1,0,0:0:0:0:
64,192,400411,1,0,0:0:0:0:
192,192,400480,1,0,0:0:0:0:
320,192,400548,1,0,0:0:0:0:
448,192,400548,1,0,0:0:0:0:
192,192,400684,1,0,0:0:0:0:
64,192,400684,1,0,0:0:0:0:
448,192,400684,1,0,0:0:0:0:
320,192,400820,1,0,0:0:0:0:
192,192,400820,1,0,0:0:0:0:
64,192,400957,1,0,0:0:0:0:
448,192,400957,128,0,401230:0:0:0:0:
320,192,401025,1,0,0:0:0:0:
192,192,401093,1,0,0:0:0:0:
64,192,401093,1,0,0:0:0:0:
64,192,401230,128,0,401639:0:0:0:0:
192,192,401230,128,0,401570:0:0:0:0:
320,192,401230,128,0,401502:0:0:0:0:
448,192,401502,1,0,0:0:0:0:
320,192,401570,1,0,0:0:0:0:
192,192,401639,1,0,0:0:0:0:
64,192,401707,1,0,0:0:0:0:
448,192,401775,1,0,0:0:0:0:
320,192,401775,1,0,0:0:0:0:
192,192,401911,1,0,0:0:0:0:
64,192,402048,1,0,0:0:0:0:
448,192,402048,1,0,0:0:0:0:
320,192,402116,1,0,0:0:0:0:
192,192,402184,1,0,0:0:0:0:
64,192,402184,1,0,0:0:0:0:
448,192,402184,1,0,0:0:0:0:
320,192,402320,1,0,0:0:0:0:
192,192,402320,1,0,0:0:0:0:
320,192,402457,1,0,0:0:0:0:
448,192,402457,1,0,0:0:0:0:
64,192,402457,1,0,0:0:0:0:
64,192,402593,1,0,0:0:0:0:
192,192,402593,1,0,0:0:0:0:
320,192,402661,1,0,0:0:0:0:
448,192,402730,1,0,0:0:0:0:
192,192,402730,1,0,0:0:0:0:
64,192,402730,1,0,0:0:0:0:
320,192,402866,1,0,0:0:0:0:
448,192,402866,1,0,0:0:0:0:
192,192,402934,1,0,0:0:0:0:
64,192,403002,1,0,0:0:0:0:
320,192,403002,1,0,0:0:0:0:
448,192,403002,1,0,0:0:0:0:
192,192,403070,1,0,0:0:0:0:
448,192,403139,1,0,0:0:0:0:
64,192,403139,1,0,0:0:0:0:
320,192,403207,1,0,0:0:0:0:
192,192,403275,1,0,0:0:0:0:
64,192,403275,128,0,403411:0:0:0:0:
192,192,403411,1,0,0:0:0:0:
320,192,403411,128,0,403684:0:0:0:0:
448,192,403411,128,0,403820:0:0:0:0:
64,192,403548,1,0,0:0:0:0:
192,192,403684,1,0,0:0:0:0:
320,192,403752,1,0,0:0:0:0:
192,192,403820,1,0,0:0:0:0:
64,192,403820,1,0,0:0:0:0:
320,192,403957,1,0,0:0:0:0:
448,192,403957,1,0,0:0:0:0:
192,192,404093,1,0,0:0:0:0:
64,192,404093,1,0,0:0:0:0:
448,192,404093,1,0,0:0:0:0:
320,192,404230,1,0,0:0:0:0:
64,192,404230,1,0,0:0:0:0:
192,192,404298,1,0,0:0:0:0:
64,192,404366,1,0,0:0:0:0:
320,192,404366,1,0,0:0:0:0:
448,192,404366,1,0,0:0:0:0:
192,192,404502,1,0,0:0:0:0:
320,192,404570,1,0,0:0:0:0:
64,192,404639,1,0,0:0:0:0:
192,192,404707,1,0,0:0:0:0:
320,192,404775,1,0,0:0:0:0:
448,192,404775,1,0,0:0:0:0:
64,192,404843,1,0,0:0:0:0:
448,192,404911,1,0,0:0:0:0:
192,192,404911,1,0,0:0:0:0:
320,192,404980,1,0,0:0:0:0:
64,192,405048,1,0,0:0:0:0:
192,192,405048,1,0,0:0:0:0:
320,192,405116,1,0,0:0:0:0:
64,192,405184,1,0,0:0:0:0:
448,192,405184,1,0,0:0:0:0:
192,192,405252,1,0,0:0:0:0:
448,192,405320,1,0,0:0:0:0:
320,192,405320,1,0,0:0:0:0:
192,192,405389,1,0,0:0:0:0:
64,192,405389,1,0,0:0:0:0:
320,192,405457,1,0,0:0:0:0:
448,192,405457,1,0,0:0:0:0:
64,192,405525,1,0,0:0:0:0:
192,192,405525,1,0,0:0:0:0:
64,192,405593,1,0,0:0:0:0:
320,192,405593,128,0,405866:0:0:0:0:
448,192,405593,128,0,406002:0:0:0:0:
64,192,405866,1,0,0:0:0:0:
192,192,406002,1,0,0:0:0:0:
320,192,406002,1,0,0:0:0:0:
64,192,406139,1,0,0:0:0:0:
192,192,406139,1,0,0:0:0:0:
448,192,406139,1,0,0:0:0:0:
320,192,406275,1,0,0:0:0:0:
64,192,406275,1,0,0:0:0:0:
192,192,406343,1,0,0:0:0:0:
448,192,406411,1,0,0:0:0:0:
64,192,406411,1,0,0:0:0:0:
320,192,406411,1,0,0:0:0:0:
192,192,406548,1,0,0:0:0:0:
320,192,406548,1,0,0:0:0:0:
64,192,406684,1,0,0:0:0:0:
448,192,406684,1,0,0:0:0:0:
192,192,406684,1,0,0:0:0:0:
448,192,406820,1,0,0:0:0:0:
320,192,406820,1,0,0:0:0:0:
64,192,406957,1,0,0:0:0:0:
448,192,406957,1,0,0:0:0:0:
192,192,406957,1,0,0:0:0:0:
320,192,407093,128,0,407366:0:0:0:0:
192,192,407093,1,0,0:0:0:0:
64,192,407230,1,0,0:0:0:0:
448,192,407230,1,0,0:0:0:0:
192,192,407366,128,0,407502:0:0:0:0:
64,192,407366,1,0,0:0:0:0:
448,192,407502,128,0,407639:0:0:0:0:
320,192,407502,1,0,0:0:0:0:
64,192,407639,128,0,407775:0:0:0:0:
192,192,407639,1,0,0:0:0:0:
192,192,407775,128,0,407911:0:0:0:0:
448,192,407775,128,0,408048:0:0:0:0:
320,192,407775,1,0,0:0:0:0:
64,192,407911,1,0,0:0:0:0:
192,192,408184,1,0,0:0:0:0:
320,192,408252,1,0,0:0:0:0:
64,192,408320,1,0,0:0:0:0:
448,192,408320,1,0,0:0:0:0:
192,192,408389,1,0,0:0:0:0:
320,192,408457,1,0,0:0:0:0:
192,192,408525,1,0,0:0:0:0:
448,192,408593,1,0,0:0:0:0:
64,192,408593,1,0,0:0:0:0:
320,192,408661,1,0,0:0:0:0:
192,192,408661,1,0,0:0:0:0:
448,192,408730,1,0,0:0:0:0:
64,192,408730,1,0,0:0:0:0:
320,192,408798,1,0,0:0:0:0:
448,192,408866,128,0,409139:0:0:0:0:
64,192,408866,128,0,409002:0:0:0:0:
192,192,408866,1,0,0:0:0:0:
320,192,409002,1,0,0:0:0:0:
192,192,409070,1,0,0:0:0:0:
64,192,409139,1,0,0:0:0:0:
192,192,409275,1,0,0:0:0:0:
448,192,409275,1,0,0:0:0:0:
64,192,409684,1,0,0:0:0:0:
192,192,409684,1,0,0:0:0:0:
448,192,409684,1,0,0:0:0:0:
448,192,409820,1,0,0:0:0:0:
64,192,409820,1,0,0:0:0:0:
192,192,409820,1,0,0:0:0:0:
64,192,409957,128,0,410230:0:0:0:0:
448,192,409957,128,0,410093:0:0:0:0:
320,192,409957,1,0,0:0:0:0:
192,192,410093,1,0,0:0:0:0:
320,192,410230,1,0,0:0:0:0:
448,192,410230,1,0,0:0:0:0:
64,192,410366,1,0,0:0:0:0:
448,192,410366,1,0,0:0:0:0:
192,192,410366,1,0,0:0:0:0:
192,192,410502,1,0,0:0:0:0:
320,192,410502,1,0,0:0:0:0:
64,192,410639,1,0,0:0:0:0:
320,192,410639,1,0,0:0:0:0:
448,192,410639,1,0,0:0:0:0:
192,192,410775,1,0,0:0:0:0:
64,192,410775,1,0,0:0:0:0:
448,192,410911,1,0,0:0:0:0:
64,192,410911,1,0,0:0:0:0:
320,192,410911,1,0,0:0:0:0:
192,192,410980,1,0,0:0:0:0:
448,192,411048,1,0,0:0:0:0:
320,192,411048,128,0,411184:0:0:0:0:
64,192,411184,128,0,411320:0:0:0:0:
192,192,411184,1,0,0:0:0:0:
448,192,411320,128,0,411457:0:0:0:0:
320,192,411320,1,0,0:0:0:0:
192,192,411389,1,0,0:0:0:0:
64,192,411457,128,0,411593:0:0:0:0:
320,192,411457,1,0,0:0:0:0:
448,192,411593,128,0,411730:0:0:0:0:
320,192,411593,1,0,0:0:0:0:
192,192,411661,1,0,0:0:0:0:
64,192,411730,128,0,411866:0:0:0:0:
320,192,411730,1,0,0:0:0:0:
448,192,411866,128,0,412002:0:0:0:0:
320,192,411866,1,0,0:0:0:0:
192,192,411934,1,0,0:0:0:0:
320,192,412002,128,0,412139:0:0:0:0:
64,192,412002,1,0,0:0:0:0:
448,192,412139,1,0,0:0:0:0:
192,192,412139,128,0,412411:0:0:0:0:
64,192,412139,128,0,412411:0:0:0:0:
448,192,412411,1,0,0:0:0:0:
320,192,412480,1,0,0:0:0:0:
64,192,412548,1,0,0:0:0:0:
192,192,412548,1,0,0:0:0:0:
320,192,412616,1,0,0:0:0:0:
448,192,412684,128,0,412820:0:0:0:0:
64,192,412684,128,0,412957:0:0:0:0:
192,192,412820,1,0,0:0:0:0:
448,192,412957,1,0,0:0:0:0:
320,192,413025,1,0,0:0:0:0:
448,192,413093,1,0,0:0:0:0:
64,192,413093,1,0,0:0:0:0:
192,192,413161,1,0,0:0:0:0:
320,192,413230,1,0,0:0:0:0:
448,192,413230,1,0,0:0:0:0:
64,192,413298,1,0,0:0:0:0:
192,192,413366,1,0,0:0:0:0:
448,192,413366,1,0,0:0:0:0:
320,192,413434,1,0,0:0:0:0:
192,192,413502,1,0,0:0:0:0:
64,192,413570,1,0,0:0:0:0:
192,192,413639,1,0,0:0:0:0:
448,192,413639,1,0,0:0:0:0:
320,192,413707,1,0,0:0:0:0:
448,192,413775,1,0,0:0:0:0:
64,192,413775,128,0,413866:0:0:0:0:
192,192,413866,128,0,413957:0:0:0:0:
320,192,413957,128,0,414048:0:0:0:0:
448,192,414048,1,0,0:0:0:0:
64,192,414048,1,0,0:0:0:0:
64,192,414184,1,0,0:0:0:0:
192,192,414184,1,0,0:0:0:0:
320,192,414252,1,0,0:0:0:0:
448,192,414252,1,0,0:0:0:0:
64,192,414320,5,0,0:0:0:0:
448,192,414320,1,0,0:0:0:0:
192,192,414320,1,0,0:0:0:0:
320,192,414457,1,0,0:0:0:0:
192,192,414593,1,0,0:0:0:0:
448,192,414593,1,0,0:0:0:0:
192,192,414866,1,0,0:0:0:0:
64,192,414866,1,0,0:0:0:0:
320,192,415002,1,0,0:0:0:0:
448,192,415002,1,0,0:0:0:0:
448,192,415139,1,0,0:0:0:0:
64,192,415139,1,0,0:0:0:0:
192,192,415275,1,0,0:0:0:0:
448,192,415548,1,0,0:0:0:0:
448,192,415820,1,0,0:0:0:0:
320,192,415957,1,0,0:0:0:0:
192,192,416093,1,0,0:0:0:0:
448,192,416230,1,0,0:0:0:0:
64,192,416502,1,0,0:0:0:0:
192,192,416639,1,0,0:0:0:0:
448,192,416775,1,0,0:0:0:0:
320,192,416911,1,0,0:0:0:0:
64,192,417048,1,0,0:0:0:0:
448,192,417184,1,0,0:0:0:0:
320,192,417457,1,0,0:0:0:0:
448,192,417730,1,0,0:0:0:0:
192,192,418002,1,0,0:0:0:0:
320,192,418139,1,0,0:0:0:0:
64,192,418275,1,0,0:0:0:0:
192,192,418411,1,0,0:0:0:0:
64,192,418548,1,0,0:0:0:0:
320,192,418684,1,0,0:0:0:0:
448,192,418684,1,0,0:0:0:0:
64,192,419093,1,0,0:0:0:0:
192,192,419161,1,0,0:0:0:0:
320,192,419230,1,0,0:0:0:0:
448,192,419298,1,0,0:0:0:0:
64,192,419366,1,0,0:0:0:0:
192,192,419434,1,0,0:0:0:0:
320,192,419502,1,0,0:0:0:0:
448,192,419593,1,0,0:0:0:0:
320,192,419684,1,0,0:0:0:0:
448,192,419775,1,0,0:0:0:0:
64,192,419957,1,0,0:0:0:0:
320,192,420139,1,0,0:0:0:0:
192,192,420320,1,0,0:0:0:0:
64,192,420502,1,0,0:0:0:0:
448,192,420684,1,0,0:0:0:0:
192,192,420866,1,0,0:0:0:0:
320,192,421230,1,0,0:0:0:0:
320,192,421411,1,0,0:0:0:0:
448,192,421957,1,0,0:0:0:0:
64,192,421957,1,0,0:0:0:0:
192,192,422048,1,0,0:0:0:0:
320,192,422139,1,0,0:0:0:0:
448,192,422230,1,0,0:0:0:0:
192,192,422230,1,0,0:0:0:0:
64,192,422230,1,0,0:0:0:0:
320,192,422320,1,0,0:0:0:0:
192,192,422411,1,0,0:0:0:0:
64,192,422502,1,0,0:0:0:0:
448,192,422502,1,0,0:0:0:0:
320,192,422570,1,0,0:0:0:0:
192,192,422639,1,0,0:0:0:0:
64,192,422639,1,0,0:0:0:0:
320,192,422707,1,0,0:0:0:0:
448,192,422707,1,0,0:0:0:0:
192,192,422775,1,0,0:0:0:0:
64,192,422775,1,0,0:0:0:0:
320,192,422843,1,0,0:0:0:0:
448,192,422843,1,0,0:0:0:0:
192,192,422911,1,0,0:0:0:0:
64,192,422911,1,0,0:0:0:0:
448,192,422980,1,0,0:0:0:0:
320,192,422980,1,0,0:0:0:0:
192,192,423048,1,0,0:0:0:0:
64,192,423048,1,0,0:0:0:0:
448,192,423048,1,0,0:0:0:0:
320,192,423116,1,0,0:0:0:0:
64,192,423184,1,0,0:0:0:0:
192,192,423252,1,0,0:0:0:0:
448,192,423320,1,0,0:0:0:0:
320,192,423320,1,0,0:0:0:0:
64,192,423457,1,0,0:0:0:0:
448,192,423593,1,0,0:0:0:0:
320,192,423593,1,0,0:0:0:0:
192,192,423661,1,0,0:0:0:0:
64,192,423730,1,0,0:0:0:0:
448,192,423730,1,0,0:0:0:0:
320,192,423798,1,0,0:0:0:0:
448,192,423866,1,0,0:0:0:0:
192,192,423866,1,0,0:0:0:0:
320,192,423934,1,0,0:0:0:0:
64,192,424002,1,0,0:0:0:0:
192,192,424070,1,0,0:0:0:0:
64,192,424139,1,0,0:0:0:0:
320,192,424139,1,0,0:0:0:0:
448,192,424139,1,0,0:0:0:0:
192,192,424230,1,0,0:0:0:0:
320,192,424320,1,0,0:0:0:0:
448,192,424411,1,0,0:0:0:0:
64,192,424411,1,0,0:0:0:0:
192,192,424502,1,0,0:0:0:0:
320,192,424593,1,0,0:0:0:0:
64,192,424684,1,0,0:0:0:0:
448,192,424775,1,0,0:0:0:0:
192,192,424820,1,0,0:0:0:0:
64,192,424820,1,0,0:0:0:0:
320,192,424889,1,0,0:0:0:0:
448,192,424957,1,0,0:0:0:0:
192,192,424957,1,0,0:0:0:0:
64,192,425025,1,0,0:0:0:0:
320,192,425093,1,0,0:0:0:0:
192,192,425161,1,0,0:0:0:0:
320,192,425230,1,0,0:0:0:0:
64,192,425230,1,0,0:0:0:0:
448,192,425230,1,0,0:0:0:0:
192,192,425411,1,0,0:0:0:0:
64,192,425502,1,0,0:0:0:0:
320,192,425593,1,0,0:0:0:0:
192,192,425684,1,0,0:0:0:0:
448,192,425775,1,0,0:0:0:0:
320,192,425843,1,0,0:0:0:0:
448,192,425911,1,0,0:0:0:0:
320,192,425980,1,0,0:0:0:0:
448,192,426048,1,0,0:0:0:0:
320,192,426116,1,0,0:0:0:0:
448,192,426184,1,0,0:0:0:0:
320,192,426252,1,0,0:0:0:0:
448,192,426320,1,0,0:0:0:0:
192,192,426320,1,0,0:0:0:0:
64,192,426320,1,0,0:0:0:0:
320,192,426457,1,0,0:0:0:0:
192,192,426593,1,0,0:0:0:0:
64,192,426593,1,0,0:0:0:0:
448,192,426730,1,0,0:0:0:0:
320,192,426730,1,0,0:0:0:0:
64,192,426730,1,0,0:0:0:0:
192,192,427002,1,0,0:0:0:0:
320,192,427002,1,0,0:0:0:0:
320,192,427275,1,0,0:0:0:0:
448,192,427275,1,0,0:0:0:0:
192,192,427411,1,0,0:0:0:0:
64,192,427411,1,0,0:0:0:0:
448,192,427411,1,0,0:0:0:0:
192,192,427548,1,0,0:0:0:0:
64,192,427548,1,0,0:0:0:0:
448,192,427548,1,0,0:0:0:0:
320,192,427684,1,0,0:0:0:0:
192,192,427684,1,0,0:0:0:0:
64,192,427820,1,0,0:0:0:0:
192,192,427820,1,0,0:0:0:0:
448,192,427820,1,0,0:0:0:0:
64,192,428093,1,0,0:0:0:0:
320,192,428093,1,0,0:0:0:0:
192,192,428161,1,0,0:0:0:0:
64,192,428230,1,0,0:0:0:0:
320,192,428230,1,0,0:0:0:0:
448,192,428230,1,0,0:0:0:0:
320,192,428366,1,0,0:0:0:0:
448,192,428366,1,0,0:0:0:0:
64,192,428366,1,0,0:0:0:0:
192,192,428502,1,0,0:0:0:0:
320,192,428502,1,0,0:0:0:0:
448,192,428639,1,0,0:0:0:0:
320,192,428639,1,0,0:0:0:0:
64,192,428639,1,0,0:0:0:0:
192,192,428911,1,0,0:0:0:0:
64,192,428911,1,0,0:0:0:0:
320,192,428980,1,0,0:0:0:0:
448,192,429048,1,0,0:0:0:0:
192,192,429048,1,0,0:0:0:0:
64,192,429048,1,0,0:0:0:0:
320,192,429116,1,0,0:0:0:0:
192,192,429184,1,0,0:0:0:0:
64,192,429252,1,0,0:0:0:0:
448,192,429320,1,0,0:0:0:0:
320,192,429320,1,0,0:0:0:0:
64,192,429389,1,0,0:0:0:0:
192,192,429389,1,0,0:0:0:0:
320,192,429457,1,0,0:0:0:0:
64,192,429457,1,0,0:0:0:0:
448,192,429457,128,0,430684:0:0:0:0:
320,192,429684,1,0,0:0:0:0:
192,192,429775,1,0,0:0:0:0:
320,192,429866,1,0,0:0:0:0:
64,192,429957,1,0,0:0:0:0:
192,192,430048,1,0,0:0:0:0:
320,192,430139,1,0,0:0:0:0:
64,192,430230,1,0,0:0:0:0:
192,192,430320,1,0,0:0:0:0:
320,192,430411,1,0,0:0:0:0:
192,192,430502,1,0,0:0:0:0:
64,192,430593,1,0,0:0:0:0:
320,192,430684,1,0,0:0:0:0:
192,192,430684,1,0,0:0:0:0:
64,192,430866,1,0,0:0:0:0:
192,192,430866,1,0,0:0:0:0:
64,192,431048,1,0,0:0:0:0:
448,192,431048,1,0,0:0:0:0:
448,192,431230,1,0,0:0:0:0:
192,192,431230,1,0,0:0:0:0:
320,192,431320,1,0,0:0:0:0:
192,192,431411,1,0,0:0:0:0:
64,192,431411,1,0,0:0:0:0:
320,192,431502,1,0,0:0:0:0:
448,192,431502,1,0,0:0:0:0:
64,192,431775,5,0,0:0:0:0:
192,192,431775,1,0,0:0:0:0:
448,192,431775,1,0,0:0:0:0:
192,192,473348,132,0,474130:0:0:0:0:
320,192,473348,1,0,0:0:0:0:
64,192,473348,128,0,475434:0:0:0:0:
448,192,474130,128,0,474261:0:0:0:0:
320,192,474261,128,0,474391:0:0:0:0:
192,192,474391,128,0,474782:0:0:0:0:
320,192,474782,128,0,475174:0:0:0:0:
192,192,475174,128,0,475434:0:0:0:0:
320,192,475434,128,0,476478:0:0:0:0:
448,192,475434,128,0,477000:0:0:0:0:
448,192,477521,128,0,479608:0:0:0:0:
320,192,477521,128,0,478304:0:0:0:0:
64,192,478304,128,0,478434:0:0:0:0:
192,192,478434,128,0,478565:0:0:0:0:
320,192,478565,128,0,478956:0:0:0:0:
192,192,478956,128,0,479348:0:0:0:0:
320,192,479348,128,0,479608:0:0:0:0:
64,192,479608,128,0,480652:0:0:0:0:
192,192,479608,128,0,480652:0:0:0:0:
320,192,480652,128,0,481695:0:0:0:0:
448,192,480652,128,0,481695:0:0:0:0:
64,192,481695,1,0,0:0:0:0:
192,192,481695,1,0,0:0:0:0:
192,192,481956,1,0,0:0:0:0:
64,192,481956,1,0,0:0:0:0:
64,192,482217,1,0,0:0:0:0:
448,192,482217,1,0,0:0:0:0:
320,192,482478,1,0,0:0:0:0:
192,192,482608,1,0,0:0:0:0:
448,192,482608,1,0,0:0:0:0:
320,192,482739,1,0,0:0:0:0:
448,192,482869,1,0,0:0:0:0:
64,192,482869,1,0,0:0:0:0:
192,192,483000,1,0,0:0:0:0:
320,192,483000,1,0,0:0:0:0:
64,192,483261,1,0,0:0:0:0:
320,192,483261,1,0,0:0:0:0:
192,192,483521,1,0,0:0:0:0:
64,192,483652,1,0,0:0:0:0:
448,192,483652,1,0,0:0:0:0:
448,192,483782,1,0,0:0:0:0:
320,192,483782,1,0,0:0:0:0:
320,192,484043,1,0,0:0:0:0:
448,192,484043,1,0,0:0:0:0:
448,192,484304,1,0,0:0:0:0:
64,192,484304,1,0,0:0:0:0:
192,192,484565,1,0,0:0:0:0:
320,192,484695,1,0,0:0:0:0:
64,192,484695,1,0,0:0:0:0:
192,192,484826,1,0,0:0:0:0:
64,192,484956,1,0,0:0:0:0:
448,192,484956,1,0,0:0:0:0:
320,192,485087,1,0,0:0:0:0:
192,192,485087,1,0,0:0:0:0:
448,192,485348,1,0,0:0:0:0:
192,192,485348,1,0,0:0:0:0:
64,192,485608,1,0,0:0:0:0:
192,192,485641,1,0,0:0:0:0:
320,192,485674,1,0,0:0:0:0:
448,192,485706,1,0,0:0:0:0:
64,192,485739,1,0,0:0:0:0:
192,192,485771,1,0,0:0:0:0:
320,192,485804,1,0,0:0:0:0:
192,192,485869,1,0,0:0:0:0:
64,192,485869,1,0,0:0:0:0:
64,192,486130,1,0,0:0:0:0:
192,192,486130,1,0,0:0:0:0:
448,192,486391,1,0,0:0:0:0:
64,192,486391,1,0,0:0:0:0:
320,192,486652,1,0,0:0:0:0:
448,192,486782,1,0,0:0:0:0:
192,192,486782,1,0,0:0:0:0:
320,192,486913,1,0,0:0:0:0:
64,192,487043,1,0,0:0:0:0:
448,192,487043,1,0,0:0:0:0:
320,192,487174,1,0,0:0:0:0:
192,192,487174,1,0,0:0:0:0:
320,192,487434,1,0,0:0:0:0:
64,192,487434,1,0,0:0:0:0:
192,192,487695,1,0,0:0:0:0:
320,192,487826,1,0,0:0:0:0:
448,192,487826,1,0,0:0:0:0:
192,192,487956,1,0,0:0:0:0:
64,192,487956,1,0,0:0:0:0:
64,192,488217,1,0,0:0:0:0:
448,192,488217,1,0,0:0:0:0:
64,192,488348,1,0,0:0:0:0:
448,192,488348,1,0,0:0:0:0:
320,192,488478,1,0,0:0:0:0:
448,192,488478,1,0,0:0:0:0:
448,192,488739,1,0,0:0:0:0:
64,192,488739,1,0,0:0:0:0:
320,192,488869,1,0,0:0:0:0:
192,192,488869,1,0,0:0:0:0:
64,192,489000,1,0,0:0:0:0:
320,192,489065,1,0,0:0:0:0:
448,192,489065,1,0,0:0:0:0:
448,192,489130,1,0,0:0:0:0:
320,192,489130,1,0,0:0:0:0:
192,192,489261,1,0,0:0:0:0:
64,192,489391,1,0,0:0:0:0:
448,192,489391,1,0,0:0:0:0:
448,192,489456,1,0,0:0:0:0:
64,192,489456,1,0,0:0:0:0:
192,192,489521,1,0,0:0:0:0:
320,192,489521,1,0,0:0:0:0:
64,192,489652,1,0,0:0:0:0:
448,192,489717,1,0,0:0:0:0:
64,192,489782,1,0,0:0:0:0:
192,192,489815,1,0,0:0:0:0:
320,192,489848,1,0,0:0:0:0:
448,192,489880,1,0,0:0:0:0:
64,192,489913,1,0,0:0:0:0:
192,192,489945,1,0,0:0:0:0:
320,192,489978,1,0,0:0:0:0:
448,192,490011,1,0,0:0:0:0:
192,192,490043,1,0,0:0:0:0:
64,192,490043,1,0,0:0:0:0:
64,192,490304,1,0,0:0:0:0:
320,192,490304,1,0,0:0:0:0:
448,192,490304,1,0,0:0:0:0:
448,192,490565,1,0,0:0:0:0:
320,192,490565,1,0,0:0:0:0:
64,192,490565,1,0,0:0:0:0:
64,192,490826,1,0,0:0:0:0:
320,192,490826,1,0,0:0:0:0:
448,192,490826,1,0,0:0:0:0:
448,192,491087,1,0,0:0:0:0:
320,192,491087,1,0,0:0:0:0:
64,192,491087,1,0,0:0:0:0:
320,192,491348,1,0,0:0:0:0:
64,192,491348,1,0,0:0:0:0:
448,192,491348,1,0,0:0:0:0:
448,192,491608,1,0,0:0:0:0:
64,192,491608,1,0,0:0:0:0:
320,192,491608,1,0,0:0:0:0:
320,192,491869,1,0,0:0:0:0:
64,192,491869,1,0,0:0:0:0:
448,192,491869,1,0,0:0:0:0:
192,192,492130,1,0,0:0:0:0:
320,192,492130,1,0,0:0:0:0:
448,192,492391,1,0,0:0:0:0:
64,192,492391,1,0,0:0:0:0:
192,192,492391,1,0,0:0:0:0:
192,192,492652,1,0,0:0:0:0:
64,192,492652,1,0,0:0:0:0:
448,192,492652,1,0,0:0:0:0:
448,192,492913,1,0,0:0:0:0:
64,192,492913,1,0,0:0:0:0:
192,192,492913,1,0,0:0:0:0:
192,192,493174,1,0,0:0:0:0:
64,192,493174,1,0,0:0:0:0:
448,192,493174,1,0,0:0:0:0:
448,192,493434,1,0,0:0:0:0:
64,192,493434,1,0,0:0:0:0:
192,192,493434,1,0,0:0:0:0:
192,192,493695,1,0,0:0:0:0:
64,192,493695,1,0,0:0:0:0:
448,192,493695,1,0,0:0:0:0:
448,192,493956,1,0,0:0:0:0:
64,192,493956,1,0,0:0:0:0:
192,192,493956,1,0,0:0:0:0:
192,192,494217,1,0,0:0:0:0:
320,192,494217,1,0,0:0:0:0:
320,192,494348,1,0,0:0:0:0:
192,192,494348,1,0,0:0:0:0:
64,192,494478,1,0,0:0:0:0:
448,192,494478,1,0,0:0:0:0:
64,192,494608,1,0,0:0:0:0:
448,192,494608,1,0,0:0:0:0:
320,192,494739,1,0,0:0:0:0:
192,192,494739,1,0,0:0:0:0:
320,192,494869,1,0,0:0:0:0:
192,192,494869,1,0,0:0:0:0:
64,192,495000,1,0,0:0:0:0:
448,192,495000,1,0,0:0:0:0:
448,192,495130,1,0,0:0:0:0:
64,192,495130,1,0,0:0:0:0:
320,192,495261,1,0,0:0:0:0:
448,192,495261,1,0,0:0:0:0:
192,192,495326,1,0,0:0:0:0:
64,192,495326,1,0,0:0:0:0:
320,192,495391,1,0,0:0:0:0:
448,192,495391,1,0,0:0:0:0:
192,192,495456,1,0,0:0:0:0:
64,192,495456,1,0,0:0:0:0:
320,192,495521,1,0,0:0:0:0:
448,192,495521,128,0,496043:0:0:0:0:
192,192,495587,1,0,0:0:0:0:
64,192,495587,1,0,0:0:0:0:
320,192,495652,1,0,0:0:0:0:
192,192,495717,1,0,0:0:0:0:
64,192,495717,1,0,0:0:0:0:
320,192,495782,1,0,0:0:0:0:
192,192,495848,1,0,0:0:0:0:
64,192,495848,1,0,0:0:0:0:
320,192,495913,1,0,0:0:0:0:
192,192,495978,1,0,0:0:0:0:
64,192,495978,1,0,0:0:0:0:
320,192,496043,1,0,0:0:0:0:
448,192,496304,1,0,0:0:0:0:
320,192,496304,1,0,0:0:0:0:
192,192,496304,1,0,0:0:0:0:
64,192,496304,1,0,0:0:0:0:
448,192,496434,1,0,0:0:0:0:
320,192,496434,1,0,0:0:0:0:
192,192,496434,1,0,0:0:0:0:
64,192,496434,1,0,0:0:0:0:
448,192,496695,1,0,0:0:0:0:
320,192,496695,1,0,0:0:0:0:
192,192,496695,1,0,0:0:0:0:
64,192,496695,1,0,0:0:0:0:
64,192,496956,1,0,0:0:0:0:
192,192,496956,1,0,0:0:0:0:
320,192,496956,1,0,0:0:0:0:
448,192,496956,1,0,0:0:0:0:
64,192,497087,128,0,497348:0:0:0:0:
448,192,497348,128,0,498130:0:0:0:0:
192,192,497348,1,0,0:0:0:0:
320,192,497348,1,0,0:0:0:0:
64,192,498130,1,0,0:0:0:0:
192,192,498195,1,0,0:0:0:0:
320,192,498261,1,0,0:0:0:0:
448,192,498326,1,0,0:0:0:0:
192,192,498391,1,0,0:0:0:0:
320,192,498391,1,0,0:0:0:0:
64,192,498391,128,0,498521:0:0:0:0:
448,192,498521,128,0,498652:0:0:0:0:
64,192,498652,128,0,498782:0:0:0:0:
320,192,498652,1,0,0:0:0:0:
192,192,498652,1,0,0:0:0:0:
448,192,498782,128,0,498913:0:0:0:0:
320,192,498913,1,0,0:0:0:0:
64,192,498913,1,0,0:0:0:0:
192,192,498913,128,0,499043:0:0:0:0:
448,192,499043,1,0,0:0:0:0:
320,192,499174,1,0,0:0:0:0:
64,192,499174,1,0,0:0:0:0:
192,192,499239,1,0,0:0:0:0:
448,192,499304,1,0,0:0:0:0:
320,192,499369,1,0,0:0:0:0:
64,192,499434,1,0,0:0:0:0:
448,192,499434,1,0,0:0:0:0:
192,192,499565,1,0,0:0:0:0:
320,192,499695,1,0,0:0:0:0:
448,192,499695,1,0,0:0:0:0:
64,192,499826,1,0,0:0:0:0:
192,192,499956,1,0,0:0:0:0:
448,192,499956,1,0,0:0:0:0:
320,192,500087,1,0,0:0:0:0:
192,192,500217,1,0,0:0:0:0:
64,192,500217,1,0,0:0:0:0:
192,192,500348,1,0,0:0:0:0:
64,192,500478,1,0,0:0:0:0:
448,192,500478,1,0,0:0:0:0:
320,192,500478,128,0,500608:0:0:0:0:
192,192,500608,128,0,500739:0:0:0:0:
64,192,500739,1,0,0:0:0:0:
448,192,500739,1,0,0:0:0:0:
320,192,500739,128,0,500869:0:0:0:0:
192,192,500869,128,0,501000:0:0:0:0:
64,192,501000,1,0,0:0:0:0:
320,192,501000,1,0,0:0:0:0:
448,192,501000,128,0,501130:0:0:0:0:
192,192,501130,1,0,0:0:0:0:
64,192,501261,1,0,0:0:0:0:
320,192,501261,1,0,0:0:0:0:
448,192,501326,1,0,0:0:0:0:
192,192,501391,1,0,0:0:0:0:
64,192,501456,1,0,0:0:0:0:
192,192,501521,1,0,0:0:0:0:
448,192,501521,1,0,0:0:0:0:
320,192,501521,1,0,0:0:0:0:
448,192,501652,1,0,0:0:0:0:
64,192,501782,1,0,0:0:0:0:
192,192,501782,1,0,0:0:0:0:
320,192,501782,1,0,0:0:0:0:
64,192,501913,1,0,0:0:0:0:
448,192,502043,1,0,0:0:0:0:
320,192,502043,1,0,0:0:0:0:
192,192,502043,1,0,0:0:0:0:
320,192,502174,1,0,0:0:0:0:
64,192,502304,1,0,0:0:0:0:
448,192,502304,1,0,0:0:0:0:
192,192,502304,1,0,0:0:0:0:
192,192,502434,1,0,0:0:0:0:
64,192,502565,1,0,0:0:0:0:
320,192,502565,1,0,0:0:0:0:
448,192,502565,128,0,502695:0:0:0:0:
320,192,502695,1,0,0:0:0:0:
64,192,502695,128,0,502826:0:0:0:0:
192,192,502695,1,0,0:0:0:0:
192,192,502826,1,0,0:0:0:0:
320,192,502826,1,0,0:0:0:0:
448,192,502826,128,0,502956:0:0:0:0:
64,192,502956,128,0,503087:0:0:0:0:
192,192,503087,1,0,0:0:0:0:
448,192,503087,1,0,0:0:0:0:
320,192,503087,128,0,503217:0:0:0:0:
64,192,503217,1,0,0:0:0:0:
192,192,503347,1,0,0:0:0:0:
448,192,503347,1,0,0:0:0:0:
320,192,503413,1,0,0:0:0:0:
64,192,503478,1,0,0:0:0:0:
192,192,503543,1,0,0:0:0:0:
64,192,503608,1,0,0:0:0:0:
448,192,503608,1,0,0:0:0:0:
320,192,503739,1,0,0:0:0:0:
192,192,503869,1,0,0:0:0:0:
64,192,503869,1,0,0:0:0:0:
448,192,504000,1,0,0:0:0:0:
320,192,504130,1,0,0:0:0:0:
64,192,504130,1,0,0:0:0:0:
192,192,504261,1,0,0:0:0:0:
320,192,504391,1,0,0:0:0:0:
448,192,504391,1,0,0:0:0:0:
320,192,504521,1,0,0:0:0:0:
448,192,504652,1,0,0:0:0:0:
64,192,504652,1,0,0:0:0:0:
192,192,504652,128,0,504782:0:0:0:0:
320,192,504782,128,0,504913:0:0:0:0:
448,192,504913,1,0,0:0:0:0:
64,192,504913,1,0,0:0:0:0:
192,192,504913,128,0,505043:0:0:0:0:
320,192,505043,128,0,505174:0:0:0:0:
448,192,505174,1,0,0:0:0:0:
192,192,505174,1,0,0:0:0:0:
64,192,505174,128,0,505304:0:0:0:0:
320,192,505304,1,0,0:0:0:0:
320,192,505434,1,0,0:0:0:0:
448,192,505434,1,0,0:0:0:0:
320,192,505565,1,0,0:0:0:0:
448,192,505695,1,0,0:0:0:0:
192,192,505695,1,0,0:0:0:0:
64,192,505695,128,0,506087:0:0:0:0:
320,192,506087,1,0,0:0:0:0:
192,192,506087,1,0,0:0:0:0:
64,192,506217,1,0,0:0:0:0:
448,192,506217,1,0,0:0:0:0:
320,192,506217,1,0,0:0:0:0:
64,192,506347,1,0,0:0:0:0:
448,192,506478,1,0,0:0:0:0:
448,192,506608,1,0,0:0:0:0:
192,192,506739,1,0,0:0:0:0:
320,192,506739,1,0,0:0:0:0:
64,192,506739,128,0,506869:0:0:0:0:
448,192,506869,128,0,507000:0:0:0:0:
320,192,506869,1,0,0:0:0:0:
192,192,506869,1,0,0:0:0:0:
64,192,507000,128,0,507130:0:0:0:0:
320,192,507000,1,0,0:0:0:0:
192,192,507000,1,0,0:0:0:0:
448,192,507130,128,0,507261:0:0:0:0:
320,192,507261,1,0,0:0:0:0:
64,192,507261,1,0,0:0:0:0:
192,192,507261,128,0,507391:0:0:0:0:
448,192,507391,1,0,0:0:0:0:
320,192,507521,1,0,0:0:0:0:
64,192,507521,1,0,0:0:0:0:
192,192,507587,1,0,0:0:0:0:
448,192,507652,1,0,0:0:0:0:
320,192,507717,1,0,0:0:0:0:
64,192,507782,1,0,0:0:0:0:
448,192,507782,1,0,0:0:0:0:
192,192,507913,1,0,0:0:0:0:
320,192,508043,1,0,0:0:0:0:
448,192,508043,1,0,0:0:0:0:
64,192,508174,1,0,0:0:0:0:
192,192,508304,1,0,0:0:0:0:
448,192,508304,1,0,0:0:0:0:
320,192,508434,1,0,0:0:0:0:
192,192,508565,1,0,0:0:0:0:
64,192,508565,1,0,0:0:0:0:
192,192,508695,1,0,0:0:0:0:
64,192,508826,1,0,0:0:0:0:
448,192,508826,1,0,0:0:0:0:
320,192,508826,128,0,508956:0:0:0:0:
192,192,508956,128,0,509087:0:0:0:0:
64,192,509087,1,0,0:0:0:0:
448,192,509087,1,0,0:0:0:0:
320,192,509087,128,0,509217:0:0:0:0:
192,192,509217,128,0,509347:0:0:0:0:
64,192,509347,1,0,0:0:0:0:
320,192,509347,1,0,0:0:0:0:
448,192,509347,128,0,509478:0:0:0:0:
192,192,509478,1,0,0:0:0:0:
64,192,509608,1,0,0:0:0:0:
320,192,509608,1,0,0:0:0:0:
448,192,509674,1,0,0:0:0:0:
192,192,509739,1,0,0:0:0:0:
64,192,509804,1,0,0:0:0:0:
192,192,509869,1,0,0:0:0:0:
448,192,509869,1,0,0:0:0:0:
320,192,509869,1,0,0:0:0:0:
448,192,510000,1,0,0:0:0:0:
64,192,510130,1,0,0:0:0:0:
192,192,510130,1,0,0:0:0:0:
320,192,510130,1,0,0:0:0:0:
64,192,510261,1,0,0:0:0:0:
448,192,510391,1,0,0:0:0:0:
320,192,510391,1,0,0:0:0:0:
192,192,510391,1,0,0:0:0:0:
320,192,510521,1,0,0:0:0:0:
64,192,510652,1,0,0:0:0:0:
448,192,510652,1,0,0:0:0:0:
192,192,510652,1,0,0:0:0:0:
192,192,510782,1,0,0:0:0:0:
64,192,510913,1,0,0:0:0:0:
320,192,510913,1,0,0:0:0:0:
448,192,510913,128,0,511043:0:0:0:0:
320,192,511043,1,0,0:0:0:0:
64,192,511043,128,0,511174:0:0:0:0:
192,192,511043,1,0,0:0:0:0:
192,192,511174,1,0,0:0:0:0:
320,192,511174,1,0,0:0:0:0:
448,192,511174,128,0,511304:0:0:0:0:
64,192,511304,128,0,511434:0:0:0:0:
192,192,511434,1,0,0:0:0:0:
448,192,511434,1,0,0:0:0:0:
320,192,511434,128,0,511565:0:0:0:0:
64,192,511565,1,0,0:0:0:0:
192,192,511695,1,0,0:0:0:0:
448,192,511695,1,0,0:0:0:0:
320,192,511761,1,0,0:0:0:0:
64,192,511826,1,0,0:0:0:0:
192,192,511891,1,0,0:0:0:0:
448,192,511956,1,0,0:0:0:0:
64,192,511956,1,0,0:0:0:0:
320,192,512087,1,0,0:0:0:0:
192,192,512217,1,0,0:0:0:0:
448,192,512217,1,0,0:0:0:0:
320,192,512347,1,0,0:0:0:0:
64,192,512478,1,0,0:0:0:0:
448,192,512478,1,0,0:0:0:0:
320,192,512608,1,0,0:0:0:0:
192,192,512739,1,0,0:0:0:0:
448,192,512739,1,0,0:0:0:0:
320,192,512869,1,0,0:0:0:0:
448,192,513000,1,0,0:0:0:0:
64,192,513000,1,0,0:0:0:0:
320,192,513130,1,0,0:0:0:0:
192,192,513261,1,0,0:0:0:0:
448,192,513261,1,0,0:0:0:0:
320,192,513391,1,0,0:0:0:0:
192,192,513521,1,0,0:0:0:0:
64,192,513521,1,0,0:0:0:0:
448,192,513652,1,0,0:0:0:0:
192,192,513782,1,0,0:0:0:0:
64,192,513782,1,0,0:0:0:0:
448,192,513913,1,0,0:0:0:0:
64,192,514043,1,0,0:0:0:0:
320,192,514043,1,0,0:0:0:0:
192,192,514043,1,0,0:0:0:0:
192,192,514174,1,0,0:0:0:0:
320,192,514174,1,0,0:0:0:0:
448,192,514174,1,0,0:0:0:0:
64,192,514304,1,0,0:0:0:0:
448,192,514434,1,0,0:0:0:0:
320,192,514434,1,0,0:0:0:0:
192,192,514500,1,0,0:0:0:0:
64,192,514565,1,0,0:0:0:0:
448,192,514565,1,0,0:0:0:0:
320,192,514630,1,0,0:0:0:0:
192,192,514695,1,0,0:0:0:0:
64,192,514695,1,0,0:0:0:0:
320,192,514761,1,0,0:0:0:0:
64,192,514826,1,0,0:0:0:0:
192,192,514826,1,0,0:0:0:0:
448,192,514826,1,0,0:0:0:0:
64,192,515087,1,0,0:0:0:0:
448,192,515087,1,0,0:0:0:0:
320,192,515217,1,0,0:0:0:0:
192,192,515347,1,0,0:0:0:0:
448,192,515478,1,0,0:0:0:0:
192,192,515739,1,0,0:0:0:0:
192,192,516000,1,0,0:0:0:0:
448,192,516130,1,0,0:0:0:0:
320,192,516326,1,0,0:0:0:0:
448,192,516521,1,0,0:0:0:0:
192,192,516652,1,0,0:0:0:0:
192,192,516913,1,0,0:0:0:0:
448,192,517174,1,0,0:0:0:0:
320,192,517304,1,0,0:0:0:0:
192,192,517434,1,0,0:0:0:0:
448,192,517565,1,0,0:0:0:0:
192,192,517826,1,0,0:0:0:0:
192,192,518087,1,0,0:0:0:0:
448,192,518217,1,0,0:0:0:0:
320,192,518413,1,0,0:0:0:0:
448,192,518608,1,0,0:0:0:0:
192,192,518739,1,0,0:0:0:0:
320,192,518826,1,0,0:0:0:0:
448,192,518913,1,0,0:0:0:0:
448,192,519000,1,0,0:0:0:0:
320,192,519087,1,0,0:0:0:0:
192,192,519174,1,0,0:0:0:0:
64,192,519261,1,0,0:0:0:0:
448,192,519261,1,0,0:0:0:0:
320,192,519391,1,0,0:0:0:0:
192,192,519521,1,0,0:0:0:0:
448,192,519652,1,0,0:0:0:0:
64,192,519782,1,0,0:0:0:0:
320,192,519913,1,0,0:0:0:0:
320,192,520174,1,0,0:0:0:0:
64,192,520304,1,0,0:0:0:0:
192,192,520304,1,0,0:0:0:0:
448,192,520500,1,0,0:0:0:0:
192,192,520695,1,0,0:0:0:0:
64,192,520826,1,0,0:0:0:0:
320,192,520826,1,0,0:0:0:0:
320,192,521087,1,0,0:0:0:0:
64,192,521347,1,0,0:0:0:0:
448,192,521347,1,0,0:0:0:0:
320,192,521478,1,0,0:0:0:0:
192,192,521608,1,0,0:0:0:0:
448,192,521739,1,0,0:0:0:0:
64,192,521869,1,0,0:0:0:0:
320,192,522000,1,0,0:0:0:0:
320,192,522261,1,0,0:0:0:0:
64,192,522391,1,0,0:0:0:0:
192,192,522391,1,0,0:0:0:0:
448,192,522587,1,0,0:0:0:0:
320,192,522782,1,0,0:0:0:0:
192,192,522913,1,0,0:0:0:0:
320,192,523000,1,0,0:0:0:0:
448,192,523087,1,0,0:0:0:0:
448,192,523174,1,0,0:0:0:0:
320,192,523261,1,0,0:0:0:0:
192,192,523347,1,0,0:0:0:0:
448,192,523434,1,0,0:0:0:0:
320,192,523434,1,0,0:0:0:0:
64,192,523434,128,0,523565:0:0:0:0:
320,192,523565,128,0,523695:0:0:0:0:
192,192,523695,128,0,523826:0:0:0:0:
64,192,523826,1,0,0:0:0:0:
320,192,523826,1,0,0:0:0:0:
448,192,523826,128,0,523956:0:0:0:0:
192,192,523956,1,0,0:0:0:0:
64,192,524087,1,0,0:0:0:0:
320,192,524087,1,0,0:0:0:0:
448,192,524087,1,0,0:0:0:0:
64,192,524348,1,0,0:0:0:0:
320,192,524348,1,0,0:0:0:0:
192,192,524348,1,0,0:0:0:0:
192,192,524478,1,0,0:0:0:0:
448,192,524478,1,0,0:0:0:0:
320,192,524478,1,0,0:0:0:0:
448,192,524674,1,0,0:0:0:0:
192,192,524674,1,0,0:0:0:0:
64,192,524674,1,0,0:0:0:0:
320,192,524869,1,0,0:0:0:0:
448,192,524869,1,0,0:0:0:0:
192,192,524869,1,0,0:0:0:0:
448,192,525000,1,0,0:0:0:0:
64,192,525000,128,0,525261:0:0:0:0:
320,192,525000,1,0,0:0:0:0:
192,192,525261,1,0,0:0:0:0:
64,192,525521,1,0,0:0:0:0:
448,192,525521,128,0,525652:0:0:0:0:
320,192,525521,1,0,0:0:0:0:
192,192,525652,128,0,525782:0:0:0:0:
320,192,525782,128,0,525913:0:0:0:0:
448,192,525913,1,0,0:0:0:0:
192,192,525913,1,0,0:0:0:0:
64,192,525913,128,0,526043:0:0:0:0:
320,192,526043,1,0,0:0:0:0:
448,192,526174,1,0,0:0:0:0:
192,192,526174,1,0,0:0:0:0:
64,192,526174,1,0,0:0:0:0:
448,192,526434,1,0,0:0:0:0:
192,192,526434,1,0,0:0:0:0:
320,192,526434,1,0,0:0:0:0:
320,192,526565,1,0,0:0:0:0:
64,192,526565,1,0,0:0:0:0:
192,192,526565,1,0,0:0:0:0:
64,192,526761,1,0,0:0:0:0:
320,192,526761,1,0,0:0:0:0:
448,192,526761,1,0,0:0:0:0:
192,192,526956,1,0,0:0:0:0:
64,192,526956,1,0,0:0:0:0:
320,192,526956,1,0,0:0:0:0:
64,192,527087,1,0,0:0:0:0:
192,192,527087,1,0,0:0:0:0:
320,192,527152,1,0,0:0:0:0:
448,192,527152,1,0,0:0:0:0:
192,192,527217,1,0,0:0:0:0:
64,192,527217,1,0,0:0:0:0:
320,192,527348,1,0,0:0:0:0:
64,192,527478,1,0,0:0:0:0:
448,192,527478,1,0,0:0:0:0:
320,192,527543,1,0,0:0:0:0:
192,192,527543,1,0,0:0:0:0:
64,192,527608,1,0,0:0:0:0:
448,192,527608,128,0,527739:0:0:0:0:
192,192,527739,128,0,527869:0:0:0:0:
320,192,527869,128,0,528000:0:0:0:0:
64,192,528000,128,0,528130:0:0:0:0:
320,192,528130,1,0,0:0:0:0:
448,192,528130,1,0,0:0:0:0:
64,192,528261,128,0,528391:0:0:0:0:
320,192,528521,128,0,528652:0:0:0:0:
64,192,528652,1,0,0:0:0:0:
192,192,528652,128,0,528782:0:0:0:0:
448,192,528782,128,0,528913:0:0:0:0:
64,192,528913,128,0,529043:0:0:0:0:
320,192,529043,128,0,529174:0:0:0:0:
192,192,529174,1,0,0:0:0:0:
64,192,529174,1,0,0:0:0:0:
320,192,529304,128,0,529434:0:0:0:0:
320,192,529565,128,0,529695:0:0:0:0:
64,192,529695,1,0,0:0:0:0:
192,192,529695,128,0,529826:0:0:0:0:
448,192,529826,128,0,529956:0:0:0:0:
320,192,529956,128,0,530087:0:0:0:0:
64,192,529956,1,0,0:0:0:0:
448,192,530087,128,0,530217:0:0:0:0:
64,192,530217,1,0,0:0:0:0:
192,192,530217,128,0,530348:0:0:0:0:
320,192,530348,128,0,530478:0:0:0:0:
64,192,530478,1,0,0:0:0:0:
192,192,530478,128,0,530608:0:0:0:0:
320,192,530608,128,0,530739:0:0:0:0:
64,192,530739,128,0,531261:0:0:0:0:
192,192,531261,1,0,0:0:0:0:
448,192,531261,1,0,0:0:0:0:
192,192,531391,1,0,0:0:0:0:
320,192,531391,1,0,0:0:0:0:
320,192,531521,1,0,0:0:0:0:
64,192,531521,1,0,0:0:0:0:
64,192,531652,1,0,0:0:0:0:
192,192,531652,1,0,0:0:0:0:
320,192,531782,1,0,0:0:0:0:
448,192,531782,1,0,0:0:0:0:
64,192,531782,1,0,0:0:0:0:
192,192,532304,1,0,0:0:0:0:
64,192,532304,1,0,0:0:0:0:
320,192,532304,1,0,0:0:0:0:
448,192,532434,128,0,532565:0:0:0:0:
448,192,532695,128,0,532826:0:0:0:0:
192,192,532956,1,0,0:0:0:0:
448,192,533087,128,0,533217:0:0:0:0:
64,192,533087,1,0,0:0:0:0:
192,192,533347,1,0,0:0:0:0:
64,192,533347,1,0,0:0:0:0:
448,192,533347,128,0,533478:0:0:0:0:
320,192,533478,1,0,0:0:0:0:
192,192,533608,1,0,0:0:0:0:
64,192,533739,1,0,0:0:0:0:
320,192,533869,1,0,0:0:0:0:
448,192,533869,1,0,0:0:0:0:
448,192,534391,1,0,0:0:0:0:
320,192,534391,1,0,0:0:0:0:
192,192,534391,1,0,0:0:0:0:
64,192,534521,128,0,534652:0:0:0:0:
64,192,534782,128,0,534913:0:0:0:0:
320,192,535043,1,0,0:0:0:0:
64,192,535174,128,0,535304:0:0:0:0:
448,192,535174,1,0,0:0:0:0:
320,192,535434,1,0,0:0:0:0:
448,192,535434,1,0,0:0:0:0:
64,192,535434,128,0,535565:0:0:0:0:
192,192,535565,1,0,0:0:0:0:
448,192,535695,1,0,0:0:0:0:
320,192,535826,1,0,0:0:0:0:
192,192,535956,1,0,0:0:0:0:
448,192,535956,128,0,536087:0:0:0:0:
64,192,535956,128,0,536087:0:0:0:0:
320,192,536087,1,0,0:0:0:0:
64,192,536217,1,0,0:0:0:0:
192,192,536347,1,0,0:0:0:0:
320,192,536478,1,0,0:0:0:0:
448,192,536478,1,0,0:0:0:0:
64,192,536478,1,0,0:0:0:0:
192,192,536608,128,0,536739:0:0:0:0:
192,192,536869,128,0,537000:0:0:0:0:
320,192,537130,1,0,0:0:0:0:
192,192,537261,128,0,537391:0:0:0:0:
448,192,537261,1,0,0:0:0:0:
448,192,537521,1,0,0:0:0:0:
64,192,537521,1,0,0:0:0:0:
192,192,537521,128,0,537652:0:0:0:0:
320,192,537652,1,0,0:0:0:0:
64,192,537782,1,0,0:0:0:0:
192,192,537913,1,0,0:0:0:0:
320,192,538043,1,0,0:0:0:0:
448,192,538043,1,0,0:0:0:0:
64,192,538043,1,0,0:0:0:0:
192,192,538304,1,0,0:0:0:0:
448,192,538434,1,0,0:0:0:0:
64,192,538565,1,0,0:0:0:0:
320,192,538565,1,0,0:0:0:0:
192,192,538826,1,0,0:0:0:0:
320,192,538956,1,0,0:0:0:0:
448,192,538956,1,0,0:0:0:0:
64,192,539087,1,0,0:0:0:0:
448,192,539217,1,0,0:0:0:0:
192,192,539217,1,0,0:0:0:0:
320,192,539347,1,0,0:0:0:0:
192,192,539608,1,0,0:0:0:0:
64,192,539608,1,0,0:0:0:0:
192,192,539739,1,0,0:0:0:0:
64,192,539739,1,0,0:0:0:0:
320,192,539869,1,0,0:0:0:0:
448,192,539869,1,0,0:0:0:0:
320,192,540000,1,0,0:0:0:0:
448,192,540000,1,0,0:0:0:0:
448,192,540130,1,0,0:0:0:0:
192,192,540130,1,0,0:0:0:0:
64,192,540130,1,0,0:0:0:0:
192,192,540652,1,0,0:0:0:0:
64,192,540652,1,0,0:0:0:0:
320,192,540652,1,0,0:0:0:0:
448,192,540782,128,0,540913:0:0:0:0:
448,192,541043,128,0,541174:0:0:0:0:
192,192,541304,1,0,0:0:0:0:
448,192,541434,128,0,541565:0:0:0:0:
64,192,541434,1,0,0:0:0:0:
192,192,541695,1,0,0:0:0:0:
64,192,541695,1,0,0:0:0:0:
448,192,541695,128,0,541826:0:0:0:0:
320,192,541826,1,0,0:0:0:0:
192,192,541956,1,0,0:0:0:0:
64,192,542087,1,0,0:0:0:0:
320,192,542217,1,0,0:0:0:0:
448,192,542217,1,0,0:0:0:0:
448,192,542739,1,0,0:0:0:0:
320,192,542739,1,0,0:0:0:0:
192,192,542739,1,0,0:0:0:0:
64,192,542869,128,0,543000:0:0:0:0:
64,192,543130,128,0,543261:0:0:0:0:
320,192,543391,1,0,0:0:0:0:
64,192,543521,128,0,543652:0:0:0:0:
448,192,543521,1,0,0:0:0:0:
320,192,543782,1,0,0:0:0:0:
448,192,543782,1,0,0:0:0:0:
64,192,543782,128,0,543913:0:0:0:0:
192,192,543913,1,0,0:0:0:0:
448,192,544043,1,0,0:0:0:0:
320,192,544174,1,0,0:0:0:0:
192,192,544304,1,0,0:0:0:0:
448,192,544304,128,0,544434:0:0:0:0:
64,192,544304,128,0,544434:0:0:0:0:
320,192,544434,1,0,0:0:0:0:
192,192,544565,1,0,0:0:0:0:
320,192,544695,1,0,0:0:0:0:
448,192,544826,1,0,0:0:0:0:
64,192,544826,1,0,0:0:0:0:
192,192,544826,1,0,0:0:0:0:
320,192,544956,128,0,545087:0:0:0:0:
320,192,545217,128,0,545347:0:0:0:0:
64,192,545478,1,0,0:0:0:0:
192,192,545608,1,0,0:0:0:0:
320,192,545608,128,0,545739:0:0:0:0:
448,192,545869,1,0,0:0:0:0:
64,192,545869,1,0,0:0:0:0:
320,192,545869,128,0,546000:0:0:0:0:
192,192,546000,1,0,0:0:0:0:
448,192,546130,1,0,0:0:0:0:
320,192,546261,1,0,0:0:0:0:
64,192,546391,1,0,0:0:0:0:
192,192,546391,1,0,0:0:0:0:
192,192,547434,128,0,547761:0:0:0:0:
320,192,547434,128,0,547761:0:0:0:0:
448,192,547434,128,0,547761:0:0:0:0:
448,192,548217,1,0,0:0:0:0:
192,192,548217,1,0,0:0:0:0:
64,192,548217,1,0,0:0:0:0:
192,192,548478,1,0,0:0:0:0:
320,192,548478,1,0,0:0:0:0:
64,192,548478,128,0,548608:0:0:0:0:
448,192,548608,128,0,548739:0:0:0:0:
64,192,548739,128,0,548869:0:0:0:0:
320,192,548739,1,0,0:0:0:0:
192,192,548739,1,0,0:0:0:0:
448,192,548869,128,0,549000:0:0:0:0:
320,192,549000,1,0,0:0:0:0:
64,192,549000,1,0,0:0:0:0:
192,192,549000,128,0,549130:0:0:0:0:
448,192,549130,1,0,0:0:0:0:
320,192,549261,1,0,0:0:0:0:
64,192,549261,1,0,0:0:0:0:
192,192,549326,1,0,0:0:0:0:
448,192,549391,1,0,0:0:0:0:
320,192,549456,1,0,0:0:0:0:
64,192,549521,1,0,0:0:0:0:
448,192,549521,1,0,0:0:0:0:
192,192,549652,1,0,0:0:0:0:
320,192,549782,1,0,0:0:0:0:
448,192,549782,1,0,0:0:0:0:
64,192,549913,1,0,0:0:0:0:
192,192,550043,1,0,0:0:0:0:
448,192,550043,1,0,0:0:0:0:
320,192,550043,1,0,0:0:0:0:
64,192,550239,1,0,0:0:0:0:
192,192,550239,1,0,0:0:0:0:
448,192,550239,1,0,0:0:0:0:
192,192,550434,1,0,0:0:0:0:
448,192,550434,1,0,0:0:0:0:
64,192,550434,1,0,0:0:0:0:
64,192,550565,1,0,0:0:0:0:
448,192,550565,1,0,0:0:0:0:
320,192,550565,128,0,550695:0:0:0:0:
192,192,550695,128,0,550826:0:0:0:0:
64,192,550826,1,0,0:0:0:0:
448,192,550826,1,0,0:0:0:0:
320,192,550826,128,0,550956:0:0:0:0:
192,192,550956,128,0,551087:0:0:0:0:
64,192,551087,1,0,0:0:0:0:
320,192,551087,1,0,0:0:0:0:
448,192,551087,128,0,551217:0:0:0:0:
192,192,551217,1,0,0:0:0:0:
64,192,551347,1,0,0:0:0:0:
320,192,551347,1,0,0:0:0:0:
448,192,551413,1,0,0:0:0:0:
192,192,551478,1,0,0:0:0:0:
64,192,551543,1,0,0:0:0:0:
192,192,551608,1,0,0:0:0:0:
448,192,551608,1,0,0:0:0:0:
320,192,551608,1,0,0:0:0:0:
448,192,551739,1,0,0:0:0:0:
64,192,551869,1,0,0:0:0:0:
192,192,551869,1,0,0:0:0:0:
320,192,551869,1,0,0:0:0:0:
64,192,552000,1,0,0:0:0:0:
448,192,552130,1,0,0:0:0:0:
320,192,552130,1,0,0:0:0:0:
192,192,552130,1,0,0:0:0:0:
320,192,552261,1,0,0:0:0:0:
64,192,552391,1,0,0:0:0:0:
448,192,552391,1,0,0:0:0:0:
192,192,552391,1,0,0:0:0:0:
192,192,552521,1,0,0:0:0:0:
64,192,552652,1,0,0:0:0:0:
320,192,552652,1,0,0:0:0:0:
448,192,552652,128,0,552782:0:0:0:0:
64,192,552782,128,0,552913:0:0:0:0:
192,192,552913,1,0,0:0:0:0:
320,192,552913,1,0,0:0:0:0:
448,192,552913,128,0,553043:0:0:0:0:
64,192,553043,128,0,553174:0:0:0:0:
192,192,553174,1,0,0:0:0:0:
448,192,553174,1,0,0:0:0:0:
320,192,553174,128,0,553304:0:0:0:0:
64,192,553304,1,0,0:0:0:0:
192,192,553434,1,0,0:0:0:0:
448,192,553434,1,0,0:0:0:0:
320,192,553500,1,0,0:0:0:0:
64,192,553565,1,0,0:0:0:0:
192,192,553630,1,0,0:0:0:0:
64,192,553695,1,0,0:0:0:0:
448,192,553695,1,0,0:0:0:0:
320,192,553826,1,0,0:0:0:0:
192,192,553956,1,0,0:0:0:0:
64,192,553956,1,0,0:0:0:0:
448,192,554087,1,0,0:0:0:0:
320,192,554217,1,0,0:0:0:0:
64,192,554217,1,0,0:0:0:0:
192,192,554217,1,0,0:0:0:0:
64,192,554413,1,0,0:0:0:0:
320,192,554413,1,0,0:0:0:0:
448,192,554413,1,0,0:0:0:0:
64,192,554608,1,0,0:0:0:0:
320,192,554608,1,0,0:0:0:0:
448,192,554608,1,0,0:0:0:0:
448,192,554739,1,0,0:0:0:0:
64,192,554739,1,0,0:0:0:0:
192,192,554739,128,0,554869:0:0:0:0:
320,192,554869,128,0,555000:0:0:0:0:
448,192,555000,1,0,0:0:0:0:
64,192,555000,1,0,0:0:0:0:
192,192,555000,128,0,555130:0:0:0:0:
320,192,555130,128,0,555261:0:0:0:0:
448,192,555261,1,0,0:0:0:0:
192,192,555261,1,0,0:0:0:0:
64,192,555261,128,0,555391:0:0:0:0:
320,192,555391,1,0,0:0:0:0:
320,192,555521,1,0,0:0:0:0:
448,192,555521,1,0,0:0:0:0:
320,192,555652,1,0,0:0:0:0:
448,192,555782,1,0,0:0:0:0:
192,192,555782,1,0,0:0:0:0:
64,192,555782,128,0,556174:0:0:0:0:
320,192,556174,1,0,0:0:0:0:
192,192,556174,1,0,0:0:0:0:
64,192,556304,1,0,0:0:0:0:
448,192,556304,1,0,0:0:0:0:
64,192,556434,1,0,0:0:0:0:
320,192,556565,1,0,0:0:0:0:
320,192,556695,1,0,0:0:0:0:
64,192,556826,1,0,0:0:0:0:
192,192,556826,1,0,0:0:0:0:
448,192,556826,128,0,556956:0:0:0:0:
320,192,556956,128,0,557087:0:0:0:0:
192,192,557087,1,0,0:0:0:0:
64,192,557087,1,0,0:0:0:0:
448,192,557087,128,0,557217:0:0:0:0:
320,192,557217,128,0,557347:0:0:0:0:
448,192,557347,1,0,0:0:0:0:
192,192,557347,1,0,0:0:0:0:
64,192,557347,128,0,557478:0:0:0:0:
320,192,557478,1,0,0:0:0:0:
448,192,557608,1,0,0:0:0:0:
192,192,557608,1,0,0:0:0:0:
64,192,557674,1,0,0:0:0:0:
320,192,557739,1,0,0:0:0:0:
448,192,557804,1,0,0:0:0:0:
192,192,557869,1,0,0:0:0:0:
64,192,557869,1,0,0:0:0:0:
320,192,558000,1,0,0:0:0:0:
192,192,558130,1,0,0:0:0:0:
64,192,558130,1,0,0:0:0:0:
448,192,558261,1,0,0:0:0:0:
320,192,558391,1,0,0:0:0:0:
64,192,558391,1,0,0:0:0:0:
192,192,558521,1,0,0:0:0:0:
448,192,558652,1,0,0:0:0:0:
320,192,558717,1,0,0:0:0:0:
64,192,558782,1,0,0:0:0:0:
192,192,558847,1,0,0:0:0:0:
448,192,558913,1,0,0:0:0:0:
320,192,558913,1,0,0:0:0:0:
64,192,558913,128,0,559043:0:0:0:0:
192,192,559043,128,0,559174:0:0:0:0:
320,192,559174,1,0,0:0:0:0:
448,192,559174,1,0,0:0:0:0:
64,192,559174,128,0,559304:0:0:0:0:
192,192,559304,128,0,559434:0:0:0:0:
64,192,559434,1,0,0:0:0:0:
320,192,559434,1,0,0:0:0:0:
448,192,559434,128,0,559565:0:0:0:0:
192,192,559565,1,0,0:0:0:0:
320,192,559695,1,0,0:0:0:0:
448,192,559695,1,0,0:0:0:0:
64,192,559761,1,0,0:0:0:0:
192,192,559826,1,0,0:0:0:0:
320,192,559891,1,0,0:0:0:0:
448,192,559956,128,0,561000:0:0:0:0:
64,192,559956,128,0,560478:0:0:0:0:
320,192,560478,1,0,0:0:0:0:
192,192,560543,1,0,0:0:0:0:
64,192,560608,1,0,0:0:0:0:
320,192,560674,1,0,0:0:0:0:
192,192,560739,1,0,0:0:0:0:
64,192,560804,1,0,0:0:0:0:
320,192,560869,1,0,0:0:0:0:
192,192,560934,1,0,0:0:0:0:
64,192,561000,1,0,0:0:0:0:
320,192,561000,128,0,561130:0:0:0:0:
192,192,561130,128,0,561261:0:0:0:0:
64,192,561130,1,0,0:0:0:0:
448,192,561130,1,0,0:0:0:0:
64,192,561261,1,0,0:0:0:0:
448,192,561261,1,0,0:0:0:0:
320,192,561261,128,0,561391:0:0:0:0:
192,192,561391,128,0,561521:0:0:0:0:
64,192,561521,1,0,0:0:0:0:
320,192,561521,1,0,0:0:0:0:
448,192,561521,128,0,561652:0:0:0:0:
192,192,561652,1,0,0:0:0:0:
64,192,561782,1,0,0:0:0:0:
448,192,561782,1,0,0:0:0:0:
320,192,561913,1,0,0:0:0:0:
192,192,561978,1,0,0:0:0:0:
320,192,562043,1,0,0:0:0:0:
448,192,562043,1,0,0:0:0:0:
192,192,562174,1,0,0:0:0:0:
320,192,562239,1,0,0:0:0:0:
192,192,562304,1,0,0:0:0:0:
64,192,562304,1,0,0:0:0:0:
448,192,562434,1,0,0:0:0:0:
192,192,562500,1,0,0:0:0:0:
320,192,562565,1,0,0:0:0:0:
448,192,562565,1,0,0:0:0:0:
64,192,562695,1,0,0:0:0:0:
320,192,562761,1,0,0:0:0:0:
192,192,562826,1,0,0:0:0:0:
64,192,562826,1,0,0:0:0:0:
320,192,562956,1,0,0:0:0:0:
192,192,563021,1,0,0:0:0:0:
64,192,563087,1,0,0:0:0:0:
448,192,563087,1,0,0:0:0:0:
320,192,563217,1,0,0:0:0:0:
448,192,563347,1,0,0:0:0:0:
192,192,563347,1,0,0:0:0:0:
320,192,563478,1,0,0:0:0:0:
64,192,563608,1,0,0:0:0:0:
448,192,563608,1,0,0:0:0:0:
320,192,563739,1,0,0:0:0:0:
448,192,563869,1,0,0:0:0:0:
192,192,563869,1,0,0:0:0:0:
320,192,564000,1,0,0:0:0:0:
192,192,564130,1,0,0:0:0:0:
64,192,564130,1,0,0:0:0:0:
64,192,564261,1,0,0:0:0:0:
192,192,564261,1,0,0:0:0:0:
448,192,564391,1,0,0:0:0:0:
192,192,564521,1,0,0:0:0:0:
64,192,564521,1,0,0:0:0:0:
320,192,564587,1,0,0:0:0:0:
64,192,564652,1,0,0:0:0:0:
448,192,564652,1,0,0:0:0:0:
192,192,564717,1,0,0:0:0:0:
448,192,564782,1,0,0:0:0:0:
320,192,564782,1,0,0:0:0:0:
192,192,564847,1,2,0:0:0:0:
64,192,564913,1,0,0:0:0:0:
448,192,564913,1,0,0:0:0:0:
448,192,565174,1,0,0:0:0:0:
64,192,565174,1,0,0:0:0:0:
192,192,565174,1,0,0:0:0:0:
320,192,565304,1,0,0:0:0:0:
192,192,565434,1,0,0:0:0:0:
64,192,565434,1,0,0:0:0:0:
448,192,565565,1,0,0:0:0:0:
320,192,565695,1,0,0:0:0:0:
64,192,565695,1,0,0:0:0:0:
192,192,565826,1,0,0:0:0:0:
320,192,565956,1,0,0:0:0:0:
448,192,565956,1,0,0:0:0:0:
64,192,566087,1,0,0:0:0:0:
192,192,566217,1,0,0:0:0:0:
448,192,566217,1,0,0:0:0:0:
320,192,566347,128,0,566478:0:0:0:0:
448,192,566478,128,0,566608:0:0:0:0:
64,192,566478,1,0,0:0:0:0:
192,192,566608,128,0,566739:0:0:0:0:
320,192,566739,128,0,566869:0:0:0:0:
64,192,566739,1,0,0:0:0:0:
192,192,566869,128,0,567000:0:0:0:0:
448,192,567000,128,0,567130:0:0:0:0:
64,192,567000,1,0,0:0:0:0:
192,192,567130,1,0,0:0:0:0:
320,192,567261,1,0,0:0:0:0:
448,192,567261,1,0,0:0:0:0:
64,192,567391,128,0,567521:0:0:0:0:
320,192,567521,128,0,567652:0:0:0:0:
448,192,567521,1,0,0:0:0:0:
192,192,567652,128,0,567782:0:0:0:0:
448,192,567782,128,0,567913:0:0:0:0:
64,192,567782,1,0,0:0:0:0:
320,192,567913,1,0,0:0:0:0:
192,192,568043,1,0,0:0:0:0:
64,192,568043,1,0,0:0:0:0:
448,192,568174,1,0,0:0:0:0:
320,192,568304,1,0,0:0:0:0:
64,192,568304,1,0,0:0:0:0:
448,192,568434,128,0,568565:0:0:0:0:
192,192,568565,128,0,568695:0:0:0:0:
64,192,568565,1,0,0:0:0:0:
320,192,568695,128,0,568826:0:0:0:0:
64,192,568826,128,0,568956:0:0:0:0:
448,192,568826,1,0,0:0:0:0:
192,192,568956,1,0,0:0:0:0:
320,192,569087,1,0,0:0:0:0:
448,192,569087,1,0,0:0:0:0:
64,192,569217,1,0,0:0:0:0:
192,192,569347,1,0,0:0:0:0:
448,192,569347,1,0,0:0:0:0:
448,192,569478,1,0,0:0:0:0:
448,192,569608,1,0,0:0:0:0:
64,192,569608,1,0,0:0:0:0:
64,192,569739,1,0,0:0:0:0:
64,192,569869,1,0,0:0:0:0:
320,192,569869,1,0,0:0:0:0:
320,192,570000,1,0,0:0:0:0:
192,192,570130,1,0,0:0:0:0:
320,192,570130,1,0,0:0:0:0:
192,192,570261,1,0,0:0:0:0:
448,192,570391,1,0,0:0:0:0:
192,192,570391,1,0,0:0:0:0:
448,192,570521,1,0,0:0:0:0:
64,192,570652,1,0,0:0:0:0:
448,192,570652,1,0,0:0:0:0:
64,192,570782,1,0,0:0:0:0:
320,192,570913,1,0,0:0:0:0:
448,192,570913,1,0,0:0:0:0:
192,192,571043,1,0,0:0:0:0:
448,192,571174,1,0,0:0:0:0:
64,192,571174,1,0,0:0:0:0:
64,192,571434,1,0,0:0:0:0:
192,192,571434,1,0,0:0:0:0:
320,192,571500,1,0,0:0:0:0:
64,192,571565,1,0,0:0:0:0:
192,192,571630,1,0,0:0:0:0:
448,192,571695,1,0,0:0:0:0:
320,192,571695,1,0,0:0:0:0:
64,192,571826,1,0,0:0:0:0:
192,192,571956,1,0,0:0:0:0:
448,192,571956,1,0,0:0:0:0:
320,192,572087,1,0,0:0:0:0:
448,192,572217,1,0,0:0:0:0:
64,192,572217,1,0,0:0:0:0:
192,192,572347,128,0,572478:0:0:0:0:
448,192,572478,1,0,0:0:0:0:
320,192,572478,128,0,572739:0:0:0:0:
192,192,572739,1,0,0:0:0:0:
64,192,572739,1,0,0:0:0:0:
448,192,572739,1,0,0:0:0:0:
320,192,572913,128,0,573000:0:0:0:0:
64,192,573000,128,0,573087:0:0:0:0:
448,192,573000,1,0,0:0:0:0:
192,192,573087,1,0,0:0:0:0:
320,192,573087,128,0,573174:0:0:0:0:
448,192,573174,1,0,0:0:0:0:
64,192,573174,128,0,573261:0:0:0:0:
192,192,573261,1,0,0:0:0:0:
320,192,573261,1,0,0:0:0:0:
64,192,573347,128,0,573434:0:0:0:0:
448,192,573347,1,0,0:0:0:0:
192,192,573434,1,0,0:0:0:0:
320,192,573434,128,0,573521:0:0:0:0:
448,192,573521,1,0,0:0:0:0:
64,192,573521,1,0,0:0:0:0:
192,192,573521,1,0,0:0:0:0:
192,192,573652,1,0,0:0:0:0:
320,192,573782,1,0,0:0:0:0:
64,192,573782,1,0,0:0:0:0:
448,192,573782,1,0,0:0:0:0:
320,192,573913,1,0,0:0:0:0:
448,192,574043,1,0,0:0:0:0:
64,192,574043,1,0,0:0:0:0:
192,192,574043,1,0,0:0:0:0:
64,192,574174,1,0,0:0:0:0:
320,192,574304,1,0,0:0:0:0:
448,192,574304,1,0,0:0:0:0:
192,192,574304,1,0,0:0:0:0:
448,192,574434,1,0,0:0:0:0:
192,192,574565,1,0,0:0:0:0:
64,192,574565,1,0,0:0:0:0:
320,192,574565,1,0,0:0:0:0:
192,192,574695,128,0,574826:0:0:0:0:
448,192,574826,128,0,574956:0:0:0:0:
64,192,574826,1,0,0:0:0:0:
320,192,574826,1,0,0:0:0:0:
64,192,574956,128,0,575087:0:0:0:0:
320,192,575087,128,0,575217:0:0:0:0:
192,192,575087,1,0,0:0:0:0:
448,192,575087,1,0,0:0:0:0:
192,192,575217,128,0,575347:0:0:0:0:
448,192,575347,128,0,575478:0:0:0:0:
64,192,575347,1,0,0:0:0:0:
320,192,575347,1,0,0:0:0:0:
192,192,575478,1,0,0:0:0:0:
320,192,575608,1,0,0:0:0:0:
448,192,575608,1,0,0:0:0:0:
64,192,575608,1,0,0:0:0:0:
64,192,575739,128,0,575869:0:0:0:0:
320,192,575869,128,0,576000:0:0:0:0:
448,192,575869,1,0,0:0:0:0:
192,192,575869,1,0,0:0:0:0:
192,192,576000,128,0,576130:0:0:0:0:
448,192,576130,128,0,576261:0:0:0:0:
64,192,576130,1,0,0:0:0:0:
320,192,576130,1,0,0:0:0:0:
64,192,576261,1,0,0:0:0:0:
192,192,576391,1,0,0:0:0:0:
448,192,576391,1,0,0:0:0:0:
320,192,576391,1,0,0:0:0:0:
320,192,576521,1,0,0:0:0:0:
448,192,576652,1,0,0:0:0:0:
64,192,576652,1,0,0:0:0:0:
192,192,576652,1,0,0:0:0:0:
448,192,576782,128,0,576913:0:0:0:0:
192,192,576913,128,0,577043:0:0:0:0:
64,192,576913,1,0,0:0:0:0:
320,192,576913,1,0,0:0:0:0:
320,192,577043,128,0,577174:0:0:0:0:
64,192,577174,128,0,577304:0:0:0:0:
448,192,577174,1,0,0:0:0:0:
192,192,577174,1,0,0:0:0:0:
192,192,577304,1,0,0:0:0:0:
320,192,577434,1,0,0:0:0:0:
448,192,577434,1,0,0:0:0:0:
64,192,577434,1,0,0:0:0:0:
320,192,577565,1,0,0:0:0:0:
192,192,577695,1,0,0:0:0:0:
448,192,577695,1,0,0:0:0:0:
64,192,577695,1,0,0:0:0:0:
192,192,577826,1,0,0:0:0:0:
320,192,577826,1,0,0:0:0:0:
64,192,577956,1,0,0:0:0:0:
448,192,577956,1,0,0:0:0:0:
320,192,577956,1,0,0:0:0:0:
320,192,578087,1,0,0:0:0:0:
192,192,578087,1,0,0:0:0:0:
448,192,578217,1,0,0:0:0:0:
192,192,578217,1,0,0:0:0:0:
64,192,578217,1,0,0:0:0:0:
192,192,578347,1,0,0:0:0:0:
64,192,578347,1,0,0:0:0:0:
320,192,578478,1,0,0:0:0:0:
448,192,578478,1,0,0:0:0:0:
192,192,578478,1,0,0:0:0:0:
192,192,578608,1,0,0:0:0:0:
64,192,578608,1,0,0:0:0:0:
192,192,578739,1,0,0:0:0:0:
320,192,578739,1,0,0:0:0:0:
448,192,578739,1,0,0:0:0:0:
320,192,578869,1,0,0:0:0:0:
64,192,578869,1,0,0:0:0:0:
192,192,579000,1,0,0:0:0:0:
64,192,579000,1,0,0:0:0:0:
448,192,579000,1,0,0:0:0:0:
320,192,579130,1,0,0:0:0:0:
192,192,579130,1,0,0:0:0:0:
320,192,579261,1,0,0:0:0:0:
448,192,579261,1,0,0:0:0:0:
64,192,579261,1,0,0:0:0:0:
448,192,579391,1,0,0:0:0:0:
320,192,579391,1,0,0:0:0:0:
448,192,579521,1,0,0:0:0:0:
64,192,579521,1,0,0:0:0:0:
192,192,579521,1,0,0:0:0:0:
320,192,579652,1,0,0:0:0:0:
192,192,579652,1,0,0:0:0:0:
320,192,579782,1,0,0:0:0:0:
448,192,579782,1,0,0:0:0:0:
64,192,579782,1,0,0:0:0:0:
320,192,579913,1,0,0:0:0:0:
192,192,579913,1,0,0:0:0:0:
192,192,580043,1,0,0:0:0:0:
64,192,580043,1,0,0:0:0:0:
448,192,580043,1,0,0:0:0:0:
320,192,580174,1,0,0:0:0:0:
64,192,580174,1,0,0:0:0:0:
192,192,580304,1,0,0:0:0:0:
64,192,580304,1,0,0:0:0:0:
448,192,580304,1,0,0:0:0:0:
320,192,580434,1,0,0:0:0:0:
448,192,580434,1,0,0:0:0:0:
448,192,580565,1,0,0:0:0:0:
320,192,580565,1,0,0:0:0:0:
64,192,580565,1,0,0:0:0:0:
192,192,580695,1,0,0:0:0:0:
64,192,580695,1,0,0:0:0:0:
192,192,580826,1,0,0:0:0:0:
320,192,580826,1,0,0:0:0:0:
448,192,580826,1,0,0:0:0:0:
448,192,580956,1,0,0:0:0:0:
64,192,580956,1,0,0:0:0:0:
320,192,581087,1,0,0:0:0:0:
192,192,581087,1,0,0:0:0:0:
64,192,581087,1,0,0:0:0:0:
64,192,581217,1,0,0:0:0:0:
448,192,581217,1,0,0:0:0:0:
192,192,581347,1,0,0:0:0:0:
448,192,581347,1,0,0:0:0:0:
64,192,581347,1,0,0:0:0:0:
320,192,581478,1,0,0:0:0:0:
192,192,581478,1,0,0:0:0:0:
64,192,581608,1,0,0:0:0:0:
448,192,581608,1,0,0:0:0:0:
320,192,581608,1,0,0:0:0:0:
320,192,581739,5,0,0:0:0:0:
192,192,581739,1,0,0:0:0:0:
320,192,581869,1,0,0:0:0:0:
448,192,581869,1,0,0:0:0:0:
192,192,581934,1,0,0:0:0:0:
64,192,582000,1,0,0:0:0:0:
448,192,582000,1,0,0:0:0:0:
320,192,582065,1,0,0:0:0:0:
192,192,582130,1,0,0:0:0:0:
64,192,582130,1,0,0:0:0:0:
448,192,582195,1,0,0:0:0:0:
320,192,582261,1,0,0:0:0:0:
192,192,582261,1,0,0:0:0:0:
64,192,582326,1,0,0:0:0:0:
448,192,582391,1,0,0:0:0:0:
320,192,582391,1,0,0:0:0:0:
192,192,582456,1,0,0:0:0:0:
64,192,582521,1,0,0:0:0:0:
448,192,582521,1,0,0:0:0:0:
320,192,582587,1,0,0:0:0:0:
192,192,582652,1,0,0:0:0:0:
64,192,582652,1,0,0:0:0:0:
448,192,582717,1,0,0:0:0:0:
320,192,582782,1,0,0:0:0:0:
192,192,582782,1,0,0:0:0:0:
64,192,582847,1,0,0:0:0:0:
320,192,582913,5,0,0:0:0:0:
448,192,582913,1,0,0:0:0:0:
192,192,582978,1,0,0:0:0:0:
64,192,582978,1,0,0:0:0:0:
320,192,583043,1,0,0:0:0:0:
448,192,583043,1,0,0:0:0:0:
64,192,583108,1,0,0:0:0:0:
192,192,583108,1,0,0:0:0:0:
448,192,583174,1,0,0:0:0:0:
320,192,583174,1,0,0:0:0:0:
192,192,583239,1,0,0:0:0:0:
64,192,583239,1,0,0:0:0:0:
320,192,583304,1,0,0:0:0:0:
448,192,583304,1,0,0:0:0:0:
64,192,583369,1,0,0:0:0:0:
192,192,583369,1,0,0:0:0:0:
448,192,583434,1,0,0:0:0:0:
320,192,583434,1,0,0:0:0:0:
192,192,583500,1,0,0:0:0:0:
64,192,583500,1,0,0:0:0:0:
320,192,583565,1,0,0:0:0:0:
448,192,583565,1,0,0:0:0:0:
64,192,583630,1,0,0:0:0:0:
192,192,583630,1,0,0:0:0:0:
448,192,583695,1,0,0:0:0:0:
320,192,583695,1,0,0:0:0:0:
192,192,583761,1,0,0:0:0:0:
64,192,583761,1,0,0:0:0:0:
320,192,583826,1,0,0:0:0:0:
448,192,583826,1,0,0:0:0:0:
64,192,583891,1,0,0:0:0:0:
192,192,583891,1,0,0:0:0:0:
320,192,583956,1,0,0:0:0:0:
448,192,583956,128,0,588130:0:0:0:0:
64,192,583956,128,0,585000:0:0:0:0:
192,192,588130,5,0,0:0:0:0:
320,192,588195,1,0,0:0:0:0:
448,192,588261,1,0,0:0:0:0:
64,192,588326,1,0,0:0:0:0:
320,192,588391,1,0,0:0:0:0:
192,192,588456,1,0,0:0:0:0:
64,192,588521,1,0,0:0:0:0:
448,192,588587,1,0,0:0:0:0:
192,192,588652,1,0,0:0:0:0:
320,192,588717,1,0,0:0:0:0:
448,192,588782,1,0,0:0:0:0:
64,192,588847,1,0,0:0:0:0:
320,192,588913,1,0,0:0:0:0:
192,192,588978,1,0,0:0:0:0:
64,192,589043,1,0,0:0:0:0:
448,192,589108,1,0,0:0:0:0:
192,192,589174,1,0,0:0:0:0:
320,192,589239,1,0,0:0:0:0:
448,192,589304,1,0,0:0:0:0:
64,192,589369,1,0,0:0:0:0:
320,192,589434,1,0,0:0:0:0:
192,192,589500,1,0,0:0:0:0:
64,192,589565,1,0,0:0:0:0:
448,192,589630,1,0,0:0:0:0:
192,192,589695,1,0,0:0:0:0:
320,192,589761,1,0,0:0:0:0:
448,192,589826,1,0,0:0:0:0:
64,192,589891,1,0,0:0:0:0:
320,192,589956,1,0,0:0:0:0:
192,192,590021,1,0,0:0:0:0:
64,192,590087,1,0,0:0:0:0:
448,192,590152,1,0,0:0:0:0:
320,192,590217,1,0,0:0:0:0:
192,192,590217,1,0,0:0:0:0:
