osu file format v14

[General]
AudioFilename: happyend.mp3
AudioLeadIn: 0
PreviewTime: 45737
Countdown: 0
SampleSet: Soft
StackLeniency: 0.6
Mode: 0
LetterboxInBreaks: 0
WidescreenStoryboard: 1

[Editor]
Bookmarks: 58764
DistanceSpacing: 0.8
BeatDivisor: 4
GridSize: 32
TimelineZoom: 3.199999

[Metadata]
Title:Shitmap Compilation
TitleUnicode:Shitmap Compilation
Artist:Various Aritst
ArtistUnicode:Various Aritst
Creator:Riene
Version:Happy End no Intro Ga Kikoeru
Source:
Tags:
BeatmapID:2181124
BeatmapSetID:1043535

[Difficulty]
HPDrainRate:5.7
CircleSize:3.8
OverallDifficulty:9
ApproachRate:9.3
SliderMultiplier:1.85
SliderTickRate:1

[Events]
//Background and Video events
0,0,"im sad.jpg",0,0
//Break Periods
//Storyboard Layer 0 (Background)
//Storyboard Layer 1 (Fail)
//Storyboard Layer 2 (Pass)
//Storyboard Layer 3 (Foreground)
//Storyboard Layer 4 (Overlay)
//Storyboard Sound Samples

[TimingPoints]
-1236,315.789473684211,4,2,22,70,1,0
1290,-133.333333333333,4,2,22,60,0,0
3816,-111.111111111111,4,2,22,60,0,0
6342,-100,4,2,22,80,0,0
10764,-153.846153846154,4,2,22,80,0,0
11079,-83.3333333333333,4,2,22,80,0,0
11316,-83.3333333333333,4,2,22,5,0,0
11395,-100,4,2,22,60,0,0
16368,-100,4,2,22,5,0,0
16448,-100,4,2,22,80,0,0
16684,-100,4,2,22,5,0,0
16763,-100,4,2,22,60,0,0
21421,-100,4,2,22,5,0,0
21500,-100,4,2,22,60,0,0
25368,-100,4,2,22,5,0,0
25447,-100,4,2,22,60,0,0
31842,-100,4,2,22,5,0,0
31921,-100,4,2,22,60,0,0
35474,-100,4,2,22,5,0,0
35553,-100,4,2,22,60,0,0
36579,-100,4,2,22,5,0,0
36658,-111.111111111111,4,2,22,50,0,0
41395,-111.111111111111,4,2,22,55,0,0
41711,-100,4,2,22,60,0,0
45500,-200,4,2,22,60,0,0
46764,-83.3333333333333,4,2,22,80,0,1
55684,-83.3333333333333,4,2,22,5,0,1
55763,-83.3333333333333,4,2,22,80,0,1
61921,-111.111111111111,4,2,22,70,0,0
64448,-100,4,2,22,80,0,0
66895,-100,4,2,22,5,0,1
66974,-83.3333333333333,4,2,22,80,0,1
75895,-83.3333333333333,4,2,22,5,0,1
75974,-83.3333333333333,4,2,22,80,0,1
82132,-111.111111111111,4,2,22,70,0,0
85921,-166.666666666666,4,2,22,70,0,0
87184,-166.666666666666,4,2,22,60,0,0
87185,-111.111111111111,4,2,22,60,0,0
91606,-153.846153846154,4,2,22,60,0,0
91921,-83.3333333333333,4,2,22,60,0,0
92158,-83.3333333333333,4,2,22,5,0,0
92237,-100,4,2,22,60,0,0
97290,-142.857142857143,4,2,22,60,0,0
98237,-142.857142857143,4,2,22,60,0,0
98395,-142.857142857143,4,2,22,60,0,0
98553,-200,4,2,22,60,0,0
99184,-200,4,2,22,15,0,0
99185,-200,4,2,22,15,0,0

[Colours]
Combo1 : 250,185,122
Combo2 : 207,130,91
Combo3 : 0,128,255
Combo4 : 255,83,83

[HitObjects]
401,100,500,5,8,0:2:0:0:
401,100,579,1,8,0:2:0:0:
401,100,658,1,8,1:2:0:0:
322,178,816,1,0,1:2:0:0:
371,277,974,1,0,1:2:0:0:
481,263,1132,1,0,1:2:0:0:
322,178,1290,6,0,P|293:118|318:33,1,138.750005292893,10|0,1:2|1:0,0:0:0:0:
213,181,1764,1,0,1:0:0:0:
213,181,1921,2,0,P|175:236|89:256,1,138.750005292893,0|0,1:0|1:0,0:0:0:0:
305,350,2395,2,0,P|296:310|299:256,1,69.3750026464463,0|0,1:0|1:0,0:0:0:0:
200,384,2711,2,0,P|209:344|206:290,1,69.3750026464463,0|0,1:0|1:0,0:0:0:0:
312,373,3027,1,0,1:0:0:0:
121,338,3185,2,0,L|29:346,2,69.3750026464463,0|0|0,1:0|0:0|1:0,0:0:0:0:
155,262,3658,1,0,1:2:0:0:
64,94,3816,6,0,B|50:143|65:181|65:181|80:219|59:271,1,166.499994918823,4|0,1:2|1:0,0:0:0:0:
338,340,4290,1,0,1:0:0:0:
338,340,4448,2,0,B|329:281|296:244|296:244|272:274|230:276,1,166.499994918823,0|0,1:0|1:0,0:0:0:0:
144,173,4921,2,0,P|192:180|230:202,1,83.2499974594117,0|0,1:0|1:0,0:0:0:0:
208,71,5237,2,0,P|241:106|281:124,1,83.2499974594117,0|0,1:0|1:0,0:0:0:0:
387,107,5553,1,0,1:0:0:0:
405,209,5711,5,8,1:2:0:0:
106,87,5869,1,8,1:2:0:0:
425,310,6342,6,0,B|376:286|325:311|325:311|271:335|217:304,1,185,6|8,1:2|0:2,0:0:0:0:
100,207,6816,1,0,1:2:0:0:
155,354,6974,1,0,1:2:0:0:
269,230,7132,2,0,L|274:129,1,92.5,0|8,0:0|0:0,0:0:0:0:
93,31,7448,6,0,B|79:83|79:83|91:137,1,92.5,0|0,1:2|0:0,0:0:0:0:
272,15,7764,2,0,B|225:41|225:41|195:88,1,92.5,0|8,1:2|0:0,0:0:0:0:
269,230,8079,1,0,1:2:0:0:
414,138,8237,2,0,P|400:185|407:233,1,92.5,0|0,1:2|0:0,0:0:0:0:
420,366,8553,2,0,P|386:330|341:312,1,92.5,8|0,0:0|0:0,0:0:0:0:
47,311,8869,6,0,P|119:332|252:330,1,185,0|8,1:2|0:0,0:0:0:0:
281,146,9342,1,0,1:2:0:0:
131,217,9500,1,0,1:2:0:0:
222,63,9658,2,0,P|276:46|332:59,1,92.5,0|8,0:0|0:0,0:0:0:0:
443,266,9974,6,0,P|436:215|448:162,1,92.5,0|0,1:2|0:0,0:0:0:0:
307,322,10290,2,0,P|314:271|302:218,1,92.5,0|8,1:2|0:0,0:0:0:0:
413,358,10606,1,0,1:2:0:0:
228,184,10764,2,0,P|216:233|229:280,1,90.1874958715441,0|0,1:2|0:0,0:0:0:0:
224,270,11079,2,0,P|164:230|64:258,1,166.499994918823,10|0,0:0|0:0,0:0:0:0:
30,311,11395,6,0,B|59:251|59:251|47:116,1,185,4|8,1:2|0:0,0:0:0:0:
214,11,11869,1,0,1:2:0:0:
146,146,12027,1,0,1:2:0:0:
236,287,12185,2,0,P|255:234|250:182,1,92.5,0|8,0:0|0:0,0:0:0:0:
91,70,12500,6,0,P|143:58|190:68,1,92.5,0|0,1:2|0:0,0:0:0:0:
88,223,12816,2,0,P|140:235|187:225,1,92.5,0|8,1:2|0:0,0:0:0:0:
247,117,13132,1,0,1:2:0:0:
373,268,13290,2,0,L|370:164,1,92.5,0|0,1:2|0:0,0:0:0:0:
469,18,13606,2,0,L|458:128,1,92.5,8|0,0:0|0:0,0:0:0:0:
241,342,13921,6,0,B|297:327|337:346|337:346|373:364|424:339,2,185,4|8|0,1:2|0:0|1:2,0:0:0:0:
163,261,14711,1,0,1:2:0:0:
217,164,14869,1,8,0:0:0:0:
37,240,15027,2,0,L|49:348,1,92.5,0|0,1:2|0:0,0:0:0:0:
290,231,15342,2,0,L|278:339,1,92.5,0|0,1:2|0:0,0:0:0:0:
73,106,15658,1,0,1:2:0:0:
143,324,15816,5,8,0:0:0:0:
229,31,15974,1,0,1:2:0:0:
141,234,16132,1,8,0:0:0:0:
8,172,16290,1,0,1:0:0:0:
191,139,16448,6,0,B|251:123|288:142|288:142|333:162|393:143,1,185,4|10,1:2|0:0,0:0:0:0:
454,55,16921,1,0,1:2:0:0:
246,218,17079,2,0,B|226:281|250:345|250:345|277:303|277:275,1,185,2|10,1:2|0:0,0:0:0:0:
158,162,17553,2,0,P|146:213|152:258,1,92.5,2|0,1:2|0:0,0:0:0:0:
48,351,17869,2,0,P|60:300|54:255,1,92.5,2|10,1:2|0:0,0:0:0:0:
164,351,18185,1,0,1:2:0:0:
273,295,18342,2,0,P|323:286|372:305,1,92.5,0|0,1:2|0:0,0:0:0:0:
493,204,18658,2,0,P|448:216|404:207,1,92.5,8|2,0:0|0:0,0:0:0:0:
276,91,18974,6,0,P|336:51|295:122,1,185,2|10,1:2|0:0,0:0:0:0:
235,216,19448,1,2,1:2:0:0:
13,116,19606,2,0,B|70:100|115:122|115:122|158:141|211:117,1,185,2|8,1:2|0:0,0:0:0:0:
326,217,20079,2,0,P|321:165|329:120,1,92.5,2|0,1:2|0:0,0:0:0:0:
462,31,20395,2,0,P|467:83|459:128,1,92.5,2|8,1:2|0:0,0:0:0:0:
403,303,20711,1,2,1:2:0:0:
224,213,20869,2,0,P|229:271|231:323,1,92.5,0|2,1:2|0:0,0:0:0:0:
479,352,21185,2,0,P|481:305|485:259,1,92.5,10|0,0:0|0:0,0:0:0:0:
348,384,21500,6,0,B|280:372|280:372|227:383|227:383|130:376,2,185,6|10|2,1:2|0:0|1:2,0:0:0:0:
323,240,22290,1,0,0:0:0:0:
388,150,22448,1,10,0:0:0:0:
224,213,22606,2,0,P|225:174|218:116,1,92.5,2|0,1:2|0:0,0:0:0:0:
393,57,22921,2,0,P|387:102|387:149,1,92.5,2|10,1:2|0:0,0:0:0:0:
252,299,23237,1,0,1:2:0:0:
436,348,23395,2,0,P|433:290|423:248,1,92.5,0|0,1:2|0:0,0:0:0:0:
487,66,23711,2,0,P|484:124|474:166,1,92.5,8|2,0:0|0:0,0:0:0:0:
252,299,24027,6,0,P|245:354|297:296,1,185,2|10,1:2|0:0,0:0:0:0:
156,185,24500,1,2,1:2:0:0:
29,305,24658,2,0,B|30:348|66:390|66:390|102:342|97:301,1,185,2|10,1:2|0:0,0:0:0:0:
80,100,25132,6,0,P|46:151|38:192,1,92.5,6|0,1:2|0:0,0:0:0:0:
191,282,25448,1,2,1:2:0:0:
357,185,25606,2,0,P|314:161|264:156,1,92.5,12|2,0:0|1:2,0:0:0:0:
262,380,25921,2,0,P|335:377|363:362,1,92.5,12|2,0:0|1:2,0:0:0:0:
475,180,26237,1,8,3:2:0:0:
473,203,26315,1,8,3:2:0:0:
472,226,26394,1,8,3:2:0:0:
470,249,26473,1,8,3:2:0:0:
468,273,26553,6,0,P|411:258|371:263,1,92.5,6|0,1:2|0:0,0:0:0:0:
181,167,26869,2,0,P|226:169|270:155,1,92.5,10|0,0:0|1:2,0:0:0:0:
129,272,27185,1,0,1:2:0:0:
13,107,27342,2,0,L|17:213,1,92.5,2|8,0:0|0:0,0:0:0:0:
184,74,27658,2,0,L|180:180,1,92.5,2|0,1:2|0:0,0:0:0:0:
374,164,27974,5,2,1:2:0:0:
297,74,28132,1,10,0:0:0:0:
344,259,28290,1,2,1:2:0:0:
344,259,28448,2,0,P|400:263|439:246,1,92.5,2|2,1:2|0:0,0:0:0:0:
385,64,28764,2,0,P|329:60|290:77,1,92.5,10|2,0:0|0:0,0:0:0:0:
243,331,29079,6,0,B|268:273|255:232|255:232|241:184|260:138,1,185,0|10,1:2|0:0,0:0:0:0:
359,320,29553,1,2,1:2:0:0:
157,270,29711,2,0,P|108:265|56:274,1,92.5,2|2,1:2|0:0,0:0:0:0:
0,132,30027,2,0,P|45:138|91:133,1,92.5,10|2,0:0|1:2,0:0:0:0:
249,32,30342,6,0,L|242:144,1,92.5,2|2,0:0|1:2,0:0:0:0:
157,270,30658,2,0,L|156:167,1,92.5,10|2,0:0|1:2,0:0:0:0:
321,308,30974,2,0,B|376:326|438:319|438:319|404:293|370:297,1,185,2|10,1:2|0:0,0:0:0:0:
222,352,31448,1,2,0:0:0:0:
112,192,31606,6,0,B|165:175|206:199|206:199|247:220|306:201,1,185,6|10,1:2|0:0,0:0:0:0:
410,120,32079,1,0,1:2:0:0:
256,34,32237,2,0,L|258:134,1,92.5,2|0,1:2|0:0,0:0:0:0:
385,225,32553,1,8,0:0:0:0:
214,326,32711,2,0,P|227:280|266:246,1,92.5,2|0,1:2|0:0,0:0:0:0:
101,185,33027,2,0,P|171:184|204:172,1,92.5,2|8,1:2|0:0,0:0:0:0:
330,70,33342,5,2,1:2:0:0:
285,247,33500,1,2,1:2:0:0:
223,61,33658,1,2,0:0:0:0:
408,159,33816,1,10,0:0:0:0:
203,51,33974,1,2,0:0:0:0:
33,187,34132,6,0,B|84:211|133:185|133:185|171:168|226:201,1,185,2|8,1:2|0:0,0:0:0:0:
363,300,34606,1,2,1:2:0:0:
172,353,34764,2,0,P|165:295|175:251,1,92.5,2|0,1:2|0:0,0:0:0:0:
285,146,35079,1,8,0:0:0:0:
376,325,35237,6,0,L|266:321,1,92.5,4|0,1:2|0:0,0:0:0:0:
78,265,35553,2,0,L|188:261,1,92.5,8|0,0:0|1:2,0:0:0:0:
206,144,35869,1,0,3:2:0:0:
206,144,35948,1,0,0:0:0:0:
206,144,36027,1,8,3:2:0:0:
270,234,36185,1,0,3:2:0:0:
374,197,36342,2,0,P|422:186|474:197,1,92.5,0|0,3:2|0:0,0:0:0:0:
352,332,36658,6,0,L|353:136,1,166.499994918823,6|2,3:2|3:2,0:0:0:0:
261,345,37132,1,2,3:2:0:0:
261,345,37290,2,0,L|261:244,1,83.2499974594117,2|0,3:2|0:0,0:0:0:0:
84,162,37606,1,10,3:2:0:0:
170,288,37764,1,0,0:0:0:0:
245,158,37921,2,0,B|263:90|235:33|235:33|227:55|210:69,1,166.499994918823,0|0,3:2|3:2,0:0:0:0:
342,156,38395,1,2,3:2:0:0:
460,76,38553,2,0,P|440:125|440:166,1,83.2499974594117,0|0,3:2|0:0,0:0:0:0:
406,323,38869,2,0,P|402:281|384:244,1,83.2499974594117,10|0,3:2|0:0,0:0:0:0:
191,356,39185,6,0,L|300:345,1,83.2499974594117,2|0,3:2|0:0,0:0:0:0:
171,218,39500,2,0,L|280:229,1,83.2499974594117,2|0,3:2|3:2,0:0:0:0:
82,303,39816,2,0,P|53:253|61:201,1,83.2499974594117,2|0,3:2|0:0,0:0:0:0:
217,79,40132,1,10,3:2:0:0:
171,218,40290,1,0,0:0:0:0:
0,133,40448,2,0,B|43:108|83:130|83:130|129:159|175:127,1,166.499994918823,0|0,3:2|3:2,0:0:0:0:
322,111,40921,1,0,3:2:0:0:
322,111,41079,2,0,P|286:70|291:137,1,166.499994918823,2|10,3:2|3:2,0:0:0:0:
408,258,41553,1,8,3:2:0:0:
407,233,41632,1,8,3:2:0:0:
406,207,41711,6,0,P|347:230|301:232,1,92.5,6|0,1:2|0:0,0:0:0:0:
183,155,42027,2,0,P|124:132|78:130,1,92.5,8|0,0:0|0:0,0:0:0:0:
205,292,42342,1,8,0:0:0:0:
290,62,42500,1,0,1:2:0:0:
296,49,42816,6,0,P|248:86|147:92,1,138.75,6|0,1:2|0:0,0:0:0:0:
152,85,43132,1,2,1:2:0:0:
293,259,43290,2,0,P|289:212|302:156,1,92.5,10|0,0:0|0:0,0:0:0:0:
116,336,43606,1,10,0:0:0:0:
201,208,43764,1,2,1:2:0:0:
16,117,43921,2,0,L|28:222,1,92.5,10|0,0:0|1:2,0:0:0:0:
213,310,44237,5,6,1:2:0:0:
122,142,44395,1,0,0:0:0:0:
314,212,44553,1,10,0:0:0:0:
110,257,44711,1,0,1:2:0:0:
110,257,44790,1,0,1:2:0:0:
110,257,44869,2,0,P|101:306|105:355,1,92.5,10|0,0:0|1:2,0:0:0:0:
307,303,45185,2,0,P|316:254|312:205,1,92.5,2|0,3:2|3:2,0:0:0:0:
200,80,45500,2,0,L|202:191,1,92.5,10|2,3:2|0:0,0:0:0:0:
348,355,46764,6,0,P|353:293|351:238,1,110.999996612549,14|0,0:0|0:0,0:0:0:0:
161,382,47079,2,0,P|156:320|158:265,1,110.999996612549,8|2,0:0|1:2,0:0:0:0:
308,109,47395,1,10,0:0:0:0:
239,239,47553,1,0,1:2:0:0:
63,133,47711,2,0,P|121:115|177:122,1,110.999996612549,8|0,0:0|1:2,0:0:0:0:
255,258,48027,2,0,B|198:230|147:252|147:252|94:271|27:252,1,221.999993225098,8|10,0:0|0:0,0:0:0:0:
197,339,48500,5,0,0:0:0:0:
345,200,48658,2,0,P|357:269|345:312,1,110.999996612549,10|2,0:0|1:2,0:0:0:0:
474,141,48974,2,0,P|462:210|474:253,1,110.999996612549,10|0,0:0|1:2,0:0:0:0:
222,146,49290,6,0,P|258:92|430:75,1,221.999993225098,6|8,1:2|0:0,0:0:0:0:
276,242,49764,1,2,0:0:0:0:
138,101,49921,2,0,P|76:73|8:77,1,110.999996612549,10|0,0:0|1:2,0:0:0:0:
106,334,50237,2,0,P|172:320|225:277,1,110.999996612549,10|0,0:0|1:2,0:0:0:0:
2,152,50553,1,10,0:0:0:0:
22,283,50711,1,0,0:0:0:0:
138,101,50869,1,8,0:0:0:0:
132,248,51027,1,0,0:0:0:0:
45,71,51185,5,10,0:0:0:0:
200,186,51342,1,0,1:2:0:0:
22,283,51500,1,10,0:0:0:0:
80,175,51658,1,0,1:2:0:0:
179,344,51816,6,0,B|240:327|285:348|285:348|336:375|410:348,1,221.999993225098,14|8,0:0|0:0,0:0:0:0:
482,250,52290,1,2,0:0:0:0:
335,160,52448,2,0,L|341:284,1,110.999996612549,10|0,0:0|1:2,0:0:0:0:
469,68,52764,1,10,0:0:0:0:
431,172,52921,1,0,1:2:0:0:
192,73,53079,5,10,0:0:0:0:
335,65,53237,1,0,0:0:0:0:
186,189,53395,5,8,0:0:0:0:
69,60,53553,1,2,0:0:0:0:
26,252,53711,2,0,P|75:288|137:297,1,110.999996612549,10|0,0:0|1:2,0:0:0:0:
394,194,54027,2,0,P|339:177|264:183,1,110.999996612549,10|0,0:0|1:2,0:0:0:0:
248,335,54342,2,0,B|322:361|372:341|372:341|432:317|509:360,1,221.999993225098,6|10,1:2|0:0,0:0:0:0:
307,247,54816,1,2,1:2:0:0:
163,384,54974,2,0,P|151:320|168:265,1,110.999996612549,10|2,0:0|1:2,0:0:0:0:
313,79,55290,1,10,0:0:0:0:
127,188,55448,6,0,L|-19:181,1,110.999996612549,6|0,1:2|0:0,0:0:0:0:
200,85,55764,1,2,1:2:0:0:
316,293,55921,1,10,0:0:0:0:
440,106,56079,1,2,1:2:0:0:
200,267,56237,1,10,0:0:0:0:
433,318,56395,1,2,1:2:0:0:
360,51,56553,1,10,0:0:0:0:
303,376,56711,1,0,1:2:0:0:
497,208,56869,6,0,B|439:186|379:206|379:206|328:228|258:196,1,221.999993225098,6|8,1:2|0:0,0:0:0:0:
135,93,57342,1,2,0:0:0:0:
346,24,57500,2,0,L|338:145,1,110.999996612549,10|0,0:0|1:2,0:0:0:0:
127,222,57816,2,0,L|134:111,1,110.999996612549,8|0,0:0|1:2,0:0:0:0:
327,286,58132,2,0,P|275:327|113:340,1,221.999993225098,8|10,0:0|0:0,0:0:0:0:
28,211,58606,1,2,0:0:0:0:
237,91,58764,2,0,L|229:212,1,110.999996612549,10|2,0:0|1:2,0:0:0:0:
130,336,59079,1,10,0:0:0:0:
55,109,59237,1,0,1:2:0:0:
183,271,59395,2,0,P|246:282|303:265,1,110.999996612549,6|0,1:2|0:0,0:0:0:0:
422,111,59711,5,8,0:0:0:0:
377,347,59869,1,2,0:0:0:0:
251,66,60027,1,10,0:0:0:0:
265,335,60185,1,0,1:2:0:0:
452,207,60342,1,10,0:0:0:0:
141,163,60500,1,0,1:2:0:0:
363,23,60658,6,0,B|371:84|371:84|357:142,1,110.999996612549,10|0,0:0|0:0,0:0:0:0:
210,247,60974,1,0,0:0:0:0:
210,247,61132,2,0,P|133:267|90:258,1,110.999996612549,2|10,0:0|0:0,0:0:0:0:
22,92,61448,1,0,1:2:0:0:
22,92,61606,2,0,P|90:86|132:99,1,110.999996612549,0|2,1:2|1:2,0:0:0:0:
236,298,61921,6,0,B|211:247|211:247|231:112,1,166.499994918823,6|0,1:2|0:0,0:0:0:0:
364,217,62395,1,0,1:2:0:0:
222,326,62553,2,0,P|150:338|112:328,1,83.2499974594117,10|0,0:0|0:0,0:0:0:0:
6,194,62869,2,0,P|58:204|91:202,1,83.2499974594117,2|0,0:0|0:0,0:0:0:0:
234,110,63185,1,10,3:2:0:0:
157,260,63342,1,8,0:0:0:0:
58,114,63500,2,0,L|60:20,1,83.2499974594117,0|2,0:0|1:2,0:0:0:0:
323,166,63816,5,10,0:0:0:0:
147,171,63974,1,0,1:2:0:0:
368,74,64132,1,8,0:0:0:0:
101,78,64290,1,2,1:2:0:0:
326,258,64448,6,0,L|321:141,1,92.5,6|2,1:2|0:0,0:0:0:0:
190,307,64764,1,6,1:2:0:0:
227,92,64921,1,2,0:0:0:0:
296,333,65079,1,4,1:2:0:0:
147,171,65237,1,2,1:2:0:0:
96,369,65395,1,12,0:0:0:0:
250,231,65553,1,2,0:0:0:0:
15,192,65711,5,2,3:2:0:0:
306,137,65869,1,0,3:2:0:0:
82,273,66027,1,2,3:2:0:0:
49,17,66185,1,0,3:2:0:0:
234,219,66342,2,0,L|231:268,3,46.25,10|8|8|8,3:2|3:2|3:2|3:2,0:0:0:0:
210,293,66658,2,0,L|220:172,1,92.5,14|0,3:2|0:0,0:0:0:0:
384,72,66974,6,0,P|405:133|387:190,1,110.999996612549,6|0,1:2|1:2,0:0:0:0:
158,38,67290,2,0,P|137:99|155:156,1,110.999996612549,8|2,0:0|0:0,0:0:0:0:
332,265,67606,1,10,0:0:0:0:
268,131,67764,1,0,1:2:0:0:
131,281,67921,2,0,L|246:270,1,110.999996612549,8|0,0:0|1:2,0:0:0:0:
502,355,68237,2,0,B|433:329|381:348|381:348|329:366|270:348,1,221.999993225098,8|10,0:0|0:0,0:0:0:0:
131,281,68711,1,0,0:0:0:0:
206,134,68869,2,0,P|228:198|221:248,1,110.999996612549,10|2,0:0|1:2,0:0:0:0:
64,79,69185,2,0,P|42:143|49:193,1,110.999996612549,10|0,0:0|1:2,0:0:0:0:
370,215,69500,6,0,B|301:183|253:212|253:212|205:239|141:207,1,221.999993225098,6|8,1:2|0:0,0:0:0:0:
272,90,69974,1,2,0:0:0:0:
306,274,70132,2,0,L|300:389,1,110.999996612549,10|0,0:0|1:2,0:0:0:0:
467,281,70448,2,0,L|461:170,1,110.999996612549,10|0,0:0|1:2,0:0:0:0:
211,308,70764,1,10,0:0:0:0:
398,335,70921,1,0,0:0:0:0:
190,217,71079,1,8,0:0:0:0:
370,171,71237,1,0,0:0:0:0:
210,335,71395,5,10,0:0:0:0:
272,90,71553,1,0,1:2:0:0:
382,327,71711,1,10,0:0:0:0:
114,188,71869,1,0,0:0:0:0:
396,62,72027,6,0,L|383:296,1,221.999993225098,6|8,1:2|0:0,0:0:0:0:
206,175,72500,1,2,0:0:0:0:
315,29,72658,2,0,L|307:162,1,110.999996612549,10|0,0:0|1:2,0:0:0:0:
109,257,72974,2,0,L|102:146,1,110.999996612549,10|0,0:0|1:2,0:0:0:0:
246,305,73290,2,0,P|304:341|458:322,1,221.999993225098,10|8,0:0|0:0,0:0:0:0:
244,183,73764,1,2,0:0:0:0:
158,338,73921,2,0,P|108:361|45:361,1,110.999996612549,10|0,0:0|1:2,0:0:0:0:
6,100,74237,2,0,P|63:112|108:155,1,110.999996612549,10|0,0:0|1:2,0:0:0:0:
246,305,74553,6,0,B|229:238|229:238|257:66,1,221.999993225098,6|10,1:2|0:0,0:0:0:0:
383,220,75027,1,2,1:2:0:0:
106,273,75185,1,10,0:0:0:0:
351,342,75342,1,2,1:2:0:0:
142,186,75500,1,10,0:0:0:0:
402,255,75658,2,0,L|397:130,1,110.999996612549,6|0,1:2|0:0,0:0:0:0:
210,317,75974,5,2,1:2:0:0:
293,146,76132,1,14,0:0:0:0:
115,35,76290,1,2,1:2:0:0:
294,253,76448,1,10,0:0:0:0:
269,21,76606,1,2,1:2:0:0:
57,232,76764,1,2,1:2:0:0:
318,142,76921,1,0,1:2:0:0:
123,53,77079,6,0,B|125:137|125:137|144:188|144:188|144:285,1,221.999993225098,6|8,1:2|0:0,0:0:0:0:
285,222,77553,1,2,0:0:0:0:
231,35,77711,2,0,P|213:95|224:160,1,110.999996612549,10|0,0:0|1:2,0:0:0:0:
400,215,78027,2,0,P|418:155|407:90,1,110.999996612549,8|0,0:0|1:2,0:0:0:0:
123,292,78342,6,0,B|190:273|234:299|234:299|275:326|342:303,1,221.999993225098,8|10,0:0|0:0,0:0:0:0:
223,143,78816,1,0,0:0:0:0:
165,372,78974,1,10,0:0:0:0:
39,108,79132,1,0,1:2:0:0:
63,361,79290,1,10,0:0:0:0:
147,70,79448,1,0,1:2:0:0:
281,362,79606,6,0,B|212:351|212:351|156:368|156:368|27:358,1,221.999993225098,6|8,1:2|0:0,0:0:0:0:
189,259,80079,1,2,0:0:0:0:
72,57,80237,2,0,P|54:114|64:170,1,110.999996612549,10|0,0:0|1:2,0:0:0:0:
285,262,80553,1,10,0:0:0:0:
242,155,80711,1,0,1:2:0:0:
78,259,80869,2,0,L|210:258,1,110.999996612549,10|2,0:0|0:0,0:0:0:0:
342,136,81185,1,10,0:0:0:0:
342,136,81342,2,0,P|355:72|341:28,1,110.999996612549,2|10,0:0|0:0,0:0:0:0:
77,152,81658,1,0,3:2:0:0:
77,152,81816,2,0,P|64:216|78:260,1,110.999996612549,0|2,3:2|0:0,0:0:0:0:
218,354,82132,6,0,B|170:331|129:349|129:349|98:364|35:347,1,166.499994918823,6|0,1:2|0:0,0:0:0:0:
222,256,82606,1,0,1:2:0:0:
331,357,82764,2,0,L|328:254,1,83.2499974594117,10|0,0:0|0:0,0:0:0:0:
128,186,83079,2,0,L|130:269,1,83.2499974594117,2|0,0:0|0:0,0:0:0:0:
290,152,83395,1,2,1:2:0:0:
161,58,83553,2,0,P|114:48|61:54,1,83.2499974594117,8|0,1:2|0:0,0:0:0:0:
226,217,83869,1,2,1:2:0:0:
384,101,84027,2,0,L|378:192,1,83.2499974594117,10|0,0:0|1:2,0:0:0:0:
231,300,84342,2,0,L|225:216,1,83.2499974594117,10|2,0:0|0:0,0:0:0:0:
500,274,84658,6,0,B|428:266|428:266|397:276|397:276|313:271,1,166.499994918823,6|10,1:2|0:0,0:0:0:0:
239,132,85132,1,2,0:0:0:0:
114,279,85290,2,0,L|118:350,3,55.4999983062745,0|0|0|0,3:2|3:2|3:2|3:2,0:0:0:0:
143,191,85711,2,0,P|150:134|143:113,1,55.4999983062745,0|0,3:2|3:2,0:0:0:0:
301,34,85921,6,0,L|295:212,1,166.499994918823,6|0,3:2|0:0,0:0:0:0:
512,270,86553,2,0,P|491:228|368:208,1,166.499994918823,2|0,3:2|0:0,0:0:0:0:
206,307,87185,6,0,B|258:333|258:333|391:312,1,166.499994918823,4|8,1:2|0:0,0:0:0:0:
201,182,87658,1,0,1:2:0:0:
104,322,87816,1,0,1:2:0:0:
32,162,87974,2,0,L|42:65,1,83.2499974594117,0|8,0:0|0:0,0:0:0:0:
246,252,88290,6,0,P|195:264|151:251,1,83.2499974594117,0|0,1:2|0:0,0:0:0:0:
258,111,88606,2,0,P|207:99|163:112,1,83.2499974594117,0|8,1:2|0:0,0:0:0:0:
352,226,88921,1,0,1:2:0:0:
392,86,89079,2,0,P|410:39|439:10,1,83.2499974594117,0|0,1:2|0:0,0:0:0:0:
512,205,89395,2,0,P|460:201|416:183,1,83.2499974594117,8|0,0:0|0:0,0:0:0:0:
228,266,89711,6,0,B|280:247|319:272|319:272|357:290|409:266,1,166.499994918823,0|8,1:2|0:0,0:0:0:0:
118,181,90185,1,0,1:2:0:0:
176,337,90342,1,0,1:2:0:0:
274,183,90500,2,0,L|270:91,1,83.2499974594117,0|8,0:0|0:0,0:0:0:0:
55,254,90816,6,0,P|32:206|41:156,1,83.2499974594117,0|0,1:2|0:0,0:0:0:0:
167,321,91132,2,0,P|190:273|181:223,1,83.2499974594117,0|8,1:2|0:0,0:0:0:0:
308,324,91448,1,0,1:2:0:0:
401,148,91606,2,0,L|394:240,1,90.1874958715441,0|0,1:2|0:0,0:0:0:0:
394,237,91921,2,0,P|335:209|217:236,1,166.499994918823,8|0,0:0|0:0,0:0:0:0:
199,293,92237,6,0,B|220:240|220:240|210:105,1,185,4|8,1:2|0:0,0:0:0:0:
23,66,92711,1,0,1:2:0:0:
97,177,92869,1,0,1:2:0:0:
20,268,93027,2,0,P|10:320|18:361,1,92.5,0|8,0:0|0:0,0:0:0:0:
289,295,93342,6,0,P|241:285|187:297,1,92.5,0|0,1:2|0:0,0:0:0:0:
316,167,93658,2,0,P|268:177|214:165,1,92.5,0|8,1:2|0:0,0:0:0:0:
419,237,93974,1,0,1:2:0:0:
480,62,94132,2,0,P|465:108|472:154,1,92.5,0|0,1:2|0:0,0:0:0:0:
325,255,94448,2,0,P|330:209|315:166,1,92.5,8|0,0:0|0:0,0:0:0:0:
74,44,94764,6,0,B|118:73|168:57|168:57|212:42|257:56,2,185,4|8|0,1:2|0:0|1:2,0:0:0:0:
225,246,95553,1,0,1:2:0:0:
204,131,95711,1,8,0:0:0:0:
106,278,95869,5,0,1:2:0:0:
326,245,96027,1,0,0:0:0:0:
97,126,96185,1,0,1:2:0:0:
347,151,96342,1,0,0:0:0:0:
173,354,96500,5,0,1:2:0:0:
244,61,96658,1,8,0:0:0:0:
310,340,96816,1,0,1:2:0:0:
112,53,96974,1,8,0:0:0:0:
39,366,97132,1,0,0:0:0:0:
317,259,97290,6,0,B|333:187|307:134|307:134|277:77|277:76|312:-4|312:-4|344:41|344:41|331:120,1,388.499988143921,4|0,1:2|0:0,0:0:0:0:
232,226,98395,1,8,0:0:0:0:
214,234,98474,1,8,0:0:0:0:
193,238,98553,2,0,P|139:212|214:209,1,185,0|0,1:2|0:0,0:0:0:0:
